osu file format v14

[General]
AudioFilename: audio.mp3
AudioLeadIn: 0
PreviewTime: 192457
Countdown: 0
SampleSet: Soft
StackLeniency: 0.4
Mode: 0
LetterboxInBreaks: 0
WidescreenStoryboard: 1

[Editor]
Bookmarks: 21483,45889,62161,78432,86567,102839,127245,143517,159788,167923,184195,194364,210635,226906,235042
DistanceSpacing: 1.4
BeatDivisor: 8
GridSize: 16
TimelineZoom: 1.8

[Metadata]
Title:Koikaze ni Nosete
TitleUnicode:恋風邪にのせて
Artist:Vaundy
ArtistUnicode:Vaundy
Creator:Nakazawa
Version:Hard
Source:彼とオオカミちゃんには騙されない
Tags:Kare to Ookami-chan ni wa Damasarenai who is the wolf? japanese j-pop pop rock j-rock jrock jpop male vocalist theme song soncak
BeatmapID:4372597
BeatmapSetID:2083279

[Difficulty]
HPDrainRate:5
CircleSize:4
OverallDifficulty:6
ApproachRate:8
SliderMultiplier:1.6
SliderTickRate:1

[Events]
//Background and Video events
0,0,"KoikazeninoseteBG.jpg",0,0
//Break Periods
//Storyboard Layer 0 (Background)
//Storyboard Layer 1 (Fail)
//Storyboard Layer 2 (Pass)
//Storyboard Layer 3 (Foreground)
//Storyboard Layer 4 (Overlay)
//Storyboard Sound Samples

[TimingPoints]
128,508.474576271186,4,2,1,70,1,0
4450,-125,4,2,1,70,0,0
4831,-125,4,2,2,70,0,0
4958,-125,4,2,1,70,0,0
5212,508.474576271186,4,2,1,60,1,0
5212,-100,4,2,1,60,0,0
21483,-125,4,2,2,50,0,0
29364,-125,4,2,1,45,0,0
29618,-125,4,2,2,50,0,0
37500,-125,4,2,1,45,0,0
37754,-111.111111111111,4,2,2,60,0,0
39788,-111.111111111111,4,2,1,60,0,0
40296,-111.111111111111,4,2,2,60,0,0
41822,-125,4,2,2,50,0,0
44110,-111.111111111111,4,2,2,70,0,0
44873,-100,4,2,2,70,0,0
45127,-100,4,2,1,75,0,0
45889,-83.3333333333333,4,2,1,80,0,0
58856,-83.3333333333333,4,2,2,80,0,0
58983,-83.3333333333333,4,2,1,80,0,0
75127,-83.3333333333333,4,2,2,80,0,0
75254,-83.3333333333333,4,2,1,80,0,0
78432,-100,4,2,2,60,0,0
80466,-100,4,2,1,60,0,0
80593,-100,4,2,2,60,0,0
82500,-125,4,2,2,60,0,0
85550,-125,4,2,1,60,0,0
86567,-100,4,2,1,60,0,0
102839,-125,4,2,2,50,0,0
110720,-125,4,2,1,45,0,0
110974,-125,4,2,2,50,0,0
118856,-125,4,2,1,45,0,0
119110,-100,4,2,2,60,0,0
121144,-100,4,2,1,60,0,0
121652,-100,4,2,2,60,0,0
123178,-125,4,2,2,50,0,0
125466,-111.111111111111,4,2,2,70,0,0
126229,-100,4,2,2,70,0,0
126483,-100,4,2,1,75,0,0
127245,-83.3333333333333,4,2,1,80,0,0
140211,-83.3333333333333,4,2,2,80,0,0
140338,-83.3333333333333,4,2,1,80,0,0
156483,-83.3333333333333,4,2,2,80,0,0
156610,-83.3333333333333,4,2,1,80,0,0
159788,-100,4,2,2,60,0,0
161822,-100,4,2,1,60,0,0
161949,-100,4,2,2,60,0,0
163856,-125,4,2,2,60,0,0
166906,-125,4,2,1,60,0,0
167923,-100,4,2,1,70,0,0
177076,-100,4,2,2,70,0,0
177203,-100,4,2,1,70,0,0
184195,-100,4,2,2,60,0,0
188262,-111.111111111111,4,2,2,60,0,0
191313,-111.111111111111,4,2,1,60,0,0
192330,-125,4,2,1,60,0,0
194364,-83.3333333333333,4,2,1,80,0,0
207330,-83.3333333333333,4,2,2,80,0,0
207457,-83.3333333333333,4,2,1,80,0,0
223602,-83.3333333333333,4,2,2,80,0,0
223729,-83.3333333333333,4,2,1,80,0,0
226906,-100,4,2,2,60,0,0
228940,-100,4,2,1,60,0,0
229067,-100,4,2,2,60,0,0
230974,-125,4,2,2,60,0,0
234025,-125,4,2,1,60,0,0
235042,-100,4,2,1,60,0,0

[Colours]
Combo1 : 213,166,55
Combo2 : 187,38,38
Combo3 : 222,190,158
Combo4 : 63,145,38

[HitObjects]
256,192,128,12,0,4195,3:2:0:0:
254,199,4450,5,8,2:0:0:0:
175,133,4704,1,8,2:0:0:0:
175,133,4831,1,8,2:0:0:0:
175,133,4958,1,8,2:0:0:0:
175,133,5085,1,8,2:0:0:0:
175,133,5212,6,0,P|189:91|186:40,2,80,6|2|10,3:2|2:0|2:0,0:0:0:0:
92,230,5974,2,0,P|60:218|3:212,1,80,2|0,3:2|3:2,0:0:0:0:
88,317,6483,2,0,P|56:329|-1:335,1,80,2|8,2:0|2:0,0:0:0:0:
92,230,6991,2,0,P|98:176|94:136,1,80,2|0,2:0|3:2,0:0:0:0:
189,238,7500,2,0,P|183:292|187:332,1,80,2|8,2:0|2:0,0:0:0:0:
297,377,8008,6,0,P|345:344|458:341,1,160,2|2,2:0|2:0,0:0:0:0:
507,224,8771,1,10,2:0:0:0:
397,198,9025,1,2,2:0:0:0:
457,106,9279,6,0,P|449:57|447:10,2,80,2|2|10,3:2|2:0|2:0,0:0:0:0:
345,168,10042,2,0,P|389:184|439:190,1,80,2|0,3:2|3:2,0:0:0:0:
364,303,10550,2,0,P|401:288|440:281,1,80,2|8,2:0|2:0,0:0:0:0:
318,242,11059,2,0,P|312:198|308:158,1,80,2|0,2:0|3:2,0:0:0:0:
250,276,11567,2,0,P|256:320|260:360,1,80,2|8,2:0|2:0,0:0:0:0:
132,374,12076,6,0,P|56:350|43:263,1,160,2|2,2:0|2:0,0:0:0:0:
142,237,12839,1,10,2:0:0:0:
77,145,13093,1,2,2:0:0:0:
212,97,13347,6,0,P|225:57|228:0,2,80,6|2|10,3:2|2:0|2:0,0:0:0:0:
125,25,14110,2,0,P|82:25|41:13,1,80,2|0,3:2|3:2,0:0:0:0:
77,125,14618,2,0,P|37:124|-1:135,1,80,2|8,2:0|2:0,0:0:0:0:
99,215,15127,2,0,P|99:175|88:136,1,80,2|0,2:0|3:2,0:0:0:0:
193,210,15635,2,0,P|182:248|182:288,1,80,2|8,2:0|2:0,0:0:0:0:
269,382,16144,6,0,P|310:345|304:236,1,160,2|2,2:0|2:0,0:0:0:0:
253,133,16906,1,10,2:0:0:0:
253,133,17161,1,2,2:0:0:0:
354,55,17415,6,0,P|309:35|274:6,2,80,2|2|10,3:2|2:0|2:0,0:0:0:0:
478,86,18178,2,0,P|487:41|497:3,1,80,2|0,3:2|3:2,0:0:0:0:
387,77,18686,2,0,P|378:32|368:-6,1,80,2|8,2:0|2:0,0:0:0:0:
310,112,19195,2,0,P|265:121|227:131,1,80,2|0,2:0|3:2,0:0:0:0:
147,225,19703,2,0,P|185:234|225:242,1,80,2|8,2:0|2:0,0:0:0:0:
342,193,20211,6,0,P|312:242|311:350,1,160,2|2,2:0|2:0,0:0:0:0:
328,365,20847,1,0,3:2:0:0:
328,365,20974,1,10,2:0:0:0:
421,331,21228,1,2,2:0:0:0:
511,375,21483,6,0,P|506:296|502:224,1,128,4|10,3:2|2:0,0:0:0:0:
492,145,22245,1,2,2:0:0:0:
492,145,22500,2,0,P|442:142|409:68,1,128,2|10,2:0|2:0,0:0:0:0:
489,17,23262,1,2,2:0:0:0:
407,78,23517,2,0,P|359:53|269:40,1,128,2|10,3:2|2:0,0:0:0:0:
189,7,24279,1,2,2:0:0:0:
225,103,24534,1,2,2:0:0:0:
225,103,24788,1,2,3:2:0:0:
141,162,25042,2,0,P|87:146|36:151,1,96,10|0,2:0|0:0,0:0:0:0:
19,159,25550,2,0,P|39:202|22:301,1,128,2|8,3:2|2:0,0:0:0:0:
3,379,26313,6,0,P|42:357|80:350,2,64,2|2|2,2:0|2:0|3:2,0:0:0:0:
32,280,27076,2,0,P|41:218|19:159,1,128,10|2,2:0|3:2,0:0:0:0:
88,83,27839,1,2,2:0:0:0:
11,15,28093,2,0,P|63:58|148:63,1,128,10|2,2:0|2:0,0:0:0:0:
201,3,28856,1,0,3:2:0:0:
201,3,29110,2,0,P|205:49|206:94,1,64,10|4,2:0|3:2,0:0:0:0:
267,148,29618,6,0,B|336:155|315:193|402:201,1,128,6|8,3:2|2:0,0:0:0:0:
480,167,30381,2,0,P|512:117|488:48,1,128,2|0,2:0|3:2,0:0:0:0:
404,4,31144,1,10,2:0:0:0:
404,4,31398,2,0,P|368:48|289:50,1,128,2|0,2:0|0:0,0:0:0:0:
210,6,32161,1,8,2:0:0:0:
145,85,32415,6,0,P|155:126|157:156,2,64,2|2|2,2:0|2:0|3:2,0:0:0:0:
47,53,33178,1,8,2:0:0:0:
145,85,33432,1,2,2:0:0:0:
145,85,33686,2,0,P|207:89|289:98,1,128,2|10,3:2|2:0,0:0:0:0:
424,118,34576,1,2,2:0:0:0:
461,82,34703,2,0,P|473:51|470:9,1,64,2|2,2:0|3:2,0:0:0:0:
375,53,35211,2,0,P|347:95|355:158,1,96,10|2,2:0|2:0,0:0:0:0:
357,169,35720,6,0,P|402:156|434:155,2,64,2|2|10,3:2|2:0|2:0,0:0:0:0:
278,235,36483,1,2,2:0:0:0:
187,186,36737,2,0,P|118:177|54:174,1,128,2|10,2:0|2:0,0:0:0:0:
0,384,37754,6,0,P|33:353|43:253,1,143.999995605469,6|8,3:2|2:0,0:0:0:0:
45,143,38517,2,0,P|12:112|2:12,1,143.999995605469,2|0,2:0|3:2,0:0:0:0:
114,12,39279,2,0,P|131:53|118:97,1,71.9999978027344,10|2,2:0|2:0,0:0:0:0:
38,152,39788,6,0,P|108:164|201:174,1,143.999995605469,6|8,3:2|2:0,0:0:0:0:
284,221,40550,2,0,P|354:208|426:200,1,143.999995605469,2|0,2:0|3:2,0:0:0:0:
508,281,41313,2,0,P|488:324|485:359,1,71.9999978027344,10|2,2:0|2:0,0:0:0:0:
388,383,41822,2,0,B|389:295|263:234|198:303|198:303|240:313|275:291,1,320,6|0,3:2|3:2,0:0:0:0:
403,247,43474,1,0,0:0:0:0:
391,232,43601,2,0,P|381:195|383:155,1,64,0|0,3:2|3:2,0:0:0:0:
418,15,44110,6,0,P|424:52|388:98,1,71.9999978027344,0|8,3:2|2:0,0:0:0:0:
294,0,44618,2,0,P|279:32|286:67,1,71.9999978027344,10|2,2:3|3:2,0:0:0:0:
302,87,45000,1,8,2:3:0:0:
302,87,45127,1,10,2:0:0:0:
203,139,45381,1,10,2:0:0:0:
203,139,45508,1,8,2:0:0:0:
203,139,45635,2,0,L|151:145,1,40,2|10,2:0|2:0,0:0:0:0:
103,96,45889,6,0,P|62:82|1:78,1,95.9999970703126,6|2,3:2|2:0,0:0:0:0:
7,231,46398,2,0,P|54:227|100:212,1,95.9999970703126,10|0,2:0|0:0,0:0:0:0:
234,286,46906,2,0,P|237:333|252:379,1,95.9999970703126,0|0,3:2|0:0,0:0:0:0:
328,364,47288,1,0,3:2:0:0:
328,364,47415,2,0,P|390:355|433:354,1,95.9999970703126,8|0,2:0|0:0,0:0:0:0:
511,228,47923,2,0,P|464:241|395:165,1,143.999995605469,0|0,3:2|0:0,0:0:0:0:
406,159,48432,1,8,2:0:0:0:
472,20,48686,6,0,P|510:57|504:113,1,95.9999970703126,2|0,2:0|3:2,0:0:0:0:
357,81,49195,1,2,2:0:0:0:
357,81,49322,1,0,3:2:0:0:
357,81,49449,2,0,P|306:92|251:101,1,95.9999970703126,10|2,2:0|2:0,0:0:0:0:
134,15,49957,5,2,3:2:0:0:
262,99,50211,1,2,2:0:0:0:
134,15,50466,2,0,P|82:31|33:33,1,95.9999970703126,10|2,2:0|2:0,0:0:0:0:
1,181,50974,2,0,P|37:133|129:129,1,143.999995605469,2|0,3:2|3:2,0:0:0:0:
133,139,51483,2,0,P|114:182|109:247,1,95.9999970703126,10|2,2:0|2:0,0:0:0:0:
46,370,51991,6,0,P|8:345|45:252,1,143.999995605469,2|0,3:2|0:0,0:0:0:0:
56,254,52500,2,0,P|95:270|158:276,1,95.9999970703126,8|2,2:0|2:0,0:0:0:0:
278,195,53008,1,2,3:2:0:0:
278,195,53135,1,8,2:0:0:0:
278,195,53262,1,10,2:0:0:0:
320,343,53517,1,10,2:0:0:0:
168,367,53771,1,10,2:0:0:0:
192,215,54025,6,0,P|173:152|167:105,1,95.9999970703126,6|2,3:2|2:0,0:0:0:0:
219,58,54406,1,0,3:2:0:0:
219,58,54534,2,0,P|264:73|311:81,1,95.9999970703126,10|0,2:0|0:0,0:0:0:0:
440,0,55042,2,0,P|476:47|456:135,1,143.999995605469,0|0,3:2|3:2,0:0:0:0:
431,134,55550,2,0,P|424:185|420:249,1,95.9999970703126,8|0,2:0|0:0,0:0:0:0:
496,363,56059,5,0,3:2:0:0:
367,279,56313,1,0,0:0:0:0:
367,279,56440,1,0,0:0:0:0:
367,279,56567,1,8,2:0:0:0:
229,348,56822,5,2,2:0:0:0:
229,348,57076,2,0,P|161:366|121:370,1,95.9999970703126,0|2,3:2|3:2,0:0:0:0:
13,276,57584,1,10,2:0:0:0:
135,369,57839,1,2,3:2:0:0:
13,276,58093,6,0,P|32:205|35:119,1,143.999995605469,6|2,3:2|3:2,0:0:0:0:
107,106,58601,2,0,P|112:163|125:212,1,95.9999970703126,8|6,2:0|3:2,0:0:0:0:
242,295,59110,1,2,3:2:0:0:
275,145,59364,1,0,3:2:0:0:
242,295,59618,2,0,P|289:298|336:309,1,95.9999970703126,8|6,2:0|3:2,0:0:0:0:
466,384,60127,2,0,P|510:352|510:308,1,95.9999970703126,2|8,2:0|2:3,0:0:0:0:
450,276,60508,1,12,2:3:0:0:
450,276,60635,2,0,P|458:213|468:174,1,95.9999970703126,10|0,2:0|0:0,0:0:0:0:
507,28,61144,6,0,P|447:29|410:103,1,143.999995605469,10|0,3:2|0:0,0:0:0:0:
448,174,61652,1,10,2:0:0:0:
448,174,61779,1,8,2:0:0:0:
448,174,61906,2,0,L|451:235,1,47.9999985351563,10|8,2:0|2:0,0:0:0:0:
383,260,62161,6,0,P|339:243|269:236,1,95.9999970703126,6|2,3:2|2:0,0:0:0:0:
258,384,62669,2,0,P|305:376|350:359,1,95.9999970703126,10|0,2:0|0:0,0:0:0:0:
469,262,63178,2,0,P|459:208|458:159,1,95.9999970703126,0|0,3:2|0:0,0:0:0:0:
389,142,63559,1,0,3:2:0:0:
389,142,63686,2,0,P|335:152|286:153,1,95.9999970703126,8|0,2:0|0:0,0:0:0:0:
174,250,64195,2,0,B|89:267|129:302|37:315,1,143.999995605469,0|0,3:2|0:0,0:0:0:0:
24,303,64703,1,8,2:0:0:0:
54,152,64957,6,0,P|28:107|28:61,1,95.9999970703126,2|0,2:0|3:2,0:0:0:0:
168,1,65466,1,2,2:0:0:0:
168,1,65593,1,0,3:2:0:0:
168,1,65720,2,0,P|223:15|273:17,1,95.9999970703126,10|2,2:0|2:0,0:0:0:0:
402,79,66228,5,2,3:2:0:0:
262,17,66483,1,2,2:0:0:0:
402,79,66737,2,0,P|412:136|416:193,1,95.9999970703126,10|2,2:0|2:0,0:0:0:0:
494,301,67245,2,0,P|497:232|513:150,1,143.999995605469,2|0,3:2|3:2,0:0:0:0:
492,129,67754,2,0,P|460:165|396:168,1,95.9999970703126,10|2,2:0|2:0,0:0:0:0:
266,212,68262,6,0,P|227:269|243:343,1,143.999995605469,2|0,3:2|0:0,0:0:0:0:
273,336,68771,2,0,P|323:312|372:303,1,95.9999970703126,8|2,2:0|2:0,0:0:0:0:
496,379,69279,1,2,3:2:0:0:
467,236,69534,1,10,2:0:0:0:
467,236,69661,1,0,3:2:0:0:
467,236,69788,2,0,P|443:286|434:335,1,95.9999970703126,10|10,2:0|2:0,0:0:0:0:
288,367,70296,6,0,P|226:358|173:356,1,95.9999970703126,6|2,3:2|2:0,0:0:0:0:
144,296,70678,1,0,3:2:0:0:
144,296,70805,2,0,P|153:234|155:181,1,95.9999970703126,10|0,2:0|0:0,0:0:0:0:
51,87,71313,1,0,3:2:0:0:
10,240,71567,1,0,0:0:0:0:
10,240,71695,1,0,3:2:0:0:
10,240,71822,1,8,2:0:0:0:
154,200,72076,2,0,P|201:184|363:170,1,191.999994140625
369,182,72711,1,0,0:0:0:0:
369,182,72839,1,8,2:0:0:0:
501,259,73093,6,0,P|464:233|458:165,1,95.9999970703126,2|0,2:0|3:2,0:0:0:0:
504,41,73601,1,2,3:2:0:0:
360,96,73856,1,10,2:0:0:0:
233,9,74110,1,2,3:2:0:0:
143,133,74364,6,0,P|130:83|62:-10,1,143.999995605469,6|2,3:2|3:2,0:0:0:0:
23,58,74873,2,0,P|42:106|76:150,1,95.9999970703126,8|6,2:0|3:2,0:0:0:0:
182,237,75381,1,2,3:2:0:0:
262,106,75635,1,0,3:2:0:0:
336,240,75890,2,0,P|317:288|283:332,1,95.9999970703126,8|6,2:0|3:2,0:0:0:0:
146,375,76398,6,0,P|97:365|38:357,1,95.9999970703126,2|8,2:0|2:3,0:0:0:0:
14,283,76779,1,12,2:3:0:0:
14,283,76906,2,0,P|62:260|59:194,1,95.9999970703126,10|8,2:0|2:3,0:0:0:0:
25,159,77288,1,8,2:3:0:0:
25,159,77415,2,0,P|31:85|15:16,1,143.999995605469,10|0,3:2|3:2,0:0:0:0:
59,0,77923,5,10,2:0:0:0:
96,31,78050,1,8,2:0:0:0:
143,45,78178,1,8,2:0:0:0:
192,46,78305,1,8,2:0:0:0:
236,27,78432,6,0,B|317:42|294:82|385:94,1,160,6|8,3:2|2:0,0:0:0:0:
485,0,79195,2,0,P|474:57|469:172,1,160,2|0,2:0|3:2,0:0:0:0:
356,245,79957,2,0,P|347:195|324:156,1,80,10|0,2:0|0:0,0:0:0:0:
431,291,80466,6,0,P|479:246|454:144,1,160,6|8,3:2|2:0,0:0:0:0:
412,47,81228,2,0,P|349:27|273:100,1,160,2|0,2:0|3:2,0:0:0:0:
337,194,81991,1,10,2:0:0:0:
282,309,82245,5,2,2:0:0:0:
282,309,82373,1,0,3:2:0:0:
282,309,82500,2,0,B|168:302|211:390|96:375,1,192,14|2,3:2|3:2,0:0:0:0:
26,317,83517,1,8,2:0:0:0:
26,317,83771,2,0,P|33:277|37:233,1,64,0|0,3:2|0:0,0:0:0:0:
0,157,84279,5,0,3:2:0:0:
0,157,84534,1,0,3:2:0:0:
100,177,84788,2,0,P|82:148|87:112,1,64,0|0,0:0|3:2,0:0:0:0:
194,181,85296,2,0,P|212:152|207:116,1,64,6|2,2:3|3:2,0:0:0:0:
190,92,85678,1,8,2:3:0:0:
190,92,85805,1,10,2:0:0:0:
267,24,86059,1,10,2:0:0:0:
267,24,86186,1,8,2:0:0:0:
267,24,86313,2,0,L|263:80,1,32,0|10,0:0|2:0,0:0:0:0:
315,116,86567,6,0,P|361:132|414:134,2,80,6|2|10,3:2|2:0|2:0,0:0:0:0:
245,8,87330,2,0,P|238:50|234:106,1,80,2|0,3:2|3:2,0:0:0:0:
132,9,87839,2,0,P|138:48|142:88,1,80,2|8,2:0|2:0,0:0:0:0:
79,199,88347,2,0,P|39:193|0:190,1,80,2|0,2:0|3:2,0:0:0:0:
62,79,88856,2,0,P|101:84|141:87,1,80,2|8,2:0|2:0,0:0:0:0:
202,200,89364,2,0,P|247:153|348:147,1,160,2|2,2:0|2:0,0:0:0:0:
454,197,90127,1,10,2:0:0:0:
454,197,90381,1,2,2:0:0:0:
363,287,90635,6,0,P|366:246|380:200,2,80,2|2|10,3:2|2:0|2:0,0:0:0:0:
452,378,91398,2,0,P|412:367|364:361,1,80,2|0,3:2|3:2,0:0:0:0:
289,265,91906,2,0,P|250:275|210:281,1,80,2|8,2:0|2:0,0:0:0:0:
293,183,92415,2,0,P|298:143|309:104,1,80,2|0,2:0|3:2,0:0:0:0:
223,9,92923,2,0,P|233:47|239:87,1,80,2|8,2:0|2:0,0:0:0:0:
358,135,93432,2,0,P|419:104|488:107,1,120,10|10,2:3|2:3,0:0:0:0:
487,124,93940,2,0,P|474:171|465:221,2,80,2|10|6,2:0|2:0|2:3,0:0:0:0:
422,12,94703,6,0,P|466:22|509:26,2,80,6|2|10,3:2|2:0|2:0,0:0:0:0:
331,103,95466,2,0,P|325:57|325:18,1,80,2|0,3:2|3:2,0:0:0:0:
250,127,95974,2,0,P|229:92|204:61,1,80,2|8,2:0|2:0,0:0:0:0:
195,189,96483,2,0,P|185:245|184:292,1,80,2|0,2:0|3:2,0:0:0:0:
278,353,96991,2,0,P|274:313|266:273,1,80,2|8,2:0|2:0,0:0:0:0:
163,350,97500,2,0,P|91:377|5:370,1,160,2|2,2:0|2:0,0:0:0:0:
79,264,98262,1,10,2:0:0:0:
79,264,98517,1,2,2:0:0:0:
21,149,98771,6,0,P|10:185|0:241,2,80,2|2|10,3:2|2:0|2:0,0:0:0:0:
133,86,99534,2,0,P|179:102|226:107,1,80,2|0,3:2|3:2,0:0:0:0:
147,218,100042,2,0,P|186:211|223:197,1,80,2|8,2:0|2:0,0:0:0:0:
294,90,100550,2,0,P|287:36|276:3,1,80,2|0,2:0|3:2,0:0:0:0:
385,84,101059,2,0,P|374:122|370:162,1,80,2|8,2:0|2:0,0:0:0:0:
468,244,101567,2,0,P|507:209|496:107,1,160,10|2,2:3|2:0,0:0:0:0:
469,108,102203,1,0,3:2:0:0:
469,108,102330,1,10,2:0:0:0:
372,191,102584,1,6,2:3:0:0:
257,133,102839,6,0,P|184:117|117:109,1,128,4|10,3:2|2:0,0:0:0:0:
32,136,103601,1,2,2:0:0:0:
32,136,103856,2,0,P|18:104|29:59,1,64,2|0,2:0|3:2,0:0:0:0:
92,2,104364,2,0,P|120:14|166:17,1,64,10|2,2:0|2:0,0:0:0:0:
252,43,104873,2,0,P|280:31|326:28,2,64,2|2|10,3:2|2:0|2:0,0:0:0:0:
190,124,105635,2,0,P|178:166|176:203,1,64,2|2,2:0|2:0,0:0:0:0:
230,273,106144,1,2,3:2:0:0:
230,273,106398,2,0,P|280:254|332:251,1,96,10|0,2:0|0:0,0:0:0:0:
339,277,106906,6,0,P|368:314|459:311,1,128,2|8,3:2|2:0,0:0:0:0:
507,238,107669,1,2,2:0:0:0:
507,238,107923,1,2,2:0:0:0:
507,238,108178,1,2,3:2:0:0:
422,179,108432,2,0,P|415:141|412:100,1,64,10|0,2:0|0:0,0:0:0:0:
509,81,108940,2,0,P|505:112|499:144,1,64,2|2,3:2|2:0,0:0:0:0:
407,189,109449,2,0,P|361:164|282:161,1,128,10|2,2:0|2:0,0:0:0:0:
197,211,110211,1,0,3:2:0:0:
108,158,110466,2,0,P|100:115|95:96,1,64,10|4,2:0|3:2,0:0:0:0:
155,12,110974,6,0,P|214:43|199:111,1,128,6|8,3:2|2:0,0:0:0:0:
286,160,111737,2,0,P|345:132|409:128,1,128,2|0,2:0|3:2,0:0:0:0:
493,182,112500,1,10,2:0:0:0:
493,182,112754,2,0,P|483:240|476:327,1,128,2|0,2:0|0:0,0:0:0:0:
405,382,113517,1,8,2:0:0:0:
331,311,113771,6,0,P|350:281|351:246,2,64,2|2|2,2:0|2:0|3:2,0:0:0:0:
257,382,114534,2,0,P|230:362|194:350,1,64,8|2,2:0|2:0,0:0:0:0:
101,372,115042,2,0,P|51:368|31:285,1,128,2|10,3:2|2:0,0:0:0:0:
139,201,115932,1,2,2:0:0:0:
183,226,116059,2,0,P|162:267|159:312,1,64,2|2,2:0|3:2,0:0:0:0:
246,336,116567,2,0,P|296:309|351:307,1,96,10|2,2:0|2:0,0:0:0:0:
385,310,117076,6,0,P|356:274|349:237,2,64,2|2|10,3:2|2:0|2:0,0:0:0:0:
450,230,117839,1,2,2:0:0:0:
509,147,118093,2,0,P|491:102|486:7,1,128,2|10,2:0|2:0,0:0:0:0:
259,146,119110,6,0,P|331:171|391:110,1,160,6|8,3:2|2:0,0:0:0:0:
315,14,119873,2,0,P|234:45|146:50,1,160,2|0,2:0|3:2,0:0:0:0:
35,73,120635,2,0,P|38:36|77:10,1,80,10|2,2:0|2:0,0:0:0:0:
126,126,121144,6,0,P|113:194|106:296,1,160,6|8,3:2|2:0,0:0:0:0:
23,381,121906,2,0,P|-7:339|52:238,1,160,2|0,2:0|3:2,0:0:0:0:
142,308,122669,2,0,P|185:318|243:323,1,80,10|2,2:0|2:0,0:0:0:0:
318,376,123178,6,0,B|297:315|350:260|362:304|412:243|375:153|375:153|337:177|358:224,1,320,6|2,3:2|3:2,0:0:0:0:
389,309,124703,1,10,2:0:0:0:
485,274,124957,1,0,3:2:0:0:
485,274,125211,1,0,3:2:0:0:
464,160,125466,6,0,P|459:107|457:71,1,71.9999978027344,0|8,3:2|2:0,0:0:0:0:
345,114,125974,2,0,P|348:78|351:42,1,71.9999978027344,10|2,2:3|3:2,0:0:0:0:
330,20,126356,1,8,2:3:0:0:
330,20,126483,1,10,2:0:0:0:
226,94,126737,1,10,2:0:0:0:
226,94,126864,1,8,2:0:0:0:
226,94,126991,2,0,P|233:125|235:149,1,40,2|10,2:0|2:0,0:0:0:0:
190,196,127245,6,0,P|118:180|34:169,1,143.999995605469,6|0,3:2|0:0,0:0:0:0:
19,183,127754,2,0,P|31:225|39:293,1,95.9999970703126,10|0,2:0|0:0,0:0:0:0:
150,381,128262,2,0,P|156:333|169:287,1,95.9999970703126,0|0,3:2|0:0,0:0:0:0:
238,252,128644,1,0,3:2:0:0:
238,252,128771,2,0,P|266:286|326:279,1,95.9999970703126,8|0,2:0|0:0,0:0:0:0:
458,340,129279,2,0,P|504:291|488:203,1,143.999995605469,0|0,3:2|0:0,0:0:0:0:
475,200,129788,1,8,2:0:0:0:
386,74,130042,6,0,P|378:130|408:172,1,95.9999970703126,2|0,2:0|3:2,0:0:0:0:
322,299,130550,1,2,2:0:0:0:
322,299,130678,1,0,3:2:0:0:
322,299,130805,2,0,P|258:281|214:276,1,95.9999970703126,10|2,2:0|2:0,0:0:0:0:
87,335,131313,5,2,3:2:0:0:
228,277,131567,1,2,2:0:0:0:
87,335,131822,2,0,P|81:286|55:229,1,95.9999970703126,10|2,2:0|2:0,0:0:0:0:
2,102,132330,2,0,P|52:154|121:149,1,143.999995605469,2|0,3:2|3:2,0:0:0:0:
140,136,132839,2,0,P|128:91|126:32,1,95.9999970703126,10|2,2:0|2:0,0:0:0:0:
274,0,133347,6,0,P|331:32|426:39,1,143.999995605469,2|0,3:2|0:0,0:0:0:0:
442,25,133856,2,0,P|439:72|427:119,1,95.9999970703126,8|2,2:0|2:0,0:0:0:0:
504,251,134364,1,2,3:2:0:0:
504,251,134491,1,8,2:0:0:0:
504,251,134618,1,10,2:0:0:0:
369,175,134873,1,10,2:0:0:0:
324,321,135127,1,10,2:0:0:0:
477,329,135381,6,0,P|437:299|390:283,1,95.9999970703126,6|2,3:2|2:0,0:0:0:0:
324,321,135762,1,0,3:2:0:0:
324,321,135889,2,0,P|285:349|240:366,1,95.9999970703126,10|0,2:0|0:0,0:0:0:0:
144,246,136398,1,0,3:2:0:0:
15,325,136652,1,0,0:0:0:0:
15,325,136779,1,0,3:2:0:0:
15,325,136906,1,8,2:0:0:0:
160,374,137161,6,0,P|222:332|238:213,1,191.999994140625
226,198,137796,1,0,0:0:0:0:
226,198,137923,1,8,2:0:0:0:
114,99,138178,1,2,2:0:0:0:
114,99,138432,2,0,P|123:155|126:218,1,95.9999970703126,0|2,3:2|3:2,0:0:0:0:
25,310,138940,1,10,2:0:0:0:
125,194,139195,1,2,3:2:0:0:
25,310,139449,6,0,P|97:322|142:383,1,143.999995605469,6|2,3:2|3:2,0:0:0:0:
210,345,139957,2,0,P|187:306|178:253,1,95.9999970703126,8|6,2:0|3:2,0:0:0:0:
248,119,140466,1,2,3:2:0:0:
354,229,140720,1,0,3:2:0:0:
248,119,140974,2,0,P|271:80|280:27,1,95.9999970703126,8|6,2:0|3:2,0:0:0:0:
388,139,141483,2,0,P|433:150|467:189,1,95.9999970703126,2|8,2:0|2:3,0:0:0:0:
512,257,141864,1,12,2:3:0:0:
512,257,141991,2,0,P|497:304|490:363,1,95.9999970703126,10|0,2:0|0:0,0:0:0:0:
419,380,142373,5,2,2:0:0:0:
419,380,142500,2,0,P|378:328|303:319,1,143.999995605469,10|0,3:2|0:0,0:0:0:0:
247,370,143008,1,10,2:0:0:0:
247,370,143135,1,8,2:0:0:0:
247,370,143262,2,0,L|179:378,1,47.9999985351563,10|8,2:0|2:0,0:0:0:0:
139,326,143517,6,0,L|135:222,1,95.9999970703126,6|2,3:2|2:0,0:0:0:0:
10,141,144025,2,0,P|13:191|54:221,1,95.9999970703126,10|0,2:0|0:0,0:0:0:0:
186,154,144534,2,0,P|183:104|142:74,1,95.9999970703126,0|0,3:2|0:0,0:0:0:0:
175,3,144915,1,0,3:2:0:0:
175,3,145042,2,0,P|235:20|276:23,1,95.9999970703126,8|0,2:0|0:0,0:0:0:0:
420,0,145550,2,0,P|378:41|388:140,1,143.999995605469,0|0,3:2|0:0,0:0:0:0:
400,141,146059,1,8,2:0:0:0:
496,260,146313,6,0,P|501:206|475:172,1,95.9999970703126,2|0,2:0|3:2,0:0:0:0:
325,194,146822,1,2,2:0:0:0:
325,194,146949,1,0,3:2:0:0:
325,194,147076,2,0,P|264:206|219:209,1,95.9999970703126,10|2,2:0|2:0,0:0:0:0:
80,175,147584,5,2,3:2:0:0:
230,208,147839,1,2,2:0:0:0:
80,175,148093,2,0,P|92:114|95:69,1,95.9999970703126,10|2,2:0|2:0,0:0:0:0:
225,0,148601,2,0,P|229:47|239:94,1,95.9999970703126,2|0,3:2|0:0,0:0:0:0:
294,148,148983,1,0,3:2:0:0:
294,148,149110,2,0,P|338:123|385:128,1,95.9999970703126,10|2,2:0|2:0,0:0:0:0:
504,218,149618,6,0,B|487:303|452:263|439:355,1,143.999995605469,2|0,3:2|0:0,0:0:0:0:
437,375,150127,1,8,2:0:0:0:
329,265,150381,1,2,2:0:0:0:
445,164,150635,1,2,3:2:0:0:
512,311,150889,1,10,2:0:0:0:
512,311,151017,1,0,3:2:0:0:
512,311,151144,2,0,P|458:289|407:292,1,95.9999970703126,10|10,2:0|2:0,0:0:0:0:
285,360,151652,6,0,P|218:366|169:372,1,95.9999970703126,6|2,3:2|2:0,0:0:0:0:
125,326,152034,1,0,3:2:0:0:
125,326,152161,2,0,P|119:259|113:210,1,95.9999970703126,10|0,2:0|0:0,0:0:0:0:
23,107,152669,2,0,P|18:156|48:202,1,95.9999970703126,0|0,3:2|0:0,0:0:0:0:
69,208,153050,1,0,3:2:0:0:
69,208,153178,1,8,2:0:0:0:
213,157,153432,2,0,P|271:133|427:155,1,191.999994140625
427,161,154067,1,0,0:0:0:0:
427,161,154195,1,8,2:0:0:0:
497,24,154449,6,0,P|504:71|494:130,1,95.9999970703126,2|0,2:0|3:2,0:0:0:0:
401,238,154957,1,2,3:2:0:0:
291,130,155211,1,10,2:0:0:0:
156,205,155466,1,2,3:2:0:0:
104,60,155720,6,0,P|182:42|240:84,1,143.999995605469,6|2,3:2|3:2,0:0:0:0:
291,130,156228,2,0,P|254:160|201:138,1,95.9999970703126,8|6,2:0|3:2,0:0:0:0:
281,11,156737,1,2,3:2:0:0:
375,132,156991,1,0,3:2:0:0:
493,34,157245,2,0,P|441:45|380:50,1,95.9999970703126,8|6,2:0|3:2,0:0:0:0:
293,162,157754,6,0,P|287:209|277:256,1,95.9999970703126,2|8,2:0|2:3,0:0:0:0:
209,291,158135,1,12,2:3:0:0:
209,291,158262,2,0,P|170:254|117:251,1,95.9999970703126,10|8,2:0|2:3,0:0:0:0:
68,293,158644,1,8,2:3:0:0:
68,293,158771,2,0,P|57:246|13:145,1,143.999995605469,10|0,3:2|3:2,0:0:0:0:
32,110,159279,5,10,2:0:0:0:
69,79,159406,1,8,2:0:0:0:
116,71,159534,1,8,2:0:0:0:
159,91,159661,1,8,2:0:0:0:
185,130,159788,6,0,B|275:146|226:200|325:205,1,160,6|8,3:2|2:0,0:0:0:0:
392,104,160550,2,0,P|384:61|386:-2,1,80,2|0,2:0|0:0,0:0:0:0:
479,73,161059,1,0,3:2:0:0:
498,165,161313,2,0,P|477:209|420:208,1,80,10|0,2:0|0:0,0:0:0:0:
307,230,161822,6,0,P|239:262|240:349,1,160,6|8,3:2|2:0,0:0:0:0:
114,382,162584,2,0,P|119:307|43:264,1,160,2|0,2:0|3:2,0:0:0:0:
1,147,163347,1,10,2:0:0:0:
118,197,163601,5,2,2:0:0:0:
118,197,163728,1,0,3:2:0:0:
118,197,163856,2,0,B|161:185|183:210|183:210|230:194|230:194|263:226|304:224,1,192,14|2,3:2|3:2,0:0:0:0:
370,155,164873,1,8,2:0:0:0:
370,155,165127,2,0,P|364:106|362:79,1,64,0|0,3:2|0:0,0:0:0:0:
447,33,165635,1,0,3:2:0:0:
447,33,165889,1,0,3:2:0:0:
506,116,166144,6,0,P|483:133|439:139,1,64,0|0,0:0|3:2,0:0:0:0:
362,91,166652,2,0,P|336:72|304:66,1,64,6|2,2:3|3:2,0:0:0:0:
286,82,167034,1,8,2:3:0:0:
286,82,167161,1,10,2:0:0:0:
185,99,167415,1,10,2:0:0:0:
183,140,167542,1,8,2:3:0:0:
191,180,167669,1,6,2:3:0:0:
215,213,167796,1,6,2:3:0:0:
244,240,167923,6,0,P|299:192|387:206,1,160,6|8,3:2|2:0,0:0:0:0:
472,280,168686,1,2,2:0:0:0:
384,360,168940,2,0,P|375:284|382:189,1,160,2|8,3:2|2:0,0:0:0:0:
457,167,169703,1,2,2:0:0:0:
496,62,169957,6,0,P|454:77|407:85,1,80,2|2,3:2|2:0,0:0:0:0:
381,54,170339,1,0,0:0:0:0:
381,54,170466,2,0,P|339:39|292:31,1,80,10|2,2:0|2:0,0:0:0:0:
215,69,170974,1,2,3:2:0:0:
244,185,171228,1,2,2:0:0:0:
244,185,171356,1,0,3:2:0:0:
244,185,171483,1,10,2:0:0:0:
148,257,171737,1,2,2:0:0:0:
31,203,171991,6,0,P|75:159|64:45,1,160,2|8,3:2|2:0,0:0:0:0:
165,10,172754,1,2,2:0:0:0:
239,70,173008,2,0,P|287:80|401:84,1,160,2|8,3:2|2:0,0:0:0:0:
472,23,173771,1,2,2:0:0:0:
472,23,174025,1,2,3:2:0:0:
397,84,174279,1,2,2:0:0:0:
370,176,174534,1,10,2:0:0:0:
414,260,174788,1,2,2:0:0:0:
496,308,175042,6,0,P|501:257|500:211,1,80,2|0,3:2|0:0,0:0:0:0:
509,181,175423,1,0,3:2:0:0:
509,181,175550,2,0,P|469:185|429:185,1,80,10|2,2:0|2:0,0:0:0:0:
325,261,176059,6,0,P|345:207|327:103,1,160,6|8,3:2|2:0,0:0:0:0:
243,63,176822,1,2,2:0:0:0:
194,180,177076,2,0,P|250:170|331:102,1,160,6|8,3:2|2:0,0:0:0:0:
400,0,177839,2,0,P|424:31|468:36,1,80,2|0,2:0|3:2,0:0:0:0:
508,156,178347,1,2,2:0:0:0:
508,156,178601,2,0,P|469:162|445:193,1,80,10|2,2:0|2:0,0:0:0:0:
500,309,179110,5,2,3:2:0:0:
383,256,179364,1,2,2:0:0:0:
383,256,179491,1,0,3:2:0:0:
383,256,179618,1,10,2:0:0:0:
307,359,179873,1,2,2:0:0:0:
217,324,180127,5,2,3:2:0:0:
218,228,180381,1,2,2:0:0:0:
160,131,180635,1,10,2:0:0:0:
38,91,180889,1,2,2:0:0:0:
152,33,181144,6,0,P|232:41|262:83,1,120,2|0,3:2|3:2,0:0:0:0:
280,108,181652,2,0,P|336:98|370:99,1,80,10|2,2:0|2:0,0:0:0:0:
487,188,182161,2,0,B|397:195|440:247|348:257,1,160,2|8,3:2|2:0,0:0:0:0:
236,195,182923,1,0,0:0:0:0:
181,311,183178,2,0,P|175:265|159:226,1,80,2|0,3:2|0:0,0:0:0:0:
115,239,183559,1,0,3:2:0:0:
115,239,183686,2,0,P|77:252|37:256,1,80,10|0,2:0|0:0,0:0:0:0:
14,130,184195,6,0,B|103:122|82:172|169:163,1,160,6|8,3:2|2:0,0:0:0:0:
284,112,184957,2,0,P|262:175|271:267,1,160,2|0,2:0|3:2,0:0:0:0:
395,298,185720,2,0,P|429:330|418:378,1,80,10|0,2:0|0:0,0:0:0:0:
300,362,186228,6,0,P|308:298|315:183,1,160,6|8,3:2|2:0,0:0:0:0:
427,142,186991,2,0,P|430:195|438:240,1,80,2|0,2:0|0:0,0:0:0:0:
506,327,187500,1,2,3:2:0:0:
506,327,187754,1,10,2:0:0:0:
434,221,188008,1,2,2:0:0:0:
337,283,188262,6,0,B|306:299|273:291|273:291|248:305|248:305|214:299|191:318,1,143.999995605469,2|10,3:2|2:0,0:0:0:0:
96,362,189025,2,0,L|15:371,2,71.9999978027344,0|0|2,0:0|0:0|3:2,0:0:0:0:
200,311,189788,1,10,2:0:0:0:
128,220,190042,1,0,0:0:0:0:
27,276,190296,1,2,3:2:0:0:
27,276,190550,6,0,L|19:183,1,71.9999978027344,0|2,0:0|3:2,0:0:0:0:
141,229,191059,2,0,L|147:154,1,71.9999978027344,8|2,2:3|3:2,0:0:0:0:
190,131,191440,1,8,2:3:0:0:
190,131,191567,1,10,2:0:0:0:
285,196,191822,1,10,2:0:0:0:
285,196,191949,1,10,2:0:0:0:
285,196,192076,2,0,L|338:201,1,35.9999989013672,8|12,2:3|2:3,0:0:0:0:
368,181,192330,1,2,3:2:0:0:
466,208,192584,5,10,2:0:0:0:
507,114,192839,1,10,2:0:0:0:
507,114,192966,1,10,2:0:0:0:
507,114,193093,2,0,P|498:87|498:71,1,32,8|10,2:3|2:0,0:0:0:0:
438,24,193347,1,10,3:2:0:0:
438,24,193474,1,10,2:0:0:0:
438,24,193601,2,0,P|419:45|405:53,1,32,8|10,2:3|2:0,0:0:0:0:
394,128,193856,1,10,3:2:0:0:
394,128,193983,1,10,2:0:0:0:
394,128,194110,2,0,P|421:133|435:141,1,32,4|10,2:3|2:0,0:0:0:0:
480,187,194364,6,0,P|464:259|453:343,1,143.999995605469,6|0,3:2|0:0,0:0:0:0:
472,359,194873,2,0,P|430:347|362:339,1,95.9999970703126,10|0,2:0|0:0,0:0:0:0:
270,230,195381,2,0,P|317:223|363:210,1,95.9999970703126,0|0,3:2|0:0,0:0:0:0:
408,149,195763,1,0,3:2:0:0:
408,149,195890,2,0,P|423:107|387:59,1,95.9999970703126,8|0,2:0|0:0,0:0:0:0:
254,117,196398,2,0,P|184:123|132:76,1,143.999995605469,0|0,3:2|0:0,0:0:0:0:
129,47,196907,1,8,2:0:0:0:
277,24,197161,6,0,P|261:73|252:126,1,95.9999970703126,2|0,2:0|3:2,0:0:0:0:
144,224,197669,1,2,2:0:0:0:
144,224,197797,1,0,3:2:0:0:
144,224,197924,2,0,P|162:160|167:116,1,95.9999970703126,10|2,2:0|2:0,0:0:0:0:
77,5,198432,5,2,3:2:0:0:
165,130,198686,1,2,2:0:0:0:
77,5,198940,2,0,P|105:44|160:46,1,95.9999970703126,10|2,2:0|2:0,0:0:0:0:
294,101,199449,2,0,P|242:151|247:220,1,143.999995605469,2|0,3:2|3:2,0:0:0:0:
260,239,199958,2,0,P|305:226|364:225,1,95.9999970703126,10|2,2:0|2:0,0:0:0:0:
491,293,200466,6,0,B|407:296|444:344|345:350,1,143.999995605469,2|0,3:2|0:0,0:0:0:0:
334,372,200974,2,0,P|287:359|239:357,1,95.9999970703126,8|2,2:0|2:0,0:0:0:0:
94,384,201483,1,2,3:2:0:0:
94,384,201610,1,8,2:0:0:0:
94,384,201737,1,10,2:0:0:0:
186,260,201992,1,10,2:0:0:0:
55,178,202246,1,10,2:0:0:0:
1,321,202500,6,0,P|47:302|96:299,1,95.9999970703126,6|2,3:2|2:0,0:0:0:0:
160,335,202881,1,0,3:2:0:0:
160,335,203008,2,0,P|204:353|251:357,1,95.9999970703126,10|0,2:0|0:0,0:0:0:0:
391,291,203517,1,0,3:2:0:0:
277,204,203771,1,0,0:0:0:0:
277,204,203898,1,0,3:2:0:0:
277,204,204025,1,8,2:0:0:0:
430,208,204279,2,0,P|492:254|455:365,1,191.999994140625
445,371,204915,1,0,0:0:0:0:
445,371,205042,1,8,2:0:0:0:
312,301,205297,5,2,2:0:0:0:
312,301,205551,2,0,P|256:292|193:289,1,95.9999970703126,0|2,3:2|3:2,0:0:0:0:
86,370,206059,1,10,2:0:0:0:
216,289,206314,1,2,3:2:0:0:
86,370,206567,6,0,P|45:337|52:241,1,143.999995605469,6|2,3:2|3:2,0:0:0:0:
50,223,207076,2,0,P|97:231|138:255,1,95.9999970703126,8|6,2:0|3:2,0:0:0:0:
240,373,207585,1,2,3:2:0:0:
278,224,207839,1,0,3:2:0:0:
193,96,208093,2,0,P|184:48|160:7,1,95.9999970703126,8|6,2:0|3:2,0:0:0:0:
292,87,208601,2,0,P|337:98|371:137,1,95.9999970703126,2|8,2:0|2:3,0:0:0:0:
416,200,208983,1,12,2:3:0:0:
416,200,209110,2,0,P|446:163|487:139,1,95.9999970703126,10|0,2:0|0:0,0:0:0:0:
504,218,209491,5,2,2:0:0:0:
504,218,209618,2,0,P|474:286|473:374,1,143.999995605469,10|0,3:2|0:0,0:0:0:0:
402,380,210127,1,10,2:0:0:0:
402,380,210254,1,8,2:0:0:0:
402,380,210381,2,0,L|394:312,1,47.9999985351563,10|8,2:0|2:0,0:0:0:0:
331,290,210636,6,0,L|235:293,1,95.9999970703126,6|2,3:2|2:0,0:0:0:0:
102,371,211144,1,10,2:0:0:0:
8,249,211398,2,0,P|62:256|110:285,1,95.9999970703126,0|0,0:0|3:2,0:0:0:0:
217,384,211906,1,0,0:0:0:0:
217,384,212034,1,0,3:2:0:0:
217,384,212161,1,8,2:0:0:0:
176,235,212415,2,0,L|163:34,1,191.999994140625
12,13,213178,1,8,2:0:0:0:
76,152,213432,6,0,P|85:95|86:37,1,95.9999970703126,2|0,2:0|3:2,0:0:0:0:
227,140,213941,1,2,2:0:0:0:
227,140,214068,1,0,3:2:0:0:
227,140,214195,2,0,P|180:180|142:205,1,95.9999970703126,10|2,2:0|2:0,0:0:0:0:
0,215,214703,5,2,3:2:0:0:
93,337,214958,1,2,2:0:0:0:
0,215,215211,2,0,P|22:276|26:325,1,95.9999970703126,10|2,2:0|2:0,0:0:0:0:
163,376,215720,2,0,P|170:328|188:284,1,95.9999970703126,2|0,3:2|0:0,0:0:0:0:
261,252,216102,1,0,3:2:0:0:
261,252,216229,2,0,P|305:277|352:272,1,95.9999970703126,10|2,2:0|2:0,0:0:0:0:
500,294,216737,6,0,P|449:279|444:186,1,143.999995605469,2|0,3:2|0:0,0:0:0:0:
459,185,217246,1,8,2:0:0:0:
346,289,217500,1,2,2:0:0:0:
278,151,217754,1,2,3:2:0:0:
398,54,218008,1,10,2:0:0:0:
398,54,218136,1,0,3:2:0:0:
398,54,218263,2,0,P|344:76|293:73,1,95.9999970703126,10|10,2:0|2:0,0:0:0:0:
168,9,218771,6,0,P|120:3|72:-1,1,95.9999970703126,6|2,3:2|2:0,0:0:0:0:
11,44,219152,1,0,3:2:0:0:
11,44,219279,2,0,P|17:92|21:140,1,95.9999970703126,10|0,2:0|0:0,0:0:0:0:
121,256,219788,2,0,P|92:215|95:169,1,95.9999970703126,0|0,3:2|0:0,0:0:0:0:
115,147,220169,1,0,3:2:0:0:
115,147,220297,1,8,2:0:0:0:
213,264,220551,2,0,P|271:288|427:266,1,191.999994140625
419,268,221186,1,0,0:0:0:0:
419,268,221314,1,8,2:0:0:0:
510,144,221568,6,0,P|503:96|510:50,1,95.9999970703126,2|0,2:0|3:2,0:0:0:0:
423,175,222076,1,2,3:2:0:0:
323,57,222330,1,10,2:0:0:0:
211,163,222585,1,2,3:2:0:0:
124,38,222839,6,0,P|121:118|65:163,1,143.999995605469,6|2,3:2|3:2,0:0:0:0:
17,207,223347,2,0,P|-13:170|9:117,1,95.9999970703126,8|6,2:0|3:2,0:0:0:0:
124,38,223856,1,2,3:2:0:0:
222,157,224110,1,0,3:2:0:0:
372,124,224364,2,0,P|419:118|466:108,1,95.9999970703126,8|6,2:0|3:2,0:0:0:0:
347,206,224873,6,0,P|341:253|331:300,1,95.9999970703126,2|8,2:0|2:3,0:0:0:0:
257,265,225254,1,12,2:3:0:0:
257,265,225381,2,0,P|204:252|157:276,1,95.9999970703126,10|8,2:0|2:3,0:0:0:0:
100,304,225762,1,8,2:3:0:0:
100,304,225889,2,0,P|42:307|-4:239,1,143.999995605469,10|0,3:2|3:2,0:0:0:0:
11,198,226398,5,10,2:0:0:0:
32,241,226525,1,8,2:0:0:0:
75,262,226652,1,8,2:0:0:0:
122,264,226779,1,8,2:0:0:0:
167,247,226906,6,0,B|171:153|118:183|126:79,1,160,6|8,3:2|2:0,0:0:0:0:
234,3,227669,2,0,P|216:52|111:93,1,160,2|0,2:0|3:2,0:0:0:0:
9,165,228432,2,0,P|-9:217|12:250,1,80,10|0,2:0|0:0,0:0:0:0:
84,344,228940,6,0,P|88:299|91:171,1,160,6|8,3:2|2:0,0:0:0:0:
210,231,229703,2,0,P|281:271|375:265,1,160,2|0,2:0|3:2,0:0:0:0:
407,152,230466,1,10,2:0:0:0:
510,227,230720,5,2,2:0:0:0:
510,227,230847,1,0,3:2:0:0:
510,227,230974,2,0,B|467:215|441:248|441:248|408:233|408:233|376:266|333:264,1,192,14|2,3:2|3:2,0:0:0:0:
250,211,231991,1,8,2:0:0:0:
250,211,232245,2,0,P|261:174|260:139,1,64,0|0,3:2|0:0,0:0:0:0:
164,184,232754,1,0,3:2:0:0:
164,184,233008,1,0,3:2:0:0:
106,268,233262,6,0,L|36:257,1,64,0|0,0:0|3:2,0:0:0:0:
89,349,233771,2,0,L|19:338,1,64,6|2,2:3|3:2,0:0:0:0:
2,355,234152,1,8,2:3:0:0:
2,355,234279,1,10,2:0:0:0:
42,258,234534,1,10,2:0:0:0:
42,258,234661,1,8,0:2:0:0:
42,258,234788,2,0,L|36:210,1,32,0|10,0:0|2:2,0:0:0:0:
98,172,235042,6,0,P|156:167|199:169,2,80,6|2|10,3:2|2:0|2:0,0:0:0:0:
4,84,235805,2,0,P|45:51|49:5,1,80,2|0,3:2|3:2,0:0:0:0:
54,154,236313,2,0,P|106:159|141:129,1,80,2|8,2:0|2:0,0:0:0:0:
40,240,236822,2,0,P|30:288|23:332,1,80,2|0,2:0|3:2,0:0:0:0:
148,384,237330,2,0,P|141:344|132:305,1,80,2|8,2:0|2:0,0:0:0:0:
211,203,237839,2,0,P|272:236|374:233,1,160,2|2,2:0|2:0,0:0:0:0:
474,178,238601,1,10,2:0:0:0:
474,178,238856,1,2,2:0:0:0:
361,236,239110,6,0,P|345:199|339:149,2,80,2|2|10,3:2|2:0|2:0,0:0:0:0:
479,286,239873,2,0,P|453:280|394:314,1,80,2|0,3:2|3:2,0:0:0:0:
489,203,240381,2,0,P|494:177|460:118,1,80,2|8,2:0|2:0,0:0:0:0:
411,35,240889,2,0,P|406:73|390:110,1,80,2|0,2:0|3:2,0:0:0:0:
294,171,241398,2,0,P|254:165|217:149,1,80,2|8,2:0|2:0,0:0:0:0:
59,96,241906,2,0,P|91:142|105:251,1,160,10|2,2:3|2:0,0:0:0:0:
4,319,242669,1,10,2:0:0:0:
4,319,242923,1,6,2:3:0:0:
122,368,243178,6,0,P|168:356|212:352,2,80,6|2|10,3:2|2:0|2:0,0:0:0:0:
106,243,243940,2,0,P|97:199|67:165,1,80,2|0,3:2|3:2,0:0:0:0:
195,219,244449,2,0,P|219:181|222:136,1,80,2|8,2:0|2:0,0:0:0:0:
275,264,244957,2,0,P|338:275|376:285,1,80,2|0,2:0|3:2,0:0:0:0:
470,225,245466,2,0,P|407:214|369:204,1,80,2|8,2:0|2:0,0:0:0:0:
498,140,245974,2,0,P|491:71|410:20,1,160,2|2,2:0|2:0,0:0:0:0:
323,104,246737,1,10,2:0:0:0:
323,104,246991,1,2,2:0:0:0:
228,17,247245,6,0,P|231:58|234:124,2,80,2|2|10,3:2|2:0|2:0,0:0:0:0:
149,118,248008,2,0,P|114:138|58:120,1,80,2|0,3:2|3:2,0:0:0:0:
186,198,248517,2,0,P|175:236|123:263,1,80,2|8,2:0|2:0,0:0:0:0:
266,221,249025,2,0,P|315:209|363:205,1,80,2|0,2:0|3:2,0:0:0:0:
432,299,249534,2,0,P|420:348|416:396,1,80,2|8,2:0|2:0,0:0:0:0:
324,288,250042,2,0,P|365:234|344:128,1,160,10|2,2:3|0:2,0:0:0:0:
250,74,250805,1,10,2:0:0:0:
153,158,251059,1,6,2:3:0:0:
