osu file format v14

[General]
AudioFilename: audio.mp3
AudioLeadIn: 0
PreviewTime: 192457
Countdown: 0
SampleSet: Soft
StackLeniency: 0.2
Mode: 0
LetterboxInBreaks: 0
WidescreenStoryboard: 0

[Editor]
Bookmarks: 21483,45889,62161,78432,86567,102839,127245,143517,159788,167923,184195,194364,210635,226906,235042
DistanceSpacing: 0.7
BeatDivisor: 4
GridSize: 8
TimelineZoom: 1.8

[Metadata]
Title:Koikaze ni Nosete
TitleUnicode:恋風邪にのせて
Artist:Vaundy
ArtistUnicode:Vaundy
Creator:Nakazawa
Version:Gentle Breeze
Source:彼とオオカミちゃんには騙されない
Tags:Kare to Ookami-chan ni wa Damasarenai who is the wolf? japanese j-pop pop rock j-rock jrock jpop male vocalist theme song soncak
BeatmapID:4363236
BeatmapSetID:2083279

[Difficulty]
HPDrainRate:6
CircleSize:5
OverallDifficulty:8.2
ApproachRate:9
SliderMultiplier:1.8
SliderTickRate:1

[Events]
//Background and Video events
0,0,"KoikazeninoseteBG.jpg",0,0
//Break Periods
//Storyboard Layer 0 (Background)
//Storyboard Layer 1 (Fail)
//Storyboard Layer 2 (Pass)
//Storyboard Layer 3 (Foreground)
//Storyboard Layer 4 (Overlay)
//Storyboard Sound Samples

[TimingPoints]
128,508.474576271186,4,2,1,70,1,0
4195,-166.666666666667,4,2,1,70,0,0
4831,-166.666666666667,4,2,2,70,0,0
4958,-166.666666666667,4,2,1,70,0,0
5212,508.474576271186,4,2,1,60,1,0
5212,-100,4,2,1,60,0,0
5974,-76.9230769230769,4,2,1,60,0,0
8517,-100,4,2,1,60,0,0
10042,-76.9230769230769,4,2,1,60,0,0
12584,-100,4,2,1,60,0,0
14110,-76.9230769230769,4,2,1,60,0,0
16652,-100,4,2,1,60,0,0
18178,-76.9230769230769,4,2,1,60,0,0
20720,-100,4,2,1,60,0,0
21483,-100,4,2,2,50,0,0
22754,-83.3333333333333,4,2,2,50,0,0
23517,-100,4,2,2,50,0,0
24025,-133.333333333333,4,2,2,50,0,0
24788,-100,4,2,2,50,0,0
25550,-83.3333333333333,4,2,2,50,0,0
26822,-83.3333333333333,4,2,2,50,0,0
27584,-100,4,2,2,50,0,0
28856,-100,4,2,2,50,0,0
29364,-100,4,2,1,45,0,0
29618,-83.3333333333333,4,2,2,50,0,0
30635,-133.333333333333,4,2,2,50,0,0
32161,-100,4,2,2,50,0,0
32923,-83.3333333333333,4,2,2,50,0,0
33686,-100,4,2,2,50,0,0
34957,-83.3333333333333,4,2,2,50,0,0
35720,-100,4,2,2,50,0,0
36991,-83.3333333333333,4,2,2,50,0,0
37500,-83.3333333333333,4,2,1,45,0,0
37754,-83.3333333333333,4,2,2,60,0,1
38008,-100,4,2,2,60,0,1
38517,-83.3333333333333,4,2,2,60,0,1
39788,-83.3333333333333,4,2,1,60,0,1
40042,-100,4,2,1,60,0,1
40296,-100,4,2,2,60,0,1
40550,-83.3333333333333,4,2,2,60,0,1
41822,-83.3333333333333,4,2,2,50,0,0
43093,-100,4,2,2,50,0,0
43601,-83.3333333333333,4,2,2,50,0,0
44110,-66.6666666666667,4,2,2,70,0,0
44618,-83.3333333333333,4,2,2,70,0,0
45127,-83.3333333333333,4,2,1,75,0,0
45889,-71.4285714285714,4,2,1,80,0,1
46398,-83.3333333333333,4,2,1,80,0,1
48686,-71.4285714285714,4,2,1,80,0,1
49195,-62.5,4,2,1,80,0,1
49957,-100,4,2,1,80,0,1
50211,-83.3333333333333,4,2,1,80,0,1
50466,-71.4285714285714,4,2,1,80,0,1
50720,-62.5,4,2,1,80,0,1
50974,-55.5555555555556,4,2,1,80,0,1
51483,-62.5,4,2,1,80,0,1
51737,-71.4285714285714,4,2,1,80,0,1
51991,-83.3333333333333,4,2,1,80,0,1
52754,-100,4,2,1,80,0,1
53517,-83.3333333333333,4,2,1,80,0,1
54025,-71.4285714285714,4,2,1,80,0,1
54534,-83.3333333333333,4,2,1,80,0,1
56822,-71.4285714285714,4,2,1,80,0,1
57330,-62.5,4,2,1,80,0,1
57839,-166.666666666667,4,2,1,80,0,1
58093,-71.4285714285714,4,2,1,80,0,1
58856,-71.4285714285714,4,2,2,80,0,1
58983,-71.4285714285714,4,2,1,80,0,1
60635,-41.6666666666667,4,2,1,80,0,1
61144,-83.3333333333333,4,2,1,80,0,1
62161,-71.4285714285714,4,2,1,80,0,1
62669,-90.9090909090909,4,2,1,80,0,1
64957,-83.3333333333333,4,2,1,80,0,1
65466,-66.6666666666667,4,2,1,80,0,1
66228,-83.3333333333333,4,2,1,80,0,1
67245,-66.6666666666667,4,2,1,80,0,1
68262,-100,4,2,1,80,0,1
69788,-66.6666666666667,4,2,1,80,0,1
70805,-90.9090909090909,4,2,1,80,0,1
73601,-66.6666666666667,4,2,1,80,0,1
74364,-50,4,2,1,80,0,1
75127,-66.6666666666667,4,2,2,80,0,1
75254,-66.6666666666667,4,2,1,80,0,1
76906,-100,4,2,1,80,0,1
78432,-100,4,2,2,60,0,0
79957,-62.5,4,2,2,60,0,0
80466,-100,4,2,1,60,0,0
80593,-100,4,2,2,60,0,0
81228,-71.4285714285714,4,2,2,60,0,0
81991,-100,4,2,2,60,0,0
82500,-125,4,2,2,60,0,0
84788,-71.4285714285714,4,2,2,60,0,0
85550,-71.4285714285714,4,2,1,60,0,0
86567,-86.9565217391304,4,2,1,60,0,0
87330,-71.4285714285714,4,2,1,60,0,0
89873,-83.3333333333333,4,2,1,60,0,0
91398,-71.4285714285714,4,2,1,60,0,0
93940,-83.3333333333333,4,2,1,60,0,0
95466,-71.4285714285714,4,2,1,60,0,0
98008,-83.3333333333333,4,2,1,60,0,0
99534,-71.4285714285714,4,2,1,60,0,0
102076,-83.3333333333333,4,2,1,60,0,0
102839,-100,4,2,2,50,0,0
104110,-83.3333333333333,4,2,2,50,0,0
104873,-100,4,2,2,50,0,0
105381,-133.333333333333,4,2,2,50,0,0
106144,-100,4,2,2,50,0,0
106906,-83.3333333333333,4,2,2,50,0,0
108178,-83.3333333333333,4,2,2,50,0,0
108940,-100,4,2,2,50,0,0
110212,-100,4,2,2,50,0,0
110720,-100,4,2,1,45,0,0
110974,-83.3333333333333,4,2,2,50,0,0
111991,-133.333333333333,4,2,2,50,0,0
113517,-100,4,2,2,50,0,0
114279,-83.3333333333333,4,2,2,50,0,0
115042,-100,4,2,2,50,0,0
116313,-83.3333333333333,4,2,2,50,0,0
117076,-100,4,2,2,50,0,0
118347,-83.3333333333333,4,2,2,50,0,0
118856,-83.3333333333333,4,2,1,45,0,0
119110,-83.3333333333333,4,2,2,60,0,1
119364,-100,4,2,2,60,0,1
119873,-83.3333333333333,4,2,2,60,0,1
121144,-83.3333333333333,4,2,1,60,0,1
121398,-100,4,2,1,60,0,1
121652,-100,4,2,2,60,0,1
121906,-83.3333333333333,4,2,2,60,0,1
123178,-83.3333333333333,4,2,2,50,0,0
124449,-100,4,2,2,50,0,0
124957,-83.3333333333333,4,2,2,50,0,0
125466,-66.6666666666667,4,2,2,70,0,0
125974,-83.3333333333333,4,2,2,70,0,0
126483,-83.3333333333333,4,2,1,75,0,0
127245,-71.4285714285714,4,2,1,80,0,1
127500,-55.5555555555556,4,2,1,80,0,1
127754,-90.9090909090909,4,2,1,80,0,1
130042,-71.4285714285714,4,2,1,80,0,1
132839,-83.3333333333333,4,2,1,80,0,1
135381,-55.5555555555556,4,2,1,80,0,1
135889,-86.9565217391304,4,2,1,80,0,1
138178,-71.4285714285714,4,2,1,80,0,1
138940,-83.3333333333333,4,2,1,80,0,1
139449,-55.5555555555556,4,2,1,80,0,1
139957,-66.6666666666667,4,2,1,80,0,1
140211,-66.6666666666667,4,2,2,80,0,1
140338,-66.6666666666667,4,2,1,80,0,1
140720,-83.3333333333333,4,2,1,80,0,1
141483,-83.3333333333333,4,2,1,80,0,1
141991,-55.5555555555556,4,2,1,80,0,1
142754,-66.6666666666667,4,2,1,80,0,1
143517,-71.4285714285714,4,2,1,80,0,1
143771,-55.5555555555556,4,2,1,80,0,1
144025,-90.9090909090909,4,2,1,80,0,1
146313,-71.4285714285714,4,2,1,80,0,1
149110,-83.3333333333333,4,2,1,80,0,1
151652,-55.5555555555556,4,2,1,80,0,1
152160,-86.9565217391304,4,2,1,80,0,1
154449,-71.4285714285714,4,2,1,80,0,1
155211,-83.3333333333333,4,2,1,80,0,1
155720,-55.5555555555556,4,2,1,80,0,1
156228,-66.6666666666667,4,2,1,80,0,1
156483,-66.6666666666667,4,2,2,80,0,1
156610,-66.6666666666667,4,2,1,80,0,1
156991,-83.3333333333333,4,2,1,80,0,1
157754,-83.3333333333333,4,2,1,80,0,1
158262,-55.5555555555556,4,2,1,80,0,1
158771,-50,4,2,1,80,0,1
159279,-100,4,2,1,80,0,1
159788,-100,4,2,2,60,0,0
161313,-66.6666666666667,4,2,2,60,0,0
161822,-83.3333333333333,4,2,1,60,0,0
161949,-83.3333333333333,4,2,2,60,0,0
162584,-83.3333333333333,4,2,2,60,0,0
163856,-100,4,2,2,60,0,0
166144,-66.6666666666667,4,2,2,60,0,0
166906,-66.6666666666667,4,2,1,60,0,0
167923,-83.3333333333333,4,2,1,70,0,0
176059,-66.6666666666667,4,2,1,70,0,0
177076,-66.6666666666667,4,2,2,70,0,0
177203,-66.6666666666667,4,2,1,70,0,0
180127,-200,4,2,1,70,0,0
180381,-125,4,2,1,70,0,0
180635,-90.9090909090909,4,2,1,70,0,0
180889,-71.4285714285714,4,2,1,70,0,0
181144,-62.5,4,2,1,70,0,0
184195,-100,4,2,2,60,0,0
185720,-66.6666666666667,4,2,2,60,0,0
186228,-100,4,2,2,60,0,0
186991,-66.6666666666667,4,2,2,60,0,0
188008,-133.333333333333,4,2,2,60,0,0
188262,-100,4,2,2,60,0,0
189534,-133.333333333333,4,2,2,60,0,0
190550,-83.3333333333333,4,2,2,60,0,0
191313,-83.3333333333333,4,2,1,60,0,0
194364,-71.4285714285714,4,2,1,80,0,1
194618,-55.5555555555556,4,2,1,80,0,1
194873,-90.9090909090909,4,2,1,80,0,1
197161,-71.4285714285714,4,2,1,80,0,1
199957,-83.3333333333333,4,2,1,80,0,1
202500,-50,4,2,1,80,0,1
202754,-66.6666666666667,4,2,1,80,0,1
203008,-86.9565217391304,4,2,1,80,0,1
205296,-71.4285714285714,4,2,1,80,0,1
206059,-83.3333333333333,4,2,1,80,0,1
206567,-55.5555555555556,4,2,1,80,0,1
207075,-66.6666666666667,4,2,1,80,0,1
207330,-66.6666666666667,4,2,2,80,0,1
207457,-66.6666666666667,4,2,1,80,0,1
207838,-83.3333333333333,4,2,1,80,0,1
208601,-83.3333333333333,4,2,1,80,0,1
209109,-55.5555555555556,4,2,1,80,0,1
209872,-66.6666666666667,4,2,1,80,0,1
210635,-71.4285714285714,4,2,1,80,0,1
210889,-83.3333333333333,4,2,1,80,0,1
211144,-83.3333333333333,4,2,1,80,0,1
213432,-66.6666666666667,4,2,1,80,0,1
213940,-55.5555555555556,4,2,1,80,0,1
214703,-66.6666666666667,4,2,1,80,0,1
215720,-66.6666666666667,4,2,1,80,0,1
216737,-100,4,2,1,80,0,1
218771,-50,4,2,1,80,0,1
219025,-66.6666666666667,4,2,1,80,0,1
219279,-83.3333333333333,4,2,1,80,0,1
221567,-66.6666666666667,4,2,1,80,0,1
222076,-100,4,2,1,80,0,1
222839,-66.6666666666667,4,2,1,80,0,1
223601,-50,4,2,2,80,0,1
223729,-50,4,2,1,80,0,1
223856,-66.6666666666667,4,2,1,80,0,1
224110,-66.6666666666667,4,2,1,80,0,1
224364,-50,4,2,1,80,0,1
224618,-66.6666666666667,4,2,1,80,0,1
225381,-100,4,2,1,80,0,1
225889,-50,4,2,1,80,0,1
226906,-100,4,2,2,60,0,0
228431,-66.6666666666667,4,2,2,60,0,0
228940,-83.3333333333333,4,2,1,60,0,0
229067,-83.3333333333333,4,2,2,60,0,0
229702,-83.3333333333333,4,2,2,60,0,0
230974,-100,4,2,2,60,0,0
233262,-66.6666666666667,4,2,2,60,0,0
234025,-66.6666666666667,4,2,1,60,0,0
235042,-83.3333333333333,4,2,1,60,0,0
235805,-66.6666666666667,4,2,1,60,0,0
238347,-83.3333333333333,4,2,1,60,0,0
239873,-66.6666666666667,4,2,1,60,0,0
242415,-83.3333333333333,4,2,1,60,0,0
243940,-66.6666666666667,4,2,1,60,0,0
246483,-83.3333333333333,4,2,1,60,0,0
248008,-66.6666666666667,4,2,1,60,0,0
251059,-133.333333333333,4,2,1,60,0,0

[Colours]
Combo1 : 213,166,55
Combo2 : 187,38,38
Combo3 : 222,190,158
Combo4 : 63,145,38

[HitObjects]
256,192,128,12,0,3941,0:0:0:0:
256,192,4195,5,0,3:2:0:0:
256,0,4450,1,8,2:0:0:0:
275,117,4704,1,8,2:0:0:0:
235,93,4831,1,8,2:0:0:0:
276,70,4958,2,0,L|318:81,1,26.9999991760254,8|8,2:0|2:0,0:0:0:0:
182,193,5212,6,0,L|128:193,1,45,6|0,3:2|0:0,0:0:0:0:
111,173,5466,2,0,L|57:173,1,45,2|0,2:0|0:0,0:0:0:0:
45,197,5720,2,0,L|-9:197,1,45,10|0,2:0|0:0,0:0:0:0:
166,316,5974,2,0,P|138:316|101:229,1,116.999994644165,2|0,3:2|3:2,0:0:0:0:
6,34,6483,2,0,P|33:33|71:121,1,116.999994644165,2|8,2:0|2:0,0:0:0:0:
78,99,6991,6,0,P|131:81|145:26,1,116.999994644165,2|0,2:0|3:2,0:0:0:0:
93,248,7500,2,0,P|39:265|25:320,1,116.999994644165,2|8,2:0|2:0,0:0:0:0:
306,384,8008,2,0,P|252:366|238:311,1,116.999994644165,2|0,2:0|3:2,0:0:0:0:
448,384,8517,6,0,L|512:384,1,45,2|0,2:0|3:2,0:0:0:0:
352,319,8771,2,0,L|397:364,1,45,10|0,2:0|0:0,0:0:0:0:
330,205,9025,2,0,L|330:269,1,45,2|0,2:0|0:0,0:0:0:0:
330,131,9279,6,0,L|384:131,1,45,2|0,3:2|0:0,0:0:0:0:
401,151,9533,2,0,L|455:151,1,45,2|0,2:0|0:0,0:0:0:0:
467,127,9787,2,0,L|521:127,1,45,10|0,2:0|0:0,0:0:0:0:
224,0,10042,2,0,P|261:42|264:105,1,116.999994644165,2|0,3:2|3:2,0:0:0:0:
464,295,10550,2,0,P|467:237|505:194,1,116.999994644165,2|8,2:0|2:0,0:0:0:0:
505,194,11059,6,0,P|451:222|389:216,1,116.999994644165,2|0,2:0|3:2,0:0:0:0:
265,100,11567,2,0,P|319:72|381:78,1,116.999994644165,2|8,2:0|2:0,0:0:0:0:
238,280,12076,2,0,P|210:226|216:164,1,116.999994644165,2|0,2:0|3:2,0:0:0:0:
163,327,12584,6,0,L|163:372,1,45,2|0,2:0|3:2,0:0:0:0:
109,226,12838,2,0,L|140:257,1,45,10|0,2:0|0:0,0:0:0:0:
0,193,13092,2,0,L|45:193,1,45,2|0,2:0|0:0,0:0:0:0:
4,11,13347,6,0,L|4:65,1,45,6|0,3:2|0:0,0:0:0:0:
24,82,13601,2,0,L|24:136,1,45,2|0,2:0|0:0,0:0:0:0:
0,148,13855,2,0,L|0:202,1,45,10|0,2:0|0:0,0:0:0:0:
139,0,14110,2,0,P|152:35|88:57,1,116.999994644165,2|0,3:2|3:2,0:0:0:0:
15,299,14618,2,0,P|1:263|65:241,1,116.999994644165,2|8,2:0|2:0,0:0:0:0:
93,61,15127,6,0,P|128:47|150:111,1,116.999994644165,2|0,2:0|3:2,0:0:0:0:
61,238,15635,2,0,P|25:251|3:187,1,116.999994644165,2|8,2:0|2:0,0:0:0:0:
181,178,16144,2,0,P|194:213|130:235,1,116.999994644165,2|0,2:0|3:2,0:0:0:0:
257,163,16652,6,0,L|257:118,1,45,2|0,2:0|3:2,0:0:0:0:
260,276,16906,2,0,L|291:244,1,45,10|0,2:0|0:0,0:0:0:0:
182,358,17161,2,0,L|227:358,1,45,2|0,2:0|0:0,0:0:0:0:
508,373,17415,6,0,L|508:319,1,45,2|0,3:2|0:0,0:0:0:0:
488,302,17669,2,0,L|488:248,1,45,2|0,2:0|0:0,0:0:0:0:
512,236,17923,2,0,L|512:182,1,45,10|0,2:0|0:0,0:0:0:0:
369,353,18178,2,0,P|402:328|376:381,1,116.999994644165,2|0,3:2|3:2,0:0:0:0:
512,122,18686,2,0,P|479:147|505:94,1,116.999994644165,2|8,2:0|2:0,0:0:0:0:
457,93,19195,6,0,P|457:155|418:187,1,116.999994644165,2|0,2:0|3:2,0:0:0:0:
423,381,19703,2,0,P|423:319|462:287,1,116.999994644165,2|8,2:0|2:0,0:0:0:0:
297,79,20211,2,0,P|353:76|391:118,1,116.999994644165,2|0,2:0|3:2,0:0:0:0:
492,0,20720,6,0,L|492:54,1,45,2|0,2:0|3:2,0:0:0:0:
512,71,20974,2,0,L|512:125,1,45,10|0,2:0|0:0,0:0:0:0:
323,147,21228,2,0,L|269:147,1,45,2|0,2:0|0:0,0:0:0:0:
168,190,21483,6,0,P|118:176|123:62,1,180,4|10,3:2|2:0,0:0:0:0:
117,65,22500,1,2,2:0:0:0:
168,190,22754,2,0,P|168:241|126:272,1,107.999996704102,0|10,3:2|2:0,0:0:0:0:
0,338,23517,6,0,P|37:266|130:277,1,180,2|10,3:2|2:0,0:0:0:0:
125,273,24534,1,2,2:0:0:0:
256,384,24788,2,0,L|255:289,1,90,2|10,3:2|2:0,0:0:0:0:
486,193,25550,6,0,B|358:193|422:129|262:129,1,215.999993408203,2|8,3:2|2:0,0:0:0:0:
284,129,26567,1,2,2:0:0:0:
150,108,26822,2,0,P|135:62|191:50,1,107.999996704102,2|10,3:2|2:0,0:0:0:0:
0,10,27584,6,0,P|48:77|62:181,1,180,2|10,3:2|2:0,0:0:0:0:
150,108,28347,1,0,0:0:0:0:
150,108,28601,1,2,2:0:0:0:
259,251,28856,2,0,L|164:251,1,90,0|10,3:2|2:0,0:0:0:0:
63,171,29618,6,0,P|124:142|161:260,1,215.999993408203,6|8,3:2|2:0,0:0:0:0:
512,257,30635,1,0,0:0:0:0:
346,384,30889,2,0,L|346:316,1,67.5000025749208,0|10,3:2|2:0,0:0:0:0:
512,257,31652,5,0,3:2:0:0:
346,316,32161,2,0,P|298:249|284:145,1,180,8|2,2:0|2:0,0:0:0:0:
153,155,32923,2,0,P|181:114|190:52,1,107.999996704102,2|8,3:2|2:0,0:0:0:0:
27,181,33686,6,0,L|27:46,1,135,2|0,3:2|0:0,0:0:0:0:
41,18,34195,2,0,P|89:29|93:74,1,90,10|0,2:0|0:0,0:0:0:0:
97,63,34703,1,2,2:0:0:0:
11,205,34957,2,0,P|64:212|108:242,1,107.999996704102,2|10,3:2|2:0,0:0:0:0:
391,221,35720,6,0,L|391:356,1,135,2|0,3:2|0:0,0:0:0:0:
405,384,36229,2,0,P|453:372|457:327,1,90,10|2,2:0|2:0,0:0:0:0:
461,339,36737,1,2,2:0:0:0:
375,197,36991,2,0,P|428:189|472:159,1,107.999996704102,0|10,3:2|2:0,0:0:0:0:
472,158,37500,1,4,3:2:0:0:
364,32,37754,6,0,L|310:32,1,53.9999983520508,6|0,3:2|0:0,0:0:0:0:
236,113,38008,2,0,L|182:113,1,45
170,83,38262,2,0,L|116:83,1,45,8|0,2:0|0:0,0:0:0:0:
64,192,38517,2,0,P|6:159|10:114,1,107.999996704102,2|0,2:0|0:0,0:0:0:0:
5,124,39025,2,0,P|63:157|59:202,1,107.999996704102,0|10,3:2|2:0,0:0:0:0:
10,314,39534,2,0,P|22:281|49:271,1,53.9999983520508,2|0,2:0|0:0,0:0:0:0:
148,183,39788,6,0,L|202:183,1,53.9999983520508,6|0,3:2|0:0,0:0:0:0:
276,264,40042,2,0,L|330:264,1,45
342,234,40296,2,0,L|396:234,1,45,8|0,2:0|0:0,0:0:0:0:
439,362,40550,2,0,P|443:308|476:266,1,107.999996704102,2|0,2:0|0:0,0:0:0:0:
475,266,41059,2,0,P|434:300|381:306,1,107.999996704102,0|10,3:2|2:0,0:0:0:0:
63,191,41567,1,2,2:0:0:0:
125,223,41695,1,8,2:0:0:0:
117,292,41822,6,0,B|75:310|38:247|95:203|106:246|194:213|196:116|103:65|54:123,1,323.999990112305,6|2,3:2|3:2,0:0:0:0:
55,122,42839,1,10,2:0:0:0:
26,42,43093,6,0,P|52:75|52:128,1,90,0|0,3:2|0:0,0:0:0:0:
27,252,43601,2,0,P|62:225|129:224,1,107.999996704102,0|0,3:2|3:2,0:0:0:0:
256,128,44110,6,0,L|341:128,1,67.5000025749208,0|0,3:2|0:0,0:0:0:0:
385,208,44364,1,8,2:0:0:0:
400,195,44618,2,0,L|454:195,1,53.9999983520508,10|0,2:3|0:0,0:0:0:0:
490,28,44873,5,2,3:2:0:0:
490,64,45000,1,8,2:3:0:0:
422,46,45127,1,10,2:0:0:0:
222,19,45381,5,10,2:0:0:0:
287,65,45508,1,8,2:0:0:0:
239,108,45635,1,2,2:0:0:0:
281,131,45762,1,10,2:0:0:0:
256,192,45889,6,0,L|257:259,1,62.9999980773926,6|0,3:2|0:0,0:0:0:0:
211,384,46144,2,0,P|234:345|262:329,1,62.9999980773926,2|0,2:0|0:0,0:0:0:0:
512,373,46398,6,0,B|473:245|320:127|92:123|20:239|20:239|129:257|148:379|33:402|3:350|26:303,1,863.999973632813,10|8,2:0|2:0,0:0:0:0:
418,277,48686,6,0,B|440:298|457:322|457:322|456:240|511:208,1,188.999994232178,2|0,2:0|0:0,0:0:0:0:
509,134,49195,2,0,L|498:217,1,72,2|0,2:0|3:2,0:0:0:0:
362,206,49449,2,0,L|419:162,1,72,10|0,2:0|0:0,0:0:0:0:
335,117,49703,2,0,L|264:108,1,72,2|0,2:0|0:0,0:0:0:0:
509,5,49957,6,0,P|486:11|483:41,1,45,2|0,3:2|0:0,0:0:0:0:
466,55,50211,2,0,P|455:79|428:85,1,53.9999983520508,2|0,2:0|0:0,0:0:0:0:
388,86,50466,2,0,P|354:94|341:126,1,62.9999980773926,10|0,2:0|0:0,0:0:0:0:
423,218,50720,2,0,P|432:184|411:157,1,72,2|0,2:0|0:0,0:0:0:0:
275,0,50974,6,0,B|233:-37|170:10|181:82|250:97|254:64|301:91|280:142|247:132,1,242.999992584229,2|0,3:2|3:2,0:0:0:0:
190,91,51483,2,0,P|213:66|260:71,1,72,10|0,2:0|0:0,0:0:0:0:
302,175,51737,2,0,P|279:200|232:195,1,62.9999980773926,2|0,2:0|0:0,0:0:0:0:
45,134,51991,6,0,B|16:118|28:74|67:65|130:117|89:155|134:187|184:175,1,215.999993408203,2|8,3:2|2:0,0:0:0:0:
177,176,52754,6,0,P|163:157|130:162,1,45,2|0,2:0|0:0,0:0:0:0:
0,273,53008,1,2,3:2:0:0:
5,311,53135,1,8,2:0:0:0:
78,299,53262,1,10,2:0:0:0:
142,154,53517,1,10,2:0:0:0:
78,299,53771,6,0,L|130:310,1,53.9999983520508,10|8,2:0|2:0,0:0:0:0:
349,222,54025,2,0,P|316:234|284:243,1,62.9999980773926,6|0,3:2|0:0,0:0:0:0:
342,370,54279,2,0,P|372:361|401:350,1,62.9999980773926,2|0,2:0|3:2,0:0:0:0:
512,194,54534,6,0,B|416:285|315:340|171:365|56:348|-63:295|-89:151|6:60|114:41|181:96|184:200|90:220|19:196,1,863.999973632813,10|8,2:0|2:0,0:0:0:0:
18,0,56822,6,0,B|25:27|25:27|112:60|104:154,1,188.999994232178,2|0,2:0|0:0,0:0:0:0:
57,203,57330,2,0,P|40:180|36:138,1,72,2|0,3:2|3:2,0:0:0:0:
240,53,57584,2,0,P|257:76|261:118,1,72,10|0,2:0|0:0,0:0:0:0:
104,152,57839,2,0,L|143:158,1,26.9999991760254,2|0,3:2|0:0,0:0:0:0:
188,384,58093,6,0,B|250:384|250:384|250:315,1,125.999996154785,6|0,3:2|0:0,0:0:0:0:
191,280,58474,1,2,3:2:0:0:
260,181,58601,2,0,L|260:118,1,62.9999980773926,8|0,2:0|0:0,0:0:0:0:
303,260,58856,2,0,P|326:281|374:289,1,62.9999980773926,6|0,3:2|0:0,0:0:0:0:
508,346,59110,6,0,P|443:346|393:399,1,125.999996154785,2|0,3:2|3:2,0:0:0:0:
438,312,59491,1,2,2:0:0:0:
512,238,59618,2,0,L|512:166,1,62.9999980773926,8|0,2:0|0:0,0:0:0:0:
429,68,59872,2,0,L|429:5,1,62.9999980773926,6|0,3:2|0:0,0:0:0:0:
359,228,60127,6,0,B|248:228|303:172|166:172,1,188.999994232178,2|12,2:0|2:3,0:0:0:0:
106,168,60635,2,0,P|46:229|132:233,1,215.999993408203,10|0,2:0|0:0,0:0:0:0:
182,173,61017,1,2,2:0:0:0:
246,218,61144,6,0,P|233:271|226:336,1,107.999996704102,10|2,3:2|2:0,0:0:0:0:
226,323,61525,1,0,0:0:0:0:
280,384,61652,5,10,2:0:0:0:
238,331,61779,1,8,2:0:0:0:
284,286,61906,1,10,2:0:0:0:
247,248,62034,1,8,2:0:0:0:
256,208,62161,6,0,L|256:145,1,62.9999980773926,6|0,3:2|0:0,0:0:0:0:
225,2,62415,2,0,P|240:37|292:42,1,62.9999980773926,2|0,2:0|0:0,0:0:0:0:
490,31,62669,6,0,B|490:100|399:148|334:106|357:92|274:21|170:58|147:174|147:174|158:98|100:58|100:58|80:119|7:139|-36:101|-21:22|37:43,1,792.000024169923,10|8,2:0|2:0,0:0:0:0:
366,113,64957,6,0,P|437:117|501:40,1,161.999995056153,2|0,2:0|0:0,0:0:0:0:
490,31,65466,2,0,L|402:13,1,67.5000025749208,2|0,2:0|3:2,0:0:0:0:
301,76,65720,2,0,L|338:132,1,67.5000025749208,10|0,2:0|0:0,0:0:0:0:
177,213,65974,2,0,L|190:146,1,67.5000025749208,2|0,2:0|0:0,0:0:0:0:
432,218,66228,6,0,P|457:224|473:246,1,53.9999983520508,2|0,3:2|0:0,0:0:0:0:
500,267,66483,2,0,P|489:291|496:316,1,53.9999983520508,2|0,2:0|0:0,0:0:0:0:
511,334,66737,2,0,P|499:378|443:361,1,107.999996704102,10|2,2:0|2:0,0:0:0:0:
243,191,67245,6,0,B|315:175|315:175|258:221|263:305,1,202.500007724762,2|0,3:2|3:2,0:0:0:0:
330,335,67754,2,0,P|311:309|278:307,1,67.5000025749208,10|0,2:0|0:0,0:0:0:0:
150,378,68008,1,2,2:0:0:0:
150,378,68262,6,0,P|138:298|81:220,1,180,2|8,3:2|2:0,0:0:0:0:
88,261,69025,1,2,2:0:0:0:
53,203,69279,1,2,3:2:0:0:
58,87,69534,1,10,2:0:0:0:
183,18,69788,2,0,L|281:33,1,67.5000025749208,10|0,2:0|0:0,0:0:0:0:
381,202,70042,1,10,2:0:0:0:
490,18,70296,6,0,P|451:28|442:73,1,67.5000025749208,6|0,3:2|0:0,0:0:0:0:
381,202,70550,2,0,P|362:229|330:234,1,67.5000025749208,2|0,2:0|3:2,0:0:0:0:
254,20,70805,6,0,B|315:12|394:93|345:153|327:144|316:283|486:286|486:286|448:379|312:395|261:294|261:294|273:237|351:232,1,792.000024169923,10|8,2:0|2:0,0:0:0:0:
494,209,73093,6,0,P|429:198|429:125,1,148.50000453186,2|0,2:0|0:0,0:0:0:0:
427,126,73601,2,0,L|358:136,1,67.5000025749208,2|0,3:2|3:2,0:0:0:0:
332,234,73856,2,0,L|352:376,1,135.000005149842,10|2,2:0|3:2,0:0:0:0:
88,310,74364,6,0,P|168:301|152:204,1,180,6|0,3:2|0:0,0:0:0:0:
169,200,74745,1,2,3:2:0:0:
96,144,74873,2,0,L|6:144,1,90,8|0,2:0|0:0,0:0:0:0:
17,74,75127,2,0,L|84:74,1,67.5000025749208,6|0,3:2|0:0,0:0:0:0:
312,16,75381,6,0,L|312:96,1,67.5000025749208,2|0,3:2|0:0,0:0:0:0:
248,128,75635,2,0,L|248:208,1,67.5000025749208,0|2,3:2|2:0,0:0:0:0:
288,216,75889,2,0,L|288:296,1,67.5000025749208,8|0,2:0|0:0,0:0:0:0:
496,191,76144,6,0,P|429:195|367:168,1,135.000005149842,6|2,3:2|2:0,0:0:0:0:
367,168,76652,1,8,2:3:0:0:
347,169,76779,1,12,2:3:0:0:
432,87,76906,6,0,P|467:76|463:21,1,90,10|8,2:0|2:3,0:0:0:0:
464,15,77288,1,8,2:3:0:0:
374,18,77415,1,10,3:2:0:0:
280,128,77669,2,0,L|224:128,1,45,0|0,0:0|3:2,0:0:0:0:
213,98,77923,5,10,2:0:0:0:
147,80,78050,1,8,2:0:0:0:
88,104,78178,1,8,2:0:0:0:
74,146,78305,1,8,2:0:0:0:
17,192,78432,6,0,B|58:189|81:286|173:279,1,180,6|8,3:2|2:0,0:0:0:0:
156,160,79195,2,0,P|108:200|54:312,1,180,2|0,2:0|3:2,0:0:0:0:
55,303,79957,6,0,B|54:226|3:253|9:169,1,144,10|0,2:0|0:0,0:0:0:0:
200,20,80466,6,0,P|172:73|50:84,1,180,6|8,3:2|2:0,0:0:0:0:
0,0,81228,2,0,P|74:24|221:124,1,251.999992309571,2|0,2:0|3:2,0:0:0:0:
413,0,81991,1,10,2:0:0:0:
512,148,82245,1,2,2:0:0:0:
492,105,82373,1,0,3:2:0:0:
476,141,82500,6,0,B|430:165|376:130|396:92|330:54|277:100,1,216,14|2,3:2|3:2,0:0:0:0:
246,0,83517,2,0,L|239:45,1,36,8|0,2:0|0:0,0:0:0:0:
258,157,83771,1,0,3:2:0:0:
236,185,83898,1,0,0:0:0:0:
249,206,84025,2,0,L|255:252,2,36,0|0|0,0:0|0:0|3:2,0:0:0:0:
266,384,84534,1,0,3:2:0:0:
176,296,84788,6,0,B|168:288|168:288|48:288|48:288|40:280,1,125.999996154785,0|0,0:0|3:2,0:0:0:0:
55,366,85296,6,0,B|57:374|57:374|177:374|177:374|185:382,1,125.999996154785,6|2,2:3|3:2,0:0:0:0:
191,350,85678,1,8,2:3:0:0:
63,342,85805,2,0,L|-1:342,1,62.9999980773926,10|0,2:0|0:0,0:0:0:0:
146,252,86059,1,10,2:0:0:0:
179,281,86186,2,0,L|243:281,1,62.9999980773926,8|0,2:0|0:0,0:0:0:0:
26,254,86440,1,10,2:0:0:0:
0,218,86567,6,0,L|0:152,1,51.7500009870529,6|0,3:2|0:0,0:0:0:0:
37,142,86822,2,0,L|37:76,1,51.7500009870529,2|0,2:0|0:0,0:0:0:0:
0,66,87076,2,0,L|0:0,1,51.7500009870529,10|0,2:0|0:0,0:0:0:0:
116,119,87330,2,0,P|163:110|170:33,1,125.999996154785,2|0,3:2|3:2,0:0:0:0:
175,41,87839,2,0,P|178:100|235:118,1,125.999996154785,2|8,2:0|2:0,0:0:0:0:
452,77,88347,6,0,P|448:17|391:0,1,125.999996154785,2|0,2:0|3:2,0:0:0:0:
234,118,88856,2,0,P|252:174|311:178,1,125.999996154785,2|8,2:0|2:0,0:0:0:0:
311,177,89364,2,0,P|329:120|388:116,1,125.999996154785,2|0,2:0|3:2,0:0:0:0:
504,208,89873,6,0,L|504:144,1,53.9999983520508,2|0,2:0|3:2,0:0:0:0:
417,253,90127,2,0,L|371:207,1,53.9999983520508,10|0,2:0|0:0,0:0:0:0:
387,346,90381,2,0,L|323:346,1,53.9999983520508,2|0,2:0|0:0,0:0:0:0:
256,330,90635,6,0,L|256:389,1,53.9999983520508,2|0,3:2|0:0,0:0:0:0:
229,249,90889,2,0,L|229:308,1,53.9999983520508,2|0,2:0|0:0,0:0:0:0:
256,172,91144,2,0,L|256:241,1,53.9999983520508,10|0,2:0|0:0,0:0:0:0:
183,360,91398,2,0,P|127:383|72:357,1,125.999996154785,2|0,3:2|3:2,0:0:0:0:
11,320,91906,2,0,P|34:263|8:208,1,125.999996154785,2|8,2:0|2:0,0:0:0:0:
7,208,92415,6,0,P|-16:151|9:96,1,125.999996154785,2|0,2:0|3:2,0:0:0:0:
212,111,92923,2,0,P|235:54|209:0,1,125.999996154785,2|8,2:0|2:0,0:0:0:0:
10,96,93432,2,0,P|65:122|121:99,1,125.999996154785,10|0,2:3|3:2,0:0:0:0:
303,8,93940,6,0,L|303:64,1,53.9999983520508,2|0,2:0|3:2,0:0:0:0:
212,111,94195,2,0,L|251:150,1,53.9999983520508,10|10,2:0|2:3,0:0:0:0:
220,248,94449,2,0,L|276:248,1,53.9999983520508,6|6,2:3|2:3,0:0:0:0:
512,282,94703,6,0,L|446:282,1,53.9999983520508,6|0,3:2|0:0,0:0:0:0:
436,245,94958,2,0,L|370:245,1,53.9999983520508,2|0,2:0|0:0,0:0:0:0:
360,282,95212,2,0,L|294:282,1,53.9999983520508,10|0,2:0|0:0,0:0:0:0:
228,150,95466,2,0,P|191:169|214:242,1,125.999996154785,2|0,3:2|3:2,0:0:0:0:
208,239,95974,2,0,P|245:258|222:331,1,125.999996154785,2|8,2:0|2:0,0:0:0:0:
60,378,96483,6,0,P|52:317|8:268,1,125.999996154785,2|0,2:0|3:2,0:0:0:0:
10,269,96991,2,0,P|47:250|24:177,1,125.999996154785,2|8,2:0|2:0,0:0:0:0:
134,119,97500,2,0,P|153:156|226:133,1,125.999996154785,2|0,2:0|3:2,0:0:0:0:
89,32,98008,6,0,L|25:32,1,53.9999983520508,2|0,2:0|3:2,0:0:0:0:
134,119,98262,2,0,L|88:164,1,53.9999983520508,10|0,2:0|0:0,0:0:0:0:
227,149,98516,2,0,L|227:213,1,53.9999983520508,2|0,2:0|0:0,0:0:0:0:
265,27,98771,6,0,L|331:27,1,53.9999983520508,2|0,3:2|0:0,0:0:0:0:
341,64,99026,2,0,L|407:64,1,53.9999983520508,2|0,2:0|0:0,0:0:0:0:
417,27,99280,2,0,L|483:27,1,53.9999983520508,10|0,2:0|0:0,0:0:0:0:
511,143,99534,2,0,P|455:166|400:140,1,125.999996154785,2|0,3:2|3:2,0:0:0:0:
399,139,100042,2,0,P|425:193|401:249,1,125.999996154785,2|8,2:0|2:0,0:0:0:0:
218,111,100550,6,0,P|215:52|269:29,1,125.999996154785,2|0,2:0|3:2,0:0:0:0:
310,136,101059,2,0,P|283:190|307:246,1,125.999996154785,2|8,2:0|2:0,0:0:0:0:
511,251,101567,2,0,P|456:225|400:250,1,125.999996154785,10|0,2:3|3:2,0:0:0:0:
256,384,102076,6,0,L|256:320,1,53.9999983520508,2|0,2:0|3:2,0:0:0:0:
220,245,102330,2,0,L|174:199,1,53.9999983520508,10|10,2:0|2:3,0:0:0:0:
96,172,102584,2,0,L|32:172,1,53.9999983520508,6|6,2:3|2:3,0:0:0:0:
233,154,102839,6,0,B|269:126|269:126|281:39|281:39|255:-4,1,180,4|10,3:2|2:0,0:0:0:0:
257,0,103856,1,2,2:0:0:0:
233,154,104110,2,0,B|219:208|219:208|274:241,1,107.999996704102,0|10,3:2|2:0,0:0:0:0:
428,189,104873,6,0,B|411:215|411:215|261:235,1,180,2|10,3:2|2:0,0:0:0:0:
263,234,105889,1,2,2:0:0:0:
344,383,106144,2,0,L|448:383,1,90,2|10,3:2|2:0,0:0:0:0:
80,384,106906,6,0,B|91:304|91:304|137:262|137:262|148:183,1,215.999993408203,2|8,3:2|2:0,0:0:0:0:
147,190,107923,1,2,2:0:0:0:
0,229,108178,2,0,B|19:278|19:278|109:292,1,107.999996704102,2|10,3:2|2:0,0:0:0:0:
147,190,108940,6,0,B|63:163|63:163|-5:234,1,180,2|10,3:2|2:0,0:0:0:0:
0,229,109957,1,2,2:0:0:0:
219,193,110211,2,0,L|309:193,1,90,0|10,3:2|2:0,0:0:0:0:
64,0,110974,6,0,B|50:13|50:13|80:229,1,215.999993408203,6|8,3:2|2:0,0:0:0:0:
77,208,111991,1,0,0:0:0:0:
145,67,112245,2,0,B|156:35|156:35|145:-4,1,67.5000025749208,0|10,3:2|2:0,0:0:0:0:
313,180,113008,6,0,B|333:207|333:207|399:216|399:216|428:199,1,135.000005149842,0|8,3:2|2:0,0:0:0:0:
428,199,114025,1,2,2:0:0:0:
313,180,114279,2,0,B|312:299,1,107.999996704102,2|8,3:2|2:0,0:0:0:0:
175,384,115042,6,0,B|205:368|205:368|312:375,1,135,2|0,3:2|0:0,0:0:0:0:
325,376,115550,2,0,B|331:343|331:343|311:276,1,90,10|0,2:0|0:0,0:0:0:0:
400,365,116059,1,2,2:0:0:0:
512,278,116313,2,0,B|475:311|475:311|410:290,1,107.999996704102,2|10,3:2|2:0,0:0:0:0:
103,331,117076,6,0,B|73:306|73:306|14:323|14:323|-2:367,1,135,2|0,3:2|0:0,0:0:0:0:
4,373,117584,2,0,B|33:345|33:345|20:281,1,90,10|2,2:0|2:0,0:0:0:0:
152,384,118093,1,2,2:0:0:0:
160,248,118347,2,0,L|272:248,1,107.999996704102,0|10,3:2|2:0,0:0:0:0:
268,248,118856,1,4,3:2:0:0:
512,384,119110,6,0,L|512:330,1,53.9999983520508,6|0,3:2|0:0,0:0:0:0:
431,256,119364,2,0,L|431:202,1,45
461,190,119618,2,0,L|461:136,1,45,8|0,2:0|0:0,0:0:0:0:
512,0,119873,2,0,B|494:49|494:49|434:52,1,107.999996704102,2|0,2:0|0:0,0:0:0:0:
438,52,120381,2,0,B|455:2|455:2|515:0,1,107.999996704102,0|10,3:2|2:0,0:0:0:0:
268,142,120889,2,0,B|251:161|251:161|222:154,1,53.9999983520508,2|0,2:0|0:0,0:0:0:0:
65,0,121144,6,0,L|65:54,1,53.9999983520508,6|0,3:2|0:0,0:0:0:0:
146,128,121398,2,0,L|146:182,1,45
116,194,121652,2,0,L|116:248,1,45,8|0,2:0|0:0,0:0:0:0:
0,384,121906,6,0,B|3:366|3:366|90:343,1,107.999996704102,2|0,2:0|0:0,0:0:0:0:
89,343,122415,2,0,B|72:348|72:348|8:284,1,107.999996704102,0|10,3:2|2:0,0:0:0:0:
223,154,122923,2,0,L|226:217,1,53.9999983520508,2|8,2:0|2:0,0:0:0:0:
381,351,123178,6,0,B|309:340|309:340|318:277|318:277|500:303|500:303|516:192|516:192|397:175,1,539.999983520508,6|2,3:2|3:2,0:0:0:0:
478,251,124703,1,10,2:0:0:0:
429,269,124957,1,0,3:2:0:0:
409,177,125211,1,0,3:2:0:0:
251,277,125466,6,0,B|218:275|218:275|183:301,1,67.5000025749208,0|0,3:2|0:0,0:0:0:0:
179,364,125720,1,8,2:0:0:0:
45,151,125974,6,0,B|12:144|12:144|-14:110,1,53.9999983520508,10|0,2:3|0:0,0:0:0:0:
10,63,126228,1,2,3:2:0:0:
35,72,126356,1,8,2:3:0:0:
81,0,126483,1,10,2:0:0:0:
228,164,126737,5,10,2:0:0:0:
288,118,126864,1,8,2:0:0:0:
239,67,126991,1,2,2:0:0:0:
266,32,127118,1,10,2:0:0:0:
258,3,127245,6,0,L|258:88,1,62.9999980773926,6|0,3:2|0:0,0:0:0:0:
228,164,127500,2,0,B|233:203|233:203|274:198,1,80.9999975280763,2|0,2:0|0:0,0:0:0:0:
494,107,127754,6,0,B|490:76|490:76|413:84|413:84|416:115|416:115|192:138|192:138|180:22|180:22|103:30|103:30|108:77|108:77|30:85|30:85|39:162|39:162|8:165,1,792.000024169923,10|8,2:0|2:0,0:0:0:0:
339,54,130042,6,0,B|400:46|400:46|415:173,1,188.999994232178,2|0,2:0|0:0,0:0:0:0:
483,182,130550,2,0,L|420:189,1,62.9999980773926,2|0,2:0|3:2,0:0:0:0:
274,198,130805,2,0,B|259:323,1,125.999996154785,10|2,2:0|2:0,0:0:0:0:
492,374,131313,6,0,B|486:341|486:341|457:321,1,62.9999980773926,2|0,3:2|0:0,0:0:0:0:
417,275,131567,2,0,B|423:308|423:308|448:325,1,62.9999980773926,2|0,2:0|0:0,0:0:0:0:
359,228,131822,6,0,B|327:216|327:216|295:231,1,62.9999980773926,10|0,2:0|0:0,0:0:0:0:
235,242,132076,2,0,B|267:253|267:253|294:241,1,62.9999980773926,2|0,2:0|0:0,0:0:0:0:
249,384,132330,6,0,B|240:318|240:318|201:305|201:305|190:224,1,188.999994232178,2|0,3:2|3:2,0:0:0:0:
189,175,132839,2,0,L|126:183,1,53.9999983520508,10|0,2:0|0:0,0:0:0:0:
0,201,133093,1,2,2:0:0:0:
19,66,133347,6,0,B|52:27|52:27|166:38|166:38|193:84,1,215.999993408203,2|8,3:2|2:0,0:0:0:0:
264,176,134110,1,2,2:0:0:0:
390,19,134364,5,2,3:2:0:0:
384,83,134491,1,8,2:0:0:0:
432,88,134618,1,10,2:0:0:0:
506,8,134873,1,10,2:0:0:0:
432,88,135127,2,0,L|426:148,1,53.9999983520508,10|8,2:0|2:0,0:0:0:0:
354,269,135381,6,0,B|338:295|338:295|275:305,1,80.9999975280763,6|0,3:2|0:0,0:0:0:0:
300,371,135635,2,0,B|349:363|349:363|372:384,1,80.9999975280763,2|0,2:0|3:2,0:0:0:0:
506,250,135889,6,0,B|443:352|443:352|390:301|390:301|165:269|165:269|227:362|227:362|132:345|132:345|36:217|36:217|-2:202,1,828.000015792847,10|8,2:0|2:0,0:0:0:0:
266,264,138178,6,0,B|404:284|404:284|430:237,1,188.999994232178,2|0,2:0|0:0,0:0:0:0:
427,240,138686,2,0,L|408:165,1,62.9999980773926,2|0,3:2|3:2,0:0:0:0:
311,73,138940,2,0,L|297:125,1,53.9999983520508,10|0,2:0|0:0,0:0:0:0:
280,193,139195,1,2,3:2:0:0:
512,45,139449,6,0,B|388:14|388:14|378:47,1,161.999995056153,6|0,3:2|0:0,0:0:0:0:
387,61,139830,1,2,3:2:0:0:
311,73,139957,2,0,L|239:73,1,67.5000025749208,8|0,2:0|0:0,0:0:0:0:
140,12,140211,1,6,3:2:0:0:
16,168,140466,6,0,L|88:168,1,67.5000025749208,2|0,3:2|0:0,0:0:0:0:
142,223,140720,2,0,L|196:223,1,53.9999983520508,0|2,3:2|2:0,0:0:0:0:
226,193,140974,2,0,L|280:193,1,53.9999983520508,8|0,2:0|0:0,0:0:0:0:
404,325,141228,1,6,3:2:0:0:
472,233,141483,6,0,B|394:243|394:243|404:325,1,161.999995056153,2|12,2:0|2:3,0:0:0:0:
478,365,141991,2,0,B|408:355|408:355|399:347|399:347|320:337,1,161.999995056153,10|0,2:0|0:0,0:0:0:0:
270,281,142373,1,2,2:0:0:0:
192,337,142500,2,0,L|111:347,1,80.9999975280763,10|0,3:2|0:0,0:0:0:0:
91,320,142754,2,0,L|24:329,1,67.5000025749208,2|0,2:0|0:0,0:0:0:0:
222,123,143008,5,10,2:0:0:0:
287,169,143135,1,8,2:0:0:0:
239,212,143262,1,10,2:0:0:0:
281,235,143389,1,8,2:0:0:0:
256,296,143517,6,0,L|256:373,1,62.9999980773926,6|0,3:2|0:0,0:0:0:0:
222,123,143771,2,0,B|230:75|230:75|278:83,1,80.9999975280763,2|0,2:0|0:0,0:0:0:0:
512,152,144025,6,0,B|504:176|504:176|424:168|424:168|416:136|416:136|160:112|160:112|144:144|144:144|38:172|38:172|8:144|8:144|32:32|32:32|76:22|76:22|112:56,1,792.000024169923,10|8,2:0|2:0,0:0:0:0:
239,147,146313,2,0,B|394:162|394:162|408:210,1,188.999994232178,2|0,2:0|0:0,0:0:0:0:
470,201,146822,2,0,L|459:265,1,62.9999980773926,2|0,2:0|3:2,0:0:0:0:
512,384,147076,2,0,L|495:259,1,125.999996154785,10|2,2:0|2:0,0:0:0:0:
443,2,147584,6,0,B|456:11|456:11|511:0,1,62.9999980773926,2|0,3:2|0:0,0:0:0:0:
400,63,147839,2,0,B|402:47|402:47|449:16,1,62.9999980773926,2|0,2:0|0:0,0:0:0:0:
277,0,148093,2,0,B|284:20|284:20|331:46,1,62.9999980773926,10|0,2:0|0:0,0:0:0:0:
250,108,148347,2,0,B|257:88|257:88|294:68,1,62.9999980773926,2|0,2:0|0:0,0:0:0:0:
183,84,148601,6,0,B|157:97|157:97|21:78|21:78|-5:91,1,188.999994232178,2|0,3:2|3:2,0:0:0:0:
8,141,149110,2,0,L|0:87,1,53.9999983520508,10|0,2:0|0:0,0:0:0:0:
105,0,149364,2,0,L|96:53,1,53.9999983520508,2|0,2:0|0:0,0:0:0:0:
311,181,149618,2,0,B|342:137|342:137|454:107|454:107|503:130,1,215.999993408203,2|8,3:2|2:0,0:0:0:0:
496,127,150381,6,0,B|469:113|469:113|457:83,1,53.9999983520508,2|0,2:0|0:0,0:0:0:0:
511,0,150635,1,2,3:2:0:0:
326,109,150889,1,10,2:0:0:0:
283,101,151017,1,0,3:2:0:0:
271,37,151144,1,10,2:0:0:0:
216,195,151398,2,0,B|216:205|216:205|205:258,1,53.9999983520508,10|8,2:0|2:0,0:0:0:0:
84,384,151652,6,0,B|105:370|105:370|178:359,1,80.9999975280763,6|0,3:2|0:0,0:0:0:0:
292,296,151906,2,0,B|271:310|271:310|198:321,1,80.9999975280763,2|0,2:0|3:2,0:0:0:0:
1,382,152161,6,0,B|48:279|48:279|255:246|255:246|417:356|417:356|488:295|488:295|430:248|430:248|441:199|441:199|498:187|498:187|503:227,1,828.000015792847,10|8,2:0|2:0,0:0:0:0:
270,384,154449,6,0,B|290:348|290:348|323:326|323:326|356:218,1,188.999994232178,2|0,2:0|0:0,0:0:0:0:
324,160,154957,2,0,L|339:238,1,62.9999980773926,2|0,3:2|3:2,0:0:0:0:
497,223,155211,2,0,L|436:215,1,53.9999983520508,10|0,2:0|0:0,0:0:0:0:
397,155,155466,6,0,B|411:141|411:141|419:94,1,53.9999983520508,2|0,3:2|0:0,0:0:0:0:
237,0,155720,2,0,L|248:183,1,161.999995056153,6|0,3:2|0:0,0:0:0:0:
214,84,156101,1,2,3:2:0:0:
142,113,156228,2,0,B|123:127|123:127|71:134,1,67.5000025749208,8|0,2:0|0:0,0:0:0:0:
0,35,156483,2,0,B|41:40|41:40|54:68,1,67.5000025749208,6|0,3:2|0:0,0:0:0:0:
154,236,156737,2,0,B|113:231|113:231|100:203,1,67.5000025749208,2|0,3:2|0:0,0:0:0:0:
79,132,156991,1,0,3:2:0:0:
64,365,157245,2,0,L|2:382,1,53.9999983520508,8|0,2:0|0:0,0:0:0:0:
186,322,157500,2,0,L|80:297,1,107.999996704102,6|2,3:2|2:0,0:0:0:0:
80,297,158008,5,8,2:3:0:0:
8,280,158135,1,12,2:3:0:0:
133,241,158262,2,0,B|163:217|163:217|174:167,1,80.9999975280763,10|0,2:0|0:0,0:0:0:0:
229,32,158517,5,8,2:3:0:0:
226,21,158644,1,8,2:3:0:0:
287,101,158771,2,0,L|91:101,1,180,10|0,3:2|0:0,0:0:0:0:
107,101,159152,1,0,3:2:0:0:
179,90,159279,5,10,2:0:0:0:
207,148,159406,1,8,2:0:0:0:
236,185,159534,1,8,2:0:0:0:
290,177,159661,1,8,2:0:0:0:
333,168,159788,6,0,B|350:24|350:24|384:7,1,180,6|8,3:2|2:0,0:0:0:0:
425,124,160550,2,0,L|521:103,1,90,2|0,2:0|0:0,0:0:0:0:
512,104,161059,1,0,3:2:0:0:
421,264,161313,2,0,B|398:200|398:200|333:185,1,135.000005149842,10|0,2:0|0:0,0:0:0:0:
113,313,161822,6,0,B|42:327|42:327|27:257|27:257|98:242,1,215.999993408203,6|8,3:2|2:0,0:0:0:0:
141,384,162584,2,0,B|126:307|126:307|127:286|127:286|104:170,1,215.999993408203,2|0,2:0|3:2,0:0:0:0:
256,0,163347,1,10,2:0:0:0:
16,48,163601,5,2,2:0:0:0:
86,96,163728,1,0,3:2:0:0:
82,69,163856,2,0,B|182:89|182:89|234:156|234:156|314:107,1,270,14|2,3:2|3:2,0:0:0:0:
256,0,164873,1,8,2:0:0:0:
232,152,165127,5,0,3:2:0:0:
264,176,165254,1,0,0:0:0:0:
248,200,165381,1,0,0:0:0:0:
248,200,165508,2,0,L|248:248,2,45,0|0|0,0:0|3:2|0:0,0:0:0:0:
248,104,165889,1,0,3:2:0:0:
176,376,166144,6,0,P|152:314|176:252,1,135,0|0,0:0|3:2,0:0:0:0:
264,376,166652,6,0,P|287:314|263:252,1,135,6|2,2:3|3:2,0:0:0:0:
248,245,167034,1,8,2:3:0:0:
88,240,167161,2,0,P|76:209|88:178,1,67.5000025749208,10|0,2:0|0:0,0:0:0:0:
164,240,167415,2,0,P|175:209|163:178,1,67.5000025749208,10|8,2:0|2:3,0:0:0:0:
80,48,167669,5,6,2:3:0:0:
152,72,167796,1,6,2:3:0:0:
176,48,167923,2,0,B|206:33|206:33|405:108|405:108|437:97,1,269.999991760254,6|0,3:2|0:0,0:0:0:0:
488,135,168686,2,0,L|498:73,1,53.9999983520508,2|0,2:0|0:0,0:0:0:0:
341,112,168940,2,0,B|408:137|408:137|442:256|442:256|472:283,1,215.999993408203,2|8,3:2|2:0,0:0:0:0:
457,269,169703,2,0,L|466:203,1,53.9999983520508,2|0,2:0|0:0,0:0:0:0:
512,384,169957,5,2,3:2:0:0:
462,276,170211,1,2,2:0:0:0:
339,242,170466,1,10,2:0:0:0:
270,123,170720,1,2,2:0:0:0:
346,249,170974,5,2,3:2:0:0:
218,195,171228,1,2,2:0:0:0:
133,285,171483,1,10,2:0:0:0:
5,231,171737,1,2,2:0:0:0:
228,198,171991,6,0,P|270:237|240:381,1,215.999993408203,2|8,3:2|2:0,0:0:0:0:
243,378,172754,2,0,L|233:305,1,53.9999983520508,2|0,2:0|0:0,0:0:0:0:
306,311,173008,2,0,B|337:338|337:338|519:388,1,215.999993408203,2|8,3:2|2:0,0:0:0:0:
505,384,173771,5,2,2:0:0:0:
423,384,174025,1,2,3:2:0:0:
306,311,174279,1,2,2:0:0:0:
224,311,174533,1,10,2:0:0:0:
82,384,174788,1,2,2:0:0:0:
0,384,175042,2,0,L|0:221,1,161.999995056153,2|0,3:2|3:2,0:0:0:0:
75,284,175550,2,0,L|14:303,1,53.9999983520508,10|0,2:0|0:0,0:0:0:0:
147,346,175805,2,0,L|154:293,1,53.9999983520508,2|0,2:0|0:0,0:0:0:0:
249,0,176059,6,0,P|262:67|246:291,1,270.000010299683,6|8,3:2|2:0,0:0:0:0:
252,267,176822,2,0,B|258:300|258:300|265:257,1,67.5000025749208,2|0,2:0|0:0,0:0:0:0:
255,0,177076,6,0,P|242:67|258:291,1,270.000010299683,6|8,3:2|2:0,0:0:0:0:
299,65,177839,6,0,B|264:69|264:69|210:120|210:120|161:127,1,135.000005149842,2|0,2:0|3:2,0:0:0:0:
184,123,178347,1,2,2:0:0:0:
325,145,178601,1,10,2:0:0:0:
396,109,178856,1,2,2:0:0:0:
172,207,179110,2,0,P|104:232|23:210,1,135.000005149842,2|2,3:2|2:0,0:0:0:0:
0,159,179491,1,0,3:2:0:0:
81,89,179618,2,0,L|70:162,1,67.5000025749208,10|0,2:0|0:0,0:0:0:0:
0,283,179873,2,0,L|11:356,1,67.5000025749208,2|0,2:0|0:0,0:0:0:0:
271,382,180127,6,0,L|240:385,1,22.5,2|0,3:2|0:0,0:0:0:0:
232,361,180381,2,0,L|267:357,1,36,2|0,2:0|0:0,0:0:0:0:
320,275,180635,6,0,L|270:280,1,49.5000015106202,10|0,2:0|0:0,0:0:0:0:
143,219,180889,2,0,L|206:212,1,62.9999980773926,2|0,2:0|0:0,0:0:0:0:
319,122,181144,6,0,P|233:116|223:57,1,144,2|0,3:2|0:0,0:0:0:0:
272,15,181525,1,0,3:2:0:0:
341,53,181652,2,0,B|461:72|461:72|493:46,1,144,10|2,2:0|2:0,0:0:0:0:
272,15,182161,6,0,P|246:75|56:54,1,288,2|8,3:2|2:0,0:0:0:0:
57,57,182923,1,0,0:0:0:0:
324,265,183178,2,0,L|318:105,1,144,2|0,3:2|0:0,0:0:0:0:
247,201,183559,1,0,3:2:0:0:
156,150,183686,2,0,L|160:233,1,72,10|0,2:0|0:0,0:0:0:0:
159,221,183940,1,0,0:0:0:0:
512,193,184195,6,0,B|484:189|484:189|430:70|430:70|391:64,1,180,6|8,3:2|2:0,0:0:0:0:
304,134,184957,2,0,P|386:115|488:85,1,180,2|0,2:0|3:2,0:0:0:0:
431,255,185720,2,0,P|403:213|320:239,1,135.000005149842,10|0,2:0|0:0,0:0:0:0:
126,364,186228,6,0,P|129:318|18:312,1,180,6|8,3:2|2:0,0:0:0:0:
154,294,186991,2,0,L|175:157,1,135.000005149842,2|0,2:0|0:0,0:0:0:0:
174,160,187500,1,2,3:2:0:0:
281,8,187754,1,10,2:0:0:0:
358,105,188008,2,0,L|324:100,1,33.7500012874604,2|0,2:0|3:2,0:0:0:0:
158,19,188262,6,0,B|218:40|218:40|212:117|271:160|271:160|258:234,1,270,2|0,3:2|0:0,0:0:0:0:
259,227,189279,1,0,0:0:0:0:
399,310,189534,2,0,L|475:296,1,67.5000025749208,2|10,3:2|2:0,0:0:0:0:
452,226,190042,2,0,L|385:238,1,67.5000025749208,0|2,0:0|3:2,0:0:0:0:
136,368,190550,6,0,B|120:352|120:352|34:352,1,107.999996704102,0|2,0:0|3:2,0:0:0:0:
184,288,191059,2,0,B|168:272|168:272|82:272,1,107.999996704102,8|2,2:3|3:2,0:0:0:0:
232,208,191567,2,0,B|216:192|216:192|184:192,1,53.9999983520508,10|0,2:0|0:0,0:0:0:0:
48,48,191822,5,10,2:0:0:0:
96,96,191949,1,10,2:0:0:0:
72,120,192076,1,8,2:3:0:0:
120,168,192203,1,12,2:3:0:0:
96,192,192330,1,2,3:2:0:0:
190,262,192584,5,10,2:0:0:0:
48,48,192839,5,10,2:0:0:0:
96,96,192966,1,10,2:0:0:0:
72,120,193093,1,8,2:3:0:0:
120,168,193220,1,10,2:0:0:0:
96,192,193347,1,10,3:2:0:0:
160,224,193474,1,10,2:0:0:0:
224,208,193601,1,8,2:3:0:0:
232,168,193728,1,10,2:0:0:0:
296,136,193856,5,10,3:2:0:0:
328,128,193983,1,10,2:0:0:0:
360,120,194110,1,4,2:3:0:0:
392,112,194237,1,10,2:0:0:0:
456,144,194364,6,0,L|513:177,1,62.9999980773926,6|0,3:2|0:0,0:0:0:0:
351,7,194618,2,0,P|318:27|305:67,1,80.9999975280763,2|0,2:0|0:0,0:0:0:0:
482,252,194873,6,0,B|399:243|355:338|355:338|386:150|513:131|513:131|451:-27|315:5|277:72|340:165|409:97,1,792.000024169923,10|8,2:0|2:0,0:0:0:0:
193,0,197161,6,0,B|168:25|166:76|205:128|281:95|270:43|254:29,1,188.999994232178,2|0,2:0|0:0,0:0:0:0:
251,37,197669,2,0,P|256:75|258:111,1,62.9999980773926,2|0,2:0|3:2,0:0:0:0:
92,199,197923,2,0,P|158:185|232:179,1,125.999996154785,10|2,2:0|2:0,0:0:0:0:
11,200,198432,6,0,P|-7:170|7:135,1,62.9999980773926,2|0,3:2|0:0,0:0:0:0:
0,265,198686,2,0,P|5:234|30:217,1,62.9999980773926,2|0,2:0|0:0,0:0:0:0:
179,337,198940,2,0,P|173:367|148:384,1,62.9999980773926,10|0,2:0|0:0,0:0:0:0:
143,280,199195,2,0,P|161:306|154:336,1,62.9999980773926,2|0,2:0|0:0,0:0:0:0:
216,180,199449,6,0,B|268:131|322:134|358:186|305:244|268:205,1,188.999994232178,2|0,3:2|3:2,0:0:0:0:
305,227,199957,2,0,L|370:239,1,53.9999983520508,10|0,2:0|0:0,0:0:0:0:
492,204,200211,1,2,2:0:0:0:
392,63,200466,2,0,P|386:145|513:197,1,215.999993408203,2|8,3:2|2:0,0:0:0:0:
492,204,201228,6,0,L|432:213,1,53.9999983520508,2|0,2:0|0:0,0:0:0:0:
270,124,201483,1,2,3:2:0:0:
263,93,201610,1,8,2:0:0:0:
320,49,201737,1,10,2:0:0:0:
49,28,201991,6,0,P|63:57|86:76,1,53.9999983520508,10|0,2:0|0:0,0:0:0:0:
146,52,202245,2,0,P|152:26|149:0,1,53.9999983520508,10|8,2:0|2:0,0:0:0:0:
0,202,202500,2,0,P|39:185|89:190,1,90,6|0,3:2|0:0,0:0:0:0:
193,116,202754,2,0,P|153:132|103:127,1,67.5000025749208,2|0,2:0|3:2,0:0:0:0:
25,307,203008,6,0,B|-21:332|-5:396|56:418|97:396|145:321|139:201|54:146|54:146|145:199|216:127|216:127|185:101|151:110|120:41|136:-52|258:-20|220:52,1,828.000015792847,10|8,2:0|2:0,0:0:0:0:
67,198,205296,6,0,B|109:222|122:266|93:313|93:313|96:285|73:258,1,188.999994232178,2|0,2:0|0:0,0:0:0:0:
23,309,205805,2,0,P|8:344|2:381,1,62.9999980773926,2|0,3:2|3:2,0:0:0:0:
200,342,206059,2,0,P|183:315|172:285,1,53.9999983520508,10|0,2:0|0:0,0:0:0:0:
212,223,206313,1,2,3:2:0:0:
268,381,206567,6,0,L|449:381,1,161.999995056153,6|0,3:2|0:0,0:0:0:0:
492,346,206949,1,2,3:2:0:0:
385,314,207076,2,0,P|370:285|368:244,1,67.5000025749208,8|0,2:0|0:0,0:0:0:0:
436,63,207330,2,0,P|451:33|454:0,1,67.5000025749208,6|0,3:2|0:0,0:0:0:0:
512,139,207584,6,0,L|432:139,1,67.5000025749208,2|0,3:2|0:0,0:0:0:0:
365,75,207839,2,0,L|285:75,1,53.9999983520508,0|2,3:2|2:0,0:0:0:0:
141,2,208093,1,8,2:0:0:0:
244,105,208347,6,0,L|244:185,1,53.9999983520508,6|0,3:2|0:0,0:0:0:0:
307,302,208601,2,0,L|307:382,1,53.9999983520508,2|0,2:0|0:0,0:0:0:0:
359,241,208856,1,8,2:3:0:0:
320,171,208983,1,12,2:3:0:0:
244,159,209110,2,0,P|194:152|93:218,1,161.999995056153,10|0,2:0|0:0,0:0:0:0:
38,160,209491,1,2,2:0:0:0:
15,236,209618,6,0,P|48:273|86:190,1,161.999995056153,10|2,3:2|2:0,0:0:0:0:
171,176,210000,1,0,0:0:0:0:
227,231,210127,5,10,2:0:0:0:
273,166,210254,1,8,2:0:0:0:
316,214,210381,1,10,2:0:0:0:
339,172,210508,1,8,2:0:0:0:
400,197,210636,6,0,L|477:197,1,62.9999980773926,6|0,3:2|0:0,0:0:0:0:
358,62,210889,2,0,P|341:93|298:92,1,53.9999983520508,2|0,2:0|0:0,0:0:0:0:
475,205,211144,6,0,B|509:183|571:244|505:356|441:279|388:317|380:374|380:374|405:131|405:131|404:140|404:140|494:129|439:51|524:27|524:27|372:43|372:43|369:68,1,863.999973632813,10|8,2:0|2:0,0:0:0:0:
134,26,213432,6,0,B|203:35|203:35|228:79|228:79|325:88,1,202.500007724762,2|0,2:0|0:0,0:0:0:0:
232,19,213940,2,0,P|226:68|222:102,1,80.9999975280763,2|0,2:0|3:2,0:0:0:0:
95,158,214195,2,0,B|119:93|43:34|1:115|33:121,1,161.999995056153,10|2,2:0|2:0,0:0:0:0:
238,247,214703,6,0,L|314:257,1,67.5000025749208,2|0,3:2|0:0,0:0:0:0:
300,384,214957,2,0,L|258:330,1,67.5000025749208,2|0,2:0|0:0,0:0:0:0:
164,195,215211,6,0,L|224:148,1,67.5000025749208,10|0,2:0|0:0,0:0:0:0:
304,248,215465,2,0,L|237:239,1,67.5000025749208,2|0,2:0|0:0,0:0:0:0:
18,379,215720,6,0,B|31:287|102:249|102:249|52:230,1,202.500007724762,2|0,3:2|3:2,0:0:0:0:
74,223,216228,2,0,P|125:241|167:251,1,67.5000025749208,10|0,2:0|0:0,0:0:0:0:
321,143,216483,1,2,2:0:0:0:
237,239,216737,2,0,P|223:165|202:59,1,180,2|8,3:2|2:0,0:0:0:0:
321,143,217500,1,2,2:0:0:0:
248,170,217754,5,2,3:2:0:0:
261,99,218008,1,10,2:0:0:0:
400,40,218262,1,10,2:0:0:0:
508,205,218517,1,10,2:0:0:0:
286,371,218771,6,0,P|279:337|266:268,1,90,6|0,3:2|0:0,0:0:0:0:
227,220,219025,2,0,P|233:186|239:153,1,67.5000025749208,2|0,2:0|3:2,0:0:0:0:
268,35,219279,6,0,B|273:18|273:18|10:60|10:60|-3:141|57:149|55:132|104:167|97:218|97:218|114:193|114:193|66:265|66:265|23:320|67:371|67:371|67:318|123:275|192:301,1,863.999973632813,10|8,2:0|2:0,0:0:0:0:
21,206,221567,6,0,B|119:177|119:177|178:178|201:230,1,202.500007724762,2|0,2:0|0:0,0:0:0:0:
215,238,222076,2,0,L|278:252,1,45,2|0,3:2|3:2,0:0:0:0:
466,191,222330,1,10,2:0:0:0:
466,191,222584,1,2,3:2:0:0:
336,341,222839,6,0,P|320:284|394:244,1,135.000005149842,6|0,3:2|0:0,0:0:0:0:
392,242,223220,1,2,3:2:0:0:
449,317,223347,2,0,P|439:348|410:363,1,67.5000025749208,8|0,2:0|0:0,0:0:0:0:
258,247,223601,6,0,L|258:157,1,90,6|0,3:2|0:0,0:0:0:0:
315,114,223856,2,0,L|315:46,1,67.5000025749208,2|0,3:2|0:0,0:0:0:0:
190,47,224110,6,0,L|190:114,1,67.5000025749208,0|2,3:2|2:0,0:0:0:0:
247,157,224364,2,0,L|247:247,1,90,8|0,2:0|0:0,0:0:0:0:
22,341,224618,6,0,B|100:328|51:281|127:267,1,135.000005149842,6|2,3:2|2:0,0:0:0:0:
126,267,225127,1,8,2:3:0:0:
160,201,225254,1,12,2:3:0:0:
56,193,225381,2,0,P|33:188|11:184,1,45,10|0,2:0|0:0,0:0:0:0:
0,117,225635,1,8,2:3:0:0:
4,103,225762,1,8,2:3:0:0:
131,133,225889,6,0,P|153:128|317:99,1,180,10|0,3:2|0:0,0:0:0:0:
308,100,226271,1,0,3:2:0:0:
372,38,226398,1,10,2:0:0:0:
438,64,226525,1,8,2:0:0:0:
426,116,226652,1,8,2:0:0:0:
450,142,226779,1,8,2:0:0:0:
476,137,226906,6,0,B|426:113|426:113|366:144|392:223,1,180,6|8,3:2|2:0,0:0:0:0:
419,332,227669,2,0,B|419:278|446:302|459:250,1,90,2|0,2:0|0:0,0:0:0:0:
457,254,228178,1,0,3:2:0:0:
293,148,228432,2,0,P|326:204|402:217,1,135.000005149842,10|0,2:0|0:0,0:0:0:0:
213,330,228940,6,0,P|204:377|149:383,1,107.999996704102,6|0,3:2|0:0,0:0:0:0:
67,235,229449,1,8,2:0:0:0:
220,256,229703,2,0,P|134:277|81:390,1,215.999993408203,2|0,2:0|3:2,0:0:0:0:
67,235,230466,1,10,2:0:0:0:
0,86,230720,5,2,2:0:0:0:
12,71,230847,1,0,3:2:0:0:
54,131,230974,2,0,B|19:168|19:168|120:105|200:133|200:133|186:169,1,270,14|2,3:2|3:2,0:0:0:0:
67,235,231991,1,8,2:0:0:0:
189,159,232245,1,0,3:2:0:0:
227,137,232373,1,0,0:0:0:0:
239,143,232500,2,0,L|286:160,2,45,0|0|0,0:0|0:0|3:2,0:0:0:0:
127,196,233008,1,0,3:2:0:0:
341,118,233262,6,0,B|348:131|348:131|348:273,1,135.000005149842,0|0,0:0|3:2,0:0:0:0:
512,256,233771,6,0,B|505:243|505:243|505:101,1,135.000005149842,6|2,2:3|3:2,0:0:0:0:
491,123,234152,1,8,2:3:0:0:
480,236,234279,2,0,L|480:324,1,67.5000025749208,10|0,2:0|0:0,0:0:0:0:
366,154,234534,1,10,2:0:0:0:
403,129,234661,2,0,L|403:41,1,67.5000025749208,8|0,0:2|0:0,0:0:0:0:
389,234,234915,1,10,2:2:0:0:
348,251,235042,6,0,L|294:251,1,53.9999983520508,6|0,3:2|0:0,0:0:0:0:
272,216,235296,2,0,L|200:216,1,53.9999983520508,2|0,2:0|0:0,0:0:0:0:
196,251,235550,2,0,L|124:251,1,53.9999983520508,10|0,2:0|0:0,0:0:0:0:
56,96,235805,2,0,P|120:112|139:179,1,135.000005149842,2|0,3:2|3:2,0:0:0:0:
140,172,236313,2,0,P|76:188|57:255,1,135.000005149842,2|8,2:0|2:0,0:0:0:0:
262,370,236822,6,0,P|263:284|307:243,1,135.000005149842,2|0,2:0|3:2,0:0:0:0:
293,250,237330,2,0,P|271:188|208:173,1,135.000005149842,2|8,2:0|2:0,0:0:0:0:
124,97,237839,2,0,P|145:158|208:173,1,135.000005149842,2|0,2:0|3:2,0:0:0:0:
385,67,238347,6,0,L|358:20,1,53.9999983520508,2|0,2:0|3:2,0:0:0:0:
273,19,238601,2,0,L|246:65,1,53.9999983520508,10|0,2:0|0:0,0:0:0:0:
288,140,238856,2,0,L|341:140,1,53.9999983520508,2|0,2:0|0:0,0:0:0:0:
488,115,239110,6,0,L|488:169,1,53.9999983520508,2|0,3:2|0:0,0:0:0:0:
453,191,239364,2,0,L|453:263,1,53.9999983520508,2|0,2:0|0:0,0:0:0:0:
488,267,239618,2,0,L|488:339,1,53.9999983520508,10|0,2:0|0:0,0:0:0:0:
423,371,239873,2,0,P|359:355|340:288,1,135.000005149842,2|0,3:2|3:2,0:0:0:0:
338,294,240381,2,0,P|316:355|253:370,1,135.000005149842,2|8,2:0|2:0,0:0:0:0:
250,198,240889,6,0,P|271:136|334:121,1,135.000005149842,2|0,2:0|3:2,0:0:0:0:
334,121,241398,2,0,P|312:182|249:197,1,135.000005149842,2|8,2:0|2:0,0:0:0:0:
253,370,241906,2,0,P|231:308|168:293,1,135.000005149842,10|0,2:3|3:2,0:0:0:0:
176,133,242415,6,0,L|129:160,1,53.9999983520508,2|0,2:0|3:2,0:0:0:0:
0,133,242669,2,0,L|46:160,1,53.9999983520508,10|10,2:0|2:3,0:0:0:0:
87,285,242924,2,0,L|87:231,1,53.9999983520508,6|6,2:3|2:3,0:0:0:0:
150,24,243178,6,0,L|204:24,1,53.9999983520508,6|0,3:2|0:0,0:0:0:0:
226,59,243432,2,0,L|280:59,1,53.9999983520508,2|0,2:0|0:0,0:0:0:0:
302,24,243686,2,0,L|356:24,1,53.9999983520508,10|0,2:0|0:0,0:0:0:0:
492,26,243940,2,0,P|429:41|408:103,1,135.000005149842,2|0,3:2|3:2,0:0:0:0:
408,102,244449,2,0,P|470:117|492:178,1,135.000005149842,2|8,2:0|2:0,0:0:0:0:
278,200,244957,6,0,P|339:176|401:200,1,135.000005149842,2|0,2:0|3:2,0:0:0:0:
401,200,245466,2,0,P|422:261|485:276,1,135.000005149842,2|8,2:0|2:0,0:0:0:0:
485,276,245974,2,0,P|422:291|400:352,1,135.000005149842,2|0,2:0|3:2,0:0:0:0:
320,320,246483,6,0,L|293:366,1,53.9999983520508,2|0,2:0|3:2,0:0:0:0:
208,368,246737,2,0,L|181:321,1,53.9999983520508,10|0,2:0|0:0,0:0:0:0:
223,247,246992,2,0,L|276:246,1,53.9999983520508,2|0,2:0|0:0,0:0:0:0:
64,296,247245,6,0,L|64:242,1,53.9999983520508,2|0,3:2|0:0,0:0:0:0:
99,220,247499,2,0,L|99:166,1,53.9999983520508,2|0,2:0|0:0,0:0:0:0:
64,144,247753,2,0,L|64:90,1,53.9999983520508,10|0,2:0|0:0,0:0:0:0:
2,28,248008,2,0,P|63:51|125:28,1,135.000005149842,2|0,3:2|3:2,0:0:0:0:
125,27,248517,2,0,P|186:50|248:27,1,135.000005149842,2|8,2:0|2:0,0:0:0:0:
435,17,249025,6,0,P|372:32|350:93,1,135.000005149842,2|0,2:0|3:2,0:0:0:0:
350,93,249534,2,0,P|373:154|350:216,1,135.000005149842,2|8,2:0|2:0,0:0:0:0:
349,216,250042,2,0,P|410:192|472:216,1,135.000005149842,10|0,2:3|3:2,0:0:0:0:
224,384,250550,6,0,L|224:304,1,67.5000025749208,2|0,0:2|0:0,0:0:0:0:
349,216,250805,2,0,L|349:136,1,67.5000025749208,10|8,2:0|2:3,0:0:0:0:
256,67,251059,2,0,L|256:-13,1,67.5000025749208,6|0,2:3|0:0,0:0:0:0:
