osu file format v14

[General]
AudioFilename: audio.mp3
AudioLeadIn: 0
PreviewTime: 73448
Countdown: 0
SampleSet: Soft
StackLeniency: 0.4
Mode: 0
LetterboxInBreaks: 0
EpilepsyWarning: 1
WidescreenStoryboard: 1

[Editor]
Bookmarks: 892,17559,31781,46226,60448,74448,88670,95781,110226,124448,138448,152670,159781,174003,188226
DistanceSpacing: 1
BeatDivisor: 8
GridSize: 4
TimelineZoom: 2.799999

[Metadata]
Title:Hana Uranai
TitleUnicode:花占い
Artist:Vaundy
ArtistUnicode:Vaundy
Creator:Jiysea
Version:Shukumei
Source:ボクの殺意が恋をした
Tags:japanese pop jpop j-pop Boku no Satsui ga Koi wo Shita theme song Flower fortune telling digital single バウンディ
BeatmapID:3515032
BeatmapSetID:1719972

[Difficulty]
HPDrainRate:5
CircleSize:4.2
OverallDifficulty:8.6
ApproachRate:9.2
SliderMultiplier:2.2
SliderTickRate:1

[Events]
//Background and Video events
0,0,"real bg.jpg",0,0
//Break Periods
//Storyboard Layer 0 (Background)
//Storyboard Layer 1 (Fail)
//Storyboard Layer 2 (Pass)
//Storyboard Layer 3 (Foreground)
Sprite,Foreground,Centre,"sb\ring.png",0,0 M,0,153337,,501,56 C,0,153337,,128,128,255 F,18,153337,153781,0.8,0 S,19,153337,153781,0,0.35
Sprite,Foreground,Centre,"sb\ring.png",0,0 M,0,153781,,423,196 C,0,153781,,252,215,120 F,18,153781,154225,0.8,0 S,19,153781,154225,0,0.35
Sprite,Foreground,Centre,"sb\ring.png",0,0 M,0,154003,,314,108 C,0,154003,,252,215,120 F,18,154003,154447,0.8,0 S,19,154003,154447,0,0.35
Sprite,Foreground,Centre,"sb\ring.png",0,0 M,0,154226,,280,235 C,0,154226,,252,215,120 F,18,154226,154670,0.8,0 S,19,154226,154670,0,0.35
Sprite,Foreground,Centre,"sb\ring.png",0,0 M,0,154448,,127,204 C,0,154448,,202,149,255 F,18,154448,154892,0.8,0 S,19,154448,154892,0,0.35
Sprite,Foreground,Centre,"sb\ring.png",0,0 M,0,155115,,411,440 C,0,155115,,128,128,255 F,18,155115,155559,0.8,0 S,19,155115,155559,0,0.35
Sprite,Foreground,Centre,"sb\ring.png",0,0 M,0,155559,,519,423 C,0,155559,,252,215,120 F,18,155559,156003,0.8,0 S,19,155559,156003,0,0.35
Sprite,Foreground,Centre,"sb\ring.png",0,0 M,0,155781,,576,323 C,0,155781,,202,149,255 F,18,155781,156225,0.8,0 S,19,155781,156225,0,0.35
Sprite,Foreground,Centre,"sb\ring.png",0,0 M,0,156003,,447,254 C,0,156003,,202,149,255 F,18,156003,156447,0.8,0 S,19,156003,156447,0,0.35
Sprite,Foreground,Centre,"sb\ring.png",0,0 M,0,156226,,573,308 C,0,156226,,128,128,255 F,18,156226,156670,0.8,0 S,19,156226,156670,0,0.35
Sprite,Foreground,Centre,"sb\ring.png",0,0 M,0,156892,,449,143 C,0,156892,,252,215,120 F,18,156892,157336,0.8,0 S,19,156892,157336,0,0.35
Sprite,Foreground,Centre,"sb\ring.png",0,0 M,0,157337,,431,85 C,0,157337,,202,149,255 F,18,157337,157781,0.8,0 S,19,157337,157781,0,0.35
Sprite,Foreground,Centre,"sb\ring.png",0,0 M,0,157559,,170,155 C,0,157559,,202,149,255 F,18,157559,158003,0.8,0 S,19,157559,158003,0,0.35
Sprite,Foreground,Centre,"sb\ring.png",0,0 M,0,157781,,299,91 C,0,157781,,202,149,255 F,18,157781,158225,0.8,0 S,19,157781,158225,0,0.35
Sprite,Foreground,Centre,"sb\ring.png",0,0 M,0,158003,,312,243 C,0,158003,,128,128,255 F,18,158003,158447,0.8,0 S,19,158003,158447,0,0.35
Sprite,Foreground,Centre,"sb\ring.png",0,0 M,0,158670,,239,402 C,0,158670,,128,128,255 F,18,158670,159114,0.8,0 S,19,158670,159114,0,0.35
Sprite,Foreground,Centre,"sb\ring.png",0,0 M,0,158892,,334,351 C,0,158892,,128,128,255 F,18,158892,159336,0.8,0 S,19,158892,159336,0,0.35
Sprite,Foreground,Centre,"sb\ring.png",0,0 M,0,159559,,442,104 C,0,159559,,252,215,120 F,18,159559,160003,0.8,0 S,19,159559,160003,0,0.35
Sprite,Foreground,Centre,"sb\ring.png",0,0 M,0,172226,,454,420 C,0,172226,,81,69,191 F,18,172226,172670,0.8,0 S,19,172226,172670,0,0.3 C,0,172670,,230,230,230 C,0,172892,,0,0,0 C,0,173115,173559,0,0,0,230,230,230
Sprite,Foreground,Centre,"sb\ring.png",0,0 C,0,172226,,81,69,191 M,0,172670,,463,362 C,0,172670,,230,230,230 F,18,172670,173114,0.8,0 S,19,172670,173114,0,0.3 C,0,172892,,0,0,0 C,0,173115,173559,0,0,0,230,230,230
Sprite,Foreground,Centre,"sb\ring.png",0,0 C,0,172226,,81,69,191 C,0,172670,,230,230,230 M,0,172892,,576,338 C,0,172892,,0,0,0 F,18,172892,173336,0.8,0 S,19,172892,173336,0,0.3 C,0,173115,173559,0,0,0,230,230,230
Sprite,Foreground,Centre,"sb\ring.png",0,0 C,0,172226,,81,69,191 C,0,172670,,230,230,230 C,0,172892,,0,0,0 M,0,173115,,315,398 F,18,173115,173559,0.8,0 S,19,173115,173559,0,0.3 C,0,173115,173559,0,0,0,230,230,230
//Storyboard Layer 4 (Overlay)
//Storyboard Sound Samples

[TimingPoints]
4,444.444444444444,4,2,2,50,1,0
1559,-100,4,2,2,50,0,0
4226,-76.9230769230769,4,2,2,50,0,0
5115,-100,4,2,2,50,0,0
12226,-66.6666666666667,4,2,2,50,0,0
12670,-76.9230769230769,4,2,2,50,0,0
13115,-90.9090909090909,4,2,2,50,0,0
14003,-333.333333333333,4,2,2,50,0,0
16003,-333.333333333333,4,2,3,50,0,0
16226,-250,4,2,3,50,0,0
16374,-200,4,2,3,55,0,0
16596,-166.666666666667,4,2,3,60,0,0
16818,-142.857142857143,4,2,3,65,0,0
17041,-125,4,2,3,70,0,0
17263,-111.111111111111,4,2,3,75,0,0
17485,-100,4,2,3,80,0,0
17559,-66.6666666666667,4,2,1,80,0,0
17892,-66.6666666666667,4,2,1,5,0,0
18003,-83.3333333333333,4,2,1,80,0,0
19337,-66.6666666666667,4,2,1,80,0,0
19670,-66.6666666666667,4,2,1,5,0,0
19781,-83.3333333333333,4,2,1,80,0,0
21115,-66.6666666666667,4,2,1,80,0,0
21448,-66.6666666666667,4,2,1,5,0,0
21559,-83.3333333333333,4,2,1,80,0,0
22670,-133.333333333333,4,2,1,80,0,0
22892,-66.6666666666667,4,2,1,80,0,0
23226,-66.6666666666667,4,2,1,5,0,0
23337,-76.9230769230769,4,2,1,80,0,0
23781,-100,4,2,1,80,0,0
24670,-66.6666666666667,4,2,1,80,0,0
25003,-66.6666666666667,4,2,1,5,0,0
25115,-83.3333333333333,4,2,1,80,0,0
26448,-66.6666666666667,4,2,1,80,0,0
26781,-66.6666666666667,4,2,1,5,0,0
26892,-83.3333333333333,4,2,1,80,0,0
28226,-66.6666666666667,4,2,1,80,0,0
28559,-66.6666666666667,4,2,1,5,0,0
28670,-83.3333333333333,4,2,1,80,0,0
30003,-66.6666666666667,4,2,1,80,0,0
30337,-66.6666666666667,4,2,1,5,0,0
30448,-76.9230769230769,4,2,1,80,0,0
30892,-100,4,2,1,80,0,0
31003,-100,4,2,1,5,0,0
31115,-83.3333333333333,4,2,1,80,0,0
31226,-83.3333333333333,4,2,1,5,0,0
31337,-83.3333333333333,4,2,1,80,0,0
31781,-100,4,2,2,80,0,0
32115,-100,4,2,2,5,0,0
32226,-100,4,2,1,50,0,0
32448,-133.333333333333,4,2,1,50,0,0
35337,-133.333333333333,4,2,2,50,0,0
35559,-133.333333333333,4,2,1,50,0,0
38892,-133.333333333333,4,2,2,50,0,0
39115,-133.333333333333,4,2,1,50,0,0
42448,-133.333333333333,4,2,2,50,0,0
42670,-133.333333333333,4,2,1,50,0,0
44670,-333.333333333333,4,2,1,50,0,0
46003,-333.333333333333,4,2,2,50,0,0
46226,-66.6666666666667,4,2,1,65,0,0
46559,-66.6666666666667,4,2,1,5,0,0
46670,-100,4,2,1,65,0,0
47115,-66.6666666666667,4,2,1,65,0,0
47448,-66.6666666666667,4,2,1,5,0,0
47559,-100,4,2,1,65,0,0
48003,-66.6666666666667,4,2,1,65,0,0
48337,-66.6666666666667,4,2,1,5,0,0
48448,-100,4,2,1,65,0,0
48781,-100,4,2,1,5,0,0
48892,-66.6666666666667,4,2,1,65,0,0
49003,-66.6666666666667,4,2,1,5,0,0
49115,-66.6666666666667,4,2,1,65,0,0
49781,-66.6666666666667,4,2,1,65,0,0
49892,-66.6666666666667,4,2,1,5,0,0
50003,-66.6666666666667,4,2,1,65,0,0
50115,-66.6666666666667,4,2,1,5,0,0
50226,-100,4,2,1,65,0,0
50559,-100,4,2,1,5,0,0
50670,-66.6666666666667,4,2,1,65,0,0
50781,-66.6666666666667,4,2,1,5,0,0
50892,-76.9230769230769,4,2,1,65,0,0
51003,-76.9230769230769,4,2,1,5,0,0
51115,-90.9090909090909,4,2,1,65,0,0
51226,-90.9090909090909,4,2,1,5,0,0
51337,-111.111111111111,4,2,1,65,0,0
51670,-111.111111111111,4,2,1,5,0,0
51781,-111.111111111111,4,2,1,65,0,0
52337,-111.111111111111,4,2,1,5,0,0
52448,-66.6666666666667,4,2,1,65,0,0
52559,-66.6666666666667,4,2,1,5,0,0
52670,-66.6666666666667,4,2,1,65,0,0
53003,-66.6666666666667,4,2,1,5,0,0
53115,-100,4,2,1,65,0,0
53226,-100,4,2,1,5,0,0
53337,-66.6666666666667,4,2,1,65,0,0
53670,-66.6666666666667,4,2,1,5,0,0
53781,-100,4,2,1,65,0,0
54226,-66.6666666666667,4,2,1,65,0,0
54670,-100,4,2,1,65,0,0
55115,-66.6666666666667,4,2,1,65,0,0
55559,-100,4,2,1,65,0,0
56003,-66.6666666666667,4,2,1,65,0,0
56115,-66.6666666666667,4,2,1,5,0,0
56226,-66.6666666666667,4,2,1,65,0,0
56892,-66.6666666666667,4,2,1,65,0,0
57003,-66.6666666666667,4,2,1,5,0,0
57115,-66.6666666666667,4,2,1,65,0,0
57226,-66.6666666666667,4,2,1,5,0,0
57337,-100,4,2,1,65,0,0
57448,-100,4,2,1,5,0,0
57559,-100,4,2,1,65,0,0
57670,-100,4,2,1,5,0,0
57781,-66.6666666666667,4,2,1,65,0,0
57892,-66.6666666666667,4,2,1,5,0,0
58003,-76.9230769230769,4,2,1,65,0,0
58115,-76.9230769230769,4,2,1,5,0,0
58226,-90.9090909090909,4,2,1,65,0,0
58337,-90.9090909090909,4,2,1,5,0,0
58448,-111.111111111111,4,2,1,65,0,0
58781,-111.111111111111,4,2,1,5,0,0
58892,-111.111111111111,4,2,1,65,0,0
59559,-76.9230769230769,4,2,1,65,0,0
59670,-76.9230769230769,4,2,1,5,0,0
59781,-76.9230769230769,4,2,1,65,0,0
60003,-66.6666666666667,4,2,1,65,0,0
60115,-66.6666666666667,4,2,1,5,0,0
60226,-76.9230769230769,4,2,2,65,0,0
63115,-100,4,2,3,50,0,0
63226,-100,4,2,3,5,0,0
63337,-100,4,2,3,50,0,0
63448,-100,4,2,3,5,0,0
63559,-100,4,2,3,50,0,0
63670,-100,4,2,3,5,0,0
63781,-100,4,2,3,50,0,0
63892,-100,4,2,3,5,0,0
64003,-90.9090909090909,4,2,3,55,0,0
64115,-90.9090909090909,4,2,3,5,0,0
64226,-90.9090909090909,4,2,3,55,0,0
64337,-90.9090909090909,4,2,3,5,0,0
64448,-90.9090909090909,4,2,3,55,0,0
64559,-90.9090909090909,4,2,3,5,0,0
64670,-90.9090909090909,4,2,3,55,0,0
64781,-90.9090909090909,4,2,3,5,0,0
64892,-83.3333333333333,4,2,3,60,0,0
65003,-83.3333333333333,4,2,3,5,0,0
65115,-83.3333333333333,4,2,3,60,0,0
65226,-83.3333333333333,4,2,3,5,0,0
65337,-83.3333333333333,4,2,3,60,0,0
65448,-83.3333333333333,4,2,3,5,0,0
65559,-83.3333333333333,4,2,3,60,0,0
65670,-83.3333333333333,4,2,3,5,0,0
65781,-76.9230769230769,4,2,3,65,0,0
65892,-76.9230769230769,4,2,3,5,0,0
66003,-76.9230769230769,4,2,3,65,0,0
66115,-76.9230769230769,4,2,3,5,0,0
66226,-76.9230769230769,4,2,3,65,0,0
66337,-76.9230769230769,4,2,3,5,0,0
66448,-76.9230769230769,4,2,3,65,0,0
66559,-76.9230769230769,4,2,3,5,0,0
66670,-71.4285714285714,4,2,3,70,0,0
67337,-100,4,2,3,70,0,0
69115,-83.3333333333333,4,2,3,70,0,0
70892,-111.111111111111,4,2,3,75,0,0
71003,-111.111111111111,4,2,3,5,0,0
71115,-90.9090909090909,4,2,3,75,0,0
71226,-90.9090909090909,4,2,3,5,0,0
71337,-76.9230769230769,4,2,3,75,0,0
71448,-76.9230769230769,4,2,3,5,0,0
71559,-66.6666666666667,4,2,3,75,0,0
71670,-66.6666666666667,4,2,3,5,0,0
71781,-66.6666666666667,4,2,3,75,0,0
71892,-66.6666666666667,4,2,3,5,0,0
72003,-66.6666666666667,4,2,3,75,0,0
72115,-66.6666666666667,4,2,3,5,0,0
72226,-66.6666666666667,4,2,3,75,0,0
72337,-66.6666666666667,4,2,3,5,0,0
72448,-66.6666666666667,4,2,3,75,0,0
72559,-66.6666666666667,4,2,3,5,0,0
72670,-55.5555555555556,4,2,2,80,0,0
72892,-55.5555555555556,4,2,2,5,0,0
73115,-55.5555555555556,4,2,2,80,0,0
73559,-333.333333333333,4,2,2,50,0,0
74448,-50,4,2,1,85,0,1
74781,-50,4,2,1,5,0,0
74892,-50,4,2,1,85,0,0
75115,-55.5555555555556,4,2,1,85,0,0
75281,-55.5555555555556,4,2,1,5,0,0
75337,-100,4,2,1,85,0,0
75448,-100,4,2,1,5,0,0
75559,-55.5555555555556,4,2,1,85,0,0
75726,-55.5555555555556,4,2,1,5,0,0
75781,-100,4,2,1,85,0,0
75892,-100,4,2,1,5,0,0
76003,-66.6666666666667,4,2,1,85,0,0
76115,-66.6666666666667,4,2,1,5,0,0
76226,-50,4,2,1,85,0,0
76392,-50,4,2,1,5,0,0
76448,-66.6666666666667,4,2,1,85,0,0
76559,-66.6666666666667,4,2,1,5,0,0
76670,-66.6666666666667,4,2,1,85,0,0
76781,-66.6666666666667,4,2,1,5,0,0
76892,-66.6666666666667,4,2,1,85,0,0
77115,-66.6666666666667,4,2,1,85,0,0
78003,-50,4,2,1,85,0,0
78337,-50,4,2,1,5,0,0
78448,-50,4,2,1,85,0,0
78670,-55.5555555555556,4,2,1,85,0,0
79003,-55.5555555555556,4,2,1,5,0,0
79115,-55.5555555555556,4,2,1,85,0,0
79226,-55.5555555555556,4,2,1,5,0,0
79337,-62.5,4,2,1,85,0,0
79448,-62.5,4,2,1,5,0,0
79559,-71.4285714285714,4,2,1,85,0,0
79670,-71.4285714285714,4,2,1,5,0,0
79781,-50,4,2,1,85,0,0
80003,-50,4,2,1,5,0,0
80226,-50,4,2,1,85,0,0
81559,-50,4,2,1,85,0,1
81892,-50,4,2,1,5,0,0
82003,-50,4,2,1,85,0,0
82226,-55.5555555555556,4,2,1,85,0,0
82392,-55.5555555555556,4,2,1,5,0,0
82448,-100,4,2,1,85,0,0
82559,-100,4,2,1,5,0,0
82670,-55.5555555555556,4,2,1,85,0,0
82837,-55.5555555555556,4,2,1,5,0,0
82892,-100,4,2,1,85,0,0
83003,-100,4,2,1,5,0,0
83115,-66.6666666666667,4,2,1,85,0,0
83226,-66.6666666666667,4,2,1,5,0,0
83337,-50,4,2,1,85,0,0
83503,-50,4,2,1,5,0,0
83559,-66.6666666666667,4,2,1,85,0,0
83670,-66.6666666666667,4,2,1,5,0,0
83781,-66.6666666666667,4,2,1,85,0,0
83892,-66.6666666666667,4,2,1,5,0,0
84003,-66.6666666666667,4,2,1,85,0,0
84337,-66.6666666666667,4,2,1,5,0,0
84448,-66.6666666666667,4,2,1,85,0,0
84559,-66.6666666666667,4,2,1,5,0,0
84670,-66.6666666666667,4,2,1,85,0,0
85115,-50,4,2,1,85,0,0
85448,-50,4,2,1,5,0,0
85559,-55.5555555555556,4,2,1,85,0,0
85670,-55.5555555555556,4,2,1,5,0,0
85781,-100,4,2,1,85,0,0
85892,-100,4,2,1,5,0,0
86003,-55.5555555555556,4,2,1,85,0,0
86115,-55.5555555555556,4,2,1,5,0,0
86226,-100,4,2,1,85,0,0
86337,-100,4,2,1,5,0,0
86448,-55.5555555555556,4,2,1,85,0,0
86559,-55.5555555555556,4,2,1,5,0,0
86670,-100,4,2,1,85,0,0
86781,-100,4,2,1,5,0,0
86892,-50,4,2,1,85,0,0
87115,-50,4,2,1,5,0,0
87337,-50,4,2,1,85,0,0
88670,-50,4,2,1,85,0,1
89003,-50,4,2,1,5,0,0
89115,-50,4,2,1,85,0,0
89337,-55.5555555555556,4,2,1,85,0,0
90448,-50,4,2,1,85,0,0
90781,-50,4,2,1,5,0,0
90892,-50,4,2,1,85,0,0
91115,-55.5555555555556,4,2,1,85,0,0
92226,-50,4,2,1,85,0,0
92559,-50,4,2,1,5,0,0
92670,-50,4,2,1,85,0,0
92892,-55.5555555555556,4,2,1,85,0,0
94003,-50,4,2,1,85,0,0
94226,-50,4,2,1,5,0,0
94448,-50,4,2,1,85,0,0
95003,-50,4,2,1,5,0,0
95115,-50,4,2,1,85,0,0
95226,-50,4,2,1,5,0,0
95337,-50,4,2,1,85,0,0
95781,-66.6666666666667,4,2,1,85,0,0
96115,-66.6666666666667,4,2,1,5,0,0
96226,-100,4,2,5,60,0,0
98003,-133.333333333333,4,2,5,60,0,0
98226,-66.6666666666667,4,2,5,60,0,0
98337,-66.6666666666667,4,2,5,5,0,0
98448,-66.6666666666667,4,2,5,60,0,0
98559,-66.6666666666667,4,2,5,5,0,0
98670,-100,4,2,5,60,0,0
99115,-133.333333333333,4,2,5,60,0,0
99337,-100,4,2,5,60,0,0
99670,-100,4,2,5,5,0,0
99781,-100,4,2,5,60,0,0
99892,-100,4,2,5,5,0,0
100003,-100,4,2,5,60,0,0
101337,-133.333333333333,4,2,5,60,0,0
101781,-100,4,2,5,60,0,0
102003,-133.333333333333,4,2,5,60,0,0
102226,-100,4,2,5,60,0,0
105559,-133.333333333333,4,2,5,60,0,0
105781,-100,4,2,5,60,0,0
107115,-100,4,2,5,60,0,0
107263,-100,4,2,5,45,0,0
107411,-100,4,2,5,30,0,0
107559,-100,4,2,5,60,0,0
107707,-100,4,2,5,45,0,0
107855,-100,4,2,5,30,0,0
108003,-100,4,2,5,60,0,0
108170,-100,4,2,5,45,0,0
108337,-100,4,2,5,30,0,0
109337,-100,4,2,1,60,0,0
110003,-133.333333333333,4,2,1,60,0,0
110115,-133.333333333333,4,2,1,5,0,0
110226,-66.6666666666667,4,2,1,65,0,0
110559,-66.6666666666667,4,2,1,5,0,0
110670,-100,4,2,1,65,0,0
111115,-66.6666666666667,4,2,1,65,0,0
111448,-66.6666666666667,4,2,1,5,0,0
111559,-100,4,2,1,65,0,0
112003,-66.6666666666667,4,2,1,65,0,0
112337,-66.6666666666667,4,2,1,5,0,0
112448,-100,4,2,1,65,0,0
112781,-100,4,2,1,5,0,0
112892,-66.6666666666667,4,2,1,65,0,0
113003,-66.6666666666667,4,2,1,5,0,0
113115,-66.6666666666667,4,2,1,65,0,0
113781,-66.6666666666667,4,2,1,65,0,0
113892,-66.6666666666667,4,2,1,5,0,0
114003,-66.6666666666667,4,2,1,65,0,0
114115,-66.6666666666667,4,2,1,5,0,0
114226,-100,4,2,1,65,0,0
114559,-100,4,2,1,5,0,0
114670,-66.6666666666667,4,2,1,65,0,0
114781,-66.6666666666667,4,2,1,5,0,0
114892,-76.9230769230769,4,2,1,65,0,0
115003,-76.9230769230769,4,2,1,5,0,0
115115,-90.9090909090909,4,2,1,65,0,0
115226,-90.9090909090909,4,2,1,5,0,0
115337,-111.111111111111,4,2,1,65,0,0
115670,-111.111111111111,4,2,1,5,0,0
115781,-111.111111111111,4,2,1,65,0,0
116337,-111.111111111111,4,2,1,5,0,0
116448,-66.6666666666667,4,2,1,65,0,0
116559,-66.6666666666667,4,2,1,5,0,0
116670,-66.6666666666667,4,2,1,65,0,0
117003,-66.6666666666667,4,2,1,5,0,0
117115,-100,4,2,1,65,0,0
117226,-100,4,2,1,5,0,0
117337,-66.6666666666667,4,2,1,65,0,0
117670,-66.6666666666667,4,2,1,5,0,0
117781,-100,4,2,1,65,0,0
118226,-66.6666666666667,4,2,1,65,0,0
118670,-100,4,2,1,65,0,0
119115,-66.6666666666667,4,2,1,65,0,0
119559,-100,4,2,1,65,0,0
120003,-66.6666666666667,4,2,1,65,0,0
120115,-66.6666666666667,4,2,1,5,0,0
120226,-66.6666666666667,4,2,1,65,0,0
120892,-66.6666666666667,4,2,1,65,0,0
121226,-66.6666666666667,4,2,1,5,0,0
121337,-100,4,2,1,65,0,0
121781,-66.6666666666667,4,2,1,65,0,0
121892,-66.6666666666667,4,2,1,5,0,0
122003,-76.9230769230769,4,2,1,65,0,0
122115,-76.9230769230769,4,2,1,5,0,0
122226,-90.9090909090909,4,2,1,65,0,0
122337,-90.9090909090909,4,2,1,5,0,0
122448,-111.111111111111,4,2,1,65,0,0
122781,-111.111111111111,4,2,1,5,0,0
122892,-111.111111111111,4,2,1,65,0,0
123559,-66.6666666666667,4,2,1,65,0,0
123670,-66.6666666666667,4,2,1,5,0,0
123781,-66.6666666666667,4,2,1,65,0,0
124115,-66.6666666666667,4,2,1,5,0,0
124226,-76.9230769230769,4,2,2,65,0,0
124670,-133.333333333333,4,2,4,65,0,0
124892,-76.9230769230769,4,2,4,65,0,0
126670,-125,4,2,6,50,0,0
126781,-125,4,2,6,5,0,0
126892,-125,4,2,6,50,0,0
127003,-125,4,2,6,5,0,0
127115,-111.111111111111,4,2,6,50,0,0
127226,-111.111111111111,4,2,6,5,0,0
127337,-111.111111111111,4,2,6,50,0,0
127448,-111.111111111111,4,2,6,5,0,0
127559,-100,4,2,6,50,0,0
127670,-100,4,2,6,5,0,0
127781,-100,4,2,6,50,0,0
127892,-100,4,2,6,5,0,0
128003,-90.9090909090909,4,2,6,55,0,0
128115,-90.9090909090909,4,2,6,5,0,0
128226,-90.9090909090909,4,2,6,55,0,0
128559,-90.9090909090909,4,2,6,5,0,0
128670,-90.9090909090909,4,2,6,55,0,0
128781,-90.9090909090909,4,2,6,5,0,0
128892,-83.3333333333333,4,2,6,60,0,0
129003,-83.3333333333333,4,2,6,5,0,0
129115,-83.3333333333333,4,2,6,60,0,0
129226,-83.3333333333333,4,2,6,5,0,0
129337,-90.9090909090909,4,2,6,60,0,0
129781,-76.9230769230769,4,2,6,65,0,0
129892,-76.9230769230769,4,2,6,5,0,0
130003,-76.9230769230769,4,2,6,65,0,0
130115,-76.9230769230769,4,2,6,5,0,0
130226,-76.9230769230769,4,2,6,65,0,0
130337,-76.9230769230769,4,2,6,5,0,0
130448,-76.9230769230769,4,2,6,65,0,0
130559,-76.9230769230769,4,2,6,5,0,0
130670,-100,4,2,6,70,0,0
131337,-100,4,2,6,75,0,0
133115,-83.3333333333333,4,2,6,75,0,0
134892,-111.111111111111,4,2,6,75,0,0
135003,-111.111111111111,4,2,6,5,0,0
135115,-90.9090909090909,4,2,6,75,0,0
135226,-90.9090909090909,4,2,6,5,0,0
135337,-76.9230769230769,4,2,6,75,0,0
135448,-76.9230769230769,4,2,6,5,0,0
135559,-66.6666666666667,4,2,6,75,0,0
135670,-66.6666666666667,4,2,6,5,0,0
135781,-66.6666666666667,4,2,6,75,0,0
135892,-66.6666666666667,4,2,6,5,0,0
136003,-66.6666666666667,4,2,6,75,0,0
136115,-66.6666666666667,4,2,6,5,0,0
136226,-66.6666666666667,4,2,6,75,0,0
136337,-66.6666666666667,4,2,6,5,0,0
136448,-66.6666666666667,4,2,6,75,0,0
136559,-66.6666666666667,4,2,6,5,0,0
136670,-55.5555555555556,4,2,1,80,0,0
136892,-55.5555555555556,4,2,1,5,0,0
137115,-55.5555555555556,4,2,1,80,0,0
137559,-100,4,2,1,80,0,0
138448,-50,4,2,1,85,0,1
138781,-50,4,2,1,5,0,0
138892,-50,4,2,1,85,0,0
139115,-55.5555555555556,4,2,1,85,0,0
139281,-55.5555555555556,4,2,1,5,0,0
139337,-100,4,2,1,85,0,0
139448,-100,4,2,1,5,0,0
139559,-55.5555555555556,4,2,1,85,0,0
139726,-55.5555555555556,4,2,1,5,0,0
139781,-100,4,2,1,85,0,0
139892,-100,4,2,1,5,0,0
140003,-66.6666666666667,4,2,1,85,0,0
140115,-66.6666666666667,4,2,1,5,0,0
140226,-50,4,2,1,85,0,0
140392,-50,4,2,1,5,0,0
140448,-66.6666666666667,4,2,1,85,0,0
140559,-66.6666666666667,4,2,1,5,0,0
140670,-66.6666666666667,4,2,1,85,0,0
140781,-66.6666666666667,4,2,1,5,0,0
140892,-66.6666666666667,4,2,1,85,0,0
141115,-66.6666666666667,4,2,1,85,0,0
142003,-50,4,2,1,85,0,0
142337,-50,4,2,1,5,0,0
142448,-50,4,2,1,85,0,0
142670,-55.5555555555556,4,2,1,85,0,0
143003,-55.5555555555556,4,2,1,5,0,0
143115,-55.5555555555556,4,2,1,85,0,0
143226,-55.5555555555556,4,2,1,5,0,0
143337,-62.5,4,2,1,85,0,0
143448,-62.5,4,2,1,5,0,0
143559,-71.4285714285714,4,2,1,85,0,0
143670,-71.4285714285714,4,2,1,5,0,0
143781,-50,4,2,1,85,0,0
144003,-50,4,2,1,5,0,0
144226,-50,4,2,1,85,0,0
145559,-50,4,2,1,85,0,1
145892,-50,4,2,1,5,0,0
146003,-50,4,2,1,85,0,0
146226,-55.5555555555556,4,2,1,85,0,0
146392,-55.5555555555556,4,2,1,5,0,0
146448,-100,4,2,1,85,0,0
146559,-100,4,2,1,5,0,0
146670,-55.5555555555556,4,2,1,85,0,0
146837,-55.5555555555556,4,2,1,5,0,0
146892,-100,4,2,1,85,0,0
147003,-100,4,2,1,5,0,0
147115,-66.6666666666667,4,2,1,85,0,0
147226,-66.6666666666667,4,2,1,5,0,0
147337,-50,4,2,1,85,0,0
147503,-50,4,2,1,5,0,0
147559,-66.6666666666667,4,2,1,85,0,0
147670,-66.6666666666667,4,2,1,5,0,0
147781,-66.6666666666667,4,2,1,85,0,0
147892,-66.6666666666667,4,2,1,5,0,0
148003,-66.6666666666667,4,2,1,85,0,0
148337,-66.6666666666667,4,2,1,5,0,0
148448,-66.6666666666667,4,2,1,85,0,0
148559,-66.6666666666667,4,2,1,5,0,0
148670,-66.6666666666667,4,2,1,85,0,0
149115,-50,4,2,1,85,0,0
149448,-50,4,2,1,5,0,0
149559,-55.5555555555556,4,2,1,85,0,0
149670,-55.5555555555556,4,2,1,5,0,0
149781,-100,4,2,1,85,0,0
149892,-100,4,2,1,5,0,0
150003,-55.5555555555556,4,2,1,85,0,0
150115,-55.5555555555556,4,2,1,5,0,0
150226,-100,4,2,1,85,0,0
150337,-100,4,2,1,5,0,0
150448,-55.5555555555556,4,2,1,85,0,0
150559,-55.5555555555556,4,2,1,5,0,0
150670,-100,4,2,1,85,0,0
150781,-100,4,2,1,5,0,0
150892,-50,4,2,1,85,0,0
151115,-50,4,2,1,5,0,0
151337,-50,4,2,1,85,0,0
152670,-55.5555555555556,4,2,1,85,0,1
153003,-55.5555555555556,4,2,1,5,0,0
153115,-66.6666666666667,4,2,1,85,0,0
154781,-66.6666666666667,4,2,1,5,0,0
154892,-66.6666666666667,4,2,1,85,0,0
156559,-66.6666666666667,4,2,1,5,0,0
156670,-66.6666666666667,4,2,1,85,0,0
158337,-66.6666666666667,4,2,1,5,0,0
158448,-66.6666666666667,4,2,1,85,0,0
158559,-66.6666666666667,4,2,1,5,0,0
158670,-100,4,2,1,85,0,0
158781,-100,4,2,1,5,0,0
158892,-66.6666666666667,4,2,1,85,0,0
159003,-66.6666666666667,4,2,1,5,0,0
159115,-100,4,2,1,85,0,0
159226,-100,4,2,1,5,0,0
159337,-100,4,2,1,85,0,0
159781,-66.6666666666667,4,2,2,65,0,0
159892,-66.6666666666667,4,2,2,5,0,0
160003,-125,4,2,1,65,0,0
161559,-83.3333333333333,4,2,1,65,0,0
162003,-125,4,2,1,65,0,0
162337,-125,4,2,1,5,0,0
162448,-125,4,2,1,65,0,0
163337,-83.3333333333333,4,2,1,65,0,0
163781,-125,4,2,1,65,0,0
165115,-83.3333333333333,4,2,1,65,0,0
165337,-125,4,2,1,65,0,0
166003,-66.6666666666667,4,2,1,65,0,0
167115,-100,4,2,3,50,0,0
167226,-100,4,2,3,5,0,0
167337,-100,4,2,3,50,0,0
167448,-100,4,2,3,5,0,0
167559,-100,4,2,3,50,0,0
167670,-100,4,2,3,5,0,0
167781,-100,4,2,3,50,0,0
167892,-100,4,2,3,5,0,0
168003,-90.9090909090909,4,2,3,55,0,0
168115,-90.9090909090909,4,2,3,5,0,0
168226,-90.9090909090909,4,2,3,55,0,0
168337,-90.9090909090909,4,2,3,5,0,0
168448,-90.9090909090909,4,2,3,55,0,0
168559,-90.9090909090909,4,2,3,5,0,0
168670,-90.9090909090909,4,2,3,55,0,0
168781,-90.9090909090909,4,2,3,5,0,0
168892,-83.3333333333333,4,2,3,60,0,0
169003,-83.3333333333333,4,2,3,5,0,0
169115,-83.3333333333333,4,2,3,60,0,0
169226,-83.3333333333333,4,2,3,5,0,0
169337,-83.3333333333333,4,2,3,60,0,0
169448,-83.3333333333333,4,2,3,5,0,0
169559,-83.3333333333333,4,2,3,60,0,0
169670,-83.3333333333333,4,2,3,5,0,0
169781,-76.9230769230769,4,2,3,65,0,0
169892,-76.9230769230769,4,2,3,5,0,0
170003,-76.9230769230769,4,2,3,65,0,0
170115,-76.9230769230769,4,2,3,5,0,0
170226,-76.9230769230769,4,2,3,65,0,0
170337,-76.9230769230769,4,2,3,5,0,0
170448,-66.6666666666667,4,2,3,70,0,0
170559,-66.6666666666667,4,2,3,5,0,0
170670,-66.6666666666667,4,2,3,70,0,0
170781,-66.6666666666667,4,2,3,5,0,0
170892,-66.6666666666667,4,2,3,70,0,0
171003,-66.6666666666667,4,2,3,5,0,0
171115,-58.8235294117647,4,2,3,75,0,0
171226,-58.8235294117647,4,2,3,5,0,0
171337,-58.8235294117647,4,2,3,75,0,0
171448,-58.8235294117647,4,2,3,5,0,0
171559,-58.8235294117647,4,2,3,75,0,0
171670,-58.8235294117647,4,2,3,5,0,0
171781,-58.8235294117647,4,2,3,75,0,0
171892,-58.8235294117647,4,2,3,5,0,0
172003,-58.8235294117647,4,2,3,75,0,0
172115,-58.8235294117647,4,2,3,5,0,0
172226,-333.333333333333,4,2,2,60,0,0
172559,-333.333333333333,4,2,2,5,0,0
172670,-333.333333333333,4,2,1,80,0,0
173115,-66.6666666666667,4,2,1,80,0,0
173448,-66.6666666666667,4,2,1,5,0,0
173559,-66.6666666666667,4,2,1,80,0,0
174003,-50,4,2,1,85,0,1
174337,-50,4,2,1,5,0,0
174448,-50,4,2,1,85,0,0
174670,-55.5555555555556,4,2,1,85,0,0
174837,-55.5555555555556,4,2,1,5,0,0
174892,-100,4,2,1,85,0,0
175003,-100,4,2,1,5,0,0
175115,-55.5555555555556,4,2,1,85,0,0
175281,-55.5555555555556,4,2,1,5,0,0
175337,-100,4,2,1,85,0,0
175448,-100,4,2,1,5,0,0
175559,-66.6666666666667,4,2,1,85,0,0
175670,-66.6666666666667,4,2,1,5,0,0
175781,-50,4,2,1,85,0,0
175948,-50,4,2,1,5,0,0
176003,-66.6666666666667,4,2,1,85,0,0
176115,-66.6666666666667,4,2,1,5,0,0
176226,-66.6666666666667,4,2,1,85,0,0
176337,-66.6666666666667,4,2,1,5,0,0
176448,-66.6666666666667,4,2,1,85,0,0
176670,-66.6666666666667,4,2,1,85,0,0
177559,-50,4,2,1,85,0,0
177892,-50,4,2,1,5,0,0
178003,-50,4,2,1,85,0,0
178226,-55.5555555555556,4,2,1,85,0,0
178559,-55.5555555555556,4,2,1,5,0,0
178670,-55.5555555555556,4,2,1,85,0,0
178781,-55.5555555555556,4,2,1,5,0,0
178892,-62.5,4,2,1,85,0,0
179003,-62.5,4,2,1,5,0,0
179115,-71.4285714285714,4,2,1,85,0,0
179226,-71.4285714285714,4,2,1,5,0,0
179337,-50,4,2,1,85,0,0
179559,-50,4,2,1,5,0,0
179781,-50,4,2,1,85,0,0
181115,-50,4,2,1,85,0,1
181448,-50,4,2,1,5,0,0
181559,-50,4,2,1,85,0,0
181781,-55.5555555555556,4,2,1,85,0,0
181948,-55.5555555555556,4,2,1,5,0,0
182003,-100,4,2,1,85,0,0
182115,-100,4,2,1,5,0,0
182226,-55.5555555555556,4,2,1,85,0,0
182392,-55.5555555555556,4,2,1,5,0,0
182448,-100,4,2,1,85,0,0
182559,-100,4,2,1,5,0,0
182670,-66.6666666666667,4,2,1,85,0,0
182781,-66.6666666666667,4,2,1,5,0,0
182892,-50,4,2,1,85,0,0
183059,-50,4,2,1,5,0,0
183115,-66.6666666666667,4,2,1,85,0,0
183226,-66.6666666666667,4,2,1,5,0,0
183337,-66.6666666666667,4,2,1,85,0,0
183448,-66.6666666666667,4,2,1,5,0,0
183559,-66.6666666666667,4,2,1,85,0,0
183892,-66.6666666666667,4,2,1,5,0,0
184003,-66.6666666666667,4,2,1,85,0,0
184115,-66.6666666666667,4,2,1,5,0,0
184226,-66.6666666666667,4,2,1,85,0,0
184670,-50,4,2,1,85,0,0
185003,-50,4,2,1,5,0,0
185115,-55.5555555555556,4,2,1,85,0,0
185226,-55.5555555555556,4,2,1,5,0,0
185337,-100,4,2,1,85,0,0
185448,-100,4,2,1,5,0,0
185559,-55.5555555555556,4,2,1,85,0,0
185670,-55.5555555555556,4,2,1,5,0,0
185781,-55.5555555555556,4,2,1,85,0,0
185892,-100,4,2,1,5,0,0
186003,-55.5555555555556,4,2,1,85,0,0
186115,-55.5555555555556,4,2,1,5,0,0
186226,-100,4,2,1,85,0,0
186337,-100,4,2,1,5,0,0
186448,-50,4,2,1,85,0,0
186670,-50,4,2,1,5,0,0
186892,-50,4,2,1,85,0,0
188226,-50,4,2,1,85,0,0
188337,-50,4,2,1,5,0,0
188448,-100,4,2,1,85,0,0
188522,-100,4,2,1,65,0,0
188596,-100,4,2,1,45,0,0
188670,-50,4,2,1,85,0,0
189226,-50,4,2,1,5,0,0
189337,-50,4,2,1,85,0,0
189448,-50,4,2,1,5,0,0
189559,-50,4,2,1,40,0,0
189670,-50,4,2,1,65,0,0
189781,-50,4,2,1,85,0,0
190337,-50,4,2,1,5,0,0
190448,-50,4,2,1,85,0,0
190670,-55.5555555555556,4,2,1,85,0,0
191226,-55.5555555555556,4,2,1,5,0,0
191337,-55.5555555555556,4,2,1,85,0,0
191781,-50,4,2,1,85,0,0
192115,-50,4,2,1,5,0,0
192226,-100,4,2,1,85,0,0
192448,-55.5555555555556,4,2,1,85,0,0
193115,-55.5555555555556,4,2,1,40,0,0
193226,-55.5555555555556,4,2,1,65,0,0
193337,-55.5555555555556,4,2,1,85,0,0
193559,-50,4,2,1,85,0,0
195337,-50,4,2,1,85,0,0
195670,-50,4,2,1,5,0,0
195781,-50,4,2,1,85,0,0
196003,-55.5555555555556,4,2,1,85,0,0
197115,-50,4,2,1,85,0,0
197448,-50,4,2,1,5,0,0
197559,-50,4,2,1,85,0,0
198892,-50,4,2,1,85,0,0
199226,-50,4,2,1,5,0,0
199337,-50,4,2,1,85,0,0
201003,-50,4,2,1,5,0,0
201115,-50,4,2,1,85,0,0
201226,-50,4,2,1,5,0,0
201337,-50,4,2,1,85,0,0
202448,-133.333333333333,4,2,1,65,0,0
202892,-133.333333333333,4,2,1,5,0,0

[Colours]
Combo1 : 202,149,255
Combo2 : 128,128,255
Combo3 : 252,117,93
Combo4 : 200,198,198
Combo5 : 135,135,135
Combo6 : 252,215,120

[HitObjects]
497,297,1115,37,2,0:0:0:0:
340,272,1337,1,2,0:0:0:0:
435,384,1559,6,0,L|415:275,1,110,6|8,0:0|0:2,0:0:0:0:
450,207,2226,1,10,0:2:0:0:
450,207,2670,69,10,0:2:0:0:
511,154,2892,1,2,0:0:0:0:
501,76,3115,1,10,0:2:0:0:
430,45,3337,1,2,0:0:0:0:
370,92,3559,1,10,0:2:0:0:
380,171,3781,2,0,P|325:179|271:186,1,110,2|8,0:0|0:2,0:0:0:0:
38,27,4226,6,0,B|14:23|0:44|0:44|61:36|98:80,1,142.99999345398,2|8,0:0|0:2,0:0:0:0:
247,108,4670,1,2,0:0:0:0:
90,72,4892,1,10,0:2:0:0:
187,199,5115,70,0,P|134:196|90:228,1,110,6|8,0:0|0:2,0:0:0:0:
46,294,5781,5,10,0:2:0:0:
166,316,6003,1,2,0:0:0:0:
161,326,6226,1,10,0:2:0:0:
281,304,6448,1,2,0:0:0:0:
278,292,6670,1,10,0:2:0:0:
397,314,6892,2,0,P|427:270|480:267,1,110,2|8,0:0|0:2,0:0:0:0:
321,132,7337,2,0,P|356:171|346:223,1,110,2|8,0:0|0:2,0:0:0:0:
260,209,7781,69,2,0:0:0:0:
477,175,8003,1,10,0:2:0:0:
421,112,8226,5,2,0:0:0:0:
345,223,8448,1,10,0:2:0:0:
478,266,8670,70,0,P|424:269|395:313,1,110,6|8,1:2|0:2,0:0:0:0:
368,384,9337,1,10,1:2:0:0:
368,384,9781,5,10,1:2:0:0:
88,340,10226,1,10,1:2:0:0:
173,290,10448,1,2,0:0:0:0:
170,382,10670,1,10,1:2:0:0:
88,340,10892,2,0,P|80:285|68:231,1,110,2|8,0:0|1:2,0:0:0:0:
46,152,11337,69,2,0:0:0:0:
140,181,11559,1,10,1:2:0:0:
276,111,11781,1,2,0:0:0:0:
154,23,12003,1,10,1:2:0:0:
190,102,12226,6,0,B|314:80|314:80|327:100|354:107,1,165.000006294251,6|8,0:0|1:2,0:0:0:0:
494,29,12670,2,0,P|437:-8|381:29,1,142.99999345398,2|8,0:0|1:2,0:0:0:0:
512,108,13115,2,0,P|501:171|491:226,1,121.000003692627,2|8,0:0|1:2,0:0:0:0:
261,334,13559,69,2,0:0:0:0:
360,246,13781,1,10,1:2:0:0:
398,371,14003,2,0,P|427:358|460:358,2,65.9999979858399,6|2|2,0:0|0:0|0:0,0:0:0:0:
339,320,15337,1,2,0:0:0:0:
339,320,15781,1,2,0:0:0:0:
264,335,16003,6,0,L|242:338,1,21.9999993286133,8|8,0:2|0:2,0:2:0:0:
172,373,16226,70,0,L|147:356,1,29.3333333333333,8|8,0:2|0:2,0:0:0:0:
72,316,16448,6,0,L|65:279,1,36.6666666666667,8|8,0:2|0:2,0:0:0:0:
15,198,16670,70,0,L|40:161,1,43.9999986572266,8|8,0:2|0:2,0:0:0:0:
60,47,16892,6,0,L|110:38,1,51.3333317667644,8|8,0:2|0:2,0:0:0:0:
215,0,17115,70,0,B|243:9|243:9|261:31,1,58.6666666666667,8|8,0:2|0:2,0:0:0:0:
424,0,17337,6,0,B|445:26|445:26|436:57,1,65.9999979858399,8|8,0:2|0:2,0:0:0:0:
288,121,17559,22,0,B|486:88|486:88|428:87,1,247.500009441376,6|0,1:2|0:0,0:0:0:0:
389,138,18003,5,2,1:2:0:0:
387,151,18115,1,2,0:2:0:0:
462,185,18226,54,0,P|483:209|486:241,1,65.9999979858399,10|0,1:2|0:0,0:0:0:0:
405,291,18448,2,0,P|383:266|380:234,1,65.9999979858399,2|0,0:0|0:0,0:0:0:0:
205,107,18670,2,0,P|183:131|180:163,1,65.9999979858399,2|0,1:2|0:0,0:0:0:0:
262,212,18892,2,0,P|283:187|286:155,1,65.9999979858399,2|0,0:0|0:0,0:0:0:0:
73,215,19115,2,0,P|94:239|97:271,1,65.9999979858399,10|0,1:2|0:0,0:0:0:0:
13,332,19337,6,0,P|101:304|259:310,1,247.500009441376,2|0,1:2|0:0,0:0:0:0:
333,336,19781,5,2,1:2:0:0:
335,349,19893,1,2,0:2:0:0:
412,373,20003,54,0,P|443:364|476:361,1,65.9999979858399,10|0,1:2|0:0,0:0:0:0:
325,200,20226,2,0,P|294:208|261:211,1,65.9999979858399,2|0,0:2|0:0,0:0:0:0:
396,264,20448,2,0,P|428:267|460:275,1,65.9999979858399,2|0,1:2|0:0,0:0:0:0:
512,94,20671,1,2,0:0:0:0:
444,128,20782,1,8,0:2:0:0:
474,197,20892,1,10,1:2:0:0:
254,309,21115,6,0,P|131:300|13:332,1,247.500009441376,6|0,1:2|0:0,0:0:0:0:
96,271,21559,5,2,1:2:0:0:
98,258,21671,1,2,0:2:0:0:
190,214,21781,54,0,P|187:182|179:150,1,65.9999979858399,10|0,1:2|0:0,0:0:0:0:
11,43,22003,2,0,P|2:74|0:107,1,65.9999979858399,2|0,0:2|0:0,0:0:0:0:
205,51,22226,2,0,P|173:42|140:39,1,65.9999979858399,2|0,1:2|0:0,0:0:0:0:
29,188,22448,2,0,P|61:184|93:176,1,65.9999979858399,2|0,0:2|0:0,0:0:0:0:
345,101,22670,6,0,L|349:81,3,20.6250007867813,10|0|0|0,1:2|0:0|0:0|0:0,0:0:0:0:
268,166,22892,6,0,B|311:189|359:165|381:109|343:118|362:65|417:43|458:69,1,247.500009441376,2|0,1:2|0:0,0:0:0:0:
499,183,23337,2,0,B|455:185|436:141|436:141|462:176|511:166,1,142.99999345398,2|8,1:2|1:2,0:0:0:0:
422,324,23781,2,0,P|369:308|315:297,1,110,2|0,0:0|1:2,0:0:0:0:
121,362,24226,1,2,0:0:0:0:
52,329,24337,1,10,0:2:0:0:
67,253,24448,1,10,1:2:0:0:
70,240,24559,1,2,0:0:0:0:
74,227,24670,54,0,B|52:191|11:185|11:185|49:133|113:118|167:161,1,247.500009441376,6|0,1:2|0:0,0:0:0:0:
234,132,25115,5,2,1:2:0:0:
236,119,25227,1,2,0:2:0:0:
173,67,25337,6,0,P|154:41|151:9,1,65.9999979858399,10|0,1:2|0:0,0:0:0:0:
316,133,25559,2,0,P|313:165|293:191,1,65.9999979858399,2|0,0:2|0:0,0:0:0:0:
341,52,25781,2,0,P|367:32|399:29,1,65.9999979858399,2|0,1:2|0:0,0:0:0:0:
512,176,26003,2,0,P|479:173|453:153,1,65.9999979858399,2|0,0:2|0:0,0:0:0:0:
309,283,26226,2,0,P|335:263|367:260,1,65.9999979858399,10|0,1:2|0:0,0:0:0:0:
473,345,26448,54,0,P|356:304|233:302,1,247.500009441376,2|0,1:2|0:0,0:0:0:0:
155,317,26892,5,2,1:2:0:0:
153,304,27004,1,2,0:2:0:0:
85,259,27115,6,0,P|69:231|72:199,1,65.9999979858399,10|0,1:2|0:0,0:0:0:0:
193,136,27337,2,0,P|209:164|206:196,1,65.9999979858399,2|0,0:0|0:0,0:0:0:0:
86,96,27559,2,0,P|83:64|100:36,1,65.9999979858399,2|0,1:2|0:0,0:0:0:0:
307,98,27781,1,2,0:0:0:0:
371,51,27892,1,8,0:2:0:0:
299,19,28003,1,10,1:2:0:0:
233,302,28226,54,0,P|356:304|473:345,1,247.500009441376,6|0,1:2|0:0,0:0:0:0:
510,269,28670,5,2,1:2:0:0:
512,256,28782,1,2,0:2:0:0:
459,199,28892,6,0,P|442:170|445:138,1,65.9999979858399,10|0,1:2|0:0,0:0:0:0:
512,16,29114,2,0,P|480:24|459:49,1,65.9999979858399,2|0,0:0|0:0,0:0:0:0:
321,223,29337,2,0,P|288:220|263:199,1,65.9999979858399,2|0,1:2|0:0,0:0:0:0:
181,101,29559,2,0,P|199:74|230:62,1,65.9999979858399,2|0,0:2|0:0,0:0:0:0:
367,44,29781,2,0,P|380:73|375:105,1,65.9999979858399,10|0,1:2|0:0,0:0:0:0:
293,122,30003,54,0,B|97:155|97:155|127:156|150:171,1,247.500009441376,2|0,1:2|0:0,0:0:0:0:
0,212,30448,2,0,P|40:263|99:233,1,142.99999345398,2|8,1:2|1:2,0:0:0:0:
37,51,30892,2,0,B|9:45|9:45|32:57,1,55,2|0,0:0|0:0,0:0:0:0:
145,168,31115,6,0,L|209:179,1,65.9999979858399,8|0,1:3|0:0,0:0:0:0:
367,44,31337,1,10,0:2:0:0:
436,77,31448,1,10,0:2:0:0:
421,153,31559,1,10,1:2:0:0:
418,166,31670,1,2,0:0:0:0:
415,179,31781,2,0,B|400:221|434:256|443:236|480:273|462:325,1,165,6|0,1:2|0:0,0:0:0:0:
367,366,32226,37,2,1:2:0:0:
367,366,32448,2,0,P|320:356|285:351,1,82.5000031471254,2|0,1:2|0:0,0:0:0:0:
149,363,32892,1,2,1:2:0:0:
145,351,33115,1,2,0:0:0:0:
176,219,33337,1,2,1:2:0:0:
42,269,33559,1,2,0:0:0:0:
125,281,33781,53,0,1:2:0:0:
125,281,34003,2,0,P|165:287|206:295,1,82.5000031471254,2|0,0:0|1:2,0:0:0:0:
343,209,34448,1,2,0:0:0:0:
326,135,34670,1,2,1:2:0:0:
330,124,34892,1,2,0:0:0:0:
188,95,35115,1,2,1:2:0:0:
256,43,35337,22,0,P|297:35|337:28,1,82.5000031471254,6|0,0:0|1:2,0:0:0:0:
208,181,35781,2,0,P|166:173|126:166,2,82.5000031471254,2|2|0,0:0|1:2|0:0,0:0:0:0:
126,166,36448,1,2,1:2:0:0:
48,193,36670,1,2,0:0:0:0:
195,265,36892,1,2,1:2:0:0:
273,238,37115,1,2,0:0:0:0:
344,291,37337,53,0,1:2:0:0:
344,291,37559,2,0,P|351:332|358:372,1,82.5000031471254,2|0,0:0|1:2,0:0:0:0:
279,384,38003,1,2,0:0:0:0:
445,296,38226,2,0,P|451:255|459:214,1,82.5000031471254,2|0,1:2|0:2,0:0:0:0:
344,291,38670,1,2,1:2:0:0:
512,117,38892,2,0,P|471:124|430:131,1,82.5000031471254,6|2,0:0|1:2,0:0:0:0:
272,29,39337,21,2,0:2:0:0:
272,29,39559,2,0,P|319:39|354:44,1,82.5000031471254,2|0,1:2|0:0,0:0:0:0:
197,98,40003,1,2,1:2:0:0:
193,85,40226,1,2,0:0:0:0:
228,230,40448,1,2,1:2:0:0:
283,141,40670,1,2,0:0:0:0:
160,171,40892,53,0,1:2:0:0:
161,171,41114,2,0,P|121:177|80:185,1,82.5000031471254,2|0,0:0|1:2,0:0:0:0:
0,150,41559,1,2,0:0:0:0:
138,261,41781,1,2,1:2:0:0:
142,272,42003,1,2,0:0:0:0:
75,332,42226,1,2,1:2:0:0:
283,384,42448,6,0,P|290:343|298:302,1,82.5000031471254,6|0,0:0|1:2,0:0:0:0:
479,240,42892,2,0,P|471:280|464:321,1,82.5000031471254,2|0,0:0|1:2,0:0:0:0:
378,350,43337,1,2,0:0:0:0:
298,302,43559,1,2,1:2:0:0:
479,240,43781,1,2,0:0:0:0:
349,128,44003,1,2,1:2:0:0:
373,221,44226,1,6,0:0:0:0:
373,221,44670,70,0,L|340:215,2,32.99999899292,2|2|2,0:0|0:0|0:0,0:0:0:0:
213,187,45337,5,2,0:0:0:0:
268,240,45559,1,2,0:0:0:0:
71,156,45781,69,2,0:0:0:0:
148,135,46003,1,6,1:2:0:0:
49,268,46226,38,0,B|6:258|-17:298|-17:298|82:277|142:330,1,247.500009441376,2|0,1:2|0:0,0:0:0:0:
210,357,46670,2,0,P|260:365|262:316,1,110,10|0,1:2|0:0,0:0:0:0:
360,174,47115,70,0,B|403:164|426:204|426:204|327:183|263:244,1,247.500009441376,2|0,1:2|0:0,0:0:0:0:
197,263,47559,2,0,P|148:270|146:221,1,110,10|0,1:2|0:0,0:0:0:0:
369,26,48003,54,0,P|268:18|318:106,1,247.500009441376,2|0,1:2|0:0,0:0:0:0:
393,97,48448,2,0,P|312:78|230:68,1,165,10|0,1:2|0:0,0:0:0:0:
157,40,48892,38,0,P|117:46|75:54,1,82.5000031471254,2|0,1:2|0:0,0:0:0:0:
199,183,49115,1,2,0:0:0:0:
174,115,49226,1,8,0:2:0:0:
230,68,49337,2,0,P|312:78|393:97,1,165,10|0,1:2|1:2,0:0:0:0:
512,218,49781,70,0,P|511:258|485:288,1,82.5000031471254,2|0,0:2|0:0,0:0:0:0:
391,253,50003,2,0,P|391:212|417:182,1,82.5000031471254,2|0,1:2|0:0,0:0:0:0:
413,334,50226,2,0,P|327:342|250:362,1,165,10|0,1:2|0:0,0:0:0:0:
160,345,50670,54,0,P|188:316|191:275,1,82.5000031471254,2|0,1:2|0:0,0:0:0:0:
271,271,50892,2,0,P|265:236|243:209,1,71.4999967269899,2|0,0:2|0:0,0:0:0:0:
287,141,51115,2,0,P|260:126|230:125,1,60.5000018463135,10|0,1:2|0:0,0:0:0:0:
208,50,51337,2,0,P|138:38|62:7,1,148.49999546814,2|0,1:2|0:0,0:0:0:0:
0,80,51781,38,0,P|45:96|62:140,1,98.9999969787599,2|8,1:2|1:2,0:0:0:0:
66,289,52226,2,0,P|90:284|114:280,1,49.4999984893799,2|0,0:0|0:0,0:0:0:0:
160,345,52448,70,0,P|191:370|231:369,1,82.5000031471254,2|0,1:2|0:0,0:0:0:0:
382,384,52670,1,2,0:0:0:0:
415,319,52781,1,8,0:2:0:0:
352,285,52892,2,0,P|311:278|270:270,1,82.5000031471254,10|0,1:2|0:0,0:0:0:0:
378,106,53115,2,0,P|404:99|432:96,1,55,2|0,1:2|0:0,0:0:0:0:
512,165,53337,53,2,0:0:0:0:
512,165,53559,2,0,P|471:173|430:179,1,82.5000031471254,0|0,1:2|0:0,0:0:0:0:
292,123,53781,2,0,P|258:82|276:33,1,110,10|0,1:2|0:0,0:0:0:0:
112,50,54115,1,2,0:0:0:0:
23,61,54226,38,0,P|109:80|182:104,1,165.000006294251,2|2,1:2|0:0,0:0:0:0:
241,282,54670,2,0,P|274:241|256:192,1,110,10|0,1:2|0:0,0:0:0:0:
391,328,55003,1,2,0:0:0:0:
477,342,55115,70,0,P|390:361|317:385,1,165.000006294251,2|2,1:2|0:2,0:0:0:0:
241,282,55559,2,0,P|162:255|82:239,1,165.000006294251,10|2,1:2|0:2,0:0:0:0:
188,95,56003,54,0,P|180:131|173:176,1,82.5000031471254,2|0,1:2|0:0,0:0:0:0:
12,276,56226,1,2,0:0:0:0:
15,200,56337,1,8,0:2:0:0:
83,240,56448,2,0,P|163:256|241:282,1,165.000006294251,10|2,1:2|1:2,0:0:0:0:
408,140,56892,38,0,P|367:138|338:111,1,82.5000031471254,2|0,0:2|0:0,0:0:0:0:
373,31,57115,2,0,P|413:32|442:59,1,82.5000031471254,2|0,1:2|0:0,0:0:0:0:
265,156,57337,70,0,P|258:129|256:101,1,55,10|0,1:2|0:0,0:0:0:0:
429,221,57559,2,0,P|435:247|437:275,1,55,2|0,0:2|0:0,0:0:0:0:
346,218,57781,54,0,P|305:219|269:238,1,82.5000031471254,2|0,1:2|0:0,0:0:0:0:
201,198,58003,2,0,P|180:227|173:261,1,71.4999967269899,2|0,0:2|0:0,0:0:0:0:
94,276,58226,2,0,P|103:304|122:328,1,60.5000018463135,10|0,1:2|0:0,0:0:0:0:
220,368,58448,2,0,P|291:344|365:341,1,148.49999546814,2|0,1:2|0:0,0:0:0:0:
490,299,58892,38,0,P|466:259|421:269,1,98.9999969787599,2|8,1:2|1:2,0:0:0:0:
343,131,59337,1,2,0:0:0:0:
345,114,59448,1,2,0:0:0:0:
347,98,59559,70,0,P|382:92|417:85,1,71.4999967269899,2|0,1:2|0:0,0:0:0:0:
269,238,59781,1,2,0:2:0:0:
201,198,59892,1,8,0:2:0:0:
144,248,60003,2,0,P|103:239|63:232,1,82.5000031471254,10|0,1:2|0:2,0:2:0:0:
255,11,60226,53,2,1:2:0:0:
198,63,60448,1,8,0:2:0:0:
198,63,60670,1,0,1:2:0:0:
347,98,60892,22,0,P|204:107|65:139,2,285.99998690796,14|10|10,1:2|1:2|1:2,0:0:0:0:
512,287,62226,1,10,1:2:0:0:
352,370,62670,1,10,1:2:0:0:
352,370,63115,6,0,P|353:343|365:318,1,55,10|0,1:2|0:0,0:0:0:0:
433,384,63337,2,0,P|445:358|446:331,1,55,8|0,0:2|0:0,0:0:0:0:
226,275,63559,70,0,P|214:249|213:222,1,55,10|0,1:2|0:0,0:0:0:0:
307,261,63781,2,0,P|306:234|295:209,1,55,8|0,0:2|0:0,0:0:0:0:
64,74,64003,6,0,P|34:80|9:97,1,60.5000018463135,10|0,1:2|0:0,0:0:0:0:
73,160,64226,2,0,P|79:189|96:214,1,60.5000018463135,8|0,0:2|0:0,0:0:0:0:
162,149,64448,2,0,P|191:142|216:125,1,60.5000018463135,10|0,1:2|0:0,0:0:0:0:
153,64,64670,2,0,P|146:34|129:9,1,60.5000018463135,8|0,0:2|0:0,0:0:0:0:
385,1,64892,70,0,P|368:26|360:61,1,65.9999979858399,10|0,1:2|0:0,0:0:0:0:
298,117,65115,2,0,P|323:133|357:140,1,65.9999979858399,8|0,0:2|0:0,0:0:0:0:
418,206,65337,2,0,P|434:180|440:146,1,65.9999979858399,10|0,1:2|0:0,0:0:0:0:
505,89,65559,2,0,P|480:72|446:65,1,65.9999979858399,10|0,0:2|0:0,0:0:0:0:
393,290,65781,6,0,P|424:306|459:310,1,71.4999967269899,8|0,1:2|0:0,0:0:0:0:
418,206,66003,2,0,P|386:189|351:185,1,71.4999967269899,8|0,0:2|0:0,0:0:0:0:
499,231,66226,2,0,P|504:195|495:161,1,71.4999967269899,8|0,1:2|0:0,0:0:0:0:
310,264,66448,2,0,P|304:299|313:333,1,71.4999967269899,10|0,0:2|0:0,0:0:0:0:
136,361,66670,69,8,1:2:0:0:
110,267,66892,1,10,0:2:0:0:
239,148,67115,5,10,1:2:0:0:
208,299,67337,2,0,P|255:271|309:263,1,110,10|8,0:2|1:2,0:0:0:0:
512,111,67781,2,0,P|457:103|410:75,1,110,8|8,0:2|1:2,0:0:0:0:
495,16,68226,1,8,0:2:0:0:
404,158,68448,69,10,1:2:0:0:
235,136,68670,1,10,0:2:0:0:
65,115,68892,1,10,1:2:0:0:
132,218,69115,6,0,B|157:193|154:156|154:156|163:191|191:206,1,131.99999597168,10|8,0:2|1:2,0:0:0:0:
255,252,69559,69,8,0:2:0:0:
109,381,69781,1,8,1:2:0:0:
56,197,70003,1,8,0:2:0:0:
132,302,70226,5,10,1:2:0:0:
207,38,70448,1,8,0:2:0:0:
416,223,70670,1,10,1:2:0:0:
512,163,70892,70,0,P|487:157|463:158,1,49.4999984893799,10|0,0:2|0:0,0:0:0:0:
417,84,71115,2,0,P|433:58|457:40,1,60.5000018463135,8|0,1:2|0:0,0:0:0:0:
327,0,71337,2,0,P|325:35|338:68,1,71.4999967269899,8|0,0:2|0:0,0:0:0:0:
249,83,71559,2,0,P|209:71|180:43,1,82.5000031471254,8|0,1:2|0:0,0:0:0:0:
115,197,71781,6,0,P|144:168|183:156,1,82.5000031471254,8|0,0:2|0:0,0:0:0:0:
216,263,72003,2,0,P|203:301|210:342,1,82.5000031471254,8|0,1:2|0:0,0:0:0:0:
381,361,72225,2,0,P|343:344|319:311,1,82.5000031471254,8|0,0:2|0:0,0:0:0:0:
419,263,72448,2,0,P|459:260|495:240,1,82.5000031471254,10|0,1:2|0:0,0:0:0:0:
477,77,72670,38,0,B|494:87|494:87|335:59|335:59|350:68,1,197.99999395752,6|0,1:2|0:0,0:0:0:0:
353,57,73115,2,0,B|338:47|338:47|496:75|496:75|479:65,1,197.99999395752,6|2,1:2|0:0,0:0:0:0:
102,251,73559,22,0,L|37:263,1,65.9999979858399,2|2,0:0|0:0,0:0:0:0:
37,263,74226,1,2,0:0:0:0:
68,366,74448,38,0,B|25:354|25:354|151:331|151:331|152:326|152:326|254:309|254:309|268:334|321:345,1,330,6|0,1:2|0:0,0:0:0:0:
416,356,74892,1,2,1:2:0:0:
327,262,75003,1,2,0:0:0:0:
421,342,75115,6,0,B|398:305|398:305|424:203,1,148.49999546814,10|0,1:2|0:0,0:0:0:0:
419,186,75337,2,0,L|473:176,1,55,2|0,0:0|0:0,0:0:0:0:
249,0,75559,54,0,B|226:37|226:37|252:138,1,148.49999546814,2|0,1:2|0:0,0:0:0:0:
247,156,75781,2,0,L|301:165,1,55,2|0,0:0|0:0,0:0:0:0:
364,76,76003,2,0,B|405:68|405:68|371:90,1,82.5000031471254,10|0,1:2|0:0,0:0:0:0:
199,234,76226,6,0,L|36:262,1,165,2|0,1:2|0:0,0:0:0:0:
30,279,76448,2,0,B|60:303|60:303|102:295,1,82.5000031471254,2|0,0:0|0:0,0:0:0:0:
136,160,76670,2,0,B|105:135|105:135|63:143,1,82.5000031471254,2|0,1:2|0:0,0:0:0:0:
240,40,76892,6,0,L|247:0,3,41.2500015735627,8|0|0|0,1:2|0:0|0:0|0:0,0:0:0:0:
157,32,77115,2,0,B|204:15|244:54|226:63|259:97|314:77,1,165.000006294251,2|0,0:2|1:2,0:0:0:0:
512,296,77559,53,2,0:0:0:0:
390,350,77670,1,8,0:2:0:0:
317,245,77781,1,10,1:2:0:0:
510,286,78003,6,0,B|437:268|410:164|410:164|426:269|341:343,1,330,6|0,1:2|0:0,0:0:0:0:
279,352,78448,1,2,0:0:0:0:
202,303,78559,1,2,0:0:0:0:
291,363,78670,6,0,B|153:337|153:337|149:340|149:340|0:313,1,296.99999093628,10|0,1:2|0:0,0:0:0:0:
94,297,79115,2,0,P|127:261|131:212,1,98.9999969787599,2|0,1:2|0:0,0:0:0:0:
227,189,79337,2,0,P|212:149|178:122,1,88,2|0,0:2|0:0,0:0:0:0:
212,32,79559,2,0,P|175:20|138:28,1,76.9999976501466,10|0,1:2|0:0,0:0:0:0:
0,150,79781,54,0,B|108:129|108:129|109:126|109:126|215:108,1,220,2|0,1:2|0:0,0:0:0:0:
512,317,80226,2,0,B|419:299|419:299|418:302|418:302|295:279,1,220,2|8,1:2|1:2,0:0:0:0:
462,37,80670,6,0,B|490:37|503:63|503:63|411:25|332:93,1,220,2|0,0:0|1:2,0:0:0:0:
32,240,81115,5,2,0:0:0:0:
144,296,81226,1,8,0:2:0:0:
227,189,81337,1,10,1:2:0:0:
30,228,81559,54,0,B|11:203|-19:195|-19:195|64:156|119:224|85:234|129:294|213:275,1,330,6|0,1:2|0:0,0:0:0:0:
286,349,82003,1,2,1:2:0:0:
407,361,82114,1,2,0:0:0:0:
291,337,82226,6,0,B|430:313|430:313|433:306,1,148.49999546814,10|0,1:2|0:0,0:0:0:0:
442,288,82448,2,0,L|451:234,1,55,2|0,0:0|0:0,0:0:0:0:
224,106,82670,6,0,B|84:82|84:82|81:75,1,148.49999546814,2|0,1:2|0:0,0:0:0:0:
73,57,82892,2,0,L|63:3,1,55,2|0,0:0|0:0,0:0:0:0:
262,32,83115,2,0,P|302:31|335:55,1,82.5000031471254,10|0,1:2|0:0,0:0:0:0:
512,176,83337,54,0,B|507:156|516:134|516:134|449:101|403:172,1,165,2|0,1:2|0:0,0:0:0:0:
415,176,83559,2,0,B|333:161,1,82.5000031471254,2|0,0:0|0:0,0:0:0:0:
335,55,83781,2,0,B|416:40,1,82.5000031471254,2|0,0:0|0:0,0:0:0:0:
491,24,84003,1,8,1:2:0:0:
250,194,84226,6,0,P|229:228|228:269,1,82.5000031471254,2|0,0:0|0:0,0:0:0:0:
322,333,84448,2,0,P|342:298|343:257,1,82.5000031471254,2|0,1:2|0:0,0:0:0:0:
35,301,84670,5,2,0:2:0:0:
112,192,84781,1,8,0:2:0:0:
228,269,84892,1,10,1:2:0:0:
40,312,85115,54,0,B|-5:302|-5:302|223:262|223:262|227:225|267:202,1,330,6|0,1:2|0:0,0:0:0:0:
257,336,85559,2,0,L|354:354,1,98.9999969787599,2|0,1:2|0:0,0:0:0:0:
428,330,85781,2,0,P|439:305|437:278,1,55,8|0,1:2|0:0,0:0:0:0:
511,113,86003,6,0,L|414:131,1,98.9999969787599,2|0,0:2|0:0,0:0:0:0:
340,107,86226,2,0,P|328:82|330:55,1,55,0|0,1:2|0:0,0:0:0:0:
133,0,86448,6,0,L|151:97,1,98.9999969787599,2|0,0:2|0:0,0:0:0:0:
127,171,86671,2,0,P|102:182|75:180,1,55,8|0,1:2|0:0,0:0:0:0:
81,348,86892,54,0,B|134:330|153:269|153:269|146:333|183:369,1,220,2|0,1:2|0:0,0:0:0:0:
512,225,87337,2,0,B|458:207|439:146|439:146|446:210|409:246,1,220,2|8,1:2|1:2,0:0:0:0:
44,257,87781,2,0,B|148:276|148:276|151:274|151:274|267:294,1,220,2|8,0:0|1:3,0:0:0:0:
201,56,88226,5,10,0:2:0:0:
87,0,88337,1,8,0:2:0:0:
6,107,88448,1,10,1:2:0:0:
207,43,88670,6,0,B|182:95|206:157|273:176|275:159|278:143|347:163|382:232|350:288,1,330,6|0,1:2|0:0,0:0:0:0:
296,340,89115,1,2,1:2:0:0:
272,337,89226,1,2,0:0:0:0:
215,280,89337,54,0,P|204:232|229:191,1,98.9999969787599,10|0,1:2|0:0,0:0:0:0:
336,147,89559,2,0,P|346:194|321:235,1,98.9999969787599,2|0,0:2|0:0,0:0:0:0:
121,164,89781,2,0,P|131:116|106:75,1,98.9999969787599,2|0,1:2|0:0,0:0:0:0:
0,30,90003,2,0,P|-10:77|14:118,1,98.9999969787599,2|0,0:2|0:0,0:0:0:0:
21,266,90226,2,0,P|69:255|118:248,1,98.9999969787599,8|0,1:2|0:0,0:0:0:0:
272,337,90448,6,0,B|252:313|218:314|218:314|291:268|349:329|339:337|330:345|385:398|458:373,1,330,2|0,1:2|0:0,0:0:0:0:
416,269,90892,1,2,1:2:0:0:
419,294,91003,1,2,0:0:0:0:
496,300,91115,6,0,P|503:254|512:202,1,98.9999969787599,10|0,1:2|0:0,0:0:0:0:
354,133,91337,2,0,P|346:178|337:230,1,98.9999969787599,2|0,0:2|0:0,0:0:0:0:
216,174,91559,2,0,P|208:128|199:76,1,98.9999969787599,2|0,1:2|0:0,0:0:0:0:
485,131,91781,1,2,0:0:0:0:
512,52,91892,1,8,0:2:0:0:
438,15,92003,2,0,P|445:60|454:112,1,98.9999969787599,10|0,1:2|0:0,0:0:0:0:
457,371,92226,54,0,B|384:396|329:343|338:335|348:327|290:266|217:312|217:312|251:311|271:335,1,330,6|0,1:2|0:0,0:0:0:0:
155,375,92670,1,2,1:2:0:0:
152,350,92781,1,2,0:0:0:0:
91,296,92892,6,0,P|54:263|6:259,1,98.9999969787599,10|0,1:2|0:0,0:0:0:0:
199,158,93115,2,0,P|195:206|163:243,1,98.9999969787599,2|0,0:2|0:0,0:0:0:0:
407,208,93337,2,0,P|443:175|491:171,1,98.9999969787599,2|0,1:2|0:0,0:0:0:0:
298,70,93560,2,0,P|302:118|335:155,1,98.9999969787599,2|0,0:2|0:0,0:0:0:0:
403,100,93781,2,0,P|406:51|438:14,1,98.9999969787599,10|0,1:2|0:0,0:0:0:0:
271,335,94003,6,0,P|278:229|199:158,1,220,2|0,1:2|0:0,0:0:0:0:
486,85,94448,2,0,P|452:186|511:274,1,220,2|8,1:2|1:2,0:0:0:0:
152,350,94892,2,0,B|122:350|104:322|104:322|129:339|166:338,1,110,2|0,0:0|0:0,0:0:0:0:
202,261,95115,2,0,L|93:241,1,110,8|0,1:2|0:0,0:0:0:0:
0,131,95337,53,10,0:3:0:0:
11,57,95448,1,2,0:0:0:0:
80,25,95559,1,6,0:3:0:0:
147,62,95670,1,2,0:0:0:0:
148,75,95781,54,0,B|126:111|85:117|85:117|123:169|187:184|241:141,1,247.500009441376,6|0,1:2|0:0,0:0:0:0:
233,146,96226,5,2,0:0:0:0:
252,226,96448,1,2,0:0:0:0:
321,258,96670,1,2,1:2:0:0:
466,203,96892,1,10,0:2:0:0:
467,191,97115,1,2,0:0:0:0:
418,378,97337,1,2,0:0:0:0:
507,318,97559,70,0,B|465:284|465:284|410:296,1,110,2|0,0:0|1:2,0:0:0:0:
227,336,98003,6,0,L|231:356,2,20.6250007867813
155,312,98226,2,0,B|112:318|112:318|149:303,1,82.5000031471254,2|0,1:2|0:0,0:0:0:0:
277,267,98448,2,0,B|319:273|319:273|282:258,1,82.5000031471254
103,230,98670,69,10,0:2:0:0:
125,148,98892,1,2,0:0:0:0:
138,145,99115,6,0,L|158:141,2,20.6250007867813,2|0|0,0:0|0:0|0:0,0:0:0:0:
116,63,99337,1,2,0:0:0:0:
340,0,99559,70,0,P|318:17|309:42,1,55,2|0,1:2|0:0,0:0:0:0:
230,43,99781,2,0,P|232:70|247:92,1,55,2|0,0:0|0:0,0:0:0:0:
233,172,100003,2,0,P|339:145|449:140,1,220,2|8,0:2|0:2,0:0:0:0:
449,140,100670,5,2,0:0:0:0:
504,199,100892,1,2,0:0:0:0:
479,273,101115,1,2,1:2:0:0:
404,299,101337,70,0,L|407:319,3,20.6250007867813,2|0|0|0,0:0|0:0|0:0|0:0,0:0:0:0:
404,226,101559,2,0,L|407:206,3,20.6250007867813,10|0|0|0,0:2|0:0|0:0|0:0,0:0:0:0:
329,263,101781,5,2,1:2:0:0:
314,187,102003,2,0,L|294:184,3,20.6250007867813,0|0|0|0,1:2|0:0|0:0|0:0,0:0:0:0:
374,135,102226,1,8,0:2:0:0:
229,50,102448,69,2,1:2:0:0:
327,30,102670,1,0,1:2:0:0:
323,48,102781,1,0,1:2:0:0:
319,69,102892,1,0,1:2:0:0:
143,135,103115,5,0,1:2:0:0:
143,135,103337,1,2,0:0:0:0:
65,117,103559,1,2,0:0:0:0:
8,166,103781,1,2,1:2:0:0:
242,340,104003,69,10,0:2:0:0:
164,358,104225,1,2,0:0:0:0:
107,309,104447,1,2,0:0:0:0:
105,298,104670,1,8,0:2:0:0:
314,260,104892,5,0,1:2:0:0:
314,260,105115,1,2,0:0:0:0:
321,178,105337,1,2,0:0:0:0:
329,97,105559,2,0,L|309:94,3,20.6250007867813,2|0|0|0,1:2|0:0|0:0|0:0,0:0:0:0:
397,58,105781,69,10,0:2:0:0:
429,217,106003,1,2,0:0:0:0:
512,83,106226,5,2,0:0:0:0:
491,158,106448,1,0,1:2:0:0:
415,136,106670,69,10,1:2:0:0:
202,207,106892,1,0,0:0:0:0:
358,353,107115,6,0,P|393:343|429:340,2,73.3333333333333,0|0|0,3:3|3:3|3:3,0:0:0:0:
285,189,107559,70,0,P|308:161|336:137,2,73.3333333333333,8|0|0,3:2|3:3|3:3,0:0:0:0:
109,265,108003,6,0,P|112:228|126:184,2,82.5,0|0|0,3:3|3:3|3:3,0:0:0:0:
272,345,109337,69,0,1:2:0:0:
199,290,110003,2,0,L|158:283,1,41.2500015735627,2|0,0:0|0:0,0:0:0:0:
0,240,110226,6,0,B|48:197|41:128|41:128|58:194|121:213,1,247.500009441376,2|0,1:2|0:0,0:0:0:0:
162,149,110670,2,0,P|216:156|270:168,1,110,10|0,1:2|0:0,0:0:0:0:
512,148,111115,70,0,B|463:105|470:36|470:36|453:102|390:121,1,247.500009441376,2|0,1:2|0:0,0:0:0:0:
350,57,111559,2,0,P|295:65|241:76,1,110,10|0,1:2|0:0,0:0:0:0:
199,290,112003,54,0,B|270:319|321:254|305:248|290:243|345:183|411:209,1,247.500009441376,2|0,1:2|0:0,0:0:0:0:
490,312,112448,2,0,P|422:345|379:283,1,165,10|0,1:2|0:0,0:0:0:0:
283,230,112892,38,0,P|276:189|269:148,1,82.5000031471254,2|0,1:2|0:0,0:0:0:0:
491,215,113115,1,2,0:0:0:0:
418,216,113226,1,8,0:2:0:0:
380,284,113337,2,0,P|422:346|490:312,1,165,10|0,1:2|1:2,0:0:0:0:
329,94,113781,70,0,P|298:67|258:65,1,82.5000031471254,2|0,0:2|0:0,0:0:0:0:
198,120,114003,2,0,P|228:146|268:148,1,82.5000031471254,2|0,1:2|0:0,0:0:0:0:
469,3,114226,2,0,B|488:6|501:22|501:22|434:-10|372:44,1,165,10|0,1:2|0:0,0:0:0:0:
434,176,114670,54,0,P|440:139|448:95,1,82.5000031471254,2|0,1:2|0:0,0:0:0:0:
344,256,114892,2,0,P|310:269|276:281,1,71.4999967269899,2|0,0:2|0:0,0:0:0:0:
465,307,115115,2,0,P|488:324|511:345,1,60.5000018463135,10|0,1:2|0:0,0:0:0:0:
365,380,115337,2,0,P|292:363|219:352,1,148.49999546814,2|0,1:2|0:0,0:0:0:0:
72,310,115781,38,0,P|119:317|143:358,1,98.9999969787599,2|8,1:2|1:2,0:0:0:0:
0,182,116226,2,0,P|5:158|9:134,1,49.4999984893799,2|0,0:0|0:0,0:0:0:0:
75,77,116448,70,0,P|106:52|146:53,1,82.5000031471254,2|0,1:2|0:0,0:0:0:0:
343,0,116670,1,2,0:0:0:0:
288,54,116781,1,8,0:2:0:0:
338,113,116892,2,0,P|378:105|419:98,1,82.5000031471254,10|0,1:2|0:0,0:0:0:0:
473,303,117115,2,0,P|446:296|418:292,1,55,2|0,1:2|0:0,0:0:0:0:
286,238,117337,53,2,0:0:0:0:
286,238,117559,2,0,P|318:214|358:218,1,82.5000031471254,0|0,1:2|0:0,0:0:0:0:
220,343,117781,2,0,P|179:377|130:359,1,110,10|0,1:2|0:0,0:0:0:0:
82,202,118115,1,2,0:0:0:0:
2,200,118226,38,0,P|42:268|121:275,1,165.000006294251,2|2,1:2|0:0,0:0:0:0:
287,58,118670,2,0,P|239:80|234:132,1,110,10|0,1:2|0:0,0:0:0:0:
286,238,119003,1,2,0:0:0:0:
358,271,119115,70,0,P|437:264|477:196,1,165.000006294251,2|2,1:2|0:0,0:0:0:0:
363,30,119559,2,0,P|380:110|391:192,1,165.000006294251,10|2,1:2|0:2,0:0:0:0:
481,80,120003,54,0,B|512:92|512:92|456:108,1,82.5000031471254,2|0,1:2|0:0,0:0:0:0:
512,262,120226,1,2,0:0:0:0:
434,266,120337,1,8,0:2:0:0:
391,192,120448,2,0,P|379:108|362:29,1,165.000006294251,10|2,1:2|1:2,0:0:0:0:
75,19,120892,37,2,0:2:0:0:
75,19,121115,2,0,P|115:20|144:47,1,82.5000031471254,2|0,1:2|0:0,0:0:0:0:
265,156,121337,2,0,P|261:102|297:62,1,110,10|0,1:2|0:0,0:0:0:0:
121,128,121670,1,2,0:0:0:0:
109,131,121781,70,0,P|70:137|28:145,1,82.5000031471254,2|0,1:2|0:0,0:0:0:0:
133,274,122003,2,0,P|145:240|156:206,1,71.4999967269899,2|0,0:2|0:0,0:0:0:0:
2,229,122226,2,0,P|21:252|40:275,1,60.5000018463135,10|0,1:2|0:0,0:0:0:0:
287,364,122448,2,0,P|219:345|215:275,1,148.49999546814,2|0,1:2|0:0,0:0:0:0:
295,257,122892,54,0,B|317:233|342:242|342:242|312:246|289:281,1,98.9999969787599,2|8,1:2|1:2,0:0:0:0:
252,85,123337,1,2,0:0:0:0:
235,83,123448,1,2,0:0:0:0:
219,81,123559,38,0,P|213:46|205:-5,1,82.5000031471254,2|0,1:2|0:0,0:0:0:0:
496,69,123781,1,2,0:2:0:0:
425,97,123892,1,8,0:2:0:0:
434,172,124003,2,0,P|425:213|417:253,1,82.5000031471254,10|0,1:2|0:2,0:2:0:0:
203,364,124226,37,2,1:2:0:0:
193,258,124448,1,8,0:2:0:0:
193,258,124670,2,0,L|189:237,3,20.6250007867813,0|0|0|0,1:2|0:0|0:0|0:0,0:0:0:0:
288,319,124892,38,0,P|229:279|159:278,1,142.99999345398,14|0,1:2|0:0,0:0:0:0:
0,219,125337,2,0,P|58:179|128:178,1,142.99999345398,10|0,1:2|0:0,0:0:0:0:
266,128,125781,2,0,P|305:69|306:0,1,142.99999345398,10|0,1:2|0:0,0:0:0:0:
472,119,126226,2,0,P|473:189|512:247,1,142.99999345398,10|0,1:2|0:0,0:0:0:0:
476,309,126670,70,0,P|455:300|434:297,1,44,10|0,1:2|0:2,0:2:0:0:
420,373,126892,2,0,P|440:381|461:384,1,44,8|0,0:2|0:2,0:2:0:0:
337,242,127115,6,0,P|316:245|291:256,1,49.4999984893799,10|0,1:2|0:2,0:2:0:0:
309,329,127337,2,0,P|334:325|356:314,1,49.4999984893799,8|0,0:2|0:2,0:2:0:0:
132,301,127559,70,0,P|133:328|145:353,1,55,10|0,1:2|0:0,0:0:0:0:
226,339,127781,2,0,P|225:312|214:287,1,55,8|0,0:2|0:0,0:0:0:0:
55,155,128003,6,0,P|25:161|0:178,1,60.5000018463135,10|0,1:2|0:0,0:0:0:0:
58,232,128226,2,0,L|52:261,3,30.2500009231568,8|0|0|0,0:2|0:0|0:0|0:0,0:0:0:0:
134,224,128448,2,0,P|163:217|188:200,1,60.5000018463135,10|0,1:2|0:0,0:0:0:0:
130,143,128670,2,0,P|123:113|106:88,1,60.5000018463135,8|0,0:2|0:0,0:0:0:0:
246,0,128892,70,0,P|229:25|221:60,1,65.9999979858399,10|0,1:2|0:0,0:0:0:0:
231,138,129115,2,0,P|256:154|290:161,1,65.9999979858399,8|0,0:2|0:0,0:0:0:0:
356,118,129337,2,0,L|385:123,3,30.2500009231568,10|0|0|0,1:2|0:0|0:0|0:0,0:0:0:0:
373,44,129559,2,0,L|378:14,3,30.2500009231568,10|0|0|0,0:2|0:0|0:0|0:0,0:0:0:0:
458,92,129781,6,0,P|455:56|465:22,1,71.4999967269899,8|0,1:2|0:0,0:0:0:0:
512,186,130003,2,0,P|477:174|442:176,1,71.4999967269899,8|0,0:2|0:0,0:0:0:0:
311,220,130226,2,0,P|344:231|380:229,1,71.4999967269899,8|0,1:2|0:0,0:0:0:0:
365,314,130448,2,0,P|367:349|357:383,1,71.4999967269899,10|0,0:2|0:0,0:0:0:0:
58,337,130670,69,8,1:2:0:0:
150,317,130892,1,10,0:2:0:0:
222,384,131115,5,10,1:2:0:0:
87,244,131337,2,0,P|59:197|51:143,1,110,10|8,0:2|1:2,0:0:0:0:
196,0,131781,2,0,P|168:47|160:101,1,110,8|8,0:2|1:2,0:0:0:0:
373,170,132226,1,8,0:2:0:0:
294,145,132448,69,10,1:2:0:0:
469,78,132670,1,10,0:2:0:0:
437,247,132892,1,10,1:2:0:0:
231,307,133115,6,0,B|213:312|211:334|211:334|255:301|308:312,1,131.99999597168,10|8,0:2|1:2,0:0:0:0:
373,345,133559,69,8,0:2:0:0:
437,247,133781,1,8,1:2:0:0:
294,145,134003,1,8,0:2:0:0:
338,237,134226,5,10,1:2:0:0:
425,11,134448,1,8,0:2:0:0:
166,71,134670,1,10,1:2:0:0:
120,1,134892,70,0,P|95:4|72:13,1,49.4999984893799,10|0,0:2|0:0,0:0:0:0:
35,82,135115,2,0,P|13:102|0:129,1,60.5000018463135,8|0,1:2|0:0,0:0:0:0:
25,203,135337,2,0,P|29:238|47:268,1,71.4999967269899,8|0,0:2|0:0,0:0:0:0:
122,281,135559,2,0,P|160:294|200:286,1,82.5000031471254,8|0,1:2|0:0,0:0:0:0:
336,94,135781,6,0,P|351:56|382:29,1,82.5000031471254,8|0,0:2|0:0,0:0:0:0:
512,123,136003,2,0,P|472:113|432:122,1,82.5000031471254,8|0,1:2|0:0,0:0:0:0:
467,215,136226,2,0,P|497:242|509:281,1,82.5000031471254,8|0,0:2|0:0,0:0:0:0:
387,372,136448,2,0,P|410:338|415:298,1,82.5000031471254,10|0,1:2|0:0,0:0:0:0:
225,334,136670,38,0,P|236:251|258:138,1,197.99999395752,6|0,1:2|0:0,0:0:0:0:
247,136,137115,2,0,P|227:233|213:331,1,197.99999395752,6|2,1:2|0:0,0:0:0:0:
0,180,137559,6,0,B|36:185|36:185|142:81|142:81|183:89,1,220,6|2,1:2|0:0,0:0:0:0:
175,87,138226,1,2,0:0:0:0:
480,49,138448,54,0,B|516:65|509:101|509:101|456:27|373:26|325:42|325:42|305:72|265:75,1,330,6|0,1:2|0:0,0:0:0:0:
321,141,138892,1,2,1:2:0:0:
261,0,139003,1,2,0:0:0:0:
326,153,139115,6,0,P|391:160|472:178,1,148.49999546814,10|0,1:2|0:0,0:0:0:0:
473,194,139337,2,0,P|484:218|480:245,1,55,2|0,0:0|0:0,0:0:0:0:
230,252,139559,54,0,P|164:259|83:277,1,148.49999546814,2|0,1:2|0:0,0:0:0:0:
83,293,139781,2,0,P|71:317|75:344,1,55,2|0,0:0|0:0,0:0:0:0:
212,384,140003,2,0,B|235:383|246:362|246:362|228:373|204:373,1,82.5000031471254,10|0,1:2|0:0,0:0:0:0:
1,121,140226,6,0,P|48:184|128:183,1,165,2|0,1:2|0:0,0:0:0:0:
127,169,140448,2,0,P|150:135|147:95,1,82.5000031471254,2|0,0:2|0:0,0:0:0:0:
358,0,140670,2,0,P|355:40|378:73,1,82.5000031471254,2|0,1:2|0:0,0:0:0:0:
300,195,140892,6,0,L|259:186,3,41.2500015735627,8|0|0|0,1:2|0:0|0:0|0:0,0:0:0:0:
298,112,141115,2,0,B|281:159|320:199|329:180|363:213|343:269,1,165.000006294251,2|0,0:2|1:2,0:0:0:0:
17,333,141559,53,2,0:0:0:0:
139,279,141670,1,8,0:2:0:0:
212,384,141781,1,10,1:2:0:0:
14,322,142003,6,0,B|-24:353|-24:353|189:314|189:314|210:348|254:353,1,330,6|0,1:2|0:0,0:0:0:0:
366,362,142448,1,2,0:0:0:0:
398,262,142559,1,2,0:0:0:0:
361,353,142670,6,0,B|399:133|399:133|394:206,1,296.99999093628,10|0,1:2|0:0,0:0:0:0:
484,171,143115,2,0,P|448:138|399:134,1,98.9999969787599,2|0,1:2|0:0,0:0:0:0:
312,67,143337,2,0,P|327:27|361:0,1,88,2|0,0:2|0:0,0:0:0:0:
312,150,143559,2,0,P|275:158|248:184,1,76.9999976501466,10|0,1:2|0:0,0:0:0:0:
239,350,143781,54,0,B|174:365|137:312|147:309|158:305|120:253|49:275,1,220,2|0,1:2|0:0,0:0:0:0:
295,245,144226,2,0,B|359:260|396:207|386:204|375:200|413:148|484:170,1,220,2|8,1:2|1:2,0:0:0:0:
92,70,144670,2,0,B|67:84|69:113|69:113|130:34|232:53,1,220,2|0,0:0|1:2,0:0:0:0:
512,288,145115,5,2,0:0:0:0:
400,232,145226,1,8,0:2:0:0:
317,339,145337,1,10,1:2:0:0:
510,298,145559,6,0,B|453:289|420:328|420:328|452:264|415:184|340:183|340:183|358:189|375:210,1,330,6|0,1:2|0:0,0:0:0:0:
317,108,146003,1,2,1:2:0:0:
458,87,146114,1,2,0:0:0:0:
311,94,146226,54,0,P|242:117|207:181,1,148.49999546814,10|0,1:2|0:0,0:0:0:0:
212,195,146448,2,0,L|266:204,1,55,2|0,0:0|0:0,0:0:0:0:
48,372,146670,6,0,P|104:326|115:254,1,148.49999546814,2|0,1:2|0:0,0:0:0:0:
106,243,146892,2,0,L|52:253,1,55,2|0,0:0|0:0,0:0:0:0:
0,126,147115,2,0,P|40:127|73:103,1,82.5000031471254,10|0,1:2|0:0,0:0:0:0:
223,320,147337,6,0,B|198:288|198:288|322:310,1,165,2|0,1:2|0:0,0:0:0:0:
326,325,147559,2,0,B|356:345|356:345|400:334,1,82.5000031471254,2|0,0:0|0:0,0:0:0:0:
391,176,147781,2,0,B|347:165|347:165|316:185,1,82.5000031471254,2|0,0:0|0:0,0:0:0:0:
384,253,148003,1,8,1:2:0:0:
150,61,148226,54,0,P|191:54|231:45,1,82.5000031471254,2|0,0:0|0:0,0:0:0:0:
246,126,148448,2,0,P|205:132|164:141,1,82.5000031471254,2|0,1:2|0:0,0:0:0:0:
14,282,148670,5,2,0:2:0:0:
135,216,148781,1,8,0:2:0:0:
202,333,148892,1,10,1:2:0:0:
21,296,149115,6,0,B|5:284|-16:283|-16:283|45:254|73:201|73:201|123:233|195:226|195:226|175:239|167:258,1,330,6|0,1:2|0:0,0:0:0:0:
265,274,149559,2,0,L|362:292,1,98.9999969787599,2|0,1:2|0:0,0:0:0:0:
437,267,149781,2,0,L|446:321,1,55,8|0,1:2|0:0,0:0:0:0:
512,83,150003,54,0,L|415:101,1,98.9999969787599,2|0,0:2|0:0,0:0:0:0:
340,76,150226,2,0,L|330:130,1,55,0|0,1:2|0:0,0:0:0:0:
153,313,150448,6,0,L|135:216,1,98.9999969787599,2|0,0:2|0:0,0:0:0:0:
160,141,150671,2,0,L|105:131,1,55,8|0,1:2|0:0,0:0:0:0:
32,97,150892,6,0,B|16:69|-16:62|-16:62|37:-19|119:17,1,220,2|0,1:2|0:0,0:0:0:0:
458,225,151337,2,0,B|473:197|506:190|506:190|452:108|370:145,1,220,2|8,1:2|1:2,0:0:0:0:
134,215,151781,2,0,B|69:223|69:223|221:250,1,220,2|8,0:0|1:3,0:0:0:0:
512,323,152226,53,10,0:2:0:0:
398,267,152337,1,8,0:2:0:0:
317,374,152448,1,10,1:2:0:0:
510,335,152670,6,0,P|379:301|404:169,1,296.99999093628,6|0,1:2|0:0,0:0:0:0:
467,77,153115,2,0,P|491:88|512:106,2,55.0000020980836,0|0|0,1:2|3:0|3:0,0:0:0:0:
437,0,153337,6,0,P|413:11|392:29,5,55.0000020980836,10|0|0|0|0|0,1:2|3:0|3:0|3:0|3:0|3:0,0:0:0:0:
359,140,153781,54,0,P|385:148|403:168,2,55.0000020980836,2|0|0,1:2|3:2|3:0,0:0:0:0:
250,52,154003,2,0,P|237:27|239:0,2,55.0000020980836,2|0|0,3:2|3:2|3:0,0:0:0:0:
216,179,154226,2,0,P|201:201|176:213,2,55.0000020980836,10|0|0,1:2|3:0|3:0,0:0:0:0:
63,148,154448,6,0,P|180:141|242:242,1,247.500009441376,2|0,1:2|0:0,0:0:0:0:
212,314,154892,2,0,L|157:323,2,55.0000020980836,0|0|0,1:2|3:0|3:2,0:0:0:0:
347,384,155115,5,10,1:2:0:0:
345,372,155189,1,0,3:0:0:0:
343,361,155263,1,0,3:0:0:0:
341,351,155337,2,0,L|332:296,2,55.0000020980836,0|0|0,3:2|3:0|3:2,0:0:0:0:
455,367,155559,54,0,L|510:376,2,55.0000020980836,2|0|0,1:2|3:0|3:2,0:0:0:0:
512,267,155781,5,2,0:0:0:0:
477,173,155892,1,8,0:2:0:0:
383,198,156003,1,10,1:2:0:0:
509,252,156226,6,0,B|539:242|539:242|381:214|381:214|377:175|333:151,1,247.500009441376,6|0,1:2|0:0,0:0:0:0:
300,226,156670,2,0,P|276:237|255:255,2,55.0000020980836,0|0|0,1:2|3:0|3:0,0:0:0:0:
385,87,156892,53,10,1:2:0:0:
389,77,156966,1,0,3:0:0:0:
391,65,157041,1,0,3:0:0:0:
388,55,157115,1,0,3:0:0:0:
383,45,157189,1,0,3:0:0:0:
376,37,157263,1,0,3:0:0:0:
367,29,157337,6,0,P|346:11|322:0,2,55.0000020980836,2|0|0,1:2|3:0|3:0,0:0:0:0:
106,99,157559,2,0,P|124:78|136:54,2,55.0000020980836,2|0|0,0:2|3:0|3:0,0:0:0:0:
235,35,157781,2,0,P|245:61|247:89,2,55.0000020980836,10|0|0,1:2|3:0|3:0,0:0:0:0:
248,187,158003,6,0,B|176:217|125:159|137:153|148:147|102:89|33:114,1,247.500009441376,2|0,1:2|0:0,0:0:0:0:
33,113,158448,2,0,P|20:153|11:193,1,82.5000031471254,0|0,1:2|0:0,0:0:0:0:
175,346,158670,2,0,L|165:291,1,55,10|0,1:2|0:0,0:0:0:0:
270,295,158892,2,0,P|313:303|351:309,1,82.5000031471254,6|0,1:2|0:0,0:0:0:0:
512,165,159115,54,0,P|483:171|457:175,1,55,8|0,0:3|0:0,0:0:0:0:
252,66,159337,1,8,0:2:0:0:
309,18,159448,1,8,0:2:0:0:
378,48,159559,2,0,L|384:84,2,36.6666666666667,10|0|0,1:2|0:0|0:0,0:0:0:0:
352,155,159781,54,0,P|311:146|270:142,1,82.5000031471254,6|0,1:2|0:0,0:0:0:0:
127,81,160003,2,0,P|164:102|177:143,2,88,2|2|2,0:2|0:0|1:2,0:0:0:0:
20,63,160670,1,2,0:0:0:0:
17,51,160781,1,2,0:0:0:0:
61,132,160892,6,0,P|51:175|45:218,1,88,2|0,1:2|0:0,0:0:0:0:
48,229,161226,1,2,0:0:0:0:
117,255,161337,1,0,1:0:0:0:
0,363,161559,2,0,P|65:369|130:382,1,131.99999597168,2|0,0:0|1:2,0:0:0:0:
307,330,162003,69,2,0:0:0:0:
309,314,162115,1,2,0:0:0:0:
254,263,162226,2,0,P|233:270|217:285,1,44,2|0,1:2|0:0,0:0:0:0:
390,382,162448,5,2,0:0:0:0:
388,366,162560,1,2,0:0:0:0:
443,315,162671,2,0,P|463:322|514:271,1,88,2|0,1:2|0:0,0:0:0:0:
512,275,163003,1,2,0:0:0:0:
491,203,163114,1,0,1:0:0:0:
434,68,163337,2,0,P|379:97|385:159,1,131.99999597168,2|0,0:0|1:2,0:0:0:0:
500,106,163781,69,2,0:0:0:0:
306,146,164003,1,2,1:2:0:0:
358,70,164226,1,2,0:0:0:0:
171,25,164448,2,0,P|179:68|186:111,1,88,2|0,1:2|0:0,0:0:0:0:
180,141,164781,1,2,0:0:0:0:
107,120,164892,1,0,1:0:0:0:
0,274,165115,2,0,P|49:234|111:249,1,131.99999597168,2|0,0:0|1:2,0:0:0:0:
292,220,165559,6,0,P|324:247|331:290,1,88,0|0,0:0|1:2,0:0:0:0:
176,376,166003,2,0,P|190:294|196:212,2,165.000006294251,2|2|2,0:0|1:2|0:0,0:0:0:0:
416,152,166670,2,0,P|337:154|292:220,1,165.000006294251,2|0,1:2|0:0,0:0:0:0:
27,0,167115,70,0,P|15:24|13:52,1,55,10|0,1:2|0:0,0:0:0:0:
95,65,167337,2,0,P|106:40|107:13,1,55,8|0,0:2|0:0,0:0:0:0:
199,110,167559,6,0,P|187:85|185:57,1,55,10|0,1:2|0:0,0:0:0:0:
267,45,167781,2,0,P|278:69|279:96,1,55,8|0,0:2|0:0,0:0:0:0:
90,144,168003,70,0,P|73:169|67:199,1,60.5000018463135,10|0,1:2|0:0,0:0:0:0:
0,230,168226,2,0,P|11:258|32:280,1,60.5000018463135,8|0,0:2|0:0,0:0:0:0:
23,352,168448,2,0,P|52:359|82:354,1,60.5000018463135,10|0,1:2|0:0,0:0:0:0:
154,384,168670,2,0,P|176:363|190:336,1,60.5000018463135,8|0,0:2|0:0,0:0:0:0:
213,256,168892,6,0,P|206:223|188:196,1,65.9999979858399,10|0,1:2|0:0,0:0:0:0:
286,204,169115,2,0,P|308:179|320:149,1,65.9999979858399,8|0,0:2|0:0,0:0:0:0:
357,246,169337,2,0,P|389:250|421:242,1,65.9999979858399,10|0,1:2|0:0,0:0:0:0:
332,326,169559,2,0,P|346:355|371:377,1,65.9999979858399,8|0,0:2|0:0,0:0:0:0:
512,187,169781,70,0,P|480:170|444:167,1,71.4999967269899,10|0,1:2|0:0,0:0:0:0:
454,46,170003,2,0,P|422:62|399:89,1,71.4999967269899,8|0,0:2|0:0,0:0:0:0:
307,0,170226,2,0,P|302:35|311:69,1,71.4999967269899,10|0,1:2|0:0,0:0:0:0:
248,137,170448,6,0,P|210:121|182:90,1,82.5000031471254,8|0,0:2|0:0,0:0:0:0:
98,23,170670,2,0,P|89:63|98:103,1,82.5000031471254,10|0,1:2|0:0,0:0:0:0:
0,226,170892,2,0,P|27:195|65:180,1,82.5000031471254,8|0,0:2|0:0,0:0:0:0:
293,384,171115,70,0,L|309:291,1,93.500001783371,10|0,1:2|0:0,0:0:0:0:
512,282,171337,2,0,L|429:238,1,93.500001783371,10|0,1:2|0:0,0:0:0:0:
466,40,171559,2,0,L|398:104,1,93.500001783371,10|0,1:2|0:0,0:0:0:0:
223,11,171781,2,0,L|263:95,1,93.500001783371,10|0,1:2|0:0,0:0:0:0:
128,217,172003,2,0,L|220:203,1,93.500001783371,10|0,1:2|0:0,0:0:0:0:
390,364,172226,6,0,L|397:315,1,49.4999984893799,6|0,1:2|0:0,0:0:0:0:
399,306,172670,1,10,1:2:0:0:
512,282,172892,1,4,1:3:0:0:
251,342,173115,70,0,B|206:363|171:343|143:294|159:291|175:288|138:234|89:226|53:253,1,247.500009441376,6|0,1:2|0:0,0:0:0:0:
1,193,173559,1,10,0:2:0:0:
41,160,173670,1,8,0:2:0:0:
55,109,173781,1,10,0:2:0:0:
40,59,173892,1,8,0:2:0:0:
29,56,174003,54,0,B|171:80|171:80|174:83|174:83|287:103|287:103|289:145|334:167,1,330,6|0,1:2|0:0,0:0:0:0:
498,117,174448,1,2,1:2:0:0:
367,96,174559,1,2,0:0:0:0:
488,128,174671,70,0,B|512:274,1,148.49999546814,10|0,1:2|0:0,0:0:0:0:
503,292,174893,2,0,P|477:281|450:281,1,55,2|0,0:0|0:0,0:0:0:0:
256,384,175115,70,0,B|280:238,1,148.49999546814,2|0,1:2|0:0,0:0:0:0:
271,220,175337,2,0,P|245:231|218:231,1,55,2|0,0:0|0:0,0:0:0:0:
353,340,175559,2,0,B|394:348|394:348|360:326,1,82.5000031471254,10|0,1:2|0:0,0:0:0:0:
170,306,175782,22,0,L|7:278,1,165,2|0,1:2|0:0,0:0:0:0:
11,263,176004,2,0,B|35:233|35:233|27:191,1,82.5000031471254,2|0,0:0|0:0,0:0:0:0:
133,88,176226,2,0,B|124:131|124:131|148:161,1,82.5000031471254,2|0,1:2|0:0,0:0:0:0:
394,173,176448,70,0,L|386:132,3,41.2500015735627,8|0|0|0,1:2|0:0|0:0|0:0,0:0:0:0:
479,199,176671,2,0,P|400:190|351:253,1,165.000006294251,2|0,0:2|1:2,0:0:0:0:
58,330,177115,69,2,0:0:0:0:
180,384,177226,1,8,0:2:0:0:
253,279,177337,1,10,1:2:0:0:
61,342,177559,22,0,B|44:307|8:299|8:299|89:254|148:313|134:318|120:324|172:380|241:364,1,330,6|0,1:2|0:0,0:0:0:0:
369,378,178004,1,2,0:0:0:0:
340,282,178115,1,2,0:0:0:0:
372,368,178226,70,0,B|331:136|331:136|350:169|378:180,1,296.99999093628,10|0,1:2|0:0,0:0:0:0:
453,162,178671,2,0,P|486:126|490:77,1,98.9999969787599,2|0,1:2|0:0,0:0:0:0:
354,19,178893,2,0,P|388:46|404:87,1,88,2|0,0:2|0:0,0:0:0:0:
294,70,179115,2,0,P|257:58|220:66,1,76.9999976501466,10|0,1:2|0:0,0:0:0:0:
45,126,179337,70,0,B|18:119|0:148|0:148|98:124|161:201,1,220,2|0,1:2|0:0,0:0:0:0:
472,300,179781,2,0,B|498:293|516:322|516:322|418:298|355:375,1,220,2|8,1:2|1:2,0:0:0:0:
0,355,180226,2,0,P|58:270|155:303,1,220,2|0,0:0|1:2,0:0:0:0:
471,104,180671,21,2,0:0:0:0:
359,160,180782,1,8,0:2:0:0:
276,53,180893,1,10,1:2:0:0:
468,92,181115,70,0,B|489:68|519:63|519:63|414:82|414:82|414:85|414:85|310:103|310:103|243:62,1,330,6|0,1:2|0:0,0:0:0:0:
127,40,181559,1,2,1:2:0:0:
194,128,181670,1,2,0:0:0:0:
119,27,181782,70,0,B|87:61|87:61|110:160,1,148.49999546814,10|0,1:2|0:0,0:0:0:0:
103,176,182004,2,0,L|49:167,1,55,2|0,0:0|0:0,0:0:0:0:
257,384,182226,22,0,B|225:350|225:350|248:250,1,148.49999546814,2|0,1:2|0:0,0:0:0:0:
241,235,182448,2,0,L|187:244,1,55,2|0,0:0|0:0,0:0:0:0:
348,159,182671,2,0,P|388:158|421:182,1,82.5000031471254,10|0,1:2|0:0,0:0:0:0:
485,329,182893,70,0,B|525:333|525:333|403:354,1,165,2|0,1:2|0:0,0:0:0:0:
389,347,183115,2,0,B|404:265,1,82.5000031471254,2|0,0:0|0:0,0:0:0:0:
496,97,183337,2,0,B|511:178,1,82.5000031471254,2|0,0:0|0:0,0:0:0:0:
481,247,183559,1,8,1:2:0:0:
312,257,183782,70,0,B|282:230|282:230|240:234,1,82.5000031471254,2|0,0:0|0:0,0:0:0:0:
208,332,184003,2,0,B|238:359|238:359|279:354,1,82.5000031471254,2|0,1:2|0:0,0:0:0:0:
184,69,184226,21,2,0:2:0:0:
62,13,184337,1,8,0:2:0:0:
0,137,184448,1,10,1:2:0:0:
181,57,184671,70,0,B|147:88|147:88|210:36|310:23|356:50|356:50|327:85|328:122,1,330,6|0,1:2|0:0,0:0:0:0:
374,165,185115,2,0,L|471:183,1,98.9999969787599,2|0,1:2|0:0,0:0:0:0:
512,248,185337,2,0,P|486:257|468:278,1,55,8|0,1:2|0:0,0:0:0:0:
367,363,185559,70,0,P|350:318|308:294,1,98.9999969787599,2|0,0:2|0:0,0:0:0:0:
263,226,185781,2,0,P|217:243|193:285,1,98.9999969787599,2|0,1:2|0:0,0:0:0:0:
138,133,186003,22,0,L|41:115,1,98.9999969787599,2|0,0:2|0:0,0:0:0:0:
0,50,186226,2,0,P|25:40|43:19,1,55,10|0,1:2|0:0,0:0:0:0:
148,14,186448,70,0,B|210:-15|263:10|288:77|288:77|262:70|243:79,1,220,2|0,1:2|0:0,0:0:0:0:
367,363,186892,2,0,B|304:392|251:366|226:299|226:299|252:306|271:297,1,220,2|8,1:2|1:2,0:0:0:0:
512,190,187337,2,0,B|408:171|408:171|405:173|405:173|289:153,1,220,2|8,0:0|1:3,0:0:0:0:
0,283,187781,69,10,0:2:0:0:
72,164,187893,1,8,0:2:0:0:
194,229,188004,1,8,1:2:0:0:
127,341,188115,1,8,0:2:0:0:
1,294,188226,54,0,B|50:285|50:285|54:282|54:282|108:272,1,110,2|0,1:2|0:0,0:0:0:0:
367,363,188448,2,0,L|403:369,2,36.6666666666667,8|8|8,0:2|0:2|0:2,0:0:0:0:
200,307,188670,1,4,1:2:0:0:
200,307,188892,38,0,B|252:251|240:153|240:153|263:249|333:284,1,330,10|0,1:2|0:0,0:0:0:0:
358,213,189337,2,0,L|466:232,1,110,2|0,1:2|0:0,0:0:0:0:
486,101,189559,5,8,0:2:0:0:
488,85,189670,1,10,0:2:0:0:
453,18,189781,1,8,0:2:0:0:
374,7,189892,1,8,0:2:0:0:
306,69,190003,54,0,B|357:86|351:137|351:137|312:69|223:27|145:68,1,330,6|0,1:2|0:0,0:0:0:0:
49,46,190448,1,2,1:2:0:0:
142,145,190559,1,2,0:0:0:0:
40,55,190670,6,0,P|7:91|6:139,1,98.9999969787599,10|0,1:2|0:0,0:0:0:0:
114,239,190892,2,0,P|146:202|147:154,1,98.9999969787599,2|2,0:0|0:0,0:0:0:0:
0,357,191115,2,0,P|37:345|97:338,1,98.9999969787599,2|0,1:2|0:0,0:0:0:0:
305,372,191337,5,8,0:2:0:0:
220,344,191448,1,10,0:2:0:0:
220,255,191559,1,8,0:2:0:0:
305,227,191670,1,8,0:2:0:0:
357,299,191781,54,0,B|434:326|521:280|514:188|514:188|477:230|423:223,1,330,6|0,1:2|0:2,0:0:0:0:
388,66,192226,1,2,1:2:0:0:
446,142,192337,1,2,0:0:0:0:
392,58,192448,6,0,P|344:46|298:64,1,98.9999969787599,10|0,1:2|0:0,0:0:0:0:
162,63,192670,2,0,P|188:21|233:2,1,98.9999969787599,2|0,0:0|0:0,0:0:0:0:
70,82,192892,2,0,P|52:127|63:175,1,98.9999969787599,2|0,1:2|0:0,0:0:0:0:
36,287,193115,5,8,0:2:0:0:
51,282,193226,1,10,0:2:0:0:
111,234,193337,1,8,0:2:0:0:
181,260,193448,1,8,0:2:0:0:
192,338,193559,54,0,P|244:323|299:319,1,110,6|8,1:2|0:2,0:0:0:0:
473,366,193781,1,8,0:2:0:0:
512,301,193892,1,8,0:2:0:0:
468,235,194003,5,6,1:2:0:0:
435,214,194115,1,8,0:2:0:0:
435,177,194226,1,8,0:3:0:0:
464,154,194337,1,4,0:3:0:0:
501,85,194448,5,6,1:2:0:0:
483,81,194559,1,4,0:3:0:0:
466,77,194670,1,2,1:2:0:0:
448,74,194781,1,4,0:3:0:0:
371,1,194892,53,6,1:2:0:0:
349,0,195003,1,2,1:2:0:0:
307,23,195115,1,2,1:2:0:0:
287,91,195226,1,2,1:2:0:0:
355,181,195337,6,0,B|268:221|204:130|218:124|232:119|176:36|76:73,1,330,6|0,1:2|0:0,0:0:0:0:
143,38,195781,2,0,B|152:2|182:-3|182:-3|160:16|152:52,1,110,2|0,1:2|0:0,0:0:0:0:
72,158,196003,2,0,P|108:190|156:193,1,98.9999969787599,10|0,1:2|0:0,0:0:0:0:
288,263,196226,2,0,P|255:299|253:347,1,98.9999969787599,2|2,0:2|0:0,0:0:0:0:
354,384,196448,2,0,P|386:347|388:299,1,98.9999969787599,2|0,1:2|0:0,0:0:0:0:
507,210,196670,5,8,0:2:0:0:
511,195,196781,1,10,0:2:0:0:
484,126,196892,1,8,0:2:0:0:
410,95,197003,1,8,0:2:0:0:
331,125,197115,54,0,B|365:156|365:156|239:133|239:133|238:128|238:128|136:111|136:111|122:136|69:147,1,330,6|0,1:2|0:0,0:0:0:0:
2,175,197559,1,2,1:2:0:0:
73,61,197670,1,2,0:0:0:0:
5,187,197781,6,0,L|24:295,1,110,10|0,1:2|0:0,0:0:0:0:
270,222,198003,2,0,L|161:202,1,110,2|2,0:2|0:0,0:0:0:0:
198,31,198226,2,0,L|306:50,1,110,2|0,1:2|0:0,0:0:0:0:
511,195,198448,5,8,0:2:0:0:
437,144,198559,1,10,0:2:0:0:
430,234,198670,1,8,0:2:0:0:
508,181,198892,54,0,P|362:229|368:383,1,330,6|0,1:2|0:0,0:0:0:0:
439,352,199337,1,2,1:2:0:0:
279,384,199448,1,2,0:0:0:0:
436,339,199559,6,0,L|327:319,1,110,10|0,1:2|0:0,0:0:0:0:
289,134,199781,2,0,P|338:155|357:204,1,110,2|0,0:0|0:0,0:0:0:0:
161,263,200003,2,0,L|269:243,1,110,2|0,1:2|0:0,0:0:0:0:
18,74,200226,5,8,0:2:0:0:
92,23,200337,1,10,0:2:0:0:
99,113,200448,1,8,0:2:0:0:
21,60,200670,54,0,P|166:108|160:262,1,330,6|0,1:2|0:0,0:0:0:0:
54,343,201115,2,0,P|15:305|17:252,1,110,2|0,1:2|0:0,0:0:0:0:
240,61,201337,5,8,1:2:0:0:
240,61,201559,1,10,0:2:0:0:
324,117,201670,1,8,0:2:0:0:
378,24,201781,1,8,0:2:0:0:
512,237,202003,37,2,1:2:0:0:
495,242,202115,1,8,0:3:0:0:
475,246,202226,1,4,0:3:0:0:
458,250,202337,1,4,0:3:0:0:
400,314,202448,6,0,B|362:332|352:377|352:377|357:330|327:301,1,165.000006294251,6|0,1:2|0:0,0:0:0:0:
