osu file format v14

[General]
AudioFilename: audio.mp3
AudioLeadIn: 0
PreviewTime: 73448
Countdown: 0
SampleSet: Soft
StackLeniency: 0.7
Mode: 0
LetterboxInBreaks: 0
EpilepsyWarning: 1
WidescreenStoryboard: 1

[Editor]
Bookmarks: 892,17559,31781,46226,60448,74448,88670,95781,110226,124448,138448,152670,159781,174003,188226
DistanceSpacing: 1
BeatDivisor: 4
GridSize: 4
TimelineZoom: 2.799999

[Metadata]
Title:Hana Uranai
TitleUnicode:花占い
Artist:Vaundy
ArtistUnicode:Vaundy
Creator:Jiysea
Version:Normal
Source:ボクの殺意が恋をした
Tags:japanese pop jpop j-pop Boku no Satsui ga Koi wo Shita theme song Flower fortune telling digital single バウンディ
BeatmapID:3518066
BeatmapSetID:1719972

[Difficulty]
HPDrainRate:3
CircleSize:2.6
OverallDifficulty:4
ApproachRate:5
SliderMultiplier:1.3
SliderTickRate:1

[Events]
//Background and Video events
0,0,"real bg.jpg",0,0
//Break Periods
//Storyboard Layer 0 (Background)
//Storyboard Layer 1 (Fail)
//Storyboard Layer 2 (Pass)
//Storyboard Layer 3 (Foreground)
Sprite,Foreground,Centre,"sb/ring.png",0,0 M,0,153337,,195,294 F,18,153337,153781,0.8,0 S,19,153337,153781,0,0.35 C,0,153337,,252,215,120
Sprite,Foreground,Centre,"sb/ring.png",0,0 M,0,153781,,101,150 F,18,153781,154225,0.8,0 S,19,153781,154225,0,0.35 C,0,153781,,252,215,120
Sprite,Foreground,Centre,"sb/ring.png",0,0 M,0,154003,,162,89 F,18,154003,154447,0.8,0 S,19,154003,154447,0,0.35 C,0,154003,,252,215,120
Sprite,Foreground,Centre,"sb/ring.png",0,0 M,0,154226,,249,115 F,18,154226,154670,0.8,0 S,19,154226,154670,0,0.35 C,0,154226,,252,215,120
Sprite,Foreground,Centre,"sb/ring.png",0,0 M,0,154448,,249,115 F,18,154448,154892,0.8,0 S,19,154448,154892,0,0.35 C,0,154448,,202,149,255
Sprite,Foreground,Centre,"sb/ring.png",0,0 M,0,155115,,473,71 F,18,155115,155559,0.8,0 S,19,155115,155559,0,0.35 C,0,155115,,202,149,255
Sprite,Foreground,Centre,"sb/ring.png",0,0 M,0,155559,,557,220 F,18,155559,156003,0.8,0 S,19,155559,156003,0,0.35 C,0,155559,,202,149,255
Sprite,Foreground,Centre,"sb/ring.png",0,0 M,0,155781,,500,284 F,18,155781,156225,0.8,0 S,19,155781,156225,0,0.35 C,0,155781,,202,149,255
Sprite,Foreground,Centre,"sb/ring.png",0,0 M,0,156226,,455,419 F,18,156226,156670,0.8,0 S,19,156226,156670,0,0.35 C,0,156226,,128,128,255
Sprite,Foreground,Centre,"sb/ring.png",0,0 M,0,156892,,378,265 F,18,156892,157336,0.8,0 S,19,156892,157336,0,0.35 C,0,156892,,128,128,255
Sprite,Foreground,Centre,"sb/ring.png",0,0 M,0,157337,,245,155 F,18,157337,157781,0.8,0 S,19,157337,157781,0,0.35 C,0,157337,,128,128,255
Sprite,Foreground,Centre,"sb/ring.png",0,0 M,0,157559,,163,178 F,18,157559,158003,0.8,0 S,19,157559,158003,0,0.35 C,0,157559,,128,128,255
Sprite,Foreground,Centre,"sb/ring.png",0,0 M,0,157781,,150,266 F,18,157781,158225,0.8,0 S,19,157781,158225,0,0.35 C,0,157781,,128,128,255
Sprite,Foreground,Centre,"sb/ring.png",0,0 M,0,158003,,150,266 F,18,158003,158447,0.8,0 S,19,158003,158447,0,0.35 C,0,158003,,252,215,120
Sprite,Foreground,Centre,"sb/ring.png",0,0 M,0,158670,,208,428 F,18,158670,159114,0.8,0 S,19,158670,159114,0,0.35 C,0,158670,,252,215,120
Sprite,Foreground,Centre,"sb/ring.png",0,0 M,0,158892,,270,370 F,18,158892,159336,0.8,0 S,19,158892,159336,0,0.35 C,0,158892,,252,215,120
Sprite,Foreground,Centre,"sb/ring.png",0,0 M,0,159559,,503,385 F,18,159559,160003,0.8,0 S,19,159559,160003,0,0.35 C,0,159559,,252,215,120
Sprite,Foreground,Centre,"sb/ring.png",0,0 M,0,172226,,216,126 F,18,172226,172670,0.8,0 S,19,172226,172670,0,0.3 C,0,172226,,81,69,191 C,0,172670,,230,230,230 C,0,172892,,0,0,0 C,0,173115,173559,0,0,0,230,230,230
Sprite,Foreground,Centre,"sb/ring.png",0,0 M,0,172670,,363,75 F,18,172670,173114,0.8,0 S,19,172670,173114,0,0.3 C,0,172226,,81,69,191 C,0,172670,,230,230,230 C,0,172892,,0,0,0 C,0,173115,173559,0,0,0,230,230,230
Sprite,Foreground,Centre,"sb/ring.png",0,0 M,0,173115,,366,202 F,18,173115,173559,0.8,0 S,19,173115,173559,0,0.3 C,0,172226,,81,69,191 C,0,172670,,230,230,230 C,0,172892,,0,0,0 C,0,173115,173559,0,0,0,230,230,230
//Storyboard Sound Samples

[TimingPoints]
4,444.444444444444,4,2,2,50,1,0
1559,-111.111111111111,4,2,2,50,0,0
14003,-100,4,2,2,50,0,0
16003,-100,4,2,3,50,0,0
16374,-100,4,2,3,55,0,0
16596,-100,4,2,3,60,0,0
16818,-100,4,2,3,65,0,0
17041,-100,4,2,3,70,0,0
17263,-100,4,2,3,75,0,0
17485,-100,4,2,3,80,0,0
17559,-100,4,2,1,80,0,0
24115,-100,4,2,1,5,0,0
24226,-100,4,2,1,80,0,0
31781,-111.111111111111,4,2,2,80,0,0
32226,-111.111111111111,4,2,1,50,0,0
35337,-111.111111111111,4,2,2,50,0,0
35559,-111.111111111111,4,2,1,50,0,0
38892,-111.111111111111,4,2,2,50,0,0
39115,-111.111111111111,4,2,1,50,0,0
42448,-111.111111111111,4,2,2,50,0,0
42670,-111.111111111111,4,2,1,50,0,0
44670,-111.111111111111,4,2,1,50,0,0
46003,-111.111111111111,4,2,2,50,0,0
46226,-100,4,2,1,65,0,0
60226,-100,4,2,2,65,0,0
63115,-100,4,2,3,50,0,0
64003,-100,4,2,3,55,0,0
64892,-100,4,2,3,60,0,0
65781,-100,4,2,3,65,0,0
66670,-100,4,2,3,70,0,0
67337,-100,4,2,3,70,0,0
70892,-100,4,2,3,75,0,0
72670,-100,4,2,2,80,0,0
73559,-100,4,2,2,50,0,0
74448,-90.9090909090909,4,2,1,85,0,1
74892,-90.9090909090909,4,2,1,85,0,0
81559,-90.9090909090909,4,2,1,85,0,1
82003,-90.9090909090909,4,2,1,85,0,0
88670,-90.9090909090909,4,2,1,85,0,1
89115,-90.9090909090909,4,2,1,85,0,0
96003,-111.111111111111,4,2,5,60,0,0
107263,-100,4,2,5,45,0,0
107411,-100,4,2,5,30,0,0
107559,-100,4,2,5,60,0,0
107707,-100,4,2,5,45,0,0
107855,-100,4,2,5,30,0,0
108003,-100,4,2,5,60,0,0
108152,-100,4,2,5,45,0,0
108300,-100,4,2,5,30,0,0
108448,-100,4,2,1,5,0,0
109337,-100,4,2,1,60,0,0
110226,-100,4,2,1,65,0,0
124226,-100,4,2,2,65,0,0
124670,-100,4,2,4,65,0,0
124892,-100,4,2,4,65,0,0
126670,-100,4,2,6,50,0,0
128003,-100,4,2,6,55,0,0
128892,-100,4,2,6,60,0,0
129781,-100,4,2,6,65,0,0
130670,-100,4,2,6,70,0,0
131337,-100,4,2,6,75,0,0
136670,-100,4,2,1,80,0,0
138448,-90.9090909090909,4,2,1,85,0,1
138892,-90.9090909090909,4,2,1,85,0,0
145559,-90.9090909090909,4,2,1,85,0,1
146003,-90.9090909090909,4,2,1,85,0,0
152670,-90.9090909090909,4,2,1,85,0,1
153115,-90.9090909090909,4,2,1,85,0,0
159781,-100,4,2,2,65,0,0
160003,-100,4,2,1,65,0,0
167115,-100,4,2,3,50,0,0
168003,-100,4,2,3,55,0,0
168892,-100,4,2,3,60,0,0
169781,-100,4,2,3,65,0,0
170448,-100,4,2,3,70,0,0
171115,-100,4,2,3,75,0,0
172226,-100,4,2,2,60,0,0
172670,-100,4,2,1,80,0,0
174003,-90.9090909090909,4,2,1,85,0,1
174448,-90.9090909090909,4,2,1,85,0,0
181115,-90.9090909090909,4,2,1,85,0,1
181559,-90.9090909090909,4,2,1,85,0,0
188670,-90.9090909090909,4,2,1,85,0,0
189559,-90.9090909090909,4,2,1,40,0,0
189781,-90.9090909090909,4,2,1,85,0,0
193115,-90.9090909090909,4,2,1,40,0,0
193337,-90.9090909090909,4,2,1,85,0,0
202448,-90.9090909090909,4,2,1,65,0,0

[Colours]
Combo1 : 202,149,255
Combo2 : 128,128,255
Combo3 : 252,117,93
Combo4 : 200,198,198
Combo5 : 135,135,135
Combo6 : 252,215,120

[HitObjects]
75,43,1559,38,0,L|252:67,1,175.499994644165,6|10,0:0|0:2,0:0:0:0:
389,55,2670,2,0,P|389:25|378:0,2,58.4999982147217,10|2|10,0:2|0:0|0:2,0:0:0:0:
451,63,3337,1,2,0:0:0:0:
451,63,3559,2,0,P|457:91|445:121,1,58.4999982147217,10|2,0:2|0:0,0:0:0:0:
356,225,4226,6,0,P|299:215|255:251,1,116.999996429443,2|2,0:0|0:2,0:0:0:0:
269,308,4892,1,10,0:2:0:0:
296,359,5115,70,0,P|266:360|238:368,1,58.4999982147217,6|8,0:0|0:2,0:0:0:0:
98,366,5781,2,0,P|68:364|40:356,1,58.4999982147217,10|2,0:2|0:0,0:0:0:0:
16,302,6226,2,0,L|5:360,2,58.4999982147217,10|2|10,0:2|0:0|0:2,0:0:0:0:
65,270,6892,2,0,P|122:273|179:259,1,116.999996429443,2|2,0:0|0:2,0:0:0:0:
157,120,7781,5,2,0:0:0:0:
175,64,8003,1,10,0:2:0:0:
230,45,8226,2,0,L|287:34,1,58.4999982147217,2|10,0:0|0:2,0:0:0:0:
325,78,8670,70,0,P|382:15|466:25,1,175.499994644165,6|10,1:2|1:2,0:0:0:0:
511,157,9781,1,10,1:2:0:0:
393,234,10226,2,0,L|384:291,1,58.4999982147217,10|2,1:2|0:0,0:0:0:0:
412,349,10670,1,10,1:2:0:0:
412,349,10892,2,0,P|389:365|360:369,1,58.4999982147217,2|8,0:0|1:2,0:0:0:0:
301,357,11337,2,0,L|291:299,2,58.4999982147217,2|10|2,0:0|1:2|0:0,0:0:0:0:
160,366,12226,6,0,P|102:363|63:322,2,116.999996429443,6|2|2,0:0|0:0|0:0,0:0:0:0:
211,235,13559,1,2,0:0:0:0:
232,180,13781,1,10,1:2:0:0:
207,120,14003,70,0,P|140:109|78:97,2,130,6|2|2,0:0|0:0|0:0,0:0:0:0:
360,89,15337,1,2,0:0:0:0:
431,234,15781,1,2,0:0:0:0:
431,234,16003,6,0,L|494:221,2,65,8|8|8,0:2|0:2|0:2,0:0:0:0:
419,298,16670,1,8,0:2:0:0:
380,350,16892,2,0,L|315:360,1,65,8|8,0:2|0:2,0:0:0:0:
252,343,17337,1,8,0:2:0:0:
192,369,17559,21,6,1:2:0:0:
55,293,18003,1,2,1:2:0:0:
102,230,18226,2,0,P|100:196|84:169,1,65,10|2,1:2|0:0,0:0:0:0:
60,96,18670,1,2,1:2:0:0:
202,31,19115,1,10,1:2:0:0:
279,22,19337,6,0,P|340:34|407:45,1,130,2|2,1:2|1:2,0:0:0:0:
480,18,20003,2,0,P|484:49|491:82,1,65,10|2,1:2|0:2,0:0:0:0:
508,158,20448,1,2,1:2:0:0:
491,312,20892,1,10,1:2:0:0:
434,365,21115,53,6,1:2:0:0:
300,285,21559,1,2,1:2:0:0:
227,255,21781,2,0,P|203:276|192:307,1,65,10|2,1:2|0:2,0:0:0:0:
135,360,22226,2,0,P|116:334|88:318,1,65,2|2,1:2|0:2,0:0:0:0:
11,301,22670,1,10,1:2:0:0:
5,223,22892,6,0,B|1:143|44:177|40:98,1,130,2|2,1:2|1:2,0:0:0:0:
180,33,23781,2,0,P|228:74|292:81,1,130,2|2,0:0|0:0,0:0:0:0:
366,53,24448,1,10,1:2:0:0:
442,68,24670,5,6,1:2:0:0:
362,202,25115,1,2,1:2:0:0:
314,264,25337,2,0,L|325:328,1,65,10|2,1:2|0:2,0:0:0:0:
397,358,25781,1,2,1:2:0:0:
508,249,26226,1,10,1:2:0:0:
489,173,26448,54,0,P|472:113|510:64,1,130,2|2,1:2|1:2,0:0:0:0:
464,0,27115,2,0,P|432:8|400:11,1,65,10|2,1:2|0:0,0:0:0:0:
322,20,27559,1,2,1:2:0:0:
294,173,28003,1,10,1:2:0:0:
297,251,28226,5,6,1:2:0:0:
142,234,28670,1,2,1:2:0:0:
81,184,28892,2,0,P|53:199|34:226,1,65,10|2,1:2|0:0,0:0:0:0:
3,297,29337,2,0,P|14:327|37:349,1,65,2|2,1:2|0:2,0:0:0:0:
118,366,29781,1,10,1:2:0:0:
118,366,30003,6,0,B|198:370|164:327|243:331,1,130,2|2,1:2|1:2,0:0:0:0:
318,357,30670,1,8,1:2:0:0:
318,357,30892,2,0,P|320:324|325:291,1,65,2|8,0:2|1:3,0:0:0:0:
341,215,31337,1,10,0:2:0:0:
417,200,31559,1,10,1:2:0:0:
487,208,31781,22,0,P|475:151|467:93,1,116.999996429443,6|2,1:2|1:2,0:0:0:0:
415,64,32448,1,2,1:2:0:0:
284,31,32892,1,2,1:2:0:0:
284,31,33115,2,0,P|259:46|245:72,1,58.4999982147217,2|2,0:0|1:2,0:0:0:0:
257,129,33559,54,0,P|199:116|141:108,1,116.999996429443,2|2,0:0|0:0,0:0:0:0:
44,209,34448,1,2,0:0:0:0:
44,209,34670,2,0,P|65:228|75:255,1,58.4999982147217,2|2,1:2|0:0,0:0:0:0:
45,306,35115,1,2,1:2:0:0:
73,356,35337,22,0,P|129:342|187:334,1,116.999996429443,6|2,0:0|0:0,0:0:0:0:
243,352,36003,1,2,1:2:0:0:
373,299,36448,2,0,P|400:307|423:325,2,58.4999982147217,2|2|2,1:2|0:0|1:2,0:0:0:0:
336,252,37115,54,0,P|340:223|345:194,1,58.4999982147217,2|0,0:0|1:2,0:0:0:0:
384,150,37559,2,0,P|395:123|416:103,1,58.4999982147217,2|0,0:0|1:2,0:0:0:0:
466,71,38003,1,2,0:0:0:0:
466,71,38226,2,0,P|408:62|350:50,1,116.999996429443,2|2,1:2|1:2,0:0:0:0:
301,20,38892,21,6,0:0:0:0:
180,89,39337,1,2,0:2:0:0:
180,89,39559,2,0,P|154:76|141:50,1,58.4999982147217,2|0,1:2|0:0,0:0:0:0:
90,34,40003,1,2,1:2:0:0:
90,34,40226,2,0,P|82:91|68:148,1,116.999996429443,2|2,0:0|0:0,0:0:0:0:
29,283,41115,54,0,P|56:274|85:270,1,58.4999982147217,2|0,0:0|1:2,0:0:0:0:
133,313,41559,1,2,0:0:0:0:
133,313,41781,2,0,P|160:321|189:326,1,58.4999982147217,2|2,1:2|0:0,0:0:0:0:
244,306,42226,1,2,1:2:0:0:
293,336,42448,5,6,0:0:0:0:
421,279,42892,2,0,P|424:250|430:222,1,58.4999982147217,2|0,0:0|1:2,0:0:0:0:
483,193,43337,1,2,0:0:0:0:
483,193,43559,2,0,P|480:164|463:140,1,58.4999982147217,2|2,1:2|0:0,0:0:0:0:
451,82,44003,1,2,1:2:0:0:
392,76,44226,69,6,0:0:0:0:
33,351,46003,1,6,1:2:0:0:
33,351,46226,38,0,P|41:320|64:297,1,65,2|0,1:2|0:0,0:0:0:0:
71,233,46670,2,0,P|101:221|132:226,1,65,10|0,1:2|0:0,0:0:0:0:
194,206,47115,2,0,P|177:274|170:333,1,130,2|10,1:2|1:2,0:0:0:0:
233,366,47781,1,0,0:0:0:0:
233,366,48003,70,0,P|271:357|296:353,1,65,2|0,1:2|0:0,0:0:0:0:
361,363,48448,1,10,1:2:0:0:
458,241,48892,2,0,P|424:235|394:228,2,65,2|2|10,1:2|0:0|1:2,0:0:0:0:
502,194,49559,53,0,1:2:0:0:
502,194,49781,2,0,P|512:163|504:132,1,65,2|2,0:2|1:2,0:0:0:0:
512,67,50226,2,0,P|443:82|384:93,1,130,10|2,1:2|1:2,0:0:0:0:
325,66,50892,1,2,0:2:0:0:
261,80,51115,1,10,1:2:0:0:
245,143,51337,37,2,1:2:0:0:
277,295,51781,2,0,L|212:306,1,65,2|8,1:2|1:2,0:0:0:0:
167,353,52226,1,2,0:2:0:0:
105,332,52448,2,0,P|90:303|88:271,1,65,2|2,1:2|0:0,0:0:0:0:
68,209,52892,2,0,P|83:180|108:160,1,65,10|2,1:2|1:2,0:0:0:0:
156,116,53337,69,2,0:0:0:0:
284,205,53781,2,0,P|270:142|259:78,1,130,10|2,1:2|1:2,0:0:0:0:
316,44,54448,1,2,0:0:0:0:
316,44,54670,2,0,P|345:59|377:60,1,65,10|0,1:2|0:0,0:0:0:0:
439,41,55115,54,0,P|443:77|450:105,1,65,2|2,1:2|0:2,0:0:0:0:
512,124,55559,1,10,1:2:0:0:
403,235,56003,2,0,P|369:241|339:248,2,65,2|2|10,1:2|0:0|1:2,0:0:0:0:
466,267,56670,37,2,1:2:0:0:
466,267,56892,2,0,P|484:293|483:325,1,65,2|2,0:2|1:2,0:0:0:0:
432,366,57337,2,0,P|398:360|368:353,1,65,10|2,1:2|0:2,0:0:0:0:
306,336,57781,2,0,P|272:342|242:349,1,65,2|2,1:2|0:2,0:0:0:0:
177,353,58226,1,10,1:2:0:0:
114,337,58448,1,2,1:2:0:0:
79,185,58892,38,0,P|98:126|158:112,1,130,2|2,1:2|0:0,0:0:0:0:
217,80,59559,1,2,1:2:0:0:
217,80,59781,2,0,P|249:87|281:91,1,65,2|10,0:2|1:2,0:0:0:0:
346,92,60226,1,2,1:2:0:0:
511,256,60892,22,0,P|447:264|383:279,2,130,14|10|10,1:2|1:2|1:2,0:0:0:0:
429,122,62226,2,0,P|365:114|303:133,1,130,10|10,1:2|1:2,0:0:0:0:
215,262,63115,2,0,P|190:318|128:327,1,130,10|10,1:2|1:2,0:0:0:0:
14,220,64003,6,0,P|23:158|79:133,1,130,10|10,1:2|1:2,0:0:0:0:
203,37,64892,2,0,P|266:49|330:59,1,130,10|10,1:2|1:2,0:0:0:0:
399,53,65559,1,10,0:2:0:0:
399,53,65781,70,0,P|389:89|386:116,2,65,8|8|8,1:2|0:2|1:2,0:0:0:0:
458,26,66448,2,0,P|503:70|499:133,1,130,10|10,0:2|1:2,0:0:0:0:
459,283,67337,6,0,P|428:287|402:307,1,65,10|8,0:2|1:2,0:0:0:0:
380,368,67781,2,0,L|316:355,1,65,10|8,0:2|1:2,0:0:0:0:
258,338,68226,1,8,0:2:0:0:
258,338,68448,2,0,P|261:302|269:274,2,65,10|10|10,1:2|0:2|1:2,0:0:0:0:
196,358,69115,70,0,P|151:313|88:308,1,130,10|8,0:2|0:2,0:0:0:0:
35,268,69781,1,8,1:2:0:0:
48,112,70226,2,0,P|55:80|60:48,1,65,10|8,1:2|0:2,0:0:0:0:
129,41,70670,1,10,1:2:0:0:
129,41,70892,6,0,P|157:28|189:34,1,65,10|8,0:2|1:2,0:0:0:0:
254,25,71337,2,0,P|281:40|295:70,1,65,8|8,0:2|1:2,0:0:0:0:
341,114,71781,2,0,P|344:145|327:173,1,65,8|8,0:2|1:2,0:0:0:0:
344,236,72226,2,0,P|319:256|287:258,1,65,8|10,0:2|1:2,0:0:0:0:
235,297,72670,38,0,P|299:308|362:320,1,130,6|6,1:2|1:2,0:0:0:0:
44,363,74448,70,0,P|98:319|91:250,1,143.000004364014,6|2,1:2|1:2,0:0:0:0:
41,181,75115,2,0,P|34:146|48:113,1,71.5000021820069,10|2,1:2|0:0,0:0:0:0:
104,49,75559,2,0,P|128:24|163:17,1,71.5000021820069,2|2,1:2|0:0,0:0:0:0:
247,31,76003,1,10,1:2:0:0:
303,95,76226,1,2,1:2:0:0:
253,165,76448,6,0,P|219:157|183:153,2,71.5000021820069,2|2|8,0:0|1:2|1:2,0:0:0:0:
302,235,77115,2,0,P|371:220|442:209,1,143.000004364014,2|2,0:2|0:0,0:0:0:0:
491,279,77781,1,10,1:2:0:0:
454,356,78003,53,6,1:2:0:0:
283,335,78448,1,2,0:0:0:0:
199,355,78670,2,0,P|179:325|147:309,1,71.5000021820069,10|0,1:2|0:0,0:0:0:0:
63,293,79115,1,2,1:2:0:0:
35,211,79337,1,2,0:2:0:0:
84,140,79559,1,10,1:2:0:0:
169,143,79781,6,0,P|238:127|309:118,1,143.000004364014,2|2,1:2|1:2,0:0:0:0:
478,83,80670,2,0,P|416:112|411:180,1,143.000004364014,2|2,0:0|0:0,0:0:0:0:
477,235,81337,1,10,1:2:0:0:
442,313,81559,6,0,P|380:299|301:287,1,143.000004364014,6|2,1:2|1:2,0:0:0:0:
223,324,82226,2,0,P|193:306|176:275,1,71.5000021820069,10|2,1:2|0:0,0:0:0:0:
96,242,82670,2,0,P|93:207|109:176,1,71.5000021820069,2|2,1:2|0:0,0:0:0:0:
97,90,83115,1,10,1:2:0:0:
168,42,83337,1,2,1:2:0:0:
249,69,83559,54,0,P|240:112|237:139,2,71.5000021820069,2|2|8,0:0|0:0|1:2,0:0:0:0:
412,121,84448,2,0,P|455:112|482:109,2,71.5000021820069,2|2|10,1:2|0:2|1:2,0:0:0:0:
349,180,85115,6,0,P|336:249|370:311,1,143.000004364014,6|2,1:2|1:2,0:0:0:0:
304,366,85781,1,8,1:2:0:0:
228,325,86003,2,0,P|155:311|87:300,1,143.000004364014,2|2,0:2|0:2,0:0:0:0:
1,151,86892,6,0,P|56:107|126:104,1,143.000004364014,2|2,1:2|1:2,0:0:0:0:
271,13,87781,2,0,P|339:32|381:88,1,143.000004364014,2|10,0:0|0:2,0:0:0:0:
461,117,88448,1,10,1:2:0:0:
458,202,88670,54,0,P|394:228|378:295,1,143.000004364014,6|2,1:2|1:2,0:0:0:0:
318,356,89337,2,0,P|282:362|248:370,1,71.5000021820069,10|2,1:2|0:2,0:0:0:0:
199,300,89781,2,0,P|177:271|145:257,1,71.5000021820069,2|2,1:2|0:2,0:0:0:0:
74,306,90226,1,8,1:2:0:0:
27,234,90448,6,0,P|15:163|0:93,1,143.000004364014,2|2,1:2|1:2,0:0:0:0:
84,81,91114,2,0,P|118:75|146:53,1,71.5000021820069,10|2,1:2|0:2,0:0:0:0:
228,29,91559,1,2,1:2:0:0:
309,54,91781,1,2,0:0:0:0:
328,137,92003,1,10,1:2:0:0:
289,213,92226,5,6,1:2:0:0:
453,261,92670,1,2,1:2:0:0:
455,346,92892,2,0,P|419:351|384:358,1,71.5000021820069,10|2,1:2|0:2,0:0:0:0:
300,375,93337,2,0,P|264:369|229:362,1,71.5000021820069,2|2,1:2|0:2,0:0:0:0:
147,336,93781,1,10,1:2:0:0:
64,358,94003,54,0,P|48:290|90:235,1,143.000004364014,2|2,1:2|1:2,0:0:0:0:
180,237,94670,1,8,1:2:0:0:
180,237,94892,2,0,P|178:201|171:166,1,71.5000021820069,2|8,0:0|1:2,0:0:0:0:
146,83,95337,1,10,0:3:0:0:
60,92,95559,1,6,0:3:0:0:
15,165,95781,53,6,1:2:0:0:
49,302,96226,2,0,L|107:292,2,58.4999982147217,2|2|2,0:0|0:0|1:2,0:0:0:0:
37,359,96892,2,0,L|152:379,1,116.999996429443,10|2,0:2|0:0,0:0:0:0:
205,353,97559,1,2,0:0:0:0:
369,221,98226,6,0,P|417:189|475:187,1,116.999996429443,2|10,1:2|0:2,0:0:0:0:
512,143,98892,1,2,0:0:0:0:
512,143,99115,2,0,L|502:85,1,58.4999982147217,2|2,0:0|0:0,0:0:0:0:
450,56,99559,70,0,P|404:22|348:31,1,116.999996429443,2|2,1:2|0:2,0:0:0:0:
209,57,100448,1,8,0:2:0:0:
159,88,100670,1,2,0:0:0:0:
159,146,100892,2,0,L|101:136,1,58.4999982147217,2|2,0:0|1:2,0:0:0:0:
48,161,101337,6,0,P|22:212|33:269,1,116.999996429443,2|2,0:0|1:2,0:0:0:0:
145,362,102226,1,8,0:2:0:0:
145,362,102448,2,0,L|202:351,1,58.4999982147217,2|0,1:2|1:2,0:0:0:0:
336,307,103115,69,0,1:2:0:0:
336,307,103337,2,0,P|348:281|371:264,2,58.4999982147217,2|2|2,0:0|0:0|1:2,0:0:0:0:
381,343,104003,2,0,P|416:299|472:300,1,116.999996429443,10|2,0:2|0:0,0:0:0:0:
511,256,104670,1,8,0:2:0:0:
404,173,105115,5,2,0:0:0:0:
404,173,105337,2,0,P|372:125|370:67,1,116.999996429443,2|10,0:0|0:2,0:0:0:0:
333,30,106003,1,2,0:0:0:0:
333,30,106226,2,0,L|275:40,1,58.4999982147217,2|0,0:0|1:2,0:0:0:0:
256,192,106670,12,0,108448,3:3:0:0:
448,41,110003,70,0,L|512:31,2,65,2|2|0,0:2|1:2|0:0,0:0:0:0:
386,63,110670,2,0,P|367:89|363:120,1,65,10|0,1:2|0:0,0:0:0:0:
412,163,111115,2,0,P|450:214|444:277,1,130,2|10,1:2|1:2,0:0:0:0:
397,321,111781,1,0,0:0:0:0:
397,321,112003,6,0,P|359:312|334:308,1,65,2|0,1:2|0:0,0:0:0:0:
280,345,112448,1,10,1:2:0:0:
152,255,112892,2,0,P|146:221|139:191,2,65,2|2|10,1:2|0:0|1:2,0:0:0:0:
120,313,113559,69,0,1:2:0:0:
120,313,113781,2,0,P|105:342|78:358,1,65,2|2,0:2|1:2,0:0:0:0:
25,319,114226,2,0,P|13:255|-1:192,1,130,10|2,1:2|1:2,0:0:0:0:
24,131,114892,1,2,0:2:0:0:
87,114,115115,1,10,1:2:0:0:
143,146,115337,53,2,1:2:0:0:
298,121,115781,2,0,L|307:56,1,65,2|8,1:2|1:2,0:0:0:0:
358,15,116226,1,2,0:2:0:0:
422,27,116448,2,0,P|437:56|439:88,1,65,2|2,1:2|0:0,0:0:0:0:
486,131,116892,2,0,P|471:160|446:180,1,65,10|2,1:2|1:2,0:0:0:0:
426,242,117337,37,2,0:0:0:0:
302,337,117781,2,0,P|239:323|175:312,1,130,10|2,1:2|1:2,0:0:0:0:
129,273,118448,1,2,0:0:0:0:
129,273,118670,2,0,P|114:244|113:212,1,65,10|0,1:2|0:0,0:0:0:0:
67,165,119115,70,0,P|77:134|99:111,1,65,2|2,1:2|0:0,0:0:0:0:
155,79,119559,1,10,1:2:0:0:
309,62,120003,2,0,P|302:30|296:-2,2,65,2|2|10,1:2|0:0|1:2,0:0:0:0:
365,105,120670,53,2,1:2:0:0:
365,105,120892,2,0,P|415:143|422:206,1,130,2|10,0:2|1:2,0:0:0:0:
337,338,121781,2,0,P|305:331|273:325,1,65,2|2,1:2|0:2,0:0:0:0:
208,326,122226,1,10,1:2:0:0:
160,369,122448,1,2,1:2:0:0:
32,279,122892,38,0,P|44:215|55:151,1,130,2|2,1:2|0:0,0:0:0:0:
104,107,123559,1,2,1:2:0:0:
104,107,123781,2,0,P|136:100|168:96,1,65,2|10,0:2|1:2,0:0:0:0:
233,103,124226,1,2,1:2:0:0:
452,23,124892,70,0,P|493:71|487:134,2,130,14|10|10,1:2|1:2|1:2,0:0:0:0:
350,142,126226,1,10,1:2:0:0:
438,270,126670,6,0,P|382:274|310:294,1,130,10|10,1:2|1:2,0:2:0:0:
169,360,127559,2,0,P|113:356|41:336,1,130,10|10,1:2|1:2,0:0:0:0:
3,185,128448,2,0,P|22:125|81:106,1,130,10|10,1:2|1:2,0:0:0:0:
234,63,129337,1,10,1:2:0:0:
234,63,129559,70,0,P|239:30|245:-1,2,65,10|8|8,0:2|1:2|0:2,0:0:0:0:
296,97,130226,1,8,1:2:0:0:
296,97,130448,2,0,P|360:88|425:84,1,130,10|8,0:2|1:2,0:0:0:0:
497,222,131337,6,0,P|511:249|512:281,1,65,10|8,0:2|1:2,0:0:0:0:
473,335,131781,2,0,P|444:349|412:349,1,65,8|8,0:2|1:2,0:0:0:0:
350,327,132226,1,0,0:0:0:0:
298,288,132448,2,0,P|296:256|312:227,2,65,10|10|10,1:2|0:2|1:2,0:0:0:0:
248,330,133115,70,0,L|111:350,1,130,10|8,0:2|0:2,0:0:0:0:
54,357,133781,1,8,1:2:0:0:
16,205,134226,2,0,P|24:175|32:143,1,65,10|8,1:2|0:2,0:0:0:0:
49,82,134670,1,10,1:2:0:0:
49,82,134892,6,0,P|81:80|108:98,1,65,10|8,0:2|1:2,0:0:0:0:
164,65,135337,2,0,P|189:45|221:44,1,65,8|8,0:2|1:2,0:0:0:0:
275,8,135781,2,0,P|306:17|325:43,1,65,8|8,0:2|1:2,0:0:0:0:
386,63,136226,2,0,P|396:93|386:124,1,65,8|10,0:2|1:2,0:0:0:0:
341,171,136670,38,0,P|353:233|364:299,1,130,6|6,1:2|1:2,0:0:0:0:
221,362,137559,2,0,P|163:336|145:275,1,130,6|2,1:2|0:0,0:0:0:0:
122,221,138226,1,2,0:0:0:0:
122,221,138448,70,0,B|209:222|173:173|259:176,1,143.000004364014,6|2,1:2|1:2,0:0:0:0:
283,95,139115,2,0,P|315:81|350:88,1,71.5000021820069,10|2,1:2|0:0,0:0:0:0:
431,62,139559,2,0,P|456:86|463:121,1,71.5000021820069,2|2,1:2|0:0,0:0:0:0:
470,206,140003,1,10,1:2:0:0:
396,250,140226,1,2,1:2:0:0:
388,335,140448,6,0,P|423:338|458:347,2,71.5000021820069,2|2|8,0:2|1:2|1:2,0:0:0:0:
303,353,141115,2,0,P|235:333|173:364,1,143.000004364014,2|2,0:2|0:0,0:0:0:0:
98,324,141781,1,10,1:2:0:0:
127,243,142003,53,6,1:2:0:0:
13,114,142448,1,2,0:0:0:0:
75,55,142670,2,0,P|106:38|141:39,1,71.5000021820069,10|0,1:2|0:0,0:0:0:0:
224,61,143115,1,2,1:2:0:0:
249,142,143337,1,2,0:2:0:0:
334,149,143559,1,10,1:2:0:0:
408,107,143781,6,0,P|416:177|433:247,1,143.000004364014,2|2,1:2|1:2,0:0:0:0:
316,373,144670,2,0,P|307:302|290:232,1,143.000004364014,2|2,0:0|0:0,0:0:0:0:
205,224,145337,1,10,1:2:0:0:
127,259,145559,6,0,P|65:225|42:159,1,143.000004364014,6|2,1:2|1:2,0:0:0:0:
58,74,146226,2,0,P|90:69|128:61,1,71.5000021820069,10|2,1:2|0:0,0:0:0:0:
208,31,146670,2,0,P|241:41|264:68,1,71.5000021820069,2|2,1:2|0:0,0:0:0:0:
304,144,147115,1,10,1:2:0:0:
388,156,147337,1,2,1:2:0:0:
442,222,147559,54,0,P|485:213|512:210,2,71.5000021820069,2|2|8,0:0|0:0|1:2,0:0:0:0:
296,313,148448,2,0,P|293:348|309:379,2,71.5000021820069,2|2|10,1:2|0:2|1:2,0:0:0:0:
234,252,149115,6,0,P|165:239|103:273,1,143.000004364014,6|2,1:2|1:2,0:0:0:0:
19,288,149781,1,8,1:2:0:0:
3,203,150003,2,0,P|14:132|27:62,1,143.000004364014,2|2,0:2|0:2,0:0:0:0:
199,47,150892,6,0,P|269:49|324:93,1,143.000004364014,2|2,1:2|1:2,0:0:0:0:
483,158,151781,2,0,B|493:237|438:199|446:296,1,143.000004364014,2|10,0:0|0:2,0:0:0:0:
397,361,152448,1,10,1:2:0:0:
312,346,152670,54,0,P|243:337|208:277,1,143.000004364014,6|0,1:2|1:2,0:0:0:0:
131,238,153337,1,10,1:2:0:0:
37,94,153781,1,2,1:2:0:0:
98,33,154003,1,2,0:0:0:0:
185,59,154226,1,10,1:2:0:0:
185,59,154448,6,0,P|247:50|325:34,1,143.000004364014,2|0,1:2|1:2,0:0:0:0:
409,15,155115,1,10,1:2:0:0:
493,164,155559,1,2,1:2:0:0:
436,228,155781,2,0,P|442:265|448:298,1,71.5000021820069,2|10,0:0|1:2,0:0:0:0:
391,363,156226,6,0,P|322:347|283:290,1,143.000004364014,6|0,1:2|1:2,0:0:0:0:
314,209,156892,1,10,1:2:0:0:
181,99,157337,1,2,1:2:0:0:
99,122,157559,1,2,0:2:0:0:
86,210,157781,1,10,1:2:0:0:
86,210,158003,54,0,P|73:286|61:350,1,143.000004364014,2|0,1:2|1:2,0:0:0:0:
144,372,158670,1,10,1:2:0:0:
206,314,158892,2,0,P|236:293|271:290,1,71.5000021820069,6|8,1:2|0:3,0:0:0:0:
357,290,159337,1,8,0:2:0:0:
439,329,159559,1,10,1:2:0:0:
439,329,159781,54,0,P|443:296|450:265,1,65,6|2,1:2|0:2,0:0:0:0:
494,217,160226,2,0,P|489:184|482:153,1,65,2|2,0:0|1:2,0:0:0:0:
450,104,160670,1,2,0:0:0:0:
450,104,160892,2,0,P|407:80|359:77,2,97.5,2|2|2,1:2|0:0|0:0,0:0:0:0:
367,236,162003,6,0,L|302:224,1,65,2|2,0:0|1:2,0:0:0:0:
253,191,162448,1,2,0:0:0:0:
253,191,162670,2,0,P|238:146|253:101,2,97.5,2|2|2,1:2|0:0|0:0,0:0:0:0:
105,242,163781,69,2,0:0:0:0:
62,291,164003,1,2,1:2:0:0:
83,358,164226,1,2,0:0:0:0:
83,358,164448,2,0,P|130:347|178:341,2,97.5,2|2|2,1:2|0:0|0:0,0:0:0:0:
399,363,166003,5,2,0:0:0:0:
399,363,166226,2,0,P|407:331|418:301,1,65,2|2,1:2|0:0,0:0:0:0:
450,244,166670,1,2,1:2:0:0:
499,98,167115,69,8,1:2:0:0:
499,98,167337,2,0,P|472:80|440:74,1,65,10|10,0:2|1:2,0:0:0:0:
380,75,167781,1,10,0:2:0:0:
380,75,168003,2,0,P|332:73|296:42,2,97.5,10|2|10,1:2|0:0|0:2,0:0:0:0:
273,189,169115,5,10,0:2:0:0:
273,189,169337,2,0,P|264:220|262:253,1,65,10|10,1:2|0:2,0:0:0:0:
307,299,169781,2,0,P|259:301|223:332,2,97.5,10|2|10,1:2|0:0|0:2,0:0:0:0:
81,364,171115,69,10,1:2:0:0:
54,304,171337,1,10,1:2:0:0:
66,240,171559,1,10,1:2:0:0:
99,184,171781,2,0,L|110:120,1,65,10|10,1:2|1:2,0:0:0:0:
152,70,172226,1,6,1:2:0:0:
299,19,172670,6,0,P|307:49|300:80,1,65,10|4,1:2|1:3,0:0:0:0:
302,146,173115,2,0,P|365:146|403:97,1,130,6|10,1:2|0:2,0:0:0:0:
469,80,173781,1,10,0:2:0:0:
469,80,174003,38,0,P|481:151|494:221,1,143.000004364014,6|2,1:2|1:2,0:0:0:0:
453,296,174670,2,0,P|426:320|391:324,1,71.5000021820069,10|2,1:2|0:0,0:0:0:0:
317,366,175114,2,0,P|282:367|253:347,1,71.5000021820069,2|2,1:2|0:0,0:0:0:0:
219,267,175558,1,10,1:2:0:0:
136,241,175781,1,2,1:2:0:0:
60,281,176003,70,0,P|68:316|72:351,2,71.5000021820069,2|2|8,0:0|1:2|1:2,0:0:0:0:
5,214,176670,2,0,P|16:143|31:73,1,143.000004364014,2|2,0:2|0:0,0:0:0:0:
108,36,177336,1,10,1:2:0:0:
182,78,177558,69,6,1:2:0:0:
352,96,178003,1,2,0:0:0:0:
435,76,178225,2,0,P|443:111|447:146,1,71.5000021820069,10|0,1:2|0:0,0:0:0:0:
486,223,178670,1,2,1:2:0:0:
467,306,178892,1,2,0:2:0:0:
398,357,179114,1,10,1:2:0:0:
312,362,179336,22,0,P|252:325|182:332,1,143.000004364014,2|2,1:2|1:2,0:0:0:0:
69,202,180226,2,0,P|7:173|2:105,1,143.000004364014,2|2,0:0|0:0,0:0:0:0:
63,44,180892,1,10,1:2:0:0:
146,63,181114,70,0,P|217:73|287:89,1,143.000004364014,6|2,1:2|1:2,0:0:0:0:
359,43,181781,2,0,P|393:35|427:44,1,71.5000021820069,10|2,1:2|0:0,0:0:0:0:
479,112,182225,2,0,P|495:143|492:178,1,71.5000021820069,2|2,1:2|0:0,0:0:0:0:
437,244,182670,1,10,1:2:0:0:
354,267,182892,1,2,1:2:0:0:
270,249,183114,70,0,P|278:214|282:179,2,71.5000021820069,2|2|8,0:0|0:0|1:2,0:0:0:0:
119,332,184003,2,0,P|88:349|53:346,2,71.5000021820069,2|2|10,1:2|0:2|1:2,0:0:0:0:
109,246,184670,22,0,P|99:190|82:106,1,143.000004364014,6|2,1:2|1:2,0:0:0:0:
147,51,185336,1,8,1:2:0:0:
221,93,185558,2,0,P|252:109|288:108,1,71.5000021820069,2|2,0:2|1:2,0:0:0:0:
351,50,186003,2,0,P|382:34|418:35,1,71.5000021820069,2|10,0:2|1:2,0:0:0:0:
490,81,186447,70,0,P|478:145|464:222,1,143.000004364014,2|2,1:2|1:2,0:0:0:0:
347,348,187336,2,0,P|307:293|240:304,1,143.000004364014,2|10,0:0|0:2,0:0:0:0:
164,344,188003,1,8,1:2:0:0:
86,307,188226,38,0,P|51:314|16:321,2,71.5000021820069,2|8|4,1:2|0:2|1:2,0:0:0:0:
126,231,188892,1,10,1:2:0:0:
76,72,189337,1,2,1:2:0:0:
76,72,189559,2,0,P|102:48|135:36,1,71.5000021820069,8|8,0:2|0:2,0:0:0:0:
217,59,190003,38,0,P|289:72|358:85,1,143.000004364014,6|2,1:2|1:2,0:0:0:0:
438,55,190670,2,0,P|471:67|486:99,1,71.5000021820069,10|2,1:2|0:0,0:0:0:0:
445,174,191115,1,2,1:2:0:0:
370,216,191337,1,8,0:2:0:0:
354,300,191559,1,8,0:2:0:0:
398,373,191781,5,6,1:2:0:0:
226,362,192226,1,2,1:2:0:0:
226,362,192448,2,0,P|191:355|155:350,1,71.5000021820069,10|2,1:2|0:0,0:0:0:0:
125,270,192892,2,0,P|90:275|54:282,1,71.5000021820069,2|8,1:2|0:2,0:0:0:0:
6,210,193337,1,8,0:2:0:0:
6,210,193559,54,0,P|41:151|110:148,1,143.000004364014,6|6,1:2|1:2,0:0:0:0:
248,46,194448,2,0,P|307:81|310:150,1,143.000004364014,6|6,1:2|1:2,0:0:0:0:
384,203,195115,1,2,1:2:0:0:
384,203,195337,6,0,P|421:194|454:190,2,71.5000021820069,6|0|2,1:2|0:0|1:2,0:0:0:0:
369,287,196003,1,10,1:2:0:0:
215,358,196448,1,2,1:2:0:0:
215,358,196670,2,0,P|191:332|179:299,1,71.5000021820069,8|8,0:2|0:2,0:0:0:0:
162,214,197114,6,0,P|104:174|35:181,1,143.000004364014,6|2,1:2|1:2,0:0:0:0:
11,97,197781,2,0,P|17:62|23:26,1,71.5000021820069,10|2,1:2|0:2,0:0:0:0:
108,31,198226,1,2,1:2:0:0:
190,54,198448,1,8,0:2:0:0:
251,113,198670,1,8,0:2:0:0:
270,196,198892,53,6,1:2:0:0:
443,170,199337,1,2,1:2:0:0:
443,170,199559,2,0,P|436:205|431:241,1,71.5000021820069,10|2,1:2|0:0,0:0:0:0:
473,315,200003,2,0,P|452:344|421:360,1,71.5000021820069,2|8,1:2|0:2,0:0:0:0:
339,351,200448,1,8,0:2:0:0:
339,351,200670,6,0,B|260:359|291:311|200:316,1,143.000004364014,6|2,1:2|1:2,0:0:0:0:
80,197,201559,2,0,B|159:205|128:157|219:162,1,143.000004364014,10|2,0:2|1:2,0:0:0:0:
281,107,202226,1,4,0:3:0:0:
255,25,202448,37,6,1:2:0:0:
