osu file format v14

[General]
AudioFilename: audio.mp3
AudioLeadIn: 0
PreviewTime: 73448
Countdown: 0
SampleSet: Soft
StackLeniency: 0.4
Mode: 0
LetterboxInBreaks: 0
EpilepsyWarning: 1
WidescreenStoryboard: 1

[Editor]
Bookmarks: 892,17559,31781,46226,60448,74448,88670,95781,110226,124448,138448,152670,159781,174003,188226
DistanceSpacing: 1
BeatDivisor: 4
GridSize: 4
TimelineZoom: 2.799999

[Metadata]
Title:Hana Uranai
TitleUnicode:花占い
Artist:Vaundy
ArtistUnicode:Vaundy
Creator:Jiysea
Version:Insane
Source:ボクの殺意が恋をした
Tags:japanese pop jpop j-pop Boku no Satsui ga Koi wo Shita theme song Flower fortune telling digital single バウンディ
BeatmapID:3516626
BeatmapSetID:1719972

[Difficulty]
HPDrainRate:4.5
CircleSize:3.6
OverallDifficulty:7.8
ApproachRate:9
SliderMultiplier:1.8
SliderTickRate:1

[Events]
//Background and Video events
0,0,"real bg.jpg",0,0
//Break Periods
//Storyboard Layer 0 (Background)
//Storyboard Layer 1 (Fail)
//Storyboard Layer 2 (Pass)
//Storyboard Layer 3 (Foreground)
Sprite,Foreground,Centre,"sb\ring.png",0,0 M,0,153337,,160,227 C,0,153337,,202,149,255 F,18,153337,153781,0.8,0 S,19,153337,153781,0,0.35
Sprite,Foreground,Centre,"sb\ring.png",0,0 M,0,153781,,239,142 C,0,153781,,128,128,255 F,18,153781,154225,0.8,0 S,19,153781,154225,0,0.35
Sprite,Foreground,Centre,"sb\ring.png",0,0 M,0,154003,,344,222 C,0,154003,,128,128,255 F,18,154003,154447,0.8,0 S,19,154003,154447,0,0.35
Sprite,Foreground,Centre,"sb\ring.png",0,0 M,0,154226,,361,89 C,0,154226,,128,128,255 F,18,154226,154670,0.8,0 S,19,154226,154670,0,0.35
Sprite,Foreground,Centre,"sb\ring.png",0,0 M,0,154448,,452,193 C,0,154448,,252,215,120 F,18,154448,154892,0.8,0 S,19,154448,154892,0,0.35
Sprite,Foreground,Centre,"sb\ring.png",0,0 M,0,155115,,397,407 C,0,155115,,252,215,120 F,18,155115,155559,0.8,0 S,19,155115,155559,0,0.35
Sprite,Foreground,Centre,"sb\ring.png",0,0 M,0,155559,,522,370 C,0,155559,,202,149,255 F,18,155559,156003,0.8,0 S,19,155559,156003,0,0.35
Sprite,Foreground,Centre,"sb\ring.png",0,0 M,0,155781,,422,268 C,0,155781,,128,128,255 F,18,155781,156225,0.8,0 S,19,155781,156225,0,0.35
Sprite,Foreground,Centre,"sb\ring.png",0,0 M,0,156003,,526,223 C,0,156003,,128,128,255 F,18,156003,156447,0.8,0 S,19,156003,156447,0,0.35
Sprite,Foreground,Centre,"sb\ring.png",0,0 M,0,156226,,417,279 C,0,156226,,252,215,120 F,18,156226,156670,0.8,0 S,19,156226,156670,0,0.35
Sprite,Foreground,Centre,"sb\ring.png",0,0 M,0,156892,,121,285 C,0,156892,,252,215,120 F,18,156892,157336,0.8,0 S,19,156892,157336,0,0.35
Sprite,Foreground,Centre,"sb\ring.png",0,0 M,0,157337,,122,381 C,0,157337,,202,149,255 F,18,157337,157781,0.8,0 S,19,157337,157781,0,0.35
Sprite,Foreground,Centre,"sb\ring.png",0,0 M,0,157559,,231,426 C,0,157559,,202,149,255 F,18,157559,158003,0.8,0 S,19,157559,158003,0,0.35
Sprite,Foreground,Centre,"sb\ring.png",0,0 M,0,157781,,331,362 C,0,157781,,202,149,255 F,18,157781,158225,0.8,0 S,19,157781,158225,0,0.35
Sprite,Foreground,Centre,"sb\ring.png",0,0 M,0,158003,,288,247 C,0,158003,,128,128,255 F,18,158003,158447,0.8,0 S,19,158003,158447,0,0.35
Sprite,Foreground,Centre,"sb\ring.png",0,0 M,0,158670,,467,264 C,0,158670,,128,128,255 F,18,158670,159114,0.8,0 S,19,158670,159114,0,0.35
Sprite,Foreground,Centre,"sb\ring.png",0,0 M,0,158892,,380,211 C,0,158892,,128,128,255 F,18,158892,159336,0.8,0 S,19,158892,159336,0,0.35
Sprite,Foreground,Centre,"sb\ring.png",0,0 M,0,159559,,110,220 C,0,159559,,252,215,120 F,18,159559,160003,0.8,0 S,19,159559,160003,0,0.35
Sprite,Foreground,Centre,"sb\ring.png",0,0 M,0,172226,,470,343 C,0,172226,,81,69,191 F,18,172226,172670,0.8,0 S,19,172226,172670,0,0.3 C,0,172670,,230,230,230 C,0,172892,,0,0,0 C,0,173115,173559,0,0,0,230,230,230
Sprite,Foreground,Centre,"sb\ring.png",0,0 C,0,172226,,81,69,191 M,0,172670,,549,329 C,0,172670,,230,230,230 F,18,172670,173114,0.8,0 S,19,172670,173114,0,0.3 C,0,172892,,0,0,0 C,0,173115,173559,0,0,0,230,230,230
Sprite,Foreground,Centre,"sb\ring.png",0,0 C,0,172226,,81,69,191 C,0,172670,,230,230,230 M,0,172892,,403,427 C,0,172892,,0,0,0 F,18,172892,173336,0.8,0 S,19,172892,173336,0,0.3 C,0,173115,173559,0,0,0,230,230,230
Sprite,Foreground,Centre,"sb\ring.png",0,0 C,0,172226,,81,69,191 C,0,172670,,230,230,230 C,0,172892,,0,0,0 M,0,173115,,281,300 F,18,173115,173559,0.8,0 S,19,173115,173559,0,0.3 C,0,173115,173559,0,0,0,230,230,230
//Storyboard Layer 4 (Overlay)
//Storyboard Sound Samples

[TimingPoints]
4,444.444444444444,4,2,2,50,1,0
1559,-100,4,2,2,50,0,0
4226,-76.9230769230769,4,2,2,50,0,0
5115,-100,4,2,2,50,0,0
12226,-66.6666666666667,4,2,2,50,0,0
12670,-76.9230769230769,4,2,2,50,0,0
13115,-90.9090909090909,4,2,2,50,0,0
14003,-333.333333333333,4,2,2,50,0,0
16003,-333.333333333333,4,2,3,50,0,0
16226,-250,4,2,3,50,0,0
16374,-200,4,2,3,55,0,0
16596,-166.666666666667,4,2,3,60,0,0
16818,-142.857142857143,4,2,3,65,0,0
17041,-125,4,2,3,70,0,0
17263,-111.111111111111,4,2,3,75,0,0
17485,-100,4,2,3,80,0,0
17559,-66.6666666666667,4,2,1,80,0,0
17892,-66.6666666666667,4,2,1,5,0,0
18003,-83.3333333333333,4,2,1,80,0,0
19337,-66.6666666666667,4,2,1,80,0,0
19670,-66.6666666666667,4,2,1,5,0,0
19781,-83.3333333333333,4,2,1,80,0,0
21115,-66.6666666666667,4,2,1,80,0,0
21448,-66.6666666666667,4,2,1,5,0,0
21559,-83.3333333333333,4,2,1,80,0,0
22892,-66.6666666666667,4,2,1,80,0,0
23226,-66.6666666666667,4,2,1,5,0,0
23337,-76.9230769230769,4,2,1,80,0,0
23781,-100,4,2,1,80,0,0
24670,-66.6666666666667,4,2,1,80,0,0
25003,-66.6666666666667,4,2,1,5,0,0
25115,-83.3333333333333,4,2,1,80,0,0
26448,-66.6666666666667,4,2,1,80,0,0
26781,-66.6666666666667,4,2,1,5,0,0
26892,-83.3333333333333,4,2,1,80,0,0
28226,-66.6666666666667,4,2,1,80,0,0
28559,-66.6666666666667,4,2,1,5,0,0
28670,-83.3333333333333,4,2,1,80,0,0
30003,-66.6666666666667,4,2,1,80,0,0
30337,-66.6666666666667,4,2,1,5,0,0
30448,-76.9230769230769,4,2,1,80,0,0
30892,-100,4,2,1,80,0,0
31003,-100,4,2,1,5,0,0
31115,-100,4,2,1,80,0,0
31337,-83.3333333333333,4,2,1,80,0,0
31781,-100,4,2,2,80,0,0
32115,-100,4,2,2,5,0,0
32226,-100,4,2,1,50,0,0
32448,-133.333333333333,4,2,1,50,0,0
35337,-133.333333333333,4,2,2,50,0,0
35559,-133.333333333333,4,2,1,50,0,0
38892,-133.333333333333,4,2,2,50,0,0
39115,-133.333333333333,4,2,1,50,0,0
42448,-133.333333333333,4,2,2,50,0,0
42670,-133.333333333333,4,2,1,50,0,0
44670,-333.333333333333,4,2,1,50,0,0
46003,-333.333333333333,4,2,2,50,0,0
46226,-66.6666666666667,4,2,1,65,0,0
46559,-66.6666666666667,4,2,1,5,0,0
46670,-100,4,2,1,65,0,0
47115,-66.6666666666667,4,2,1,65,0,0
47448,-66.6666666666667,4,2,1,5,0,0
47559,-100,4,2,1,65,0,0
48003,-66.6666666666667,4,2,1,65,0,0
48337,-66.6666666666667,4,2,1,5,0,0
48448,-100,4,2,1,65,0,0
48781,-100,4,2,1,5,0,0
48892,-66.6666666666667,4,2,1,65,0,0
49003,-66.6666666666667,4,2,1,5,0,0
49115,-66.6666666666667,4,2,1,65,0,0
49781,-66.6666666666667,4,2,1,65,0,0
49892,-66.6666666666667,4,2,1,5,0,0
50003,-66.6666666666667,4,2,1,65,0,0
50115,-66.6666666666667,4,2,1,5,0,0
50226,-100,4,2,1,65,0,0
50559,-100,4,2,1,5,0,0
50670,-66.6666666666667,4,2,1,65,0,0
50781,-66.6666666666667,4,2,1,5,0,0
50892,-76.9230769230769,4,2,1,65,0,0
51003,-76.9230769230769,4,2,1,5,0,0
51115,-90.9090909090909,4,2,1,65,0,0
51226,-90.9090909090909,4,2,1,5,0,0
51337,-111.111111111111,4,2,1,65,0,0
51670,-111.111111111111,4,2,1,5,0,0
51781,-111.111111111111,4,2,1,65,0,0
52337,-111.111111111111,4,2,1,5,0,0
52448,-66.6666666666667,4,2,1,65,0,0
52559,-66.6666666666667,4,2,1,5,0,0
52670,-66.6666666666667,4,2,1,65,0,0
53003,-66.6666666666667,4,2,1,5,0,0
53115,-100,4,2,1,65,0,0
53337,-66.6666666666667,4,2,1,65,0,0
53670,-66.6666666666667,4,2,1,5,0,0
53781,-100,4,2,1,65,0,0
54226,-66.6666666666667,4,2,1,65,0,0
54670,-100,4,2,1,65,0,0
55115,-66.6666666666667,4,2,1,65,0,0
55559,-100,4,2,1,65,0,0
56003,-66.6666666666667,4,2,1,65,0,0
56115,-66.6666666666667,4,2,1,5,0,0
56226,-66.6666666666667,4,2,1,65,0,0
56892,-66.6666666666667,4,2,1,65,0,0
57003,-66.6666666666667,4,2,1,5,0,0
57115,-66.6666666666667,4,2,1,65,0,0
57226,-66.6666666666667,4,2,1,5,0,0
57337,-66.6666666666667,4,2,1,65,0,0
57448,-66.6666666666667,4,2,1,5,0,0
57559,-66.6666666666667,4,2,1,65,0,0
57670,-66.6666666666667,4,2,1,5,0,0
57781,-66.6666666666667,4,2,1,65,0,0
57892,-66.6666666666667,4,2,1,5,0,0
58003,-76.9230769230769,4,2,1,65,0,0
58115,-76.9230769230769,4,2,1,5,0,0
58226,-90.9090909090909,4,2,1,65,0,0
58337,-90.9090909090909,4,2,1,5,0,0
58448,-111.111111111111,4,2,1,65,0,0
58781,-111.111111111111,4,2,1,5,0,0
58892,-111.111111111111,4,2,1,65,0,0
59559,-76.9230769230769,4,2,1,65,0,0
59670,-76.9230769230769,4,2,1,5,0,0
59781,-76.9230769230769,4,2,1,65,0,0
60003,-66.6666666666667,4,2,1,65,0,0
60115,-66.6666666666667,4,2,1,5,0,0
60226,-76.9230769230769,4,2,2,65,0,0
63115,-100,4,2,3,50,0,0
64003,-100,4,2,3,55,0,0
64892,-100,4,2,3,60,0,0
65781,-100,4,2,3,65,0,0
66670,-100,4,2,3,70,0,0
67337,-100,4,2,3,70,0,0
69115,-83.3333333333333,4,2,3,70,0,0
70892,-111.111111111111,4,2,3,75,0,0
71003,-111.111111111111,4,2,3,5,0,0
71115,-90.9090909090909,4,2,3,75,0,0
71226,-90.9090909090909,4,2,3,5,0,0
71337,-76.9230769230769,4,2,3,75,0,0
71448,-76.9230769230769,4,2,3,5,0,0
71559,-66.6666666666667,4,2,3,75,0,0
71670,-66.6666666666667,4,2,3,5,0,0
71781,-66.6666666666667,4,2,3,75,0,0
71892,-66.6666666666667,4,2,3,5,0,0
72003,-66.6666666666667,4,2,3,75,0,0
72115,-66.6666666666667,4,2,3,5,0,0
72226,-66.6666666666667,4,2,3,75,0,0
72337,-66.6666666666667,4,2,3,5,0,0
72448,-66.6666666666667,4,2,3,75,0,0
72559,-66.6666666666667,4,2,3,5,0,0
72670,-55.5555555555556,4,2,2,80,0,0
72892,-55.5555555555556,4,2,2,5,0,0
73115,-55.5555555555556,4,2,2,80,0,0
73559,-333.333333333333,4,2,2,50,0,0
74448,-55.5555555555556,4,2,1,85,0,1
74781,-55.5555555555556,4,2,1,5,0,0
74892,-55.5555555555556,4,2,1,85,0,0
75115,-66.6666666666667,4,2,1,85,0,0
75226,-66.6666666666667,4,2,1,5,0,0
75337,-100,4,2,1,85,0,0
75448,-100,4,2,1,5,0,0
75559,-66.6666666666667,4,2,1,85,0,0
75670,-66.6666666666667,4,2,1,5,0,0
75781,-100,4,2,1,85,0,0
75892,-100,4,2,1,5,0,0
76003,-100,4,2,1,85,0,0
76115,-100,4,2,1,5,0,0
76226,-66.6666666666667,4,2,1,85,0,0
76448,-66.6666666666667,4,2,1,85,0,0
76559,-66.6666666666667,4,2,1,5,0,0
76670,-66.6666666666667,4,2,1,85,0,0
76781,-66.6666666666667,4,2,1,5,0,0
76892,-133.333333333333,4,2,1,85,0,0
77115,-66.6666666666667,4,2,1,85,0,0
78003,-55.5555555555556,4,2,1,85,0,0
78337,-55.5555555555556,4,2,1,5,0,0
78448,-55.5555555555556,4,2,1,85,0,0
78670,-66.6666666666667,4,2,1,85,0,0
79003,-66.6666666666667,4,2,1,5,0,0
79115,-66.6666666666667,4,2,1,85,0,0
79226,-66.6666666666667,4,2,1,5,0,0
79337,-76.9230769230769,4,2,1,85,0,0
79448,-76.9230769230769,4,2,1,5,0,0
79559,-90.9090909090909,4,2,1,85,0,0
79670,-90.9090909090909,4,2,1,5,0,0
79781,-55.5555555555556,4,2,1,85,0,0
80003,-55.5555555555556,4,2,1,5,0,0
80226,-55.5555555555556,4,2,1,85,0,0
81559,-55.5555555555556,4,2,1,85,0,1
81892,-55.5555555555556,4,2,1,5,0,0
82003,-55.5555555555556,4,2,1,85,0,0
82226,-66.6666666666667,4,2,1,85,0,0
82337,-66.6666666666667,4,2,1,5,0,0
82448,-100,4,2,1,85,0,0
82559,-100,4,2,1,5,0,0
82670,-66.6666666666667,4,2,1,85,0,0
82781,-66.6666666666667,4,2,1,5,0,0
82892,-100,4,2,1,85,0,0
83003,-100,4,2,1,5,0,0
83115,-100,4,2,1,85,0,0
83226,-100,4,2,1,5,0,0
83337,-66.6666666666667,4,2,1,85,0,0
83559,-66.6666666666667,4,2,1,85,0,0
83670,-66.6666666666667,4,2,1,5,0,0
83781,-66.6666666666667,4,2,1,85,0,0
83892,-66.6666666666667,4,2,1,5,0,0
84003,-100,4,2,1,85,0,0
84337,-100,4,2,1,5,0,0
84448,-100,4,2,1,85,0,0
84559,-100,4,2,1,5,0,0
84670,-66.6666666666667,4,2,1,85,0,0
85115,-55.5555555555556,4,2,1,85,0,0
85448,-55.5555555555556,4,2,1,5,0,0
85559,-66.6666666666667,4,2,1,85,0,0
85670,-66.6666666666667,4,2,1,5,0,0
85781,-100,4,2,1,85,0,0
85892,-100,4,2,1,5,0,0
86003,-66.6666666666667,4,2,1,85,0,0
86115,-66.6666666666667,4,2,1,5,0,0
86226,-100,4,2,1,85,0,0
86337,-100,4,2,1,5,0,0
86448,-66.6666666666667,4,2,1,85,0,0
86559,-66.6666666666667,4,2,1,5,0,0
86670,-100,4,2,1,85,0,0
86781,-100,4,2,1,5,0,0
86892,-55.5555555555556,4,2,1,85,0,0
87115,-55.5555555555556,4,2,1,5,0,0
87337,-55.5555555555556,4,2,1,85,0,0
88670,-55.5555555555556,4,2,1,85,0,1
89003,-55.5555555555556,4,2,1,5,0,0
89115,-55.5555555555556,4,2,1,85,0,0
89337,-66.6666666666667,4,2,1,85,0,0
90448,-55.5555555555556,4,2,1,85,0,0
90781,-55.5555555555556,4,2,1,5,0,0
90892,-55.5555555555556,4,2,1,85,0,0
91115,-66.6666666666667,4,2,1,85,0,0
92226,-55.5555555555556,4,2,1,85,0,0
92559,-55.5555555555556,4,2,1,5,0,0
92670,-55.5555555555556,4,2,1,85,0,0
92892,-66.6666666666667,4,2,1,85,0,0
94003,-55.5555555555556,4,2,1,85,0,0
94226,-55.5555555555556,4,2,1,5,0,0
94448,-55.5555555555556,4,2,1,85,0,0
95003,-55.5555555555556,4,2,1,5,0,0
95115,-55.5555555555556,4,2,1,85,0,0
95226,-55.5555555555556,4,2,1,5,0,0
95337,-55.5555555555556,4,2,1,85,0,0
95781,-83.3333333333333,4,2,1,85,0,0
96003,-100,4,2,5,60,0,0
98003,-133.333333333333,4,2,5,60,0,0
98226,-66.6666666666667,4,2,5,60,0,0
98337,-66.6666666666667,4,2,5,5,0,0
98448,-66.6666666666667,4,2,5,60,0,0
98559,-66.6666666666667,4,2,5,5,0,0
98670,-100,4,2,5,60,0,0
99115,-133.333333333333,4,2,5,60,0,0
99337,-100,4,2,5,60,0,0
99670,-100,4,2,5,5,0,0
99781,-100,4,2,5,60,0,0
99892,-100,4,2,5,5,0,0
100003,-100,4,2,5,60,0,0
101337,-133.333333333333,4,2,5,60,0,0
101781,-66.6666666666667,4,2,5,60,0,0
101892,-66.6666666666667,4,2,5,5,0,0
102003,-66.6666666666667,4,2,5,60,0,0
102115,-66.6666666666667,4,2,5,5,0,0
102226,-100,4,2,5,60,0,0
105559,-133.333333333333,4,2,5,60,0,0
105781,-100,4,2,5,60,0,0
107115,-100,4,2,5,60,0,0
107263,-100,4,2,5,45,0,0
107411,-100,4,2,5,30,0,0
107559,-100,4,2,5,60,0,0
107707,-100,4,2,5,45,0,0
107855,-100,4,2,5,30,0,0
108003,-100,4,2,5,60,0,0
108170,-100,4,2,5,45,0,0
108337,-100,4,2,5,30,0,0
109337,-100,4,2,1,60,0,0
110003,-133.333333333333,4,2,1,60,0,0
110115,-133.333333333333,4,2,1,5,0,0
110226,-66.6666666666667,4,2,1,65,0,0
110559,-66.6666666666667,4,2,1,5,0,0
110670,-100,4,2,1,65,0,0
111115,-66.6666666666667,4,2,1,65,0,0
111448,-66.6666666666667,4,2,1,5,0,0
111559,-100,4,2,1,65,0,0
112003,-66.6666666666667,4,2,1,65,0,0
112337,-66.6666666666667,4,2,1,5,0,0
112448,-100,4,2,1,65,0,0
112781,-100,4,2,1,5,0,0
112892,-66.6666666666667,4,2,1,65,0,0
113003,-66.6666666666667,4,2,1,5,0,0
113115,-66.6666666666667,4,2,1,65,0,0
113781,-66.6666666666667,4,2,1,65,0,0
113892,-66.6666666666667,4,2,1,5,0,0
114003,-66.6666666666667,4,2,1,65,0,0
114115,-66.6666666666667,4,2,1,5,0,0
114226,-100,4,2,1,65,0,0
114559,-100,4,2,1,5,0,0
114670,-66.6666666666667,4,2,1,65,0,0
114781,-66.6666666666667,4,2,1,5,0,0
114892,-76.9230769230769,4,2,1,65,0,0
115003,-76.9230769230769,4,2,1,5,0,0
115115,-90.9090909090909,4,2,1,65,0,0
115226,-90.9090909090909,4,2,1,5,0,0
115337,-111.111111111111,4,2,1,65,0,0
115670,-111.111111111111,4,2,1,5,0,0
115781,-111.111111111111,4,2,1,65,0,0
116337,-111.111111111111,4,2,1,5,0,0
116448,-66.6666666666667,4,2,1,65,0,0
116559,-66.6666666666667,4,2,1,5,0,0
116670,-66.6666666666667,4,2,1,65,0,0
117003,-66.6666666666667,4,2,1,5,0,0
117115,-100,4,2,1,65,0,0
117337,-66.6666666666667,4,2,1,65,0,0
117670,-66.6666666666667,4,2,1,5,0,0
117781,-100,4,2,1,65,0,0
118226,-66.6666666666667,4,2,1,65,0,0
118670,-100,4,2,1,65,0,0
119115,-66.6666666666667,4,2,1,65,0,0
119559,-100,4,2,1,65,0,0
120003,-66.6666666666667,4,2,1,65,0,0
120115,-66.6666666666667,4,2,1,5,0,0
120226,-66.6666666666667,4,2,1,65,0,0
120892,-66.6666666666667,4,2,1,65,0,0
121226,-66.6666666666667,4,2,1,5,0,0
121337,-100,4,2,1,65,0,0
121781,-66.6666666666667,4,2,1,65,0,0
121892,-66.6666666666667,4,2,1,5,0,0
122003,-76.9230769230769,4,2,1,65,0,0
122115,-76.9230769230769,4,2,1,5,0,0
122226,-90.9090909090909,4,2,1,65,0,0
122337,-90.9090909090909,4,2,1,5,0,0
122448,-111.111111111111,4,2,1,65,0,0
122781,-111.111111111111,4,2,1,5,0,0
122892,-111.111111111111,4,2,1,65,0,0
123559,-66.6666666666667,4,2,1,65,0,0
123670,-66.6666666666667,4,2,1,5,0,0
123781,-66.6666666666667,4,2,1,65,0,0
124115,-66.6666666666667,4,2,1,5,0,0
124226,-76.9230769230769,4,2,2,65,0,0
124670,-133.333333333333,4,2,4,65,0,0
124892,-76.9230769230769,4,2,4,65,0,0
126670,-100,4,2,6,50,0,0
128003,-100,4,2,6,55,0,0
128892,-100,4,2,6,60,0,0
129781,-100,4,2,6,65,0,0
130670,-100,4,2,6,70,0,0
131337,-100,4,2,6,75,0,0
133115,-83.3333333333333,4,2,6,75,0,0
134892,-111.111111111111,4,2,6,75,0,0
135003,-111.111111111111,4,2,6,5,0,0
135115,-90.9090909090909,4,2,6,75,0,0
135226,-90.9090909090909,4,2,6,5,0,0
135337,-76.9230769230769,4,2,6,75,0,0
135448,-76.9230769230769,4,2,6,5,0,0
135559,-66.6666666666667,4,2,6,75,0,0
135670,-66.6666666666667,4,2,6,5,0,0
135781,-66.6666666666667,4,2,6,75,0,0
135892,-66.6666666666667,4,2,6,5,0,0
136003,-66.6666666666667,4,2,6,75,0,0
136115,-66.6666666666667,4,2,6,5,0,0
136226,-66.6666666666667,4,2,6,75,0,0
136337,-66.6666666666667,4,2,6,5,0,0
136448,-66.6666666666667,4,2,6,75,0,0
136559,-66.6666666666667,4,2,6,5,0,0
136670,-55.5555555555556,4,2,1,80,0,0
136892,-55.5555555555556,4,2,1,5,0,0
137115,-55.5555555555556,4,2,1,80,0,0
137559,-100,4,2,1,80,0,0
138448,-55.5555555555556,4,2,1,85,0,1
138781,-55.5555555555556,4,2,1,5,0,0
138892,-55.5555555555556,4,2,1,85,0,0
139115,-66.6666666666667,4,2,1,85,0,0
139226,-66.6666666666667,4,2,1,5,0,0
139337,-100,4,2,1,85,0,0
139448,-100,4,2,1,5,0,0
139559,-66.6666666666667,4,2,1,85,0,0
139670,-66.6666666666667,4,2,1,5,0,0
139781,-100,4,2,1,85,0,0
139892,-100,4,2,1,5,0,0
140003,-100,4,2,1,85,0,0
140115,-100,4,2,1,5,0,0
140226,-55.5555555555556,4,2,1,85,0,0
140448,-66.6666666666667,4,2,1,85,0,0
140559,-66.6666666666667,4,2,1,5,0,0
140670,-66.6666666666667,4,2,1,85,0,0
140781,-66.6666666666667,4,2,1,5,0,0
140892,-133.333333333333,4,2,1,85,0,0
141115,-66.6666666666667,4,2,1,85,0,0
142003,-55.5555555555556,4,2,1,85,0,0
142337,-55.5555555555556,4,2,1,5,0,0
142448,-55.5555555555556,4,2,1,85,0,0
142670,-66.6666666666667,4,2,1,85,0,0
143003,-66.6666666666667,4,2,1,5,0,0
143115,-66.6666666666667,4,2,1,85,0,0
143226,-66.6666666666667,4,2,1,5,0,0
143337,-76.9230769230769,4,2,1,85,0,0
143448,-76.9230769230769,4,2,1,5,0,0
143559,-90.9090909090909,4,2,1,85,0,0
143670,-90.9090909090909,4,2,1,5,0,0
143781,-55.5555555555556,4,2,1,85,0,0
144003,-55.5555555555556,4,2,1,5,0,0
144226,-55.5555555555556,4,2,1,85,0,0
145559,-55.5555555555556,4,2,1,85,0,1
145892,-55.5555555555556,4,2,1,5,0,0
146003,-55.5555555555556,4,2,1,85,0,0
146226,-66.6666666666667,4,2,1,85,0,0
146337,-66.6666666666667,4,2,1,5,0,0
146448,-100,4,2,1,85,0,0
146559,-100,4,2,1,5,0,0
146670,-66.6666666666667,4,2,1,85,0,0
146781,-66.6666666666667,4,2,1,5,0,0
146892,-100,4,2,1,85,0,0
147003,-100,4,2,1,5,0,0
147115,-100,4,2,1,85,0,0
147226,-100,4,2,1,5,0,0
147337,-50,4,2,1,85,0,0
147559,-66.6666666666667,4,2,1,85,0,0
147670,-66.6666666666667,4,2,1,5,0,0
147781,-66.6666666666667,4,2,1,85,0,0
147892,-66.6666666666667,4,2,1,5,0,0
148003,-100,4,2,1,85,0,0
148337,-100,4,2,1,5,0,0
148448,-100,4,2,1,85,0,0
148559,-100,4,2,1,5,0,0
148670,-100,4,2,1,85,0,0
149115,-55.5555555555556,4,2,1,85,0,0
149448,-55.5555555555556,4,2,1,5,0,0
149559,-66.6666666666667,4,2,1,85,0,0
149670,-66.6666666666667,4,2,1,5,0,0
149781,-100,4,2,1,85,0,0
149892,-100,4,2,1,5,0,0
150003,-66.6666666666667,4,2,1,85,0,0
150115,-66.6666666666667,4,2,1,5,0,0
150226,-100,4,2,1,85,0,0
150337,-100,4,2,1,5,0,0
150448,-66.6666666666667,4,2,1,85,0,0
150559,-66.6666666666667,4,2,1,5,0,0
150670,-100,4,2,1,85,0,0
150781,-100,4,2,1,5,0,0
150892,-55.5555555555556,4,2,1,85,0,0
151115,-55.5555555555556,4,2,1,5,0,0
151337,-55.5555555555556,4,2,1,85,0,0
152670,-55.5555555555556,4,2,1,85,0,1
153003,-55.5555555555556,4,2,1,5,0,0
153115,-66.6666666666667,4,2,1,85,0,0
154781,-66.6666666666667,4,2,1,5,0,0
154892,-66.6666666666667,4,2,1,85,0,0
156559,-66.6666666666667,4,2,1,5,0,0
156670,-66.6666666666667,4,2,1,85,0,0
158337,-66.6666666666667,4,2,1,5,0,0
158448,-66.6666666666667,4,2,1,85,0,0
159003,-66.6666666666667,4,2,1,5,0,0
159115,-100,4,2,1,85,0,0
159226,-100,4,2,1,5,0,0
159337,-100,4,2,1,85,0,0
159781,-66.6666666666667,4,2,2,65,0,0
159892,-66.6666666666667,4,2,2,5,0,0
160003,-125,4,2,1,65,0,0
161559,-83.3333333333333,4,2,1,65,0,0
162003,-125,4,2,1,65,0,0
162337,-125,4,2,1,5,0,0
162448,-125,4,2,1,65,0,0
163337,-83.3333333333333,4,2,1,65,0,0
163781,-125,4,2,1,65,0,0
165115,-83.3333333333333,4,2,1,65,0,0
165337,-125,4,2,1,65,0,0
166003,-66.6666666666667,4,2,1,65,0,0
167115,-100,4,2,3,50,0,0
168003,-100,4,2,3,55,0,0
168892,-100,4,2,3,60,0,0
169781,-100,4,2,3,65,0,0
170448,-100,4,2,3,70,0,0
171115,-66.6666666666667,4,2,3,75,0,0
171226,-66.6666666666667,4,2,3,5,0,0
171337,-66.6666666666667,4,2,3,75,0,0
171448,-66.6666666666667,4,2,3,5,0,0
171559,-66.6666666666667,4,2,3,75,0,0
171670,-66.6666666666667,4,2,3,5,0,0
171781,-66.6666666666667,4,2,3,75,0,0
171892,-66.6666666666667,4,2,3,5,0,0
172003,-66.6666666666667,4,2,3,75,0,0
172115,-66.6666666666667,4,2,3,5,0,0
172226,-333.333333333333,4,2,2,60,0,0
172559,-333.333333333333,4,2,2,5,0,0
172670,-333.333333333333,4,2,1,80,0,0
173115,-66.6666666666667,4,2,1,80,0,0
173448,-66.6666666666667,4,2,1,5,0,0
173559,-66.6666666666667,4,2,1,80,0,0
174003,-55.5555555555556,4,2,1,85,0,1
174337,-55.5555555555556,4,2,1,5,0,0
174448,-55.5555555555556,4,2,1,85,0,0
174670,-66.6666666666667,4,2,1,85,0,0
174781,-66.6666666666667,4,2,1,5,0,0
174892,-100,4,2,1,85,0,0
175003,-100,4,2,1,5,0,0
175115,-66.6666666666667,4,2,1,85,0,0
175226,-66.6666666666667,4,2,1,5,0,0
175337,-100,4,2,1,85,0,0
175448,-100,4,2,1,5,0,0
175559,-100,4,2,1,85,0,0
175670,-100,4,2,1,5,0,0
175781,-55.5555555555556,4,2,1,85,0,0
176003,-66.6666666666667,4,2,1,85,0,0
176115,-66.6666666666667,4,2,1,5,0,0
176226,-66.6666666666667,4,2,1,85,0,0
176337,-66.6666666666667,4,2,1,5,0,0
176448,-133.333333333333,4,2,1,85,0,0
176670,-66.6666666666667,4,2,1,85,0,0
177559,-55.5555555555556,4,2,1,85,0,0
177892,-55.5555555555556,4,2,1,5,0,0
178003,-55.5555555555556,4,2,1,85,0,0
178226,-66.6666666666667,4,2,1,85,0,0
178559,-66.6666666666667,4,2,1,5,0,0
178670,-66.6666666666667,4,2,1,85,0,0
178781,-66.6666666666667,4,2,1,5,0,0
178892,-76.9230769230769,4,2,1,85,0,0
179003,-76.9230769230769,4,2,1,5,0,0
179115,-90.9090909090909,4,2,1,85,0,0
179226,-90.9090909090909,4,2,1,5,0,0
179337,-55.5555555555556,4,2,1,85,0,0
179559,-55.5555555555556,4,2,1,5,0,0
179781,-55.5555555555556,4,2,1,85,0,0
181115,-55.5555555555556,4,2,1,85,0,1
181448,-55.5555555555556,4,2,1,5,0,0
181559,-55.5555555555556,4,2,1,85,0,0
181781,-66.6666666666667,4,2,1,85,0,0
181892,-66.6666666666667,4,2,1,5,0,0
182003,-100,4,2,1,85,0,0
182115,-100,4,2,1,5,0,0
182226,-66.6666666666667,4,2,1,85,0,0
182337,-66.6666666666667,4,2,1,5,0,0
182448,-100,4,2,1,85,0,0
182559,-100,4,2,1,5,0,0
182670,-100,4,2,1,85,0,0
182781,-100,4,2,1,5,0,0
182892,-55.5555555555556,4,2,1,85,0,0
183115,-66.6666666666667,4,2,1,85,0,0
183226,-66.6666666666667,4,2,1,5,0,0
183337,-66.6666666666667,4,2,1,85,0,0
183448,-66.6666666666667,4,2,1,5,0,0
183559,-100,4,2,1,85,0,0
183892,-100,4,2,1,5,0,0
184003,-100,4,2,1,85,0,0
184115,-100,4,2,1,5,0,0
184226,-100,4,2,1,85,0,0
184670,-55.5555555555556,4,2,1,85,0,0
185003,-55.5555555555556,4,2,1,5,0,0
185115,-66.6666666666667,4,2,1,85,0,0
185226,-66.6666666666667,4,2,1,5,0,0
185337,-100,4,2,1,85,0,0
185448,-100,4,2,1,5,0,0
185559,-66.6666666666667,4,2,1,85,0,0
185670,-66.6666666666667,4,2,1,5,0,0
185781,-66.6666666666667,4,2,1,85,0,0
185892,-100,4,2,1,5,0,0
186003,-66.6666666666667,4,2,1,85,0,0
186115,-66.6666666666667,4,2,1,5,0,0
186226,-100,4,2,1,85,0,0
186337,-100,4,2,1,5,0,0
186448,-55.5555555555556,4,2,1,85,0,0
186670,-55.5555555555556,4,2,1,5,0,0
186892,-55.5555555555556,4,2,1,85,0,0
188226,-55.5555555555556,4,2,1,85,0,0
188337,-55.5555555555556,4,2,1,5,0,0
188448,-100,4,2,1,85,0,0
188522,-100,4,2,1,65,0,0
188596,-100,4,2,1,45,0,0
188670,-55.5555555555556,4,2,1,85,0,0
189226,-55.5555555555556,4,2,1,5,0,0
189337,-55.5555555555556,4,2,1,85,0,0
189448,-55.5555555555556,4,2,1,5,0,0
189559,-55.5555555555556,4,2,1,40,0,0
189670,-55.5555555555556,4,2,1,65,0,0
189781,-55.5555555555556,4,2,1,85,0,0
190337,-55.5555555555556,4,2,1,5,0,0
190448,-55.5555555555556,4,2,1,85,0,0
190670,-66.6666666666667,4,2,1,85,0,0
191226,-66.6666666666667,4,2,1,5,0,0
191337,-66.6666666666667,4,2,1,85,0,0
191781,-55.5555555555556,4,2,1,85,0,0
192115,-55.5555555555556,4,2,1,5,0,0
192226,-100,4,2,1,85,0,0
192448,-66.6666666666667,4,2,1,85,0,0
193115,-66.6666666666667,4,2,1,40,0,0
193226,-66.6666666666667,4,2,1,65,0,0
193337,-66.6666666666667,4,2,1,85,0,0
193559,-55.5555555555556,4,2,1,85,0,0
195337,-55.5555555555556,4,2,1,85,0,0
195670,-55.5555555555556,4,2,1,5,0,0
195781,-55.5555555555556,4,2,1,85,0,0
196003,-66.6666666666667,4,2,1,85,0,0
197115,-55.5555555555556,4,2,1,85,0,0
197448,-55.5555555555556,4,2,1,5,0,0
197559,-55.5555555555556,4,2,1,85,0,0
198892,-55.5555555555556,4,2,1,85,0,0
199226,-55.5555555555556,4,2,1,5,0,0
199337,-55.5555555555556,4,2,1,85,0,0
201003,-55.5555555555556,4,2,1,5,0,0
201115,-55.5555555555556,4,2,1,85,0,0
201226,-55.5555555555556,4,2,1,5,0,0
201337,-55.5555555555556,4,2,1,85,0,0
202448,-133.333333333333,4,2,1,65,0,0
202892,-133.333333333333,4,2,1,5,0,0

[Colours]
Combo1 : 202,149,255
Combo2 : 128,128,255
Combo3 : 252,117,93
Combo4 : 200,198,198
Combo5 : 135,135,135
Combo6 : 252,215,120

[HitObjects]
134,269,1115,37,2,0:0:0:0:
34,228,1337,1,2,0:0:0:0:
50,335,1559,6,0,L|138:319,1,90,6|8,0:0|0:2,0:0:0:0:
138,318,2226,1,10,0:2:0:0:
138,318,2670,1,10,0:2:0:0:
203,367,2892,1,2,0:0:0:0:
283,346,3115,1,10,0:2:0:0:
298,264,3337,1,2,0:0:0:0:
233,215,3559,1,10,0:2:0:0:
153,236,3781,2,0,P|104:227|64:221,1,90,2|8,0:0|0:2,0:0:0:0:
41,66,4226,70,0,B|8:54|9:16|9:16|17:42|48:56,1,116.999994644165,2|8,0:0|0:2,0:0:0:0:
207,87,4670,1,2,0:0:0:0:
153,27,4892,1,10,0:2:0:0:
231,7,5115,2,0,P|273:15|319:22,1,90,6|8,0:0|0:2,0:0:0:0:
319,22,5781,5,10,0:2:0:0:
364,156,6003,1,2,0:0:0:0:
454,47,6226,69,10,0:2:0:0:
441,124,6448,1,2,0:0:0:0:
377,75,6670,1,10,0:2:0:0:
512,232,6892,6,0,P|476:205|432:206,1,90,2|8,0:0|0:2,0:0:0:0:
395,341,7337,2,0,P|430:367|474:366,1,90,2|8,0:0|0:2,0:0:0:0:
453,286,7781,69,2,0:0:0:0:
341,269,8003,1,10,0:2:0:0:
231,249,8226,1,2,0:0:0:0:
123,230,8448,1,10,0:2:0:0:
234,261,8670,6,0,L|217:172,1,90,6|8,1:2|0:2,0:0:0:0:
217,172,9337,1,10,1:2:0:0:
217,172,9781,1,10,1:2:0:0:
455,131,10226,1,10,1:2:0:0:
399,68,10448,1,2,0:0:0:0:
317,84,10670,1,10,1:2:0:0:
290,166,10892,2,0,L|378:181,1,90,2|8,0:0|1:2,0:0:0:0:
373,366,11337,69,2,0:0:0:0:
297,280,11559,1,10,1:2:0:0:
186,325,11781,1,2,0:0:0:0:
271,384,12003,1,10,1:2:0:0:
191,229,12226,6,0,P|134:194|69:206,1,135.000005149842,6|8,0:0|1:2,0:0:0:0:
76,28,12670,2,0,P|21:32|13:86,1,116.999994644165,2|8,0:0|1:2,0:0:0:0:
206,129,13115,2,0,P|253:117|288:83,1,99.0000030212403,2|8,0:0|1:2,0:0:0:0:
510,86,13559,69,2,0:0:0:0:
358,32,13781,1,10,1:2:0:0:
512,75,14003,2,0,L|502:21,2,53.9999983520508,6|2|2,0:0|0:0|0:0,0:0:0:0:
512,75,15337,1,2,0:0:0:0:
453,142,15781,1,2,0:0:0:0:
395,203,16003,6,0,L|398:220,1,17.9999994506836,8|8,0:2|0:2,0:2:0:0:
444,284,16226,2,0,L|430:303,1,24,8|8,0:2|0:2,0:0:0:0:
391,373,16448,2,0,L|361:378,1,30,8|8,0:2|0:2,0:0:0:0:
279,379,16670,2,0,L|249:358,1,35.9999989013672,8|8,0:2|0:2,0:0:0:0:
153,338,16892,2,0,L|145:296,1,41.9999987182618,8|8,0:2|0:2,0:0:0:0:
68,214,17115,2,0,B|75:191|75:191|93:175,1,48,8|8,0:2|0:2,0:0:0:0:
135,59,17337,2,0,B|158:44|158:44|184:47,1,53.9999983520508,8|8,0:2|0:2,0:0:0:0:
94,176,17559,22,0,B|154:196|200:147|168:142|205:101|280:121,1,202.500007724762,6|0,1:2|0:0,0:0:0:0:
280,107,18003,5,2,1:2:0:0:
283,92,18115,1,2,0:2:0:0:
352,47,18226,54,0,P|376:60|392:81,1,53.9999983520508,10|0,1:2|0:0,0:0:0:0:
464,122,18448,2,0,P|467:148|459:173,1,53.9999983520508,2|0,0:0|0:0,0:0:0:0:
369,165,18670,2,0,P|345:177|329:198,1,53.9999983520508,2|0,1:2|0:0,0:0:0:0:
257,239,18892,2,0,P|253:265|261:290,1,53.9999983520508,2|0,0:0|0:0,0:0:0:0:
455,374,19115,2,0,P|463:348|459:322,1,53.9999983520508,10|0,1:2|0:0,0:0:0:0:
374,339,19337,6,0,P|279:321|175:303,1,202.500007724762,2|0,1:2|0:0,0:0:0:0:
172,318,19781,5,2,1:2:0:0:
169,333,19893,1,2,0:2:0:0:
90,338,20003,54,0,P|81:312|85:286,1,53.9999983520508,10|0,1:2|0:0,0:0:0:0:
146,172,20226,2,0,P|154:197|150:223,1,53.9999983520508,2|0,0:2|0:0,0:0:0:0:
229,148,20448,2,0,P|237:122|233:96,1,53.9999983520508,2|0,1:2|0:0,0:0:0:0:
136,0,20670,1,2,0:0:0:0:
102,41,20781,1,8,0:2:0:0:
111,94,20892,1,10,1:2:0:0:
149,223,21115,6,0,P|252:201|348:187,1,202.500007724762,6|0,1:2|0:0,0:0:0:0:
353,200,21559,5,2,1:2:0:0:
356,215,21671,1,2,0:2:0:0:
385,289,21781,54,0,P|409:276|425:255,1,53.9999983520508,10|0,1:2|0:0,0:0:0:0:
497,214,22003,2,0,P|500:188|492:163,1,53.9999983520508,2|0,0:2|0:0,0:0:0:0:
383,48,22226,2,0,P|359:61|343:82,1,53.9999983520508,2|0,1:2|0:0,0:0:0:0:
271,123,22448,2,0,P|268:149|276:173,1,53.9999983520508,2|0,0:2|0:0,0:0:0:0:
295,270,22670,2,0,P|298:296|290:321,1,53.9999983520508,10|0,1:2|0:0,0:0:0:0:
212,363,22892,6,0,B|152:383|106:334|138:329|101:288|26:308,1,202.500007724762,2|0,1:2|0:0,0:0:0:0:
0,229,23337,2,0,B|2:194|43:187|43:187|16:206|11:246,1,116.999994644165,2|8,1:2|1:2,0:0:0:0:
194,279,23781,2,0,P|192:235|164:201,1,90,2|0,0:0|1:2,0:0:0:0:
46,76,24226,5,2,0:0:0:0:
45,89,24337,1,10,0:2:0:0:
103,98,24448,1,10,1:2:0:0:
161,110,24559,1,2,0:0:0:0:
219,123,24670,54,0,B|376:95|376:95|345:93|322:66,1,202.500007724762,6|0,1:2|0:0,0:0:0:0:
333,65,25115,1,2,1:2:0:0:
330,51,25226,1,2,0:2:0:0:
401,10,25337,6,0,P|425:6|454:1,1,53.9999983520508,10|0,1:2|0:0,0:0:0:0:
510,79,25559,2,0,P|486:83|457:88,1,53.9999983520508,2|0,0:2|0:0,0:0:0:0:
335,250,25781,2,0,P|359:254|388:259,1,53.9999983520508,2|0,1:2|0:0,0:0:0:0:
444,181,26003,2,0,P|420:177|391:172,1,53.9999983520508,2|0,0:2|0:0,0:0:0:0:
444,321,26226,2,0,P|471:316|498:312,1,53.9999983520508,10|0,1:2|0:0,0:0:0:0:
370,375,26448,6,0,P|273:367|235:278,1,202.500007724762,2|0,1:2|0:0,0:0:0:0:
220,282,26892,1,2,1:2:0:0:
206,285,27003,1,2,0:2:0:0:
137,238,27115,54,0,P|139:211|154:189,1,53.9999983520508,10|0,1:2|0:0,0:0:0:0:
136,112,27337,2,0,P|159:98|185:98,1,53.9999983520508,2|0,0:0|0:0,0:0:0:0:
235,0,27559,2,0,P|252:20|257:46,1,53.9999983520508,2|0,1:2|0:0,0:0:0:0:
334,93,27781,1,2,0:0:0:0:
319,144,27892,1,8,0:2:0:0:
271,167,28003,1,10,1:2:0:0:
444,321,28226,6,0,P|426:237|408:121,1,202.500007724762,6|0,1:2|0:0,0:0:0:0:
421,118,28670,1,2,1:2:0:0:
435,115,28781,1,2,0:2:0:0:
502,69,28892,6,0,P|500:42|485:20,1,53.9999983520508,10|0,1:2|0:0,0:0:0:0:
350,44,29115,2,0,P|335:66|333:92,1,53.9999983520508,2|0,0:0|0:0,0:0:0:0:
394,195,29337,2,0,P|416:210|443:212,1,53.9999983520508,2|0,1:2|0:0,0:0:0:0:
493,305,29560,2,0,P|466:306|443:320,1,53.9999983520508,2|0,0:2|0:0,0:0:0:0:
329,357,29781,2,0,P|306:371|280:373,1,53.9999983520508,10|0,1:2|0:0,0:0:0:0:
200,326,30003,54,0,B|157:304|152:223|213:199|213:199|182:220|183:251,1,202.500007724762,2|0,1:2|0:0,0:0:0:0:
127,266,30448,2,0,L|11:246,1,116.999994644165,2|8,1:2|1:2,0:0:0:0:
161,105,30892,2,0,L|205:97,1,45,2|0,0:0|0:0,0:0:0:0:
283,80,31115,1,8,1:3:0:0:
105,176,31337,5,10,0:2:0:0:
91,178,31448,1,10,0:2:0:0:
43,143,31559,1,10,1:2:0:0:
38,85,31670,1,2,0:0:0:0:
72,38,31781,38,0,L|205:15,1,135,6|0,1:2|0:0,0:0:0:0:
205,14,32226,1,2,1:2:0:0:
283,80,32448,2,0,L|349:91,1,67.5000025749208,2|0,1:2|0:0,0:0:0:0:
512,66,32892,1,2,1:2:0:0:
428,41,33115,1,2,0:0:0:0:
349,91,33337,1,2,1:2:0:0:
330,185,33559,2,0,L|396:173,1,67.5000025749208,2|0,0:0|1:2,0:0:0:0:
512,309,34003,54,0,L|446:297,1,67.5000025749208,2|0,0:0|1:2,0:0:0:0:
358,287,34448,1,2,0:0:0:0:
297,342,34670,1,2,1:2:0:0:
372,366,34892,1,2,0:0:0:0:
358,287,35115,1,2,1:2:0:0:
344,207,35337,2,0,L|355:140,1,67.5000025749208,6|0,0:0|1:2,0:0:0:0:
259,87,35781,21,2,0:0:0:0:
259,87,36003,2,0,L|192:98,1,67.5000025749208,2|0,1:2|0:0,0:0:0:0:
109,111,36448,1,2,1:2:0:0:
23,59,36670,1,2,0:0:0:0:
87,189,36892,1,2,1:2:0:0:
15,226,37115,2,0,L|27:292,1,67.5000025749208,2|0,0:0|1:2,0:0:0:0:
181,354,37559,54,0,L|247:365,1,67.5000025749208,2|0,0:0|1:2,0:0:0:0:
385,272,38003,1,2,0:0:0:0:
304,223,38226,2,0,L|292:289,1,67.5000025749208,2|0,1:2|0:2,0:0:0:0:
455,352,38670,1,2,1:2:0:0:
455,352,38892,22,0,L|467:285,1,67.5000025749208,6|2,0:0|1:2,0:0:0:0:
502,136,39337,53,2,0:2:0:0:
502,136,39559,2,0,L|435:124,1,67.5000025749208,2|0,1:2|0:0,0:0:0:0:
349,109,40003,1,2,1:2:0:0:
302,36,40226,1,2,0:0:0:0:
384,34,40448,1,2,1:2:0:0:
264,113,40670,2,0,L|197:123,1,67.5000025749208,2|0,0:0|1:2,0:0:0:0:
65,56,41115,22,0,L|54:123,1,67.5000025749208,2|0,0:0|1:2,0:0:0:0:
0,185,41559,1,2,0:0:0:0:
139,215,41781,1,2,1:2:0:0:
73,268,42003,1,2,0:0:0:0:
89,348,42226,1,2,1:2:0:0:
166,382,42448,2,0,L|232:370,1,67.5000025749208,6|0,0:0|1:2,0:0:0:0:
348,265,42892,70,0,L|414:277,1,67.5000025749208,2|0,0:0|1:2,0:0:0:0:
389,367,43337,1,2,0:0:0:0:
389,367,43559,2,0,L|322:379,1,67.5000025749208,2|2,1:2|0:0,0:0:0:0:
266,291,44003,1,2,1:2:0:0:
433,197,44226,1,6,0:0:0:0:
433,197,44670,70,0,L|428:170,2,26.9999991760254,2|2|2,0:0|0:0|0:0,0:0:0:0:
505,131,45337,5,2,0:0:0:0:
448,71,45559,1,2,0:0:0:0:
364,85,45781,1,2,0:0:0:0:
335,166,46003,1,6,1:2:0:0:
501,243,46226,22,0,B|514:255|519:279|519:279|500:248|444:230|403:246|403:246|397:262|379:276,1,202.500007724762,2|0,1:2|0:0,0:0:0:0:
384,291,46670,2,0,L|295:275,1,90,10|0,1:2|0:0,0:0:0:0:
129,133,47115,70,0,B|115:145|110:169|110:169|130:138|185:120|226:136|226:136|232:152|250:166,1,202.500007724762,2|0,1:2|0:0,0:0:0:0:
246,181,47559,2,0,L|334:165,1,90,10|0,1:2|0:0,0:0:0:0:
501,9,48003,54,0,P|412:9|429:96,1,202.500007724762,2|0,1:2|0:0,0:0:0:0:
450,96,48448,2,0,L|317:72,1,135,10|0,1:2|0:0,0:0:0:0:
263,15,48892,38,0,P|230:23|206:46,1,67.5000025749208,2|0,1:2|0:0,0:0:0:0:
41,102,49115,1,2,0:0:0:0:
91,93,49226,1,8,0:2:0:0:
121,131,49337,2,0,P|107:192|98:264,1,135.000005149842,10|0,1:2|1:2,0:0:0:0:
98,264,49781,70,0,P|66:273|46:299,1,67.5000025749208,2|0,0:2|0:0,0:0:0:0:
104,376,50003,2,0,P|141:368|170:364,1,67.5000025749208,2|0,1:2|0:0,0:0:0:0:
293,311,50226,2,0,P|347:321|426:334,1,135,10|0,1:2|0:0,0:0:0:0:
434,319,50670,2,0,P|457:294|463:262,1,67.5000025749208,2|0,1:2|0:0,0:0:0:0:
512,200,50892,2,0,P|507:172|488:150,1,58.4999973220826,2|0,0:2|0:0,0:0:0:0:
480,73,51115,2,0,P|458:62|434:61,1,49.5000015106202,10|0,1:2|0:0,0:0:0:0:
341,15,51337,54,0,B|362:21|362:21|263:39,1,121.499996292114,2|0,1:2|0:0,0:0:0:0:
250,27,51781,2,0,P|210:33|183:62,1,80.9999975280763,2|8,1:2|1:2,0:0:0:0:
40,96,52226,2,0,L|32:135,1,40.4999987640381,2|0,0:0|0:0,0:0:0:0:
0,254,52448,38,0,P|31:247|66:242,1,67.5000025749208,2|0,1:2|0:0,0:0:0:0:
252,296,52670,1,2,0:0:0:0:
261,346,52781,1,8,0:2:0:0:
223,376,52892,2,0,P|190:367|157:361,1,67.5000025749208,10|0,1:2|0:0,0:0:0:0:
79,344,53115,1,2,1:2:0:0:
178,204,53337,69,2,0:0:0:0:
178,204,53559,2,0,P|212:199|244:192,1,67.5000025749208,0|0,1:2|0:0,0:0:0:0:
364,252,53781,2,0,P|402:231|420:190,1,90,10|0,1:2|0:0,0:0:0:0:
391,121,54115,1,2,0:0:0:0:
388,106,54226,54,0,P|321:93|254:88,1,135.000005149842,2|2,1:2|0:0,0:0:0:0:
123,120,54670,2,0,P|84:99|66:58,1,90,10|0,1:2|0:0,0:0:0:0:
21,157,55003,1,2,0:0:0:0:
17,173,55115,38,0,P|4:239|0:306,1,135.000005149842,2|2,1:2|0:2,0:0:0:0:
141,367,55559,2,0,P|176:341|220:342,1,90,10|0,1:2|0:0,0:0:0:0:
296,310,55892,1,2,0:0:0:0:
304,297,56003,70,0,P|313:265|306:232,1,67.5000025749208,2|0,1:2|0:0,0:0:0:0:
462,135,56226,1,2,0:0:0:0:
412,126,56337,1,8,0:2:0:0:
382,164,56448,2,0,P|396:225|405:297,1,135.000005149842,10|2,1:2|1:2,0:0:0:0:
404,296,56892,54,0,P|431:277|465:274,1,67.5000025749208,2|0,0:2|0:0,0:0:0:0:
492,358,57115,2,0,P|464:376|430:379,1,67.5000025749208,2|0,1:2|0:0,0:0:0:0:
304,297,57337,38,0,P|276:278|243:272,1,67.5000025749208,10|0,1:2|0:0,0:0:0:0:
216,359,57560,2,0,P|243:377|277:380,1,67.5000025749208,2|0,0:2|0:0,0:0:0:0:
244,189,57781,70,0,P|210:194|183:213,1,67.5000025749208,2|0,1:2|0:0,0:0:0:0:
116,166,58003,2,0,P|102:191|98:220,1,58.4999973220826,2|0,0:2|0:0,0:0:0:0:
23,252,58226,2,0,P|36:277|61:295,1,49.5000015106202,10|0,1:2|0:0,0:0:0:0:
96,380,58448,54,0,P|155:368|216:359,1,121.499996292114,2|0,1:2|0:0,0:0:0:0:
224,343,58892,2,0,P|263:346|293:372,1,80.9999975280763,2|8,1:2|1:2,0:0:0:0:
430,331,59337,1,2,0:0:0:0:
433,317,59448,1,2,0:0:0:0:
435,303,59559,38,0,P|428:271|424:245,1,58.4999973220826,2|0,1:2|0:0,0:0:0:0:
503,88,59781,1,2,0:2:0:0:
512,138,59892,1,8,0:2:0:0:
474,167,60003,2,0,P|441:158|408:152,1,67.5000025749208,10|0,1:2|0:2,0:2:0:0:
168,116,60226,37,2,1:2:0:0:
168,116,60448,1,8,0:2:0:0:
168,116,60670,1,0,1:2:0:0:
48,174,60892,22,0,P|151:151|279:134,2,233.999989288331,14|10|10,1:2|1:2|1:2,0:0:0:0:
273,338,62226,2,0,P|389:353|503:378,1,233.999989288331,10|10,1:2|1:2,0:0:0:0:
504,382,63115,5,10,1:2:0:0:
495,306,63337,1,8,0:2:0:0:
486,230,63559,1,10,1:2:0:0:
477,153,63781,1,8,0:2:0:0:
482,142,64003,69,10,1:2:0:0:
444,72,64226,1,8,0:2:0:0:
366,53,64448,1,10,1:2:0:0:
308,109,64670,1,8,0:2:0:0:
318,188,64892,5,10,1:2:0:0:
280,258,65115,1,8,0:2:0:0:
202,277,65337,1,10,1:2:0:0:
144,221,65559,1,10,0:2:0:0:
148,207,65781,69,8,1:2:0:0:
49,186,66003,1,8,0:2:0:0:
0,274,66226,1,8,1:2:0:0:
57,358,66448,2,0,L|145:341,1,90,10|8,0:2|1:2,0:0:0:0:
280,258,66892,1,10,0:2:0:0:
443,304,67115,1,10,1:2:0:0:
339,384,67337,6,0,L|353:295,1,90,10|8,0:2|1:2,0:0:0:0:
508,167,67781,1,8,0:2:0:0:
456,65,68003,1,8,1:2:0:0:
346,43,68226,1,8,0:2:0:0:
259,116,68448,1,10,1:2:0:0:
262,227,68670,1,10,0:2:0:0:
353,295,68892,1,10,1:2:0:0:
460,268,69115,69,10,0:2:0:0:
379,172,69337,1,8,1:2:0:0:
254,214,69559,1,8,0:2:0:0:
252,341,69781,1,8,1:2:0:0:
387,384,70003,1,8,0:2:0:0:
168,279,70226,6,0,L|61:296,1,107.999996704102,10|8,1:2|0:2,0:0:0:0:
139,102,70670,1,10,1:2:0:0:
11,145,70892,70,0,P|2:127|0:107,1,40.4999987640381,10|0,0:2|0:0,0:0:0:0:
62,53,71115,2,0,P|70:30|88:14,1,49.5000015106202,8|0,1:2|0:0,0:0:0:0:
165,12,71337,2,0,P|192:1|221:7,1,58.4999973220826,8|0,0:2|0:0,0:0:0:0:
257,72,71559,2,0,P|287:86|303:116,1,67.5000025749208,8|0,1:2|0:0,0:0:0:0:
222,163,71781,6,0,P|192:177|176:207,1,67.5000025749208,8|0,0:2|0:0,0:0:0:0:
232,278,72003,2,0,P|226:310|241:341,1,67.5000025749208,8|0,1:2|0:0,0:0:0:0:
330,356,72226,2,0,P|353:379|386:384,1,67.5000025749208,8|0,0:2|0:0,0:0:0:0:
458,322,72448,2,0,P|490:315|512:290,1,67.5000025749208,10|0,1:2|0:0,0:0:0:0:
512,121,72670,38,0,B|441:108|441:108|437:113|437:113|353:98,1,161.999995056153,6|0,1:2|0:0,0:0:0:0:
355,87,73115,2,0,B|438:102|438:102|442:97|442:97|513:110,1,161.999995056153,6|2,1:2|0:0,0:0:0:0:
512,0,73559,22,0,P|485:1|464:17,1,53.9999983520508,2|2,0:0|0:0,0:0:0:0:
464,16,74226,1,2,0:0:0:0:
474,238,74448,38,0,B|502:234|518:255|518:255|441:234|374:276|344:344,1,242.999992584229,6|0,1:2|0:0,0:0:0:0:
364,343,74892,1,2,1:2:0:0:
276,331,75003,1,2,0:0:0:0:
194,318,75115,6,0,P|160:319|129:307,1,67.5000025749208,10|0,1:2|0:0,0:0:0:0:
160,217,75337,2,0,P|182:220|202:230,1,45,2|0,0:0|0:0,0:0:0:0:
8,240,75559,2,0,P|41:240|72:228,1,67.5000025749208,2|0,1:2|0:0,0:0:0:0:
42,138,75781,2,0,P|19:141|-1:151,1,45,2|0,0:0|0:0,0:0:0:0:
154,108,76003,2,0,L|146:63,1,45,10|0,1:2|0:0,0:0:0:0:
63,40,76226,1,2,1:2:0:0:
273,0,76448,54,0,L|261:66,1,67.5000025749208,2|0,0:0|0:0,0:0:0:0:
426,109,76670,2,0,P|457:96|490:96,1,67.5000025749208,2|0,1:2|0:0,0:0:0:0:
363,39,76892,1,8,1:2:0:0:
363,39,77115,2,0,L|384:172,1,135.000005149842,2|0,0:2|1:2,0:0:0:0:
512,320,77559,5,2,0:0:0:0:
489,244,77670,1,8,0:2:0:0:
413,267,77781,1,10,1:2:0:0:
510,333,78003,6,0,B|442:357|394:302|420:288|373:233|299:254,1,242.999992584229,6|0,1:2|0:0,0:0:0:0:
295,240,78448,1,2,0:0:0:0:
216,253,78559,1,2,0:0:0:0:
191,328,78670,54,0,B|204:249|204:249|207:247|207:247|228:130,1,202.500007724762,10|0,1:2|0:0,0:0:0:0:
244,119,79115,2,0,P|238:86|214:64,1,67.5000025749208,2|0,1:2|0:0,0:0:0:0:
148,22,79337,2,0,P|122:9|94:13,1,58.4999973220826,2|0,0:2|0:0,0:0:0:0:
36,68,79559,2,0,P|14:78|0:99,1,49.5000015106202,10|0,1:2|0:0,0:0:0:0:
25,245,79781,6,0,B|-4:264|-4:264|121:242,1,161.999995056153,2|0,1:2|0:0,0:0:0:0:
367,361,80226,2,0,B|401:353|401:353|276:331,1,161.999995056153,2|8,1:2|1:2,0:0:0:0:
512,199,80670,2,0,P|490:126|414:121,1,161.999995056153,2|0,0:0|1:2,0:0:0:0:
125,98,81115,5,2,0:0:0:0:
148,22,81226,1,8,0:2:0:0:
224,45,81337,1,10,1:2:0:0:
121,111,81559,54,0,P|147:237|162:350,1,242.999992584229,6|0,1:2|0:0,0:0:0:0:
156,363,82003,1,2,1:2:0:0:
241,353,82115,1,2,0:0:0:0:
321,343,82226,6,0,P|326:308|332:276,1,67.5000025749208,10|0,1:2|0:0,0:0:0:0:
238,226,82448,2,0,P|242:248|247:270,1,45,2|0,0:0|0:0,0:0:0:0:
429,235,82670,2,0,P|424:200|418:168,1,67.5000025749208,2|0,1:2|0:0,0:0:0:0:
512,118,82892,2,0,P|508:140|503:162,1,45,2|0,0:0|0:0,0:0:0:0:
336,161,83115,2,0,P|314:157|292:152,1,45,10|0,1:2|0:0,0:0:0:0:
215,133,83337,1,2,1:2:0:0:
436,76,83559,6,0,P|403:72|370:64,1,67.5000025749208,2|0,0:0|0:0,0:0:0:0:
503,162,83781,2,0,P|470:166|437:174,1,67.5000025749208,2|0,0:0|0:0,0:0:0:0:
331,276,84003,1,8,1:2:0:0:
331,276,84226,54,0,P|326:298|323:320,1,45,2|0,0:0|0:0,0:0:0:0:
401,361,84448,2,0,P|405:338|408:316,1,45,2|0,1:2|0:0,0:0:0:0:
238,226,84670,5,2,0:2:0:0:
215,302,84781,1,8,0:2:0:0:
139,279,84892,1,10,1:2:0:0:
241,215,85115,6,0,B|177:236|134:172|157:160|112:103|34:139,1,242.999992584229,6|0,1:2|0:0,0:0:0:0:
24,126,85559,2,0,P|6:97|9:64,1,67.5000025749208,2|0,1:2|0:0,0:0:0:0:
69,13,85781,2,0,L|113:5,1,45,8|0,1:2|0:0,0:0:0:0:
317,15,86003,54,0,P|334:43|331:76,1,67.5000025749208,2|0,0:2|0:0,0:0:0:0:
272,128,86226,2,0,L|227:135,1,45,0|0,1:2|0:0,0:0:0:0:
331,276,86448,6,0,P|324:243|338:213,1,67.5000025749208,2|0,0:2|0:0,0:0:0:0:
411,185,86671,2,0,L|455:193,1,45,8|0,1:2|0:0,0:0:0:0:
477,276,86892,6,0,B|503:269|516:291|516:291|457:277|424:292|390:336,1,161.999995056153,2|0,1:2|0:0,0:0:0:0:
126,338,87337,2,0,B|100:331|87:353|87:353|146:339|179:354|213:398,1,161.999995056153,2|8,1:2|1:2,0:0:0:0:
337,213,87781,2,0,P|294:149|218:157,1,161.999995056153,2|8,0:0|1:3,0:0:0:0:
0,76,88226,53,10,0:2:0:0:
23,0,88337,1,8,0:2:0:0:
99,23,88448,1,10,1:2:0:0:
5,87,88670,6,0,B|-11:109|-11:109|149:81|149:81|147:52|174:31,1,242.999992584229,6|0,1:2|0:0,0:0:0:0:
194,31,89115,1,2,1:2:0:0:
220,28,89226,1,2,0:0:0:0:
298,45,89337,6,0,P|323:66|332:98,1,67.5000025749208,10|0,1:2|0:0,0:0:0:0:
394,163,89559,2,0,P|414:137|418:103,1,67.5000025749208,2|0,0:2|0:0,0:0:0:0:
439,236,89781,2,0,P|409:252|376:250,1,67.5000025749208,2|0,1:2|0:0,0:0:0:0:
301,289,90003,2,0,P|318:317|348:331,1,67.5000025749208,2|0,0:2|0:0,0:0:0:0:
216,309,90226,2,0,P|210:276|224:245,1,67.5000025749208,8|0,1:2|0:0,0:0:0:0:
303,188,90448,54,0,B|108:222|108:222|103:249|80:268,1,242.999992584229,2|0,1:2|0:0,0:0:0:0:
62,259,90892,1,2,1:2:0:0:
36,256,91003,1,2,0:0:0:0:
0,181,91115,6,0,P|9:149|34:127,1,67.5000025749208,10|0,1:2|0:0,0:0:0:0:
111,98,91337,2,0,P|142:87|174:95,1,67.5000025749208,2|0,0:2|0:0,0:0:0:0:
236,173,91559,2,0,P|227:205|202:227,1,67.5000025749208,2|0,1:2|0:0,0:0:0:0:
97,348,91781,5,2,0:0:0:0:
169,313,91892,1,8,0:2:0:0:
205,384,92003,1,10,1:2:0:0:
103,362,92226,54,0,P|230:322|342:318,1,242.999992584229,6|0,1:2|0:0,0:0:0:0:
342,342,92670,1,2,1:2:0:0:
345,368,92781,1,2,0:0:0:0:
431,384,92892,6,0,P|436:349|441:317,1,67.5000025749208,10|0,1:2|0:0,0:0:0:0:
501,207,93115,2,0,P|506:240|511:273,1,67.5000025749208,2|0,0:2|0:0,0:0:0:0:
390,244,93337,2,0,P|384:209|379:177,1,67.5000025749208,2|0,1:2|0:0,0:0:0:0:
320,67,93560,2,0,P|314:100|309:133,1,67.5000025749208,2|0,0:2|0:0,0:0:0:0:
481,104,93781,2,0,P|447:98|414:93,1,67.5000025749208,10|0,1:2|0:0,0:0:0:0:
249,0,94003,6,0,P|174:11|167:85,1,161.999995056153,2|0,1:2|0:0,0:0:0:0:
81,288,94448,2,0,P|73:213|0:202,1,161.999995056153,2|8,1:2|1:2,0:0:0:0:
279,373,94892,2,0,P|271:344|264:293,1,80.9999975280763,2|0,0:0|0:0,0:0:0:0:
206,200,95115,2,0,B|164:194|164:194|201:187,1,80.9999975280763,8|0,1:2|0:0,0:0:0:0:
372,298,95337,53,10,0:3:0:0:
386,300,95448,1,2,0:0:0:0:
434,265,95559,1,6,0:3:0:0:
439,207,95670,1,2,0:0:0:0:
405,160,95781,54,0,L|299:141,1,107.999996704102,6|0,1:2|0:0,0:0:0:0:
298,140,96226,1,2,0:0:0:0:
254,20,96448,1,2,0:0:0:0:
331,60,96670,5,2,1:2:0:0:
191,81,96892,2,0,L|102:63,1,90,10|2,0:2|0:0,0:0:0:0:
254,20,97337,1,2,0:0:0:0:
331,60,97559,70,0,P|336:104|346:149,1,90,2|0,0:0|1:2,0:0:0:0:
485,211,98003,1,0,0:0:0:0:
486,210,98226,6,0,B|452:216|452:216|481:201,1,67.5000025749208,2|0,1:2|0:0,0:0:0:0:
505,296,98448,2,0,B|471:302|471:302|500:287,1,67.5000025749208
405,361,98670,1,10,0:2:0:0:
326,342,98892,1,2,0:0:0:0:
310,263,99115,1,2,0:0:0:0:
369,199,99337,1,2,0:0:0:0:
390,279,99559,69,2,1:2:0:0:
244,308,99781,1,2,0:0:0:0:
111,332,100003,1,2,0:2:0:0:
111,332,100226,1,0,0:0:0:0:
151,174,100448,6,0,P|186:200|188:244,1,90,8|2,0:2|0:0,0:0:0:0:
14,184,100892,1,2,0:2:0:0:
29,84,101115,1,2,1:2:0:0:
205,0,101337,69,2,0:0:0:0:
217,81,101559,1,10,0:2:0:0:
137,51,101781,2,0,B|103:57|103:57|132:42,1,67.5000025749208,2|0,1:2|0:0,0:0:0:0:
284,32,102003,2,0,B|318:38|318:38|289:23,1,67.5000025749208,0|0,1:2|0:0,0:0:0:0:
219,98,102226,6,0,L|232:187,1,90,8|2,0:2|1:2,0:0:0:0:
405,225,102670,1,0,1:2:0:0:
409,208,102781,1,0,1:2:0:0:
413,191,102892,1,0,1:2:0:0:
329,141,103115,70,0,L|317:230,1,90,0|2,1:2|0:0,0:0:0:0:
317,230,103559,1,2,0:0:0:0:
443,295,103781,1,2,1:2:0:0:
413,191,104003,1,10,0:2:0:0:
350,337,104226,1,2,0:0:0:0:
229,257,104448,2,0,P|184:257|146:281,1,90,2|8,0:0|0:2,0:0:0:0:
80,346,104892,5,0,1:2:0:0:
80,346,105115,1,2,0:0:0:0:
116,188,105337,1,2,0:0:0:0:
146,281,105559,1,2,1:2:0:0:
19,211,105781,69,10,0:2:0:0:
129,185,106003,1,2,0:0:0:0:
231,246,106226,1,2,0:0:0:0:
231,246,106448,1,0,1:2:0:0:
406,178,106670,5,10,1:2:0:0:
362,355,106892,1,0,0:0:0:0:
340,268,107115,70,0,P|368:258|398:258,2,60,0|0|0,3:3|3:3|3:3,0:0:0:0:
406,178,107559,6,0,P|384:157|357:143,2,60,8|0|0,3:2|3:3|3:3,0:0:0:0:
475,92,108003,70,0,P|484:124|482:157,2,67.5,0|0|0,3:3|3:3|3:3,0:0:0:0:
20,365,109337,5,0,1:2:0:0:
20,365,110003,2,0,L|13:331,1,33.7500012874604,2|0,0:0|0:0,0:0:0:0:
139,298,110226,70,0,P|131:204|39:188,1,202.500007724762,2|0,1:2|0:0,0:0:0:0:
33,175,110670,2,0,L|122:159,1,90,10|0,1:2|0:0,0:0:0:0:
347,339,111115,54,0,P|354:245|446:229,1,202.500007724762,2|0,1:2|0:0,0:0:0:0:
453,216,111559,2,0,L|364:200,1,90,10|0,1:2|0:0,0:0:0:0:
198,32,112003,38,0,P|216:123|234:231,1,202.500007724762,2|0,1:2|0:0,0:0:0:0:
253,245,112448,2,0,B|291:223|278:186|278:186|270:221|230:250,1,135,10|0,1:2|0:0,0:0:0:0:
181,284,112892,70,0,P|148:276|124:253,1,67.5000025749208,2|0,1:2|0:0,0:0:0:0:
9,77,113115,1,2,0:0:0:0:
0,127,113226,1,8,0:2:0:0:
38,157,113337,2,0,B|79:167|106:138|91:133|121:107|168:122,1,135.000005149842,10|0,1:2|1:2,0:0:0:0:
160,120,113781,54,0,P|194:126|226:132,1,67.5000025749208,2|0,0:2|0:0,0:0:0:0:
348,30,114003,2,0,P|313:23|281:17,1,67.5000025749208,2|0,1:2|0:0,0:0:0:0:
311,186,114226,2,0,P|365:176|444:163,1,135,10|0,1:2|0:0,0:0:0:0:
453,148,114670,2,0,P|471:175|472:208,1,67.5000025749208,2|0,1:2|0:0,0:0:0:0:
511,278,114892,2,0,P|502:305|482:326,1,58.4999973220826,2|0,0:2|0:0,0:0:0:0:
420,374,115115,2,0,P|397:381|373:379,1,49.5000015106202,10|0,1:2|0:0,0:0:0:0:
293,369,115337,38,0,P|239:344|220:288,1,121.499996292114,2|0,1:2|0:0,0:0:0:0:
219,271,115781,2,0,P|191:242|152:236,1,80.9999975280763,2|8,1:2|1:2,0:0:0:0:
81,74,116226,2,0,L|73:113,1,40.4999987640381,2|0,0:0|0:0,0:0:0:0:
10,213,116448,70,0,P|41:206|76:201,1,67.5000025749208,2|0,1:2|0:0,0:0:0:0:
201,70,116670,1,2,0:0:0:0:
172,111,116781,1,8,0:2:0:0:
194,154,116892,2,0,P|227:159|260:167,1,67.5000025749208,10|0,1:2|0:0,0:0:0:0:
337,190,117115,1,2,1:2:0:0:
426,80,117337,53,2,0:0:0:0:
426,80,117559,2,0,P|459:73|492:68,1,67.5000025749208,0|0,1:2|0:0,0:0:0:0:
512,178,117781,2,0,P|465:184|423:193,1,90,10|0,1:2|0:0,0:0:0:0:
374,264,118115,1,2,0:0:0:0:
363,274,118226,38,0,P|348:336|396:378,1,135.000005149842,2|2,1:2|0:0,0:0:0:0:
203,353,118670,2,0,P|158:343|114:337,1,90,10|0,1:2|0:0,0:0:0:0:
71,263,119004,1,2,0:0:0:0:
60,253,119115,70,0,P|45:190|93:148,1,135.000005149842,2|2,1:2|0:0,0:0:0:0:
267,23,119559,2,0,P|257:67|251:111,1,90,10|0,1:2|0:0,0:0:0:0:
328,150,119892,1,2,0:0:0:0:
320,163,120003,54,0,P|296:186|264:197,1,67.5000025749208,2|0,1:2|0:0,0:0:0:0:
351,355,120226,1,2,0:0:0:0:
342,305,120337,1,8,0:2:0:0:
373,265,120448,2,0,B|414:275|441:246|426:241|456:215|503:230,1,135.000005149842,10|2,1:2|1:2,0:0:0:0:
494,226,120892,38,0,P|430:152|431:53,1,202.500007724762,2|0,0:2|0:0,0:0:0:0:
446,42,121337,2,0,P|379:32|312:20,1,135,10|2,1:2|0:0,0:0:0:0:
292,28,121781,70,0,P|271:55|265:88,1,67.5000025749208,2|0,1:2|0:0,0:0:0:0:
205,151,122003,2,0,P|187:127|179:99,1,58.4999973220826,2|0,0:2|0:0,0:0:0:0:
341,137,122226,2,0,P|325:156|303:167,1,49.5000015106202,10|0,1:2|0:0,0:0:0:0:
238,235,122448,54,0,P|177:243|118:255,1,121.499996292114,2|0,1:2|0:0,0:0:0:0:
112,238,122892,2,0,P|73:241|43:267,1,80.9999975280763,2|8,1:2|1:2,0:0:0:0:
199,362,123337,1,2,0:0:0:0:
213,359,123448,1,2,0:0:0:0:
228,357,123559,38,0,P|261:352|294:348,1,67.5000025749208,2|0,1:2|0:0,0:0:0:0:
512,315,123781,1,2,0:2:0:0:
462,324,123892,1,8,0:2:0:0:
433,286,124003,2,0,P|442:253|448:220,1,67.5000025749208,10|0,1:2|0:2,0:2:0:0:
348,57,124226,37,2,1:2:0:0:
348,57,124448,1,8,0:2:0:0:
348,57,124670,1,0,1:2:0:0:
172,159,124892,38,0,P|234:67|342:88,2,233.999989288331,14|10|10,1:2|1:2|1:2,0:0:0:0:
6,375,126226,1,10,1:2:0:0:
6,375,126670,69,10,1:2:0:0:
29,301,126892,1,8,0:2:0:0:
104,288,127115,1,10,1:2:0:0:
161,338,127337,1,8,0:2:0:0:
237,345,127559,1,10,1:2:0:0:
286,285,127781,1,8,0:2:0:0:
285,273,128003,5,10,1:2:0:0:
334,204,128226,1,8,0:2:0:0:
416,209,128448,1,10,1:2:0:0:
439,290,128670,1,8,0:2:0:0:
370,342,128892,69,10,1:2:0:0:
354,256,129115,1,8,0:2:0:0:
341,174,129337,1,10,1:2:0:0:
327,89,129559,1,10,0:2:0:0:
331,78,129781,5,8,1:2:0:0:
254,32,130003,1,8,0:2:0:0:
172,55,130226,1,8,1:2:0:0:
141,138,130448,70,0,L|52:122,1,90,10|8,0:2|1:2,0:0:0:0:
175,265,130892,1,10,0:2:0:0:
297,298,131115,1,10,1:2:0:0:
420,204,131337,6,0,L|434:115,1,90,10|8,0:2|1:2,0:0:0:0:
331,78,131781,1,8,0:2:0:0:
241,141,132003,1,8,1:2:0:0:
130,130,132226,1,8,0:2:0:0:
57,54,132448,1,10,1:2:0:0:
158,29,132670,1,10,0:2:0:0:
261,8,132892,1,10,1:2:0:0:
331,77,133115,69,10,0:2:0:0:
454,139,133337,1,8,1:2:0:0:
444,268,133559,1,8,0:2:0:0:
324,351,133781,1,8,1:2:0:0:
196,300,134003,1,8,0:2:0:0:
198,166,134226,2,0,L|91:149,1,107.999996704102,10|8,1:2|0:2,0:0:0:0:
0,383,134670,1,10,1:2:0:0:
101,301,134892,6,0,P|84:313|65:320,1,40.4999987640381,10|0,0:2|0:0,0:0:0:0:
53,230,135115,2,0,P|28:229|6:218,1,49.5000015106202,8|0,1:2|0:0,0:0:0:0:
69,147,135337,2,0,P|45:130|33:103,1,58.4999973220826,8|0,0:2|0:0,0:0:0:0:
141,104,135559,2,0,P|131:72|142:40,1,67.5000025749208,8|0,1:2|0:0,0:0:0:0:
284,59,135781,70,0,P|250:56|223:75,1,67.5000025749208,8|0,0:2|0:0,0:0:0:0:
251,156,136003,2,0,P|226:177|219:210,1,67.5000025749208,8|0,1:2|0:0,0:0:0:0:
295,247,136226,2,0,P|292:280|310:308,1,67.5000025749208,8|0,0:2|0:0,0:0:0:0:
389,285,136448,2,0,P|410:310|442:317,1,67.5000025749208,10|0,1:2|0:0,0:0:0:0:
512,131,136670,54,0,P|435:112|374:161,1,161.999995056153,6|0,1:2|0:0,0:0:0:0:
368,142,137115,2,0,P|431:96|509:109,1,161.999995056153,6|2,1:2|0:0,0:0:0:0:
294,201,137559,6,0,B|247:216|214:177|230:172|194:130|134:151,1,180,6|2,1:2|0:0,0:0:0:0:
133,151,138226,1,2,0:0:0:0:
409,6,138448,54,0,P|383:128|367:245,1,242.999992584229,6|0,1:2|0:0,0:0:0:0:
355,255,138892,1,2,1:2:0:0:
403,316,139003,1,2,0:0:0:0:
478,287,139115,6,0,P|479:253|467:222,1,67.5000025749208,10|0,1:2|0:0,0:0:0:0:
512,154,139337,2,0,P|492:144|470:141,1,45,2|0,0:0|0:0,0:0:0:0:
346,108,139559,2,0,P|345:142|357:173,1,67.5000025749208,2|0,1:2|0:0,0:0:0:0:
312,241,139781,2,0,P|332:251|354:254,1,45,2|0,0:0|0:0,0:0:0:0:
328,372,140003,2,0,P|306:373|284:380,1,45,10|0,1:2|0:0,0:0:0:0:
108,332,140226,1,2,1:2:0:0:
192,384,140448,54,0,L|204:318,1,67.5000025749208,2|0,0:2|0:0,0:0:0:0:
143,210,140670,2,0,P|122:184|90:174,1,67.5000025749208,2|0,1:2|0:0,0:0:0:0:
35,257,140892,1,8,1:2:0:0:
35,257,141115,2,0,L|168:236,1,135.000005149842,2|0,0:2|1:2,0:0:0:0:
125,23,141559,5,2,0:0:0:0:
148,99,141670,1,8,0:2:0:0:
224,76,141781,1,10,1:2:0:0:
130,11,142003,6,0,B|102:33|102:33|256:5|256:5|281:29|311:30,1,242.999992584229,6|0,1:2|0:0,0:0:0:0:
312,22,142448,1,2,0:0:0:0:
388,39,142559,1,2,0:0:0:0:
404,114,142670,54,0,B|383:231|383:231|380:233|380:233|367:312,1,202.500007724762,10|0,1:2|0:0,0:0:0:0:
377,319,143115,2,0,P|344:325|322:349,1,67.5000025749208,2|0,1:2|0:0,0:0:0:0:
250,296,143337,2,0,P|246:267|259:242,1,58.4999973220826,2|0,0:2|0:0,0:0:0:0:
164,331,143559,2,0,P|175:353|195:367,1,49.5000015106202,10|0,1:2|0:0,0:0:0:0:
0,245,143781,6,0,P|36:185|134:209,1,161.999995056153,2|0,1:2|0:0,0:0:0:0:
404,114,144226,2,0,P|328:125|285:61,1,161.999995056153,2|8,1:2|1:2,0:0:0:0:
89,33,144670,2,0,P|107:114|119:192,1,161.999995056153,2|0,0:0|1:2,0:0:0:0:
319,347,145115,5,2,0:0:0:0:
296,271,145226,1,8,0:2:0:0:
220,294,145337,1,10,1:2:0:0:
319,362,145559,54,0,B|316:254|428:235|483:284|445:360|411:338,1,242.999992584229,6|0,1:2|0:0,0:0:0:0:
412,344,146003,1,2,1:2:0:0:
430,260,146115,1,2,0:0:0:0:
445,177,146226,6,0,P|450:142|456:110,1,67.5000025749208,10|0,1:2|0:0,0:0:0:0:
512,52,146448,2,0,P|495:38|473:32,1,45,2|0,0:0|0:0,0:0:0:0:
297,0,146670,2,0,P|302:35|308:67,1,67.5000025749208,2|0,1:2|0:0,0:0:0:0:
364,125,146892,2,0,P|347:139|325:145,1,45,2|0,0:0|0:0,0:0:0:0:
283,219,147115,2,0,P|261:215|239:210,1,45,10|0,1:2|0:0,0:0:0:0:
64,174,147337,1,2,1:2:0:0:
175,136,147559,6,0,P|204:119|237:122,1,67.5000025749208,2|0,0:0|0:0,0:0:0:0:
167,257,147781,2,0,P|133:259|104:243,1,67.5000025749208,2|0,0:0|0:0,0:0:0:0:
350,375,148003,1,8,1:2:0:0:
349,375,148226,54,0,P|370:370|393:366,1,45,2|0,0:0|0:0,0:0:0:0:
380,280,148448,2,0,P|358:284|335:288,1,45,2|0,1:2|0:0,0:0:0:0:
175,136,148670,5,2,0:2:0:0:
145,61,148781,1,8,0:2:0:0:
71,91,148892,1,10,1:2:0:0:
181,149,149115,6,0,B|255:169|323:120|309:60|309:60|300:94|270:112,1,242.999992584229,6|0,1:2|0:0,0:0:0:0:
329,124,149559,2,0,P|362:116|395:112,1,67.5000025749208,2|0,1:2|0:0,0:0:0:0:
472,101,149781,2,0,L|480:57,1,45,8|0,1:2|0:0,0:0:0:0:
512,236,150003,54,0,P|479:244|446:248,1,67.5000025749208,2|0,0:2|0:0,0:0:0:0:
369,259,150226,2,0,L|361:303,1,45,0|0,1:2|0:0,0:0:0:0:
218,383,150448,6,0,P|210:350|206:317,1,67.5000025749208,2|0,0:2|0:0,0:0:0:0:
195,240,150671,2,0,L|151:232,1,45,8|0,1:2|0:0,0:0:0:0:
0,173,150892,6,0,B|34:143|27:97|27:97|43:142|119:163,1,161.999995056153,2|0,1:2|0:0,0:0:0:0:
344,98,151337,2,0,B|310:68|317:22|317:22|301:67|225:88,1,161.999995056153,2|8,1:2|1:2,0:0:0:0:
352,264,151781,2,0,P|429:247|511:235,1,161.999995056153,2|8,0:0|1:3,0:0:0:0:
166,347,152226,53,10,0:2:0:0:
236,384,152337,1,8,0:2:0:0:
273,314,152448,1,10,1:2:0:0:
164,332,152670,6,0,P|122:225|8:223,1,242.999992584229,6|0,1:2|0:0,0:0:0:0:
8,239,153115,2,0,P|-1:259|0:281,2,45.0000017166138,0|0|0,1:2|3:0|3:0,0:0:0:0:
96,171,153337,2,0,P|88:149|71:135,5,45.0000017166138,10|0|0|0|0|0,1:2|3:0|3:0|3:0|3:0|3:0,0:0:0:0:
175,86,153781,6,0,P|197:78|211:61,2,45.0000017166138,2|0|0,1:2|3:0|3:0,0:0:0:0:
280,166,154003,2,0,P|262:150|240:147,2,45.0000017166138,2|0|0,3:2|3:0|3:0,0:0:0:0:
297,33,154226,2,0,P|292:56|300:76,2,45.0000017166138,10|0|0,1:2|3:0|3:0,0:0:0:0:
388,137,154448,54,0,P|300:182|279:277,1,202.500007724762,2|0,1:2|0:0,0:0:0:0:
267,286,154892,2,0,P|247:295|225:294,2,45.0000017166138,0|0|0,1:2|3:0|3:2,0:0:0:0:
333,351,155115,2,0,P|355:343|369:326,5,45.0000017166138,10|0|0|0|0|0,1:2|3:0|3:0|0:0|0:0|0:0,0:0:0:0:
458,314,155559,6,0,P|453:292|440:275,2,45.0000017166138,2|0|0,1:2|3:0|3:2,0:0:0:0:
358,212,155781,5,2,0:0:0:0:
388,137,155892,1,8,0:2:0:0:
462,167,156003,1,10,1:2:0:0:
353,223,156226,54,0,P|258:188|157:187,1,202.500007724762,6|0,1:2|0:0,0:0:0:0:
144,181,156670,2,0,P|123:173|108:156,2,45.0000017166138,0|0|0,1:2|3:0|3:0,0:0:0:0:
57,229,156892,2,0,P|35:237|21:254,5,45.0000017166138,10|0|0|0|0|0,1:2|3:0|3:0|0:0|0:0|0:0,0:0:0:0:
58,325,157337,6,0,P|72:341|93:349,2,45.0000017166138,2|0|0,1:2|3:0|3:0,0:0:0:0:
167,370,157559,2,0,P|189:367|207:354,2,45.0000017166138,2|0|0,3:2|3:0|3:0,0:0:0:0:
267,306,157781,2,0,P|277:286|277:264,2,45.0000017166138,10|0|0,1:2|3:0|3:0,0:0:0:0:
224,191,158003,6,0,P|233:97|326:75,1,202.500007724762,2|0,1:2|0:0,0:0:0:0:
332,63,158448,1,0,1:2:0:0:
403,208,158670,1,10,1:2:0:0:
316,155,158892,2,0,L|249:143,1,67.5000025749208,6|0,1:2|0:0,0:0:0:0:
61,284,159115,54,0,L|105:276,1,45,8|0,0:3|0:0,0:0:0:0:
148,124,159337,1,8,0:2:0:0:
75,92,159448,1,8,0:2:0:0:
46,164,159559,1,10,1:2:0:0:
265,238,159781,54,0,L|254:305,1,67.5000025749208,6|0,1:2|0:0,0:0:0:0:
397,344,160003,2,0,P|379:313|348:295,2,72,2|2|2,0:2|0:0|1:2,0:0:0:0:
485,284,160670,1,2,0:0:0:0:
486,267,160781,1,2,0:0:0:0:
487,250,160892,2,0,P|481:216|468:137,1,108,2|2,1:2|0:0,0:0:0:0:
476,127,161337,1,0,1:2:0:0:
401,34,161559,2,0,P|349:31|315:70,1,107.999996704102,2|0,0:0|1:2,0:0:0:0:
202,153,162003,5,2,0:0:0:0:
177,157,162115,1,2,0:0:0:0:
155,162,162226,2,0,L|119:155,1,36,2|0,1:2|0:0,0:0:0:0:
63,65,162448,1,2,0:0:0:0:
78,51,162559,1,2,0:0:0:0:
99,50,162670,2,0,L|205:68,1,108,2|2,1:2|0:0,0:0:0:0:
217,55,163115,1,0,1:2:0:0:
315,70,163337,2,0,P|367:66|401:105,1,107.999996704102,2|0,0:0|1:2,0:0:0:0:
374,307,163781,69,2,0:0:0:0:
331,149,164004,1,2,1:2:0:0:
488,192,164226,1,2,0:0:0:0:
396,221,164448,2,0,L|289:241,1,108,2|2,1:2|0:2,0:0:0:0:
277,235,164892,1,0,1:2:0:0:
149,303,165115,2,0,P|97:299|63:338,1,107.999996704102,2|0,0:0|1:2,0:0:0:0:
19,225,165559,6,0,P|0:195|0:159,1,72,0|0,0:0|1:2,0:0:0:0:
216,161,166003,2,0,P|147:148|82:138,2,135.000005149842,2|2|2,0:0|1:2|0:0,0:0:0:0:
273,309,166670,2,0,P|338:298|383:249,1,135.000005149842,2|0,1:2|0:0,0:0:0:0:
504,369,167115,69,10,1:2:0:0:
448,317,167337,1,8,0:2:0:0:
419,245,167559,1,10,1:2:0:0:
427,166,167781,1,8,0:2:0:0:
433,155,168003,5,10,1:2:0:0:
390,87,168226,1,8,0:2:0:0:
313,65,168448,1,10,1:2:0:0:
66,184,168670,69,8,0:2:0:0:
160,178,168892,1,10,1:2:0:0:
251,171,169115,1,8,0:2:0:0:
341,164,169337,1,10,1:2:0:0:
433,155,169559,1,8,0:2:0:0:
193,190,169781,5,10,1:2:0:0:
256,121,170003,1,8,0:2:0:0:
289,209,170226,1,10,1:2:0:0:
223,295,170448,69,8,0:2:0:0:
366,121,170670,1,10,1:2:0:0:
145,81,170892,1,8,0:2:0:0:
415,271,171115,6,0,L|349:283,1,67.5000025749208,10|0,1:2|0:0,0:0:0:0:
252,356,171337,2,0,L|223:295,1,67.5000025749208,10|0,1:2|0:0,0:0:0:0:
100,225,171559,2,0,L|152:182,1,67.5000025749208,10|0,1:2|0:0,0:0:0:0:
198,42,171781,2,0,L|254:81,1,67.5000025749208,10|0,1:2|0:0,0:0:0:0:
399,79,172003,2,0,L|377:143,1,67.5000025749208,10|0,1:2|0:0,0:0:0:0:
406,287,172226,70,0,L|367:295,1,40.4999987640381,6|0,1:2|0:0,0:0:0:0:
485,273,172670,1,10,1:2:0:0:
339,371,172892,1,4,1:3:0:0:
217,244,173115,6,0,B|62:217|62:217|50:239|13:252,1,202.500007724762,6|0,1:2|0:0,0:0:0:0:
29,258,173559,1,10,0:2:0:0:
37,194,173670,1,8,0:2:0:0:
41,138,173781,1,10,0:2:0:0:
47,82,173892,1,8,0:2:0:0:
41,72,174003,38,0,B|18:52|18:52|173:80|173:80|189:57|219:52,1,242.999992584229,6|0,1:2|0:0,0:0:0:0:
227,61,174448,1,2,1:2:0:0:
300,30,174559,1,2,0:0:0:0:
375,55,174671,70,0,P|392:83|391:116,1,67.5000025749208,10|0,1:2|0:0,0:0:0:0:
324,157,174893,2,0,P|303:146|281:143,1,45,2|0,0:0|0:0,0:0:0:0:
418,208,175115,2,0,P|400:236|401:269,1,67.5000025749208,2|0,1:2|0:0,0:0:0:0:
469,310,175337,2,0,P|489:299|511:296,1,45,2|0,0:0|0:0,0:0:0:0:
389,372,175559,2,0,P|366:368|346:358,1,45,10|0,1:2|0:0,0:0:0:0:
231,260,175782,1,2,1:2:0:0:
261,343,176004,70,0,L|195:355,1,67.5000025749208,2|0,0:0|0:0,0:0:0:0:
0,285,176226,2,0,L|66:297,1,67.5000025749208,2|0,1:2|0:0,0:0:0:0:
128,149,176448,1,8,1:2:0:0:
128,149,176671,2,0,L|149:282,1,135.000005149842,2|0,0:2|1:2,0:0:0:0:
426,92,177115,21,2,0:0:0:0:
403,168,177226,1,8,0:2:0:0:
327,145,177337,1,10,1:2:0:0:
428,82,177559,70,0,B|360:58|312:113|338:127|291:182|217:161,1,242.999992584229,6|0,1:2|0:0,0:0:0:0:
212,152,178004,1,2,0:0:0:0:
169,86,178115,1,2,0:0:0:0:
237,44,178226,70,0,B|273:243,1,202.500007724762,10|0,1:2|0:0,0:0:0:0:
287,253,178670,2,0,P|320:247|342:223,1,67.5000025749208,2|0,1:2|0:0,0:0:0:0:
482,239,178893,2,0,P|456:226|428:230,1,58.4999973220826,2|0,0:2|0:0,0:0:0:0:
380,303,179115,2,0,P|371:325|376:350,1,49.5000015106202,10|0,1:2|0:0,0:0:0:0:
175,337,179337,22,0,B|211:317|271:329|286:365|286:365|266:351|233:351,1,161.999995056153,2|0,1:2|0:0,0:0:0:0:
434,141,179781,2,0,B|398:161|338:149|322:112|322:112|343:127|376:127,1,161.999995056153,2|8,1:2|1:2,0:0:0:0:
161,13,180226,2,0,L|1:41,1,161.999995056153,2|0,0:0|1:2,0:0:0:0:
99,224,180671,69,2,0:0:0:0:
23,201,180782,1,8,0:2:0:0:
0,277,180893,1,10,1:2:0:0:
102,213,181115,70,0,P|216:201|275:300,1,242.999992584229,6|0,1:2|0:0,0:0:0:0:
275,311,181559,1,2,1:2:0:0:
335,361,181671,1,2,0:0:0:0:
408,330,181782,22,0,P|413:295|419:263,1,67.5000025749208,10|0,1:2|0:0,0:0:0:0:
470,199,182004,2,0,P|490:189|512:189,1,45,2|0,0:0|0:0,0:0:0:0:
329,194,182226,2,0,P|324:159|318:127,1,67.5000025749208,2|0,1:2|0:0,0:0:0:0:
267,63,182448,2,0,P|246:53|224:53,1,45,2|0,0:0|0:0,0:0:0:0:
436,17,182670,2,0,P|431:38|426:61,1,45,10|0,1:2|0:0,0:0:0:0:
410,138,182893,1,2,1:2:0:0:
237,175,183115,70,0,P|221:204|222:237,1,67.5000025749208,2|0,0:0|0:0,0:0:0:0:
314,256,183337,2,0,P|329:226|328:193,1,67.5000025749208,2|0,0:0|0:0,0:0:0:0:
165,119,183559,1,8,1:2:0:0:
165,119,183781,70,0,P|143:114|121:111,1,45,2|0,0:0|0:0,0:0:0:0:
79,38,184004,2,0,P|101:34|123:31,1,45,2|0,1:2|0:0,0:0:0:0:
410,138,184226,21,2,0:2:0:0:
387,62,184337,1,8,0:2:0:0:
311,85,184448,1,10,1:2:0:0:
420,135,184671,70,0,P|397:247|379:374,1,242.999992584229,6|0,1:2|0:0,0:0:0:0:
394,376,185115,2,0,P|360:368|339:342,1,67.5000025749208,2|0,1:2|0:0,0:0:0:0:
272,300,185337,2,0,P|280:279|296:263,1,45,8|0,1:2|0:0,0:0:0:0:
420,135,185559,70,0,P|437:163|434:196,1,67.5000025749208,2|0,0:2|0:0,0:0:0:0:
507,230,185781,2,0,P|493:259|465:276,1,67.5000025749208,2|0,1:2|0:0,0:0:0:0:
276,177,186003,22,0,P|242:184|221:210,1,67.5000025749208,2|0,0:2|0:0,0:0:0:0:
154,253,186226,2,0,P|162:273|178:289,1,45,10|0,1:2|0:0,0:0:0:0:
264,343,186448,70,0,P|305:277|383:269,1,161.999995056153,2|0,1:2|0:0,0:0:0:0:
119,151,186892,2,0,P|77:84|0:76,1,161.999995056153,2|8,1:2|1:2,0:0:0:0:
304,17,187337,2,0,P|286:94|275:176,1,161.999995056153,2|8,0:0|1:3,0:0:0:0:
403,318,187782,69,10,0:2:0:0:
426,242,187893,1,8,0:2:0:0:
502,265,188004,1,8,1:2:0:0:
481,341,188115,1,8,0:2:0:0:
400,327,188226,54,0,P|359:332|320:340,1,80.9999975280763,2|0,1:2|0:0,0:0:0:0:
161,295,188448,2,0,P|163:281|172:269,2,30,8|8|8,0:2|0:2|0:2,0:0:0:0:
140,375,188670,5,4,1:2:0:0:
140,375,188892,22,0,B|159:310|94:258|92:287|29:231|50:165,1,242.999992584229,10|0,1:2|0:0,0:0:0:0:
39,153,189337,2,0,P|66:124|106:120,1,80.9999975280763,2|0,1:2|0:0,0:0:0:0:
259,37,189559,5,8,0:2:0:0:
214,73,189670,1,10,0:2:0:0:
221,128,189781,1,8,0:2:0:0:
268,162,189892,1,8,0:2:0:0:
326,146,190003,54,0,B|507:114|507:114|482:130|472:161,1,242.999992584229,6|0,1:2|0:0,0:0:0:0:
468,170,190448,5,2,1:2:0:0:
462,180,190559,1,2,0:0:0:0:
498,251,190670,6,0,P|512:281|510:314,1,67.5000025749208,10|0,1:2|0:0,0:0:0:0:
373,384,190892,2,0,P|358:353|360:320,1,67.5000025749208,2|2,0:0|0:0,0:0:0:0:
277,263,191115,2,0,P|235:257|211:252,1,67.5000025749208,2|0,1:2|0:0,0:0:0:0:
132,138,191337,53,8,0:2:0:0:
170,92,191448,1,10,0:2:0:0:
163,37,191559,1,8,0:2:0:0:
107,16,191670,1,8,0:2:0:0:
99,26,191781,6,0,P|81:136|54:264,1,242.999992584229,6|0,1:2|0:2,0:0:0:0:
66,272,192226,5,2,1:2:0:0:
76,278,192337,1,2,0:0:0:0:
114,348,192448,54,0,P|145:336|167:311,1,67.5000025749208,10|0,1:2|0:0,0:0:0:0:
254,270,192670,2,0,P|261:303|253:336,1,67.5000025749208,2|0,0:0|0:0,0:0:0:0:
333,226,192892,2,0,P|311:200|280:187,1,67.5000025749208,2|0,1:2|0:0,0:0:0:0:
326,71,193115,5,8,0:2:0:0:
386,65,193226,1,10,0:2:0:0:
447,61,193337,1,8,0:2:0:0:
507,55,193448,1,8,0:2:0:0:
512,46,193559,6,0,P|502:85|497:125,1,80.9999975280763,6|8,1:2|0:2,0:0:0:0:
474,249,193781,1,8,0:2:0:0:
408,203,193892,1,8,0:2:0:0:
333,226,194003,53,6,1:2:0:0:
320,289,194115,1,8,0:2:0:0:
266,317,194226,1,8,0:3:0:0:
209,291,194337,1,4,0:3:0:0:
197,238,194448,5,6,1:2:0:0:
206,213,194559,1,4,0:3:0:0:
204,188,194670,1,2,1:2:0:0:
189,169,194781,1,4,0:3:0:0:
166,160,194892,5,6,1:2:0:0:
132,163,195003,1,2,1:2:0:0:
80,132,195115,1,2,1:2:0:0:
75,52,195226,1,2,1:2:0:0:
166,26,195337,54,0,P|285:45|406:43,1,242.999992584229,6|0,1:2|0:0,0:0:0:0:
414,31,195781,2,0,B|448:14|448:14|406:24,1,80.9999975280763,2|0,1:2|0:0,0:0:0:0:
343,124,196003,2,0,P|324:151|320:185,1,67.5000025749208,10|0,1:2|0:0,0:0:0:0:
419,212,196226,2,0,P|437:184|441:150,1,67.5000025749208,2|2,0:2|0:0,0:0:0:0:
287,278,196448,2,0,P|317:270|353:265,1,67.5000025749208,2|0,1:2|0:0,0:0:0:0:
504,346,196670,5,8,0:2:0:0:
443,350,196781,1,10,0:2:0:0:
382,356,196892,1,8,0:2:0:0:
320,361,197003,1,8,0:2:0:0:
259,365,197115,6,0,P|256:243|219:128,1,242.999992584229,6|0,1:2|0:0,0:0:0:0:
210,120,197559,53,2,1:2:0:0:
200,114,197670,1,2,0:0:0:0:
153,47,197781,2,0,P|113:49|79:70,1,80.9999975280763,10|0,1:2|0:0,0:0:0:0:
24,129,198003,2,0,P|2:162|0:202,1,80.9999975280763,2|2,0:2|0:0,0:0:0:0:
12,278,198226,2,0,P|26:315|58:339,1,80.9999975280763,2|0,1:2|0:0,0:0:0:0:
235,259,198448,5,8,0:2:0:0:
199,211,198559,1,10,0:2:0:0:
149,245,198670,1,8,0:2:0:0:
240,268,198892,6,0,B|204:266|194:298|194:298|266:262|339:288|366:348,1,242.999992584229,6|0,1:2|0:0,0:0:0:0:
362,342,199337,53,2,1:2:0:0:
368,352,199448,1,2,0:0:0:0:
444,379,199559,2,0,P|470:349|480:310,1,80.9999975280763,10|0,1:2|0:0,0:0:0:0:
512,238,199781,2,0,P|503:198|476:169,1,80.9999975280763,2|0,0:0|0:0,0:0:0:0:
446,96,200003,2,0,P|408:80|369:85,1,80.9999975280763,2|0,1:2|0:0,0:0:0:0:
174,48,200226,5,8,0:2:0:0:
210,0,200337,1,10,0:2:0:0:
260,34,200448,1,8,0:2:0:0:
169,57,200670,6,0,B|205:55|215:87|215:87|143:51|70:77|43:137,1,242.999992584229,6|0,1:2|0:0,0:0:0:0:
11,199,201115,2,0,P|49:211|88:201,1,80.9999975280763,2|0,1:2|0:0,0:0:0:0:
270,291,201337,1,8,1:2:0:0:
270,291,201559,53,10,0:2:0:0:
247,367,201670,1,8,0:2:0:0:
171,344,201781,1,8,0:2:0:0:
371,176,202003,53,2,1:2:0:0:
372,191,202115,1,8,0:3:0:0:
374,206,202226,1,4,0:3:0:0:
375,222,202337,1,4,0:3:0:0:
403,304,202448,6,0,B|436:298|436:298|481:246|481:246|513:240,1,135.000005149842,6|0,1:2|0:0,0:0:0:0:
