osu file format v14

[General]
AudioFilename: audio.mp3
AudioLeadIn: 0
PreviewTime: 40842
Countdown: 0
SampleSet: Soft
StackLeniency: 0.7
Mode: 0
LetterboxInBreaks: 0
WidescreenStoryboard: 0

[Editor]
DistanceSpacing: 0.4
BeatDivisor: 4
GridSize: 32
TimelineZoom: 1.9

[Metadata]
Title:Hadaka no Yuusha (TV Size)
TitleUnicode:裸の勇者 (TV Size)
Artist:Vaundy
ArtistUnicode:Vaundy
Creator:Yereoz
Version:Yes, My King!
Source:王様ランキング
Tags:Asukow ousama ranking of king Yūsha yusha osama anime jrock j-rock j rock japanese male vocalist opening op 2 two
BeatmapID:3415712
BeatmapSetID:1672282

[Difficulty]
HPDrainRate:5
CircleSize:3.8
OverallDifficulty:8.4
ApproachRate:8.8
SliderMultiplier:1.77
SliderTickRate:1

[Events]
//Background and Video events
Video,580,"video.mp4"
0,0,"Ousama.Ranking.full.3511416.jpg",0,0
//Break Periods
//Storyboard Layer 0 (Background)
//Storyboard Layer 1 (Fail)
//Storyboard Layer 2 (Pass)
//Storyboard Layer 3 (Foreground)
//Storyboard Layer 4 (Overlay)
//Storyboard Sound Samples

[TimingPoints]
7064,368.098159509202,4,2,17,45,1,0
7064,-129.87012987013,4,2,17,45,0,0
18659,344.827586206897,4,2,17,45,1,0
18831,368.098159509202,4,2,17,60,1,0
18831,-103.092783505155,4,2,17,60,0,0
30610,-93.4579439252339,4,2,17,65,0,0
40916,370.37037037037,4,2,17,65,1,0
40916,-270.27027027027,4,2,17,65,0,0
41471,-270.27027027027,4,2,17,5,0,0
41656,-270.27027027027,4,2,17,65,0,0
42304,-270.27027027027,4,2,17,5,0,0
42397,370.37037037037,4,2,17,75,1,0
42397,-85.4700854700855,4,2,17,75,0,0
43878,363.636363636364,4,2,17,75,1,0
43878,-85.4700854700855,4,2,17,75,0,0
45332,370.37037037037,4,2,17,75,1,0
45332,-85.4700854700855,4,2,17,75,0,0
46813,365.853658536585,4,2,17,75,1,0
46813,-85.4700854700855,4,2,17,75,0,0
48276,372.670807453416,4,2,17,75,1,0
48276,-85.4700854700855,4,2,17,75,0,0
49766,368.098159509202,4,2,17,75,1,0
49766,-85.4700854700855,4,2,17,75,0,0
51238,365.853658536585,4,2,17,75,1,0
51238,-85.4700854700855,4,2,17,75,0,0
52701,363.636363636364,4,2,17,75,1,0
52701,-85.4700854700855,4,2,17,75,0,0
53428,375,4,2,17,75,1,0
53428,-85.4700854700855,4,2,17,75,0,0
54178,365.853658536585,4,2,17,75,1,0
54178,-85.4700854700855,4,2,17,75,0,0
57104,368.098159509202,4,2,17,75,1,0
57104,-85.4700854700855,4,2,17,75,0,0
61521,365.853658536585,4,2,17,75,1,0
61521,-85.4700854700855,4,2,17,75,0,0
62984,370.37037037037,4,2,17,75,1,0
62984,-85.4700854700855,4,2,17,75,0,0
64465,366.97247706422,4,2,17,75,1,0
64465,-85.4700854700855,4,2,17,75,0,0
65932,375,4,2,17,75,1,0
65932,-78.7401574803149,4,2,17,75,0,0
66307,363.636363636364,4,2,17,75,1,0
66307,-78.7401574803149,4,2,17,75,0,0
66670,370.37037037037,4,2,17,75,1,0
66670,-78.7401574803149,4,2,17,75,0,0
67410,370.37037037037,4,2,17,75,1,0
67410,-78.7401574803149,4,2,17,75,0,0
68891,365.853658536585,4,2,17,75,1,0
68891,-78.7401574803149,4,2,17,75,0,0
70354,372.670807453416,4,2,17,75,1,0
70354,-78.7401574803149,4,2,17,75,0,0
71844,365.853658536585,4,2,17,75,1,0
71844,-78.7401574803149,4,2,17,75,0,0
74770,368.098159509202,4,2,17,75,1,0
74770,-78.7401574803149,4,2,17,75,0,0
76242,371.517027863777,4,2,17,75,1,0
76242,-78.7401574803149,4,2,17,75,0,1
77728,368.098159509202,4,2,17,75,1,0
77728,-78.7401574803149,4,2,17,75,0,0
82145,359.281437125748,4,2,17,75,1,0
82145,-78.7401574803149,4,2,17,75,0,0

[Colours]
Combo1 : 255,66,66
Combo2 : 113,113,255
Combo3 : 121,255,121

[HitObjects]
4,81,7064,6,0,P|79:94|161:124,1,136.289997296494,2|0,3:2|0:2,0:2:0:0:
250,50,7616,2,0,P|227:122|206:207,1,136.289997296494,2|0,3:2|0:2,0:2:0:0:
173,319,8168,1,2,3:2:0:0:
173,319,8352,1,0,0:2:0:0:
274,286,8536,6,0,P|313:276|363:276,1,68.1449986482468,2|0,3:2|0:2,0:2:0:0:
246,188,8904,1,0,0:2:0:0:
329,131,9088,2,0,P|402:136|461:174,1,136.289997296494,2|0,3:2|0:2,0:2:0:0:
389,35,9640,1,2,3:2:0:0:
389,35,9824,1,0,0:2:0:0:
260,62,10008,6,0,P|191:75|118:87,1,136.289997296494,2|0,3:2|0:2,0:2:0:0:
246,188,10560,2,0,P|236:221|228:264,1,68.1449986482468,2|0,3:2|0:2,0:2:0:0:
207,376,10929,1,0,0:2:0:0:
126,274,11113,1,2,3:2:0:0:
126,274,11297,1,2,3:2:0:0:
0,311,11481,6,0,P|10:344|18:387,1,68.1449986482468,2|0,3:2|0:2,0:2:0:0:
16,376,11849,1,0,0:2:0:0:
126,274,12033,2,0,P|119:240|109:208,1,68.1449986482468,2|0,3:2|0:2,0:2:0:0:
66,59,12401,1,0,0:2:0:0:
150,99,12585,1,2,3:2:0:0:
234,139,12769,1,2,3:2:0:0:
344,66,12953,6,0,P|325:134|309:211,1,136.289997296494,2|0,3:2|0:2,0:2:0:0:
274,344,13505,1,2,3:2:0:0:
274,344,13873,1,0,0:2:0:0:
206,267,14057,1,2,3:2:0:0:
361,324,14241,1,2,3:2:0:0:
311,198,14425,6,0,P|374:174|462:166,1,136.289997296494,2|0,3:2|0:2,0:2:0:0:
425,344,14978,2,0,P|389:335|349:318,1,68.1449986482468,2|0,3:2|0:2,0:2:0:0:
206,267,15346,2,0,P|170:276|130:293,1,68.1449986482468,2|0,0:2|0:2,0:2:0:0:
20,370,15714,1,2,3:2:0:0:
39,249,15898,6,0,P|51:179|64:103,1,136.289997296494,2|0,3:2|0:2,0:2:0:0:
0,28,16450,2,0,P|59:2|145:43,1,136.289997296494,2|0,3:2|0:2,0:2:0:0:
190,115,17002,1,2,3:2:0:0:
190,115,17186,1,2,3:2:0:0:
63,83,17370,1,2,3:2:0:0:
127,232,17554,6,0,P|181:255|260:241,1,136.289997296494,2|0,0:2|0:2,0:2:0:0:
422,165,18106,2,0,P|405:225|386:310,1,136.289997296494,2|0,3:2|0:2,0:2:0:0:
332,139,18659,5,0,1:2:0:0:
338,123,18745,1,0,1:2:0:0:
343,107,18831,2,0,P|295:114|234:127,1,85.8450020303307,6|0,1:2|1:2,0:2:0:0:
417,263,19199,1,2,1:2:0:0:
304,321,19383,1,4,0:3:0:0:
304,321,19567,2,0,P|256:314|195:301,1,85.8450020303307,2|0,0:2|1:2,0:2:0:0:
50,373,19935,2,0,P|23:318|47:246,1,128.767503045496,6|0,0:3|0:2,0:2:0:0:
61,232,20303,5,2,0:2:0:0:
184,111,20487,1,4,0:3:0:0:
90,57,20671,2,0,P|38:43|0:47,1,85.8450020303307,2|0,1:2|1:2,0:2:0:0:
134,190,21039,2,0,P|189:202|283:164,1,128.767503045496,6|0,0:3|0:2,0:2:0:0:
273,159,21407,1,10,0:3:0:0:
285,122,21499,1,8,0:3:0:0:
312,95,21591,1,8,0:3:0:0:
348,83,21683,1,8,0:3:0:0:
386,89,21775,6,0,P|414:139|421:178,1,85.8450020303307,6|0,1:2|0:2,0:2:0:0:
484,316,22144,1,2,1:2:0:0:
391,360,22328,2,0,P|344:346|296:338,1,85.8450020303307,6|0,0:3|0:2,0:2:0:0:
142,288,22696,1,2,0:2:0:0:
206,375,22880,6,0,P|219:308|244:206,1,171.690004060661,6|0,0:3|1:2,0:2:0:0:
173,62,23432,1,4,0:3:0:0:
250,30,23616,2,0,P|295:35|351:51,1,85.8450020303307,2|0,0:2|1:2,0:2:0:0:
321,138,23984,2,0,P|276:133|220:117,1,85.8450020303307,6|0,0:3|0:2,0:2:0:0:
101,8,24352,2,0,P|96:65|89:115,1,85.8450020303307,6|0,0:3|0:2,0:2:0:0:
36,169,24628,5,0,1:2:0:0:
36,169,24720,2,0,P|80:188|140:171,1,85.8450020303307,6|0,1:2|0:2,0:2:0:0:
5,333,25088,1,0,1:2:0:0:
132,376,25272,2,0,P|221:363|303:334,1,171.690004060661,6|0,0:3|1:2,0:2:0:0:
342,160,25825,1,6,0:3:0:0:
245,219,26009,1,0,1:2:0:0:
395,334,26193,6,0,P|434:329|481:311,1,85.8450020303307,2|4,1:2|0:3,0:2:0:0:
421,238,26469,1,0,1:2:0:0:
421,238,26561,2,0,P|427:196|439:144,1,85.8450020303307,2|0,1:2|1:2,0:2:0:0:
245,219,26929,2,0,P|278:245|317:281,1,85.8450020303307,6|0,0:3|1:2,0:2:0:0:
322,87,27297,2,0,P|282:102|231:118,1,85.8450020303307,6|0,0:3|0:2,0:2:0:0:
254,22,27573,5,0,1:2:0:0:
254,22,27665,2,0,P|214:6|159:0,1,85.8450020303307,6|0,1:2|0:2,0:2:0:0:
286,149,28033,1,2,1:2:0:0:
167,210,28217,2,0,P|113:215|65:200,1,85.8450020303307,6|0,0:3|0:2,0:2:0:0:
177,79,28585,1,2,1:2:0:0:
79,36,28769,2,0,P|94:83|99:128,1,85.8450020303307,6|0,0:3|0:2,0:2:0:0:
119,367,29137,21,0,1:2:0:0:
66,268,29321,1,0,1:2:0:0:
235,302,29505,1,2,1:2:0:0:
293,135,29690,1,4,0:3:0:0:
167,210,29874,1,6,0:3:0:0:
367,289,30058,1,8,0:2:0:0:
422,80,30242,1,10,0:2:0:0:
231,68,30426,1,8,0:2:0:0:
420,212,30610,6,0,P|466:200|527:195,1,94.694997110138,6|2,1:2|0:2,0:2:0:0:
374,371,30978,1,8,0:2:0:0:
278,299,31162,2,0,P|261:218|333:121,1,189.389994220276,2|0,1:2|1:2,0:2:0:0:
420,28,31714,2,0,P|371:30|318:36,1,94.694997110138,10|0,0:2|1:2,0:2:0:0:
233,77,31990,5,0,1:2:0:0:
233,77,32082,2,0,P|184:59|136:49,1,94.694997110138,2|0,1:2|1:2,0:2:0:0:
13,221,32450,2,0,P|27:169|37:118,1,94.694997110138,10|0,0:2|0:2,0:2:0:0:
137,151,32726,1,0,1:2:0:0:
137,151,32818,2,0,P|123:203|113:254,1,94.694997110138,2|0,1:2|1:2,0:2:0:0:
9,358,33186,2,0,P|73:375|135:360,1,94.694997110138,10|0,0:2|0:2,0:2:0:0:
287,261,33555,5,6,1:2:0:0:
213,197,33739,1,0,1:2:0:0:
281,365,33923,1,8,0:2:0:0:
390,300,34107,2,0,P|423:251|374:125,1,189.389994220276,2|0,1:2|1:2,0:2:0:0:
512,45,34659,6,1,B|461:36|461:36|424:52|424:52|374:30|314:33,1,189.389994220276,10|0,0:2|0:2,0:2:0:0:
192,138,35211,1,0,1:2:0:0:
257,231,35395,2,0,P|331:225|363:207,1,94.694997110138,10|0,0:2|0:2,0:2:0:0:
348,216,35671,1,0,1:2:0:0:
348,216,35763,1,2,1:2:0:0:
258,85,35947,1,0,1:2:0:0:
171,217,36131,2,0,P|177:290|195:366,1,142.042495665207,10|0,0:2|0:2,0:2:0:0:
99,280,36499,6,1,P|47:263|5:255,1,94.694997110138,6|0,1:2|1:2,0:2:0:0:
42,363,36867,1,8,0:2:0:0:
184,207,37051,1,2,1:2:0:0:
184,207,37236,2,1,P|236:190|277:182,1,94.694997110138,2|0,0:2|1:2,0:2:0:0:
140,35,37604,2,1,P|128:88|114:128,1,94.694997110138,10|0,0:2|1:2,0:2:0:0:
222,67,37880,5,0,1:2:0:0:
222,67,37972,2,0,B|294:83|294:83|323:115|323:115|402:135,1,189.389994220276,6|8,1:2|0:2,0:2:0:0:
494,27,38524,1,0,1:2:0:0:
494,27,38616,1,0,1:2:0:0:
494,27,38708,2,0,P|435:23|391:43,1,94.694997110138,2|0,1:2|1:2,0:2:0:0:
512,125,39076,2,0,P|497:185|482:273,1,142.042495665207,10|0,0:2|0:2,0:2:0:0:
512,365,39444,6,0,P|460:377|406:332,1,94.694997110138,2|0,1:2|0:2,0:2:0:0:
424,359,39720,1,8,0:2:0:0:
424,359,39812,1,8,0:2:0:0:
361,210,39996,1,8,0:3:0:0:
361,210,40088,1,8,0:3:0:0:
361,210,40180,2,0,L|341:276,1,47.347498555069,8|8,0:2|0:2,0:2:0:0:
306,367,40364,2,0,P|252:365|217:329,1,94.694997110138,4|8,0:3|0:2,0:2:0:0:
220,306,40640,5,8,0:2:0:0:
220,268,40732,1,8,0:2:0:0:
201,236,40824,1,8,0:2:0:0:
167,219,40916,2,0,P|116:236|69:261,1,98.2350023983155,2|0,0:2|0:2,0:2:0:0:
19,68,41656,2,0,P|76:88|127:114,1,114.607502798035,2|0,0:2|0:2,0:2:0:0:
201,146,42397,6,0,P|257:132|338:117,1,103.545000394993,6|0,1:2|1:2,0:2:0:0:
490,138,42767,1,8,0:2:0:0:
332,17,42952,2,0,P|386:78|359:217,1,207.090000789986,2|0,1:2|1:2,0:2:0:0:
259,353,43508,2,0,P|314:362|382:378,1,103.545000394993,10|0,0:2|1:2,0:2:0:0:
390,289,43785,5,0,1:2:0:0:
390,289,43878,2,0,P|335:280|267:264,1,103.545000394993,2|0,1:2|1:2,0:2:0:0:
60,244,44241,2,0,P|37:312|50:373,1,103.545000394993,10|0,0:2|0:2,0:2:0:0:
158,256,44605,1,2,1:2:0:0:
43,94,44787,1,0,1:2:0:0:
165,112,44968,2,0,P|224:122|303:127,1,103.545000394993,10|0,0:2|0:2,0:2:0:0:
401,6,45332,6,0,P|372:77|360:233,1,207.090000789986,2|8,1:2|0:2,0:2:0:0:
482,361,45887,2,1,B|418:349|418:349|372:369|372:369|309:342|234:346,1,207.090000789986,2|0,1:2|1:2,0:2:0:0:
471,220,46443,1,8,0:2:0:0:
310,108,46628,1,2,1:2:0:0:
401,6,46813,6,0,P|462:7|522:30,1,103.545000394993,2|0,0:2|1:2,0:2:0:0:
358,223,47178,2,0,P|276:216|192:181,1,155.317500592489,10|0,0:2|0:2,0:2:0:0:
223,283,47544,2,0,P|151:289|78:319,1,103.545000394993,2|0,1:2|1:2,0:2:0:0:
256,117,47910,1,10,0:2:0:0:
256,117,48093,1,0,1:2:0:0:
49,17,48276,6,0,P|67:83|76:140,1,103.545000394993,6|0,1:2|1:2,0:2:0:0:
101,288,48648,1,8,0:2:0:0:
4,196,48835,2,0,B|41:206|84:211|84:211|128:246|128:246|176:251|236:266,1,207.090000789986,2|0,1:2|1:2,0:2:0:0:
343,115,49394,2,0,P|266:116|217:155,1,103.545000394993,10|0,0:2|1:2,0:2:0:0:
311,203,49673,5,0,1:2:0:0:
311,203,49766,2,0,P|309:264|293:336,1,103.545000394993,2|0,1:2|1:2,0:2:0:0:
495,209,50134,2,0,P|440:197|385:187,1,103.545000394993,10|0,0:2|0:2,0:2:0:0:
422,301,50502,1,2,1:2:0:0:
508,114,50686,1,0,1:2:0:0:
364,49,50870,2,0,P|310:57|218:93,1,103.545000394993,10|0,0:2|0:2,0:2:0:0:
35,174,51238,21,2,1:2:0:0:
189,282,51420,1,0,1:2:0:0:
264,73,51603,1,10,0:2:0:0:
84,59,51786,2,0,P|105:116|125:196,1,103.545000394993,2|0,1:2|0:2,0:2:0:0:
221,294,52152,1,8,0:2:0:0:
236,299,52244,1,8,0:2:0:0:
252,305,52335,2,0,P|267:250|286:198,1,103.545000394993,10|0,0:2|1:2,0:2:0:0:
447,24,52701,21,6,1:2:0:0:
397,164,52882,1,0,1:2:0:0:
251,90,53064,1,8,0:2:0:0:
345,272,53246,1,0,1:2:0:0:
496,169,53428,6,0,P|436:154|384:170,1,103.545000394993,2|8,1:2|0:3,0:2:0:0:
386,194,53709,1,8,0:3:0:0:
373,237,53803,1,8,0:3:0:0:
345,272,53896,1,8,0:3:0:0:
305,293,53990,1,8,0:3:0:0:
261,297,54084,1,8,0:3:0:0:
218,285,54178,6,0,P|158:261|101:247,1,103.545000394993,6|0,1:2|1:2,0:2:0:0:
175,75,54543,1,8,0:2:0:0:
28,159,54726,2,0,P|2:232|56:374,1,207.090000789986,2|0,1:2|1:2,0:2:0:0:
218,285,55275,2,0,P|233:227|254:169,1,103.545000394993,10|0,0:2|1:2,0:2:0:0:
199,106,55549,5,0,1:2:0:0:
199,106,55641,2,0,P|254:87|317:118,1,103.545000394993,2|0,1:2|1:2,0:2:0:0:
485,39,56007,2,0,P|431:28|365:15,1,103.545000394993,10|0,0:2|0:2,0:2:0:0:
512,189,56373,1,2,1:2:0:0:
390,116,56556,1,0,1:2:0:0:
411,223,56738,2,0,P|395:269|380:338,1,103.545000394993,10|0,0:2|1:2,0:2:0:0:
204,98,57104,6,0,P|220:144|235:213,1,103.545000394993,6|0,1:2|1:2,0:2:0:0:
278,384,57472,1,8,0:2:0:0:
349,284,57656,1,2,1:2:0:0:
148,313,57840,2,0,P|91:320|24:331,1,103.545000394993,2|0,0:2|1:2,0:2:0:0:
16,236,58116,1,0,1:2:0:0:
16,236,58208,2,0,P|73:229|140:218,1,103.545000394993,10|0,0:2|1:2,0:2:0:0:
289,63,58576,6,0,P|233:20|173:19,1,103.545000394993,2|0,0:2|1:2,0:2:0:0:
233,206,58944,2,0,P|288:179|338:162,1,103.545000394993,10|0,0:2|0:2,0:2:0:0:
138,86,59312,1,2,1:2:0:0:
138,86,59496,1,0,1:2:0:0:
233,206,59680,2,0,P|231:266|224:324,1,103.545000394993,10|0,0:2|1:2,0:2:0:0:
320,264,59956,5,0,1:2:0:0:
320,264,60048,2,0,P|374:297|428:316,1,103.545000394993,6|0,1:2|1:2,0:2:0:0:
317,155,60416,1,8,0:2:0:0:
449,87,60600,1,0,1:2:0:0:
341,27,60784,2,0,P|283:34|222:56,1,103.545000394993,2|0,0:2|1:2,0:2:0:0:
133,197,61153,2,0,P|204:212|258:191,1,103.545000394993,10|0,0:2|1:2,0:2:0:0:
233,205,61429,5,0,1:2:0:0:
233,205,61521,1,2,1:2:0:0:
89,81,61703,1,0,1:2:0:0:
5,203,61886,2,0,P|24:263|36:318,1,103.545000394993,10|0,0:2|0:2,0:2:0:0:
184,131,62252,1,2,1:2:0:0:
123,252,62435,1,0,1:2:0:0:
236,337,62618,2,0,P|287:315|348:294,1,103.545000394993,10|0,0:2|1:2,0:2:0:0:
354,96,62984,5,0,1:2:0:0:
264,55,63169,1,0,1:2:0:0:
428,168,63354,1,10,0:2:0:0:
242,241,63539,1,2,1:2:0:0:
444,332,63724,5,2,0:2:0:0:
294,171,63909,1,2,1:2:0:0:
348,379,64095,1,10,0:2:0:0:
504,211,64280,1,8,0:2:0:0:
504,211,64372,1,8,0:2:0:0:
504,211,64465,2,0,P|453:182|393:179,1,103.545000394993,2|8,1:2|0:3,0:2:0:0:
379,196,64740,5,8,0:2:0:0:
355,233,64832,1,10,0:2:0:0:
319,259,64924,1,8,0:2:0:0:
276,269,65015,1,8,0:2:0:0:
231,262,65107,1,8,0:2:0:0:
193,238,65198,6,0,P|182:182|174:123,1,103.545000394993,2|8,1:2|0:2,0:2:0:0:
168,94,65474,1,8,0:2:0:0:
148,60,65565,1,8,0:2:0:0:
116,38,65657,1,8,0:3:0:0:
77,32,65749,1,8,0:3:0:0:
40,44,65841,1,8,0:3:0:0:
11,70,65932,6,0,P|18:127|33:184,1,112.394999142494,6|0,1:2|1:2,0:2:0:0:
256,135,66307,2,0,P|249:78|234:21,1,112.394999142494,2|4,0:2|0:3,0:2:0:0:
150,217,66670,1,2,0:2:0:0:
336,157,66855,1,0,0:2:0:0:
190,322,67040,1,6,0:3:0:0:
367,342,67225,5,0,1:2:0:0:
367,342,67318,1,0,1:2:0:0:
367,342,67410,2,0,P|433:334|478:320,1,112.394999142494,2|4,1:2|0:3,0:2:0:0:
279,199,67780,1,2,1:2:0:0:
454,119,67965,1,0,1:2:0:0:
379,263,68150,1,6,0:3:0:0:
232,121,68335,1,0,0:2:0:0:
349,50,68521,2,0,P|396:31|474:27,1,112.394999142494,6|0,0:3|0:2,0:2:0:0:
454,119,68798,5,0,1:2:0:0:
454,119,68891,2,0,P|398:127|334:138,1,112.394999142494,6|0,1:2|1:2,0:2:0:0:
176,209,69256,1,2,1:2:0:0:
230,52,69439,2,0,P|238:108|249:172,1,112.394999142494,6|0,0:3|0:2,0:2:0:0:
333,308,69805,1,2,1:2:0:0:
230,363,69988,6,0,B|86:328|86:328|31:380,1,224.789998284988,6|0,0:3|0:2,0:2:0:0:
166,242,70540,1,6,0:3:0:0:
65,193,70726,2,0,P|74:244|83:303,1,112.394999142494,2|0,0:2|1:2,0:2:0:0:
53,114,71099,2,0,P|43:62|34:2,1,112.394999142494,2|0,0:3|1:2,0:2:0:0:
235,137,71472,1,6,0:3:0:0:
170,16,71658,1,0,0:2:0:0:
165,204,71844,6,0,P|210:233|277:201,1,112.394999142494,14|0,0:2|0:2,0:2:0:0:
433,154,72209,1,0,1:2:0:0:
321,83,72392,2,0,P|331:138|340:202,1,112.394999142494,6|0,0:3|0:2,0:2:0:0:
433,269,72758,1,0,1:2:0:0:
295,356,72941,6,1,B|359:344|359:344|405:364|405:364|468:337|543:341,1,224.789998284988,6|0,0:3|1:2,0:2:0:0:
335,256,73490,1,4,0:3:0:0:
335,256,73581,1,0,1:2:0:0:
335,256,73673,1,2,1:2:0:0:
426,158,73856,1,0,1:2:0:0:
282,51,74039,2,0,P|230:66|176:92,1,112.394999142494,6|0,0:3|1:2,0:2:0:0:
27,119,74404,2,0,P|81:134|133:160,1,112.394999142494,6|0,0:3|0:2,0:2:0:0:
181,239,74679,5,0,1:2:0:0:
181,239,74770,2,0,P|237:223|306:215,1,112.394999142494,14|0,0:2|1:2,0:2:0:0:
479,162,75138,1,2,1:2:0:0:
408,266,75322,2,0,P|393:210|365:139,1,112.394999142494,6|0,0:3|0:0,0:2:0:0:
265,96,75690,1,0,1:2:0:0:
382,26,75874,2,0,P|445:18|500:68,1,112.394999142494,10|0,0:2|0:2,0:2:0:0:
479,162,76242,53,2,1:2:0:0:
451,242,76427,1,8,0:2:0:0:
372,115,76613,1,6,0:3:0:0:
342,252,76799,1,0,1:2:0:0:
235,76,76985,1,10,0:2:0:0:
255,296,77170,1,8,0:2:0:0:
85,99,77356,1,10,0:2:0:0:
177,336,77542,1,8,0:2:0:0:
0,253,77728,6,0,P|2:200|14:140,1,112.394999142494,6|0,1:2|1:2,0:2:0:0:
128,21,78096,1,8,0:2:0:0:
191,179,78280,2,0,P|256:164|325:161,1,112.394999142494,2|0,1:2|0:2,0:2:0:0:
470,220,78648,1,0,1:2:0:0:
353,64,78832,6,0,P|387:137|335:267,1,224.789998284988,10|0,0:2|0:2,0:2:0:0:
212,346,79384,1,0,1:2:0:0:
363,376,79568,2,0,P|424:368|478:354,1,112.394999142494,10|0,0:2|0:2,0:2:0:0:
320,227,79936,1,2,1:2:0:0:
446,266,80120,1,0,1:2:0:0:
313,126,80304,1,8,0:2:0:0:
410,54,80488,1,0,1:2:0:0:
320,227,80672,6,0,P|256:231|207:204,1,112.394999142494,6|0,1:2|1:2,0:2:0:0:
138,60,81040,1,8,0:2:0:0:
39,138,81224,2,0,P|53:191|65:275,1,112.394999142494,2|0,1:2|0:2,0:2:0:0:
189,352,81593,1,0,1:2:0:0:
0,360,81777,2,0,P|65:345|134:342,1,112.394999142494,10|0,0:2|0:2,0:2:0:0:
164,184,82145,6,0,P|220:219|271:266,1,112.394999142494,2|0,1:2|0:2,0:2:0:0:
308,345,82414,1,8,0:2:0:0:
308,345,82504,2,0,P|383:359|447:297,1,168.592498713741,10|0,0:2|0:2,0:2:0:0:
447,261,82863,5,10,0:3:0:0:
421,238,82953,1,0,1:2:0:0:
403,210,83043,1,10,0:2:0:0:
393,178,83133,1,8,0:2:0:0:
392,144,83222,1,10,0:2:0:0:
400,112,83312,1,8,0:3:0:0:
417,83,83402,5,6,0:3:0:0:
