osu file format v14

[General]
AudioFilename: audio.mp3
AudioLeadIn: 0
PreviewTime: 40842
Countdown: 0
SampleSet: Soft
StackLeniency: 0.7
Mode: 0
LetterboxInBreaks: 0
WidescreenStoryboard: 1

[Editor]
DistanceSpacing: 1.6
BeatDivisor: 4
GridSize: 32
TimelineZoom: 1.9

[Metadata]
Title:Hadaka no Yuusha (TV Size)
TitleUnicode:裸の勇者 (TV Size)
Artist:Vaundy
ArtistUnicode:Vaundy
Creator:Yereoz
Version:Hard
Source:王様ランキング
Tags:Asukow ousama ranking of king Yūsha yusha osama anime jrock j-rock j rock japanese male vocalist opening op 2 two
BeatmapID:3415711
BeatmapSetID:1672282

[Difficulty]
HPDrainRate:4
CircleSize:3.6
OverallDifficulty:6
ApproachRate:7.2
SliderMultiplier:1.47
SliderTickRate:1

[Events]
//Background and Video events
0,0,"Ousama.Ranking.full.3511416.jpg",0,0
Video,580,"video.mp4"
//Break Periods
//Storyboard Layer 0 (Background)
//Storyboard Layer 1 (Fail)
//Storyboard Layer 2 (Pass)
//Storyboard Layer 3 (Foreground)
//Storyboard Layer 4 (Overlay)
//Storyboard Sound Samples

[TimingPoints]
7064,368.098159509202,4,2,17,45,1,0
7064,-129.87012987013,4,2,17,45,0,0
18659,344.827586206897,4,2,17,45,1,0
18831,368.098159509202,4,2,17,60,1,0
18831,-103.092783505155,4,2,17,60,0,0
30610,-103.092783505155,4,2,17,65,0,0
40916,370.37037037037,4,2,17,65,1,0
42397,370.37037037037,4,2,17,75,1,0
42397,-93.4579439252339,4,2,17,75,0,0
43878,363.636363636364,4,2,17,75,1,0
43878,-93.4579439252339,4,2,17,75,0,0
45332,370.37037037037,4,2,17,75,1,0
45332,-93.4579439252339,4,2,17,75,0,0
46813,365.853658536585,4,2,17,75,1,0
46813,-93.4579439252339,4,2,17,75,0,0
48276,372.670807453416,4,2,17,75,1,0
48276,-93.4579439252339,4,2,17,75,0,0
49766,368.098159509202,4,2,17,75,1,0
49766,-93.4579439252339,4,2,17,75,0,0
51238,365.853658536585,4,2,17,75,1,0
51238,-93.4579439252339,4,2,17,75,0,0
52701,363.636363636364,4,2,17,75,1,0
52701,-93.4579439252339,4,2,17,75,0,0
53428,375,4,2,17,75,1,0
53428,-93.4579439252339,4,2,17,75,0,0
54178,365.853658536585,4,2,17,75,1,0
54178,-93.4579439252339,4,2,17,75,0,0
57104,368.098159509202,4,2,17,75,1,0
57104,-93.4579439252339,4,2,17,75,0,0
61521,365.853658536585,4,2,17,75,1,0
61521,-93.4579439252339,4,2,17,75,0,0
62984,370.37037037037,4,2,17,75,1,0
62984,-93.4579439252339,4,2,17,75,0,0
64465,366.97247706422,4,2,17,75,1,0
64465,-93.4579439252339,4,2,17,75,0,0
65932,375,4,2,17,75,1,0
65932,-85.4700854700855,4,2,17,75,0,0
66307,363.636363636364,4,2,17,75,1,0
66307,-85.4700854700855,4,2,17,75,0,0
66670,370.37037037037,4,2,17,75,1,0
66670,-85.4700854700855,4,2,17,75,0,0
67410,370.37037037037,4,2,17,75,1,0
67410,-85.4700854700855,4,2,17,75,0,0
68891,365.853658536585,4,2,17,75,1,0
68891,-85.4700854700855,4,2,17,75,0,0
70354,372.670807453416,4,2,17,75,1,0
70354,-85.4700854700855,4,2,17,75,0,0
71844,365.853658536585,4,2,17,75,1,0
71844,-85.4700854700855,4,2,17,75,0,0
74770,368.098159509202,4,2,17,75,1,0
74770,-85.4700854700855,4,2,17,75,0,0
76242,371.517027863777,4,2,17,75,1,0
76242,-85.4700854700855,4,2,17,75,0,1
77728,368.098159509202,4,2,17,75,1,0
77728,-85.4700854700855,4,2,17,75,0,0
82145,359.281437125748,4,2,17,75,1,0
82145,-85.4700854700855,4,2,17,75,0,0

[Colours]
Combo1 : 255,66,66
Combo2 : 113,113,255
Combo3 : 121,255,121

[HitObjects]
16,65,7064,6,0,P|78:75|146:100,1,113.189997754715,2|0,3:2|0:2,0:2:0:0:
178,165,7616,2,0,P|238:172|302:159,1,113.189997754715,2|0,3:2|0:2,0:2:0:0:
373,125,8168,2,0,P|377:89|382:44,1,56.5949988773575,2|0,3:2|0:2,0:0:0:0:
471,2,8536,6,0,P|482:66|494:135,1,113.189997754715,2|0,3:2|0:2,0:2:0:0:
512,202,9088,2,0,P|459:212|381:231,1,113.189997754715,2|0,3:2|0:2,0:2:0:0:
333,284,9640,2,0,L|272:266,1,56.5949988773575,2|0,3:2|0:2,0:0:0:0:
171,232,10008,6,0,P|183:297|192:360,1,113.189997754715,2|0,3:2|0:2,0:2:0:0:
104,373,10560,2,0,P|51:365|18:318,1,113.189997754715,2|0,3:2|0:2,0:2:0:0:
51,235,11113,1,2,3:2:0:0:
51,235,11297,1,2,3:2:0:0:
0,129,11481,5,2,3:2:0:0:
0,129,12033,2,0,P|32:124|70:115,1,56.5949988773575,2|0,3:2|0:2,0:2:0:0:
148,104,12401,1,0,0:2:0:0:
148,104,12585,1,2,3:2:0:0:
206,32,12769,1,2,3:2:0:0:
292,99,12953,6,0,P|302:156|271:212,1,113.189997754715,2|0,3:2|0:2,0:2:0:0:
187,221,13505,2,0,P|149:201|67:203,1,113.189997754715,2|0,3:2|0:2,0:0:0:0:
9,262,14057,2,0,P|20:291|30:329,1,56.5949988773575,2|2,3:2|3:2,0:0:0:0:
138,362,14425,6,0,P|188:333|249:315,1,113.189997754715,2|0,3:2|0:2,0:2:0:0:
329,354,14978,2,0,P|361:359|390:366,1,56.5949988773575,2|0,3:2|0:2,0:2:0:0:
445,269,15346,2,0,P|413:274|384:281,1,56.5949988773575,2|0,0:2|0:2,0:2:0:0:
315,227,15714,1,2,3:2:0:0:
320,121,15898,6,0,P|380:102|456:87,1,113.189997754715,2|0,3:2|0:2,0:2:0:0:
512,36,16450,2,0,P|460:16|395:2,1,113.189997754715,2|0,3:2|0:2,0:2:0:0:
314,41,17002,1,2,3:2:0:0:
314,41,17186,1,2,3:2:0:0:
203,0,17370,6,0,P|165:64|198:170,1,169.784996632073,2|0,3:2|0:2,0:0:0:0:
251,227,18106,2,0,P|196:244|129:245,1,113.189997754715,2|0,3:2|0:2,0:2:0:0:
38,185,18659,5,0,1:2:0:0:
38,185,18745,1,0,1:2:0:0:
38,185,18831,2,0,P|49:143|57:104,1,71.2950016862069,6|0,1:2|1:2,0:2:0:0:
104,14,19199,1,2,1:2:0:0:
104,14,19383,1,4,0:3:0:0:
184,95,19567,2,0,P|226:86|279:78,1,71.2950016862069,2|0,0:2|1:2,0:2:0:0:
278,198,19935,2,0,P|236:189|183:181,1,71.2950016862069,6|0,0:3|0:0,0:2:0:0:
351,125,20303,5,2,0:2:0:0:
351,125,20487,1,4,0:3:0:0:
424,210,20671,2,0,P|419:247|412:286,1,71.2950016862069,2|0,1:2|1:2,0:2:0:0:
369,379,21039,2,0,P|321:375|271:354,1,71.2950016862069,6|0,0:3|0:0,0:2:0:0:
186,311,21407,2,0,L|203:263,3,35.6475008431034,10|8|8|8,0:3|0:3|0:3|0:3,0:0:0:0:
231,237,21775,6,0,P|226:200|219:161,1,71.2950016862069,6|0,1:2|0:2,0:2:0:0:
263,64,22144,1,2,1:2:0:0:
155,88,22328,2,0,P|120:84|83:74,1,71.2950016862069,6|0,0:3|0:2,0:2:0:0:
33,185,22696,1,2,0:2:0:0:
33,185,22880,6,0,B|40:226|40:226|28:257|28:257|46:298|45:347,1,142.590003372414,6|0,0:3|1:2,0:2:0:0:
142,381,23432,1,4,0:3:0:0:
238,311,23616,2,0,P|273:315|308:320,1,71.2950016862069,2|0,0:2|1:2,0:2:0:0:
335,204,23984,2,0,P|296:209|252:215,1,71.2950016862069,6|0,0:3|0:2,0:2:0:0:
124,208,24352,2,0,P|106:162|135:102,1,106.94250252931,6|0,0:3|1:2,0:2:0:0:
145,91,24720,6,0,P|179:94|215:100,1,71.2950016862069,6|0,1:2|0:2,0:2:0:0:
308,51,25088,1,0,1:2:0:0:
403,108,25272,2,0,P|389:185|378:273,1,142.590003372414,6|0,0:3|1:2,0:2:0:0:
403,360,25825,2,0,P|357:369|315:345,1,71.2950016862069,6|0,0:3|1:2,0:0:0:0:
263,252,26193,5,2,1:2:0:0:
263,252,26377,1,4,0:3:0:0:
380,248,26561,2,0,P|416:254|458:264,1,71.2950016862069,2|0,1:2|1:2,0:2:0:0:
510,157,26929,2,0,P|473:163|432:173,1,71.2950016862069,6|0,0:3|1:2,0:2:0:0:
337,112,27297,2,0,P|292:81|258:70,1,71.2950016862069,6|0,0:3|0:2,0:2:0:0:
240,72,27573,5,0,1:2:0:0:
240,72,27665,2,0,P|223:119|222:158,1,71.2950016862069,6|0,1:2|0:2,0:2:0:0:
263,252,28033,1,2,1:2:0:0:
159,292,28217,2,0,P|121:286|78:277,1,71.2950016862069,6|0,0:3|0:2,0:2:0:0:
7,186,28585,1,2,1:2:0:0:
7,186,28769,1,6,0:3:0:0:
135,131,28953,6,0,P|128:167|123:202,1,71.2950016862069,0|0,0:2|1:2,0:0:0:0:
107,342,29321,1,0,1:2:0:0:
107,342,29505,2,0,P|146:350|183:362,1,71.2950016862069,2|4,1:2|0:3,0:0:0:0:
278,289,29874,2,0,P|317:281|354:269,1,71.2950016862069,6|8,0:3|0:2,0:0:0:0:
462,336,30242,1,10,0:2:0:0:
462,336,30426,1,8,0:2:0:0:
493,203,30610,6,0,P|477:165|458:110,1,71.2950016862069,6|2,1:2|0:2,0:2:0:0:
456,11,30978,1,8,0:2:0:0:
360,77,31162,2,0,B|319:70|319:70|288:82|288:82|247:64|198:65,1,142.590003372414,2|0,1:2|1:2,0:2:0:0:
129,0,31714,2,0,P|99:7|57:19,1,71.2950016862069,10|0,0:2|1:2,0:2:0:0:
15,145,32082,6,0,P|24:174|35:216,1,71.2950016862069,2|0,1:2|1:2,0:2:0:0:
149,198,32450,2,0,P|141:227|130:269,1,71.2950016862069,10|0,0:2|0:2,0:2:0:0:
123,384,32818,1,2,1:2:0:0:
123,384,33002,1,0,1:2:0:0:
224,328,33186,2,0,P|269:325|338:363,1,106.94250252931,10|0,0:2|0:0,0:2:0:0:
355,381,33555,6,0,P|394:374|422:337,1,71.2950016862069,6|0,1:2|1:2,0:0:0:0:
460,223,33923,1,8,0:2:0:0:
460,223,34107,2,0,P|397:245|308:260,1,142.590003372414,2|0,1:2|1:2,0:2:0:0:
248,123,34659,6,1,B|303:132|303:132|325:155|325:155|397:168,1,142.590003372414,10|0,0:2|0:2,0:2:0:0:
512,162,35211,1,0,1:2:0:0:
440,58,35395,2,0,P|404:68|356:93,1,71.2950016862069,10|0,0:2|0:2,0:2:0:0:
323,205,35763,1,2,1:2:0:0:
323,205,35947,1,0,1:2:0:0:
220,113,36131,2,0,P|182:113|141:127,1,71.2950016862069,10|0,0:2|0:0,0:2:0:0:
119,149,36407,5,0,1:2:0:0:
119,149,36499,2,1,P|137:213|151:302,1,142.590003372414,6|8,1:2|0:2,0:2:0:0:
68,370,37051,1,2,1:2:0:0:
0,276,37236,2,1,P|9:238|16:199,1,71.2950016862069,2|0,0:2|1:2,0:2:0:0:
2,81,37604,2,1,P|40:90|79:97,1,71.2950016862069,10|0,0:2|1:2,0:2:0:0:
193,198,37972,6,0,P|249:179|322:167,1,106.94250252931,6|0,1:2|0:0,0:2:0:0:
342,166,38340,2,0,P|355:119|362:91,1,71.2950016862069,8|0,0:2|1:2,0:0:0:0:
444,12,38708,1,2,1:2:0:0:
444,12,38892,1,0,1:2:0:0:
505,129,39076,2,0,P|493:189|479:256,1,106.94250252931,10|0,0:2|0:2,0:2:0:0:
487,285,39444,6,0,P|444:288|404:284,1,71.2950016862069,2|0,1:2|0:2,0:2:0:0:
404,275,39720,1,8,0:2:0:0:
404,275,39812,1,8,0:2:0:0:
269,338,39996,1,8,0:3:0:0:
269,338,40088,1,8,0:3:0:0:
269,338,40180,2,0,L|279:293,3,35.6475008431034,8|8|4|8,0:2|0:2|0:3|0:3,0:2:0:0:
293,258,40548,2,0,L|283:213,3,35.6475008431034,8|8|8|8,0:2|0:2|0:2|0:2,0:0:0:0:
269,171,40916,5,2,0:2:0:0:
106,288,41656,1,2,0:2:0:0:
19,60,42397,6,0,L|119:84,1,78.6449975999451,6|0,1:2|1:2,0:2:0:0:
202,156,42767,1,8,0:2:0:0:
186,30,42952,2,0,P|196:81|114:170,1,157.28999519989,2|0,1:2|1:2,0:2:0:0:
39,240,43508,2,0,P|81:252|115:267,1,78.6449975999451,10|0,0:2|1:2,0:2:0:0:
253,318,43878,6,0,P|216:333|179:343,1,78.6449975999451,2|0,1:2|1:2,0:2:0:0:
229,215,44241,2,0,P|266:225|302:240,1,78.6449975999451,10|0,0:2|0:2,0:2:0:0:
400,350,44605,1,2,1:2:0:0:
400,350,44787,1,0,1:2:0:0:
506,269,44968,2,0,P|498:214|483:145,1,117.967496399918,10|0,0:2|0:0,0:2:0:0:
477,96,45332,6,0,B|381:79|417:163|306:130,1,157.28999519989,2|8,1:2|0:2,0:2:0:0:
220,74,45887,2,1,P|236:154|249:240,1,157.28999519989,2|0,1:2|1:2,0:2:0:0:
333,329,46443,1,8,0:2:0:0:
333,329,46628,1,2,1:2:0:0:
420,231,46813,6,0,P|381:218|329:213,1,78.6449975999451,2|0,0:2|1:2,0:2:0:0:
229,262,47178,2,0,P|184:278|101:276,1,117.967496399918,10|0,0:2|0:2,0:2:0:0:
68,265,47544,2,0,P|47:226|53:173,1,78.6449975999451,2|0,1:2|1:2,0:2:0:0:
137,104,47910,1,10,0:2:0:0:
137,104,48093,1,0,1:2:0:0:
22,6,48276,6,0,P|34:48|44:95,1,78.6449975999451,6|0,1:2|1:2,0:2:0:0:
130,201,48648,1,8,0:2:0:0:
236,121,48835,2,0,B|277:114|277:114|311:126|311:126|349:108|388:109,1,157.28999519989,2|0,1:2|1:2,0:2:0:0:
471,9,49394,2,0,P|486:50|481:94,1,78.6449975999451,10|0,0:2|1:2,0:2:0:0:
373,198,49766,6,0,P|382:245|387:282,1,78.6449975999451,2|0,1:2|1:2,0:2:0:0:
512,254,50134,2,0,P|503:207|498:170,1,78.6449975999451,10|0,0:2|0:2,0:2:0:0:
407,79,50502,1,2,1:2:0:0:
407,79,50686,1,0,1:2:0:0:
333,184,50870,2,0,P|294:174|257:162,1,78.6449975999451,10|0,0:2|0:2,0:2:0:0:
294,24,51238,6,0,P|255:34|218:46,1,78.6449975999451,2|0,1:2|1:2,0:0:0:0:
157,158,51603,1,10,0:2:0:0:
157,158,51786,1,2,1:2:0:0:
108,42,51969,2,0,P|56:32|5:61,1,78.6449975999451,0|8,0:2|0:2,0:0:0:0:
10,65,52244,1,8,0:2:0:0:
10,65,52335,2,0,P|18:112|23:150,1,78.6449975999451,10|0,0:2|1:2,0:2:0:0:
142,276,52701,5,6,1:2:0:0:
142,276,52882,1,0,1:2:0:0:
31,343,53064,1,8,0:2:0:0:
31,343,53246,1,0,1:2:0:0:
0,216,53428,2,0,P|60:225|129:240,1,117.967496399918,2|8,1:2|0:3,0:2:0:0:
168,219,53803,2,0,L|223:208,3,39.3224987999726,8|8|8|8,0:3|0:3|0:3|0:3,0:0:0:0:
262,227,54178,6,0,P|306:237|353:244,1,78.6449975999451,6|0,1:2|1:2,0:2:0:0:
467,226,54543,1,8,0:2:0:0:
378,320,54726,2,0,P|416:278|400:178,1,157.28999519989,2|0,1:2|1:2,0:2:0:0:
335,78,55275,2,0,P|380:62|435:62,1,78.6449975999451,10|0,0:2|1:2,0:2:0:0:
270,148,55641,6,0,P|231:143|194:129,1,78.6449975999451,2|0,1:2|1:2,0:2:0:0:
105,39,56007,2,0,P|90:75|86:114,1,78.6449975999451,10|0,0:2|0:2,0:2:0:0:
150,255,56373,1,2,1:2:0:0:
150,255,56556,1,0,1:2:0:0:
23,283,56738,2,0,P|37:237|52:198,1,78.6449975999451,10|0,0:2|1:2,0:2:0:0:
94,364,57104,6,0,P|130:350|171:343,1,78.6449975999451,6|0,1:2|1:2,0:2:0:0:
299,359,57472,1,8,0:2:0:0:
299,359,57656,1,2,1:2:0:0:
238,245,57840,2,0,P|249:197|257:153,1,78.6449975999451,2|0,0:2|1:2,0:2:0:0:
165,65,58208,2,0,P|203:34|239:16,1,78.6449975999451,10|0,0:2|1:2,0:2:0:0:
386,46,58576,6,0,P|437:51|485:73,1,78.6449975999451,2|0,0:2|1:2,0:2:0:0:
512,176,58944,2,0,P|474:187|435:190,1,78.6449975999451,10|0,0:2|0:2,0:2:0:0:
337,120,59312,1,2,1:2:0:0:
337,120,59496,1,0,1:2:0:0:
211,134,59680,2,0,P|168:125|122:120,1,78.6449975999451,10|0,0:2|1:2,0:2:0:0:
99,272,60048,6,0,P|137:280|176:285,1,78.6449975999451,6|0,1:2|1:2,0:2:0:0:
266,375,60416,1,8,0:2:0:0:
266,375,60600,1,0,1:2:0:0:
376,313,60784,2,0,P|426:328|471:329,1,78.6449975999451,2|0,0:2|1:2,0:2:0:0:
397,211,61153,2,0,P|390:168|378:123,1,78.6449975999451,10|0,0:2|1:2,0:2:0:0:
463,3,61521,5,2,1:2:0:0:
463,3,61703,1,0,1:2:0:0:
333,43,61886,2,0,P|292:31|246:28,1,78.6449975999451,10|0,0:2|0:2,0:2:0:0:
206,132,62252,2,0,P|245:128|282:116,1,78.6449975999451,2|0,1:2|1:2,0:0:0:0:
291,244,62618,2,0,P|253:231|214:227,1,78.6449975999451,10|0,0:2|1:2,0:2:0:0:
60,230,62984,5,0,1:2:0:0:
60,230,63169,2,0,P|47:184|34:152,1,78.6449975999451,0|10,1:2|0:2,0:0:0:0:
145,68,63539,1,2,1:2:0:0:
145,68,63724,2,0,P|130:104|120:142,1,78.6449975999451,2|2,0:2|1:2,0:0:0:0:
125,274,64095,2,0,P|178:310|234:295,1,117.967496399918,10|8,0:2|0:2,0:0:0:0:
260,281,64465,6,0,P|281:277|305:289,3,39.3224987999726,2|0|8|8,1:2|1:2|0:3|0:2,0:2:0:0:
315,324,64831,2,0,P|333:334|360:332,3,39.3224987999726,10|8|8|8,0:2|0:2|0:2|0:2,0:0:0:0:
391,312,65198,2,0,P|426:267|401:198,1,117.967496399918,2|8,1:2|0:2,0:2:0:0:
396,180,65565,2,0,P|387:158|386:134,3,39.3224987999726,8|8|8|8,0:2|0:3|0:3|0:3,0:0:0:0:
384,93,65932,6,0,P|335:78|289:80,1,85.9950003280449,6|0,1:2|1:2,0:2:0:0:
236,224,66307,2,0,P|278:222|319:209,1,85.9950003280449,2|4,0:2|0:3,0:2:0:0:
196,93,66670,1,2,0:2:0:0:
196,93,66855,1,0,0:2:0:0:
116,227,67040,2,0,P|72:221|26:198,1,85.9950003280449,6|0,0:3|1:2,0:0:0:0:
0,157,67318,5,0,1:2:0:0:
0,157,67410,2,0,P|16:98|17:63,1,85.9950003280449,2|4,1:2|0:3,0:2:0:0:
147,29,67780,1,2,1:2:0:0:
147,29,67965,1,0,1:2:0:0:
222,162,68150,2,0,P|215:209|204:261,1,85.9950003280449,6|0,0:3|0:2,0:0:0:0:
142,371,68521,2,0,P|184:361|226:357,1,85.9950003280449,6|0,0:3|0:2,0:2:0:0:
265,365,68798,5,0,1:2:0:0:
265,365,68891,2,0,P|282:325|288:283,1,85.9950003280449,6|0,1:2|1:2,0:2:0:0:
222,162,69256,1,2,1:2:0:0:
362,172,69439,2,0,P|409:178|454:181,1,85.9950003280449,6|0,0:3|0:2,0:2:0:0:
512,65,69805,1,2,1:2:0:0:
360,22,69988,6,0,B|367:67|367:67|354:102|354:102|374:148|373:192,1,171.99000065609,6|0,0:3|0:2,0:2:0:0:
329,323,70540,1,6,0:3:0:0:
463,369,70726,2,0,P|460:320|444:280,1,85.9950003280449,2|0,0:2|1:2,0:2:0:0:
510,162,71099,2,0,P|473:129|433:112,1,85.9950003280449,2|0,0:3|1:2,0:2:0:0:
358,238,71472,2,0,P|412:213|436:193,1,85.9950003280449,6|0,0:3|0:2,0:0:0:0:
300,84,71844,6,0,P|255:100|188:121,1,85.9950003280449,14|0,0:2|0:2,0:2:0:0:
84,163,72209,1,0,1:2:0:0:
118,29,72392,2,0,P|132:79|141:120,1,85.9950003280449,6|0,0:3|0:2,0:2:0:0:
131,255,72758,1,0,1:2:0:0:
258,357,72941,6,1,B|298:342|329:336|329:336|353:312|353:312|388:308|422:294,1,171.99000065609,6|0,0:3|1:2,0:2:0:0:
304,209,73490,1,4,0:3:0:0:
416,131,73673,2,0,P|404:184|398:230,1,85.9950003280449,2|0,1:2|1:2,0:0:0:0:
306,106,74039,2,0,P|299:63|289:21,1,85.9950003280449,6|0,0:3|1:2,0:2:0:0:
194,132,74404,1,6,0:3:0:0:
194,132,74587,1,0,0:2:0:0:
288,265,74770,6,0,P|246:253|199:245,1,85.9950003280449,14|0,0:2|1:2,0:2:0:0:
65,217,75138,1,2,1:2:0:0:
65,217,75322,1,6,0:3:0:0:
123,349,75506,2,0,P|163:337|208:330,1,85.9950003280449,0|0,0:0|1:2,0:0:0:0:
304,228,75874,2,0,P|264:216|219:209,1,85.9950003280449,10|0,0:2|0:2,0:2:0:0:
369,341,76242,6,0,P|381:294|390:250,1,85.9950003280449,2|8,1:2|0:2,0:0:0:0:
461,137,76613,1,6,0:3:0:0:
461,137,76799,1,0,1:2:0:0:
342,60,76985,1,10,0:2:0:0:
342,60,77170,1,8,0:2:0:0:
481,7,77356,1,10,0:2:0:0:
481,7,77542,1,8,0:2:0:0:
361,151,77728,6,0,P|374:199|382:259,1,85.9950003280449,6|0,1:2|1:2,0:2:0:0:
349,369,78096,1,8,0:2:0:0:
459,278,78280,2,0,P|410:312|298:281,1,171.99000065609,2|0,1:2|1:2,0:2:0:0:
241,162,78832,2,0,P|281:142|321:129,1,85.9950003280449,10|0,0:2|0:0,0:2:0:0:
208,258,79200,6,0,P|167:244|128:225,1,85.9950003280449,0|0,0:2|1:2,0:0:0:0:
8,159,79568,2,0,P|19:117|31:76,1,85.9950003280449,10|0,0:2|0:2,0:2:0:0:
152,142,79936,2,0,P|138:189|124:244,1,85.9950003280449,2|0,1:2|1:2,0:0:0:0:
60,345,80304,1,8,0:2:0:0:
60,345,80488,1,0,1:2:0:0:
217,376,80672,6,0,P|263:364|316:353,1,85.9950003280449,6|0,1:2|1:2,0:2:0:0:
444,332,81040,1,8,0:2:0:0:
321,276,81224,2,0,P|274:264|222:253,1,85.9950003280449,2|0,1:2|0:2,0:2:0:0:
356,182,81593,1,0,1:2:0:0:
232,108,81777,2,0,P|164:124|106:143,1,128.992500492067,10|0,0:2|0:0,0:2:0:0:
74,171,82145,6,0,P|57:225|98:272,1,85.9950003280449,2|0,1:2|0:2,0:2:0:0:
100,286,82414,1,8,0:2:0:0:
100,286,82504,2,0,P|164:295|236:313,1,128.992500492067,10|0,0:2|0:2,0:2:0:0:
268,309,82863,1,10,0:3:0:0:
268,309,82953,1,0,1:2:0:0:
268,309,83043,2,0,L|327:288,3,42.9975001640224,10|8|10|8,0:2|0:2|0:2|0:3,0:0:0:0:
380,262,83402,5,6,0:3:0:0:
