osu file format v14

[General]
AudioFilename: audio.mp3
AudioLeadIn: 0
PreviewTime: 40916
Countdown: 0
SampleSet: Soft
StackLeniency: 0.7
Mode: 0
LetterboxInBreaks: 0
WidescreenStoryboard: 1

[Editor]
Bookmarks: 54909
DistanceSpacing: 1.1
BeatDivisor: 4
GridSize: 32
TimelineZoom: 3.599999

[Metadata]
Title:Hadaka no Yuusha (TV Size)
TitleUnicode:裸の勇者 (TV Size)
Artist:Vaundy
ArtistUnicode:Vaundy
Creator:TangoZMango
Version:Normal
Source:王様ランキング
Tags:yusha osama ousama ranking of kings anime opening 2 two japanese rock jrock j rock j-rock male vocals singer Prince Bojji ボッジ kage カゲ queen hiling ヒリング daida ダイダ hakashii
BeatmapID:3481172
BeatmapSetID:1703137

[Difficulty]
HPDrainRate:3
CircleSize:3
OverallDifficulty:5
ApproachRate:6
SliderMultiplier:1
SliderTickRate:1

[Events]
//Background and Video events
0,0,"BG.jpg",0,0
Video,0,"video.mp4"
//Break Periods
//Storyboard Layer 0 (Background)
//Storyboard Layer 1 (Fail)
//Storyboard Layer 2 (Pass)
//Storyboard Layer 3 (Foreground)
//Storyboard Layer 4 (Overlay)
//Storyboard Sound Samples

[TimingPoints]
7064,368.098159509202,4,2,0,50,1,0
18659,344.827586206897,4,2,0,60,1,0
18831,368.098159509202,4,2,0,60,1,0
18831,-111.111111111111,4,2,0,60,0,0
30610,-105.263157894737,4,2,0,65,0,0
40916,370.37037037037,4,2,0,60,1,0
40916,-117.647058823529,4,2,0,60,0,0
40922,-117.647058823529,4,2,0,50,0,0
42397,-100,4,2,0,80,0,0
43878,363.636363636364,4,2,0,80,1,0
45332,370.37037037037,4,2,0,80,1,0
46813,365.853658536585,4,2,0,80,1,0
48276,372.670807453416,4,2,0,80,1,0
49766,368.098159509202,4,2,0,80,1,0
51238,365.853658536585,4,2,0,80,1,0
52701,363.636363636364,4,2,0,80,1,0
53428,375,4,2,0,80,1,0
54178,365.853658536585,4,2,0,80,1,0
57104,368.098159509202,4,2,0,80,1,0
61521,365.853658536585,4,2,0,80,1,0
62984,370.37037037037,4,2,0,80,1,0
64465,366.97247706422,4,2,0,80,1,0
65932,375,4,2,0,75,1,0
65932,-111.111111111111,4,2,0,75,0,0
66307,363.636363636364,4,2,0,75,1,0
66488,-111.111111111111,4,2,0,75,0,0
66670,370.37037037037,4,2,0,75,1,0
67410,370.37037037037,4,2,0,75,1,0
67780,-111.111111111111,4,2,0,75,0,0
68891,365.853658536585,4,2,0,75,1,0
68891,-111.111111111111,4,2,0,75,0,0
70354,372.670807453416,4,2,0,75,1,0
70726,-111.111111111111,4,2,0,75,0,0
71844,365.853658536585,4,2,0,75,1,0
71844,-111.111111111111,4,2,0,75,0,0
74770,368.098159509202,4,2,0,75,1,0
74770,-111.111111111111,4,2,0,75,0,0
76242,371.517027863777,4,2,0,75,1,0
76985,-111.111111111111,4,2,0,75,0,0
77728,368.098159509202,4,2,0,80,1,0
82145,359.281437125748,4,2,0,80,1,0

[Colours]
Combo1 : 130,153,221
Combo2 : 240,240,142
Combo3 : 113,225,116
Combo4 : 140,221,223

[HitObjects]
128,45,18831,6,0,P|142:111|148:147,1,90.0000000000001,4|2,1:0|2:3,0:0:0:0:
189,156,19383,2,0,P|175:222|169:258,1,90.0000000000001,0|0,1:0|3:0,0:0:0:0:
195,287,19935,1,2,2:3:0:0:
255,365,20303,5,0,1:2:0:0:
339,314,20671,1,2,2:3:0:0:
436,350,21039,2,0,P|479:329|493:274,1,90.0000000000001,0|2,1:2|2:3,0:0:0:0:
484,194,21775,6,0,P|469:154|448:94,1,90.0000000000001,4|2,1:0|2:3,0:0:0:0:
454,59,22327,2,0,P|414:40|357:13,1,90.0000000000001,0|0,1:0|3:0,0:0:0:0:
327,41,22880,2,0,P|285:55|225:77,1,90.0000000000001,2|0,2:3|1:0,0:0:0:0:
146,44,23616,1,2,2:3:0:0:
62,96,23984,1,0,1:0:0:0:
39,192,24352,1,2,2:3:0:0:
121,245,24720,6,0,P|164:219|221:220,1,90.0000000000001,4|2,1:0|2:3,0:0:0:0:
231,175,25272,2,0,P|281:173|330:203,1,90.0000000000001,0|0,1:0|1:0,0:0:0:0:
363,204,25824,2,0,P|367:257|372:306,1,90.0000000000001,2|0,2:3|1:2,0:0:0:0:
462,327,26561,1,2,2:3:0:0:
511,241,26929,1,0,3:2:0:0:
456,158,27297,6,0,L|476:90,1,45.0000000000001,2|0,2:3|3:0,0:0:0:0:
445,70,27665,2,0,L|331:82,1,90.0000000000001,4|2,1:0|2:3,0:0:0:0:
316,48,28217,2,0,L|226:38,1,90.0000000000001,0|0,1:0|1:0,0:0:0:0:
184,12,28769,1,2,2:3:0:0:
76,23,29137,1,0,1:0:0:0:
49,127,29505,1,8,2:3:0:0:
122,205,29873,6,0,L|116:256,1,45.0000000000001,4|4,2:3|2:3,0:0:0:0:
70,278,30242,2,0,L|76:329,1,45.0000000000001,0|0,1:2|3:0,0:0:0:0:
114,363,30610,2,0,P|164:373|230:346,1,94.9999999999998,4|8,1:0|2:0,0:0:0:0:
245,321,31162,2,0,L|263:203,1,94.9999999999998,0|0,1:0|1:0,0:0:0:0:
305,194,31714,2,0,P|350:183|396:193,1,94.9999999999998,8|0,2:0|1:2,0:0:0:0:
493,272,32450,5,8,2:0:0:0:
493,272,32634,1,0,1:0:0:0:
493,272,32818,2,0,L|505:176,1,94.9999974632264,0|10,3:2|2:0,0:0:0:0:
427,91,33554,6,0,P|379:85|326:77,1,94.9999999999998,4|8,1:0|2:0,0:0:0:0:
293,37,34107,2,0,P|245:43|198:49,1,94.9999999999998,0|0,1:0|1:0,0:0:0:0:
161,91,34659,2,0,P|137:88|113:84,1,47.4999999999999,8|0,2:0|3:0,0:0:0:0:
64,57,35027,1,0,1:2:0:0:
27,164,35395,1,10,2:0:0:0:
136,196,35763,1,2,1:2:0:0:
110,307,36131,1,8,2:0:0:0:
218,272,36499,6,0,P|281:282|345:321,1,94.9999999999998,4|8,1:0|2:0,0:0:0:0:
352,331,37051,1,0,1:0:0:0:
352,331,37235,2,0,P|403:293|476:275,1,94.9999999999998,2|10,3:2|2:0,0:0:0:0:
501,191,37972,2,0,L|513:88,1,94.9999999999998,0|8,1:0|2:0,0:0:0:0:
489,55,38524,5,0,2:0:0:0:
489,55,38708,2,0,L|386:43,1,94.9999999999998,2|10,1:2|2:0,0:0:0:0:
290,36,39444,1,0,1:2:0:0:
254,129,39812,1,0,1:0:0:0:
254,129,39996,1,8,2:0:0:0:
254,129,40180,2,0,L|244:187,2,47.4999999999999,8|8|8,0:3|2:3|2:0,0:0:0:0:
188,51,40916,2,0,L|-2:34,1,170.000000000001,2|2,1:2|2:0,0:0:0:0:
10,263,42397,6,0,P|53:293|130:290,1,100,6|8,1:2|2:0,0:0:0:0:
140,334,42952,1,0,1:0:0:0:
140,334,43137,2,0,P|191:324|243:268,1,100,0|10,3:0|2:0,0:0:0:0:
325,239,43878,2,0,L|334:169,1,50,2|0,1:2|3:0,0:0:0:0:
340,135,44241,1,10,2:0:0:0:
429,71,44605,2,0,L|435:120,1,50,2|0,1:2|3:0,0:0:0:0:
474,159,44968,2,0,L|480:208,1,50,10|0,2:2|3:0,0:0:0:0:
511,257,45332,2,0,L|495:364,1,100,0|8,1:0|2:0,0:0:0:0:
451,378,45887,1,0,1:0:0:0:
359,317,46257,6,0,L|310:323,1,50,0|8,1:2|2:0,0:0:0:0:
281,372,46628,1,2,3:2:0:0:
281,372,46813,2,0,L|179:358,1,100,2|10,1:2|2:0,0:0:0:0:
103,283,47544,2,0,L|85:210,1,50,2|0,1:2|3:2,0:0:0:0:
46,202,47910,2,0,L|34:153,1,50,10|0,2:0|3:2,0:0:0:0:
63,119,48276,6,0,P|106:80|183:101,1,100,6|8,1:2|2:0,0:0:0:0:
196,108,48835,1,0,1:0:0:0:
196,108,49021,2,0,P|247:100|311:93,1,100,0|10,3:0|2:0,0:0:0:0:
392,40,49766,2,0,L|405:99,1,50,2|0,1:2|3:0,0:0:0:0:
417,141,50134,1,10,2:0:0:0:
511,174,50502,2,0,L|498:233,1,50,2|0,1:2|3:0,0:0:0:0:
509,276,50870,2,0,L|496:335,1,50,10|0,2:0|3:2,0:0:0:0:
463,367,51238,2,0,L|343:349,1,100,0|8,1:0|2:0,0:0:0:0:
318,370,51786,1,0,1:0:0:0:
317,265,52152,5,0,1:0:0:0:
317,265,52335,2,0,L|258:259,1,50,10|0,2:0|3:0,0:0:0:0:
214,242,52701,2,0,P|199:180|226:124,1,100,2|8,1:2|2:0,0:0:0:0:
207,40,53428,2,0,P|228:13|255:0,1,50,2|0,1:2|1:2,0:0:0:0:
292,25,53803,2,0,L|360:21,1,50,8|8,2:0|2:0,0:0:0:0:
384,0,54178,6,0,L|501:15,1,100,6|8,1:2|2:0,0:0:0:0:
512,52,54726,1,0,1:0:0:0:
512,52,54909,2,0,L|497:169,1,100,0|10,3:0|2:0,0:0:0:0:
487,260,55641,2,0,L|428:305,1,50,2|0,1:2|3:0,0:0:0:0:
403,323,56007,1,10,2:0:0:0:
304,276,56373,2,0,L|231:291,1,50,2|0,1:2|3:0,0:0:0:0:
212,320,56738,2,0,L|139:335,1,50,10|0,2:0|3:0,0:0:0:0:
122,372,57104,5,0,1:0:0:0:
18,355,57472,1,8,2:0:0:0:
18,355,57656,1,0,1:0:0:0:
58,201,58208,1,10,2:0:0:0:
58,201,58392,1,0,3:0:0:0:
58,201,58576,2,0,L|74:132,1,50,2|0,1:2|3:0,0:0:0:0:
95,103,58944,2,0,L|67:-18,2,100,10|2|10,2:0|1:2|2:0,0:0:0:0:
187,154,60048,6,0,L|321:135,1,100,4|10,1:0|2:0,0:0:0:0:
313,110,60600,1,0,3:0:0:0:
313,110,60784,2,0,L|365:103,1,50,2|0,1:2|3:0,0:0:0:0:
417,99,61153,2,0,P|443:144|431:210,1,100,10|0,2:0|1:2,0:0:0:0:
393,289,61886,2,0,L|492:303,2,100,10|2|10,2:0|1:2|2:0,0:0:0:0:
330,200,62984,5,0,1:0:0:0:
330,200,63169,1,0,3:0:0:0:
330,200,63354,2,0,L|230:214,1,100,8|0,2:0|3:0,0:0:0:0:
184,196,63909,1,0,1:0:0:0:
184,196,64095,1,8,2:0:0:0:
77,242,64465,2,0,L|66:347,2,100,2|10|2,1:2|2:0|1:2,0:0:0:0:
73,135,65565,1,10,1:2:0:0:
155,69,65932,6,0,L|255:55,1,90.2399972534181,4|2,1:0|3:2,0:0:0:0:
267,13,66488,2,0,L|367:25,1,90.9899972534181,0|0,1:0|3:0,0:0:0:0:
391,59,67040,1,2,1:2:0:0:
403,161,67410,5,2,1:2:0:0:
403,161,67595,1,0,1:0:0:0:
403,161,67780,2,0,L|391:233,1,45.0000000000001,0|0,3:0|1:0,0:0:0:0:
421,247,68150,2,0,L|405:350,1,90.0000000000001,2|2,1:2|1:2,0:0:0:0:
310,307,68891,6,0,L|221:320,1,90.0000000000001,6|2,1:2|3:2,0:0:0:0:
181,350,69439,2,0,L|97:317,1,90.0000000000001,2|2,1:2|1:2,0:0:0:0:
48,305,69988,1,2,1:2:0:0:
27,209,70354,1,0,3:2:0:0:
101,144,70726,2,0,P|116:86|104:36,2,90.0000000000001,0|2|2,3:0|1:2|1:2,0:0:0:0:
190,201,71844,6,0,L|297:187,1,90.0000000000001,4|0,1:2|3:0,0:0:0:0:
299,144,72392,2,0,L|406:130,1,90.0000000000001,2|0,1:2|1:0,0:0:0:0:
420,94,72941,1,2,1:2:0:0:
501,150,73307,1,0,1:2:0:0:
445,232,73673,2,0,P|435:301|451:338,2,90.0000000000001,2|2|2,3:2|1:2|1:2,0:0:0:0:
350,258,74770,6,0,P|298:268|230:281,1,90.0000000000001,4|2,1:2|3:2,0:0:0:0:
230,313,75322,2,0,P|179:295|114:272,1,90.0000000000001,2|0,1:2|3:0,0:0:0:0:
96,293,75874,1,2,1:2:0:0:
32,218,76242,1,0,1:0:0:0:
82,133,76613,1,2,1:2:0:0:
181,136,76985,6,0,L|259:152,1,45.0000000000001,2|0,1:2|3:0,0:0:0:0:
263,114,77356,2,0,L|307:104,1,45.0000000000001,2|0,1:2|3:2,0:0:0:0:
338,58,77728,2,0,P|407:54|448:99,1,100,4|8,1:0|2:0,0:0:0:0:
455,118,78280,2,0,L|435:222,1,100,2|0,1:2|1:0,0:0:0:0:
390,246,78832,2,0,L|410:350,1,100,10|0,2:0|1:2,0:0:0:0:
305,324,79568,5,10,2:0:0:0:
305,324,79752,1,0,3:0:0:0:
305,324,79936,2,0,L|245:338,1,50,2|0,1:2|3:0,0:0:0:0:
202,325,80304,2,0,L|142:339,1,50,10|0,2:0|3:2,0:0:0:0:
95,324,80672,2,0,P|82:269|100:212,1,100,2|8,1:2|2:0,0:0:0:0:
140,203,81224,2,0,P|153:148|135:91,1,100,2|0,1:2|1:0,0:0:0:0:
108,64,81777,1,10,2:0:0:0:
202,2,82145,1,0,1:2:0:0:
266,90,82504,1,10,2:0:0:0:
372,61,82863,6,0,L|432:44,1,50,10|0,2:0|1:2,0:0:0:0:
473,59,83222,2,0,L|490:119,1,50,10|0,2:0|1:2,0:0:0:0:
482,162,83582,1,0,3:1:0:0:
