osu file format v14

[General]
AudioFilename: audio.mp3
AudioLeadIn: 0
PreviewTime: 40916
Countdown: 0
SampleSet: Soft
StackLeniency: 0.7
Mode: 0
LetterboxInBreaks: 0
WidescreenStoryboard: 0

[Editor]
DistanceSpacing: 1.2
BeatDivisor: 4
GridSize: 32
TimelineZoom: 2.4

[Metadata]
Title:Hadaka no Yuusha (TV Size)
TitleUnicode:裸の勇者 (TV Size)
Artist:Vaundy
ArtistUnicode:Vaundy
Creator:TangoZMango
Version:Courage
Source:王様ランキング
Tags:yusha osama ousama ranking of kings anime opening 2 two japanese rock jrock j rock j-rock male vocals singer Prince Bojji ボッジ kage カゲ queen hiling ヒリング daida ダイダ hakashii
BeatmapID:3479875
BeatmapSetID:1703137

[Difficulty]
HPDrainRate:6
CircleSize:4
OverallDifficulty:8.5
ApproachRate:9
SliderMultiplier:1.6
SliderTickRate:1

[Events]
//Background and Video events
0,0,"BG.jpg",0,0
Video,0,"video.mp4"
//Break Periods
//Storyboard Layer 0 (Background)
//Storyboard Layer 1 (Fail)
//Storyboard Layer 2 (Pass)
//Storyboard Layer 3 (Foreground)
//Storyboard Layer 4 (Overlay)
//Storyboard Sound Samples

[TimingPoints]
7064,368.098159509202,4,2,0,50,1,0
7064,-133.333333333333,4,2,0,50,0,0
18106,-181.818181818181,4,2,0,50,0,0
18659,344.827586206897,4,2,0,60,1,0
18831,368.098159509202,4,2,0,60,1,0
18831,-111.111111111111,4,2,0,60,0,0
21775,-90.9090909090908,4,2,0,60,0,0
22327,-111.111111111111,4,2,0,60,0,0
24720,-90.9090909090908,4,2,0,60,0,0
25272,-111.111111111111,4,2,0,60,0,0
27665,-90.9090909090908,4,2,0,60,0,0
28217,-111.111111111111,4,2,0,60,0,0
30610,-83.3333333333333,4,2,0,65,0,0
31162,-100,4,2,0,65,0,0
40916,370.37037037037,4,2,0,60,1,0
40916,-133.333333333333,4,2,0,60,0,0
40922,-133.333333333333,4,2,0,50,0,0
42397,-90.9090909090909,4,2,0,80,0,0
43878,363.636363636364,4,2,0,80,1,0
44241,-90.9090909090909,4,2,0,80,0,0
45332,370.37037037037,4,2,0,80,1,0
45887,-90.9090909090909,4,2,0,80,0,0
46813,365.853658536585,4,2,0,80,1,0
47178,-90.9090909090909,4,2,0,80,0,0
48276,372.670807453416,4,2,0,80,1,0
48276,-90.9090909090909,4,2,0,80,0,0
49766,368.098159509202,4,2,0,80,1,0
49766,-90.9090909090909,4,2,0,80,0,0
51238,365.853658536585,4,2,0,80,1,0
51786,-90.9090909090909,4,2,0,80,0,0
52701,363.636363636364,4,2,0,80,1,0
53428,375,4,2,0,80,1,0
54178,365.853658536585,4,2,0,80,1,0
54178,-76.9230769230769,4,2,0,80,0,0
54726,-90.9090909090909,4,2,0,80,0,0
57104,368.098159509202,4,2,0,80,1,0
57656,-90.9090909090909,4,2,0,80,0,0
60048,-76.9230769230769,4,2,0,80,0,0
60416,-90.9090909090909,4,2,0,80,0,0
61521,365.853658536585,4,2,0,80,1,0
61521,-90.9090909090909,4,2,0,80,0,0
62984,370.37037037037,4,2,0,80,1,0
62984,-90.9090909090909,4,2,0,80,0,0
64465,366.97247706422,4,2,0,80,1,0
65932,375,4,2,0,75,1,0
65932,-111.111111111111,4,2,0,75,0,0
66307,363.636363636364,4,2,0,75,1,0
66488,-111.111111111111,4,2,0,75,0,0
66670,370.37037037037,4,2,0,75,1,0
67040,-111.111111111111,4,2,0,75,0,0
67410,370.37037037037,4,2,0,75,1,0
67595,-111.111111111111,4,2,0,75,0,0
68891,365.853658536585,4,2,0,75,1,0
68891,-90.9090909090908,4,2,0,75,0,0
69439,-111.111111111111,4,2,0,75,0,0
70354,372.670807453416,4,2,0,75,1,0
70540,-111.111111111111,4,2,0,75,0,0
71844,365.853658536585,4,2,0,75,1,0
71844,-90.9090909090908,4,2,0,75,0,0
72392,-111.111111111111,4,2,0,75,0,0
74770,368.098159509202,4,2,0,75,1,0
74770,-90.9090909090908,4,2,0,75,0,0
75322,-111.111111111111,4,2,0,75,0,0
76242,371.517027863777,4,2,0,75,1,0
77728,368.098159509202,4,2,0,80,1,0
77728,-71.4285714285714,4,2,0,80,0,0
78280,-90.9090909090909,4,2,0,80,0,0
82145,359.281437125748,4,2,0,80,1,0
82145,-90.9090909090909,4,2,0,80,0,0

[Colours]
Combo1 : 130,153,221
Combo2 : 240,240,142
Combo3 : 113,225,116
Combo4 : 140,221,223

[HitObjects]
90,303,7064,6,0,P|55:310|24:318,1,60.0000000000002,0|0,3:0|2:0,0:0:0:0:
197,234,7432,1,2,2:0:0:0:
173,308,7616,2,0,B|167:234|140:266|134:180,1,120,0|0,3:0|3:0,0:0:0:0:
108,59,8168,1,2,2:0:0:0:
108,59,8352,1,2,2:0:0:0:
195,100,8536,6,0,P|266:88|332:83,1,120,0|2,3:0|2:0,0:0:0:0:
430,128,9088,2,0,P|436:78|441:56,1,60.0000022888184,0|0,3:0|2:0,0:0:0:0:
347,160,9456,1,0,3:0:0:0:
407,218,9640,1,2,2:0:0:0:
488,199,9824,1,0,3:0:0:0:
400,306,10008,6,0,P|329:294|263:289,1,120,0|2,3:0|2:0,0:0:0:0:
211,238,10560,2,0,P|174:244|138:247,1,60.0000000000002,0|0,3:0|2:0,0:0:0:0:
67,350,10929,1,0,3:0:0:0:
6,312,11113,1,2,2:0:0:0:
16,240,11297,1,0,2:0:0:0:
81,204,11481,2,0,B|91:142|116:165|129:84,1,120,0|2,3:0|2:0,0:0:0:0:
45,85,12033,2,0,P|39:55|36:25,1,60.0000000000002,0|0,3:0|2:0,0:0:0:0:
2,160,12401,1,0,3:0:0:0:
2,160,12585,1,2,2:0:0:0:
173,168,12769,5,2,2:0:0:0:
173,168,12953,2,0,P|248:152|314:141,1,120,0|2,3:0|2:0,0:0:0:0:
352,89,13505,2,0,P|381:94|411:97,1,60.0000000000002,0|0,3:0|2:0,0:0:0:0:
489,62,13873,1,0,3:0:0:0:
489,62,14057,1,2,2:0:0:0:
452,183,14241,5,2,2:0:0:0:
452,183,14333,1,2,2:0:0:0:
452,183,14425,2,0,P|432:259|445:322,1,120,0|2,3:0|2:0,0:0:0:0:
340,231,14978,2,0,P|310:227|256:220,1,60.0000000000002,0|0,3:0|2:0,0:0:0:0:
208,317,15346,5,0,3:0:0:0:
128,344,15530,1,2,2:0:0:0:
72,279,15714,1,0,3:0:0:0:
162,208,15898,6,0,P|170:150|166:73,1,120,0|2,3:0|2:0,0:0:0:0:
20,42,16450,2,0,P|18:101|26:161,1,120,0|0,3:0|3:0,0:0:0:0:
0,241,17002,1,2,2:0:0:0:
0,241,17186,1,2,2:0:0:0:
115,148,17370,5,8,2:3:0:0:
169,207,17554,1,4,2:3:0:0:
253,171,17738,1,4,3:0:0:0:
191,105,17922,1,4,2:3:0:0:
462,158,18106,5,4,3:0:0:0:
375,187,18290,1,4,2:3:0:0:
394,96,18475,1,4,2:3:0:0:
449,246,18659,5,0,3:0:0:0:
448,246,18745,1,0,3:0:0:0:
448,246,18831,2,0,P|441:282|434:331,1,72.0000000000001,4|0,1:0|3:0,0:0:0:0:
253,171,19199,1,2,2:3:0:0:
318,130,19383,1,0,1:0:0:0:
255,19,19567,2,0,P|249:54|243:90,1,72.0000000000001,0|0,3:0|3:0,0:0:0:0:
146,172,19935,2,0,P|70:159|-11:157,1,144,2|0,2:3|1:2,0:0:0:0:
112,0,20487,5,0,3:0:0:0:
164,57,20671,1,2,2:3:0:0:
88,73,20855,1,0,3:0:0:0:
146,172,21039,2,0,P|152:207|158:243,1,72.0000000000001,0|0,1:2|3:0,0:0:0:0:
330,339,21407,5,2,2:3:0:0:
370,362,21499,1,0,2:3:0:0:
416,355,21591,1,8,2:3:0:0:
450,322,21683,1,4,2:3:0:0:
442,280,21775,2,0,B|446:174|487:221|499:110,1,176,4|2,1:0|2:3,0:0:0:0:
362,6,22327,6,0,P|368:41|374:77,1,72.0000000000001,0|0,1:0|3:0,0:0:0:0:
358,280,22696,1,0,3:0:0:0:
302,230,22880,2,0,P|242:217|146:205,1,144,2|0,2:3|1:0,0:0:0:0:
34,76,23432,6,0,P|69:70|104:64,1,72.0000000000001,0|2,3:0|2:3,0:0:0:0:
154,2,23800,1,0,3:0:0:0:
230,116,23984,2,0,P|223:80|218:45,1,72.0000000000001,0|0,1:0|3:0,0:0:0:0:
46,163,24352,5,2,2:3:0:0:
21,193,24444,1,0,3:0:0:0:
20,232,24536,1,8,2:3:0:0:
45,262,24628,1,4,2:3:0:0:
85,274,24720,2,0,P|180:260|271:255,1,176,4|2,1:0|2:3,0:0:0:0:
445,46,25272,2,0,P|368:57|296:61,1,144,0|0,1:0|1:0,0:0:0:0:
484,186,25824,2,0,P|489:150|495:115,1,72.0000000000001,2|0,2:3|3:0,0:0:0:0:
402,215,26192,5,0,1:2:0:0:
468,271,26377,1,0,3:0:0:0:
386,300,26561,1,2,2:3:0:0:
484,186,26745,5,0,1:0:0:0:
303,307,26929,2,0,P|267:301|232:295,1,72.0000000000001,0|0,3:2|3:0,0:0:0:0:
6,270,27297,2,0,P|41:264|76:258,1,72.0000000000001,2|0,2:3|3:0,0:0:0:0:
148,337,27573,5,0,3:0:0:0:
153,325,27665,2,0,P|155:243|171:138,1,176,4|2,1:0|2:3,0:0:0:0:
371,28,28217,2,0,P|381:99|383:171,1,144,0|0,1:0|1:0,0:0:0:0:
442,227,28769,2,0,P|477:221|512:215,1,72.0000000000001,2|0,2:3|3:0,0:0:0:0:
396,292,29137,5,0,1:0:0:0:
343,357,29321,1,8,2:3:0:0:
313,278,29505,1,8,2:3:0:0:
124,282,29689,5,0,1:3:0:0:
259,166,29873,1,4,2:3:0:0:
133,153,30057,1,4,2:3:0:0:
218,320,30242,1,0,1:2:0:0:
45,194,30426,5,0,3:0:0:0:
27,165,30518,1,0,3:0:0:0:
39,131,30610,2,0,B|47:45|80:89|95:-2,1,144,4|0,1:0|2:0,0:0:0:0:
94,1,30978,5,8,2:0:0:0:
192,91,31162,2,0,P|229:85|381:73,1,160,0|0,1:0|1:0,0:0:0:0:
415,26,31714,1,8,2:0:0:0:
345,0,31898,1,0,3:0:0:0:
445,183,32082,6,0,P|429:121|423:89,1,80,0|0,1:2|3:0,0:0:0:0:
279,44,32450,1,8,2:0:0:0:
485,57,32634,1,0,1:0:0:0:
317,209,32818,5,0,3:2:0:0:
347,138,33002,1,0,1:0:0:0:
268,145,33186,2,0,P|206:161|174:166,1,80,10|0,2:0|3:0,0:0:0:0:
86,237,33462,5,0,3:0:0:0:
96,247,33554,2,0,P|178:263|259:286,1,160,4|8,1:0|2:0,0:0:0:0:
460,107,34107,2,0,P|378:91|297:68,1,160,0|0,1:0|1:0,0:0:0:0:
484,271,34659,6,0,P|494:216|509:162,1,80,8|0,2:0|3:0,0:0:0:0:
352,259,35027,2,0,P|361:297|368:337,1,80,0|0,1:2|3:0,0:0:0:0:
358,165,35395,5,10,2:0:0:0:
274,209,35579,1,0,3:0:0:0:
279,120,35763,1,2,1:2:0:0:
352,259,35947,5,0,3:0:0:0:
109,169,36131,2,0,P|149:161|188:152,1,80,8|0,2:0|3:2,0:0:0:0:
187,152,36407,5,0,3:0:0:0:
187,152,36499,1,4,1:0:0:0:
62,80,36683,1,0,1:0:0:0:
21,218,36867,1,8,2:0:0:0:
143,294,37051,1,0,1:0:0:0:
352,259,37235,6,0,P|313:250|273:242,1,80,2|0,3:2|1:0,0:0:0:0:
441,214,37604,2,0,P|449:175|457:135,1,80,10|0,2:0|3:0,0:0:0:0:
456,135,37880,5,0,3:0:0:0:
456,135,37972,1,0,1:0:0:0:
233,90,38156,1,0,1:0:0:0:
303,38,38340,2,0,P|310:77|318:116,1,80,8|0,2:0|2:0,0:0:0:0:
148,127,38708,5,2,1:2:0:0:
223,183,38892,1,0,1:2:0:0:
152,294,39076,2,0,P|143:254|136:215,1,80,10|0,2:0|1:2,0:0:0:0:
20,369,39444,2,0,L|115:354,1,80,0|8,1:2|2:3,0:0:0:0:
99,356,39720,1,0,3:0:0:0:
99,356,39812,1,0,1:0:0:0:
332,336,39996,5,8,2:0:0:0:
347,337,40088,1,8,2:3:0:0:
362,334,40180,1,8,0:3:0:0:
376,326,40272,1,8,0:0:0:0:
385,313,40364,2,0,L|393:273,1,40,8|0,2:3|3:0,0:0:0:0:
482,189,40548,2,0,L|474:150,1,40,8|0,2:0|2:3,0:0:0:0:
365,66,40732,5,0,1:0:0:0:
371,52,40824,1,0,1:0:0:0:
357,44,40916,2,0,B|299:32|235:104|259:106|285:109|225:182|150:163,1,240.000000000001,2|2,1:2|2:0,0:0:0:0:
86,267,42397,6,0,P|45:252|2:254,1,88,6|0,1:2|3:0,0:0:0:0:
236,381,42767,1,8,2:0:0:0:
139,384,42952,2,0,B|160:276|191:343|216:213,1,176,0|0,1:0|1:0,0:0:0:0:
378,169,43508,2,0,P|334:175|291:182,1,88,10|0,2:0|3:0,0:0:0:0:
434,227,43878,5,2,1:2:0:0:
239,121,44059,1,0,3:0:0:0:
452,232,44241,2,0,P|471:281|457:335,1,88,10|0,2:0|3:0,0:0:0:0:
210,197,44605,5,2,1:2:0:0:
416,96,44787,1,0,3:0:0:0:
138,42,44968,1,10,2:2:0:0:
231,310,45150,1,0,3:0:0:0:
77,301,45332,5,0,1:0:0:0:
152,261,45517,1,0,3:0:0:0:
147,348,45702,1,8,2:0:0:0:
79,215,45887,2,0,B|65:106|29:171|14:40,1,176,0|0,1:0|1:0,0:0:0:0:
75,3,46443,1,8,2:0:0:0:
309,85,46628,1,2,3:2:0:0:
172,131,46813,5,2,1:2:0:0:
184,50,46995,1,0,3:0:0:0:
396,64,47178,2,0,P|469:80|500:84,1,88,10|0,2:0|3:0,0:0:0:0:
469,304,47544,5,2,1:2:0:0:
419,184,47727,1,0,3:2:0:0:
299,234,47910,1,10,2:0:0:0:
349,354,48093,5,0,3:2:0:0:
352,345,48184,1,0,3:2:0:0:
356,336,48276,2,0,P|372:263|376:232,1,88,6|0,1:2|3:0,0:0:0:0:
238,61,48648,1,8,2:0:0:0:
333,127,48835,2,0,P|240:138|147:151,1,176,0|0,1:0|1:0,0:0:0:0:
89,254,49394,5,10,2:0:0:0:
11,142,49580,1,0,3:0:0:0:
77,21,49766,2,0,P|89:76|101:127,1,88,2|0,1:2|3:0,0:0:0:0:
202,319,50134,2,0,P|190:264|178:213,1,88,10|0,2:0|3:0,0:0:0:0:
247,119,50502,5,2,1:2:0:0:
89,254,50686,1,0,3:0:0:0:
280,343,50870,2,0,P|328:339|370:315,1,88,10|0,2:0|3:2,0:0:0:0:
362,320,51146,5,0,3:2:0:0:
362,320,51238,1,0,1:0:0:0:
512,201,51420,1,0,3:0:0:0:
332,144,51603,1,8,2:0:0:0:
445,277,51786,2,0,P|425:191|405:105,1,176,0|0,1:0|1:0,0:0:0:0:
489,85,52335,6,0,P|492:42|512:3,1,88,10|0,2:0|3:0,0:0:0:0:
332,144,52701,2,0,P|271:136|239:133,1,80,2|0,1:2|3:2,0:0:0:0:
37,108,53064,5,8,2:0:0:0:
147,157,53246,1,0,3:2:0:0:
135,37,53428,1,2,1:2:0:0:
43,220,53615,5,0,1:2:0:0:
17,254,53709,1,0,1:0:0:0:
18,297,53803,1,8,2:0:0:0:
38,334,53896,1,0,3:0:0:0:
75,355,53990,1,8,2:0:0:0:
121,359,54084,1,4,2:3:0:0:
121,359,54178,2,0,P|175:349|240:338,1,104,6|0,1:2|3:1,0:0:0:0:
434,345,54543,1,8,2:0:0:0:
254,263,54726,6,0,B|330:309|330:309|418:255,1,176,0|0,1:0|1:0,0:0:0:0:
467,194,55275,2,0,P|458:150|451:107,1,88,10|0,2:0|3:0,0:0:0:0:
187,54,55641,5,2,1:2:0:0:
385,18,55824,1,0,3:0:0:0:
256,179,56007,2,0,P|264:135|271:92,1,88,10|0,2:0|3:0,0:0:0:0:
187,54,56373,5,2,1:2:0:0:
354,151,56556,1,0,3:0:0:0:
257,318,56738,1,10,2:0:0:0:
90,221,56921,1,0,3:0:0:0:
287,192,57104,5,0,1:0:0:0:
353,229,57288,1,0,3:0:0:0:
422,269,57472,1,8,2:0:0:0:
180,175,57656,6,0,P|255:170|384:142,1,176,0|0,1:0|1:0,0:0:0:0:
430,98,58208,2,0,P|434:50|458:8,1,88,10|0,2:0|3:0,0:0:0:0:
365,242,58576,2,0,P|361:290|337:332,1,88,2|0,1:2|3:0,0:0:0:0:
512,170,58944,2,0,P|468:177|425:185,1,88,10|0,2:0|3:0,0:0:0:0:
270,65,59312,5,2,1:2:0:0:
180,175,59496,1,0,3:0:0:0:
129,42,59680,1,10,2:0:0:0:
193,97,59864,1,0,3:2:0:0:
3,196,60048,6,0,P|55:177|84:112,1,104,4|0,1:0|3:0,0:0:0:0:
270,65,60416,2,0,P|335:58|376:53,1,88,10|0,2:0|3:0,0:0:0:0:
444,203,60784,2,0,P|448:159|453:115,1,88,2|0,1:2|3:0,0:0:0:0:
443,9,61153,1,10,2:0:0:0:
372,247,61337,5,0,3:2:0:0:
369,252,61429,1,0,3:2:0:0:
366,257,61521,2,0,P|301:250|260:245,1,88,0|0,1:2|3:0,0:0:0:0:
159,384,61886,2,0,P|155:336|131:294,1,88,10|0,2:0|3:0,0:0:0:0:
0,258,62252,5,2,1:2:0:0:
80,131,62435,1,0,3:0:0:0:
222,176,62618,1,10,2:0:0:0:
136,301,62801,1,0,3:0:0:0:
169,96,62984,6,0,P|176:52|186:10,1,88,0|0,1:0|3:0,0:0:0:0:
87,35,63354,1,8,2:0:0:0:
232,171,63539,2,0,P|329:180|424:212,1,176,0|0,1:0|1:0,0:0:0:0:
477,63,64095,2,0,P|428:58|380:42,1,88,8|0,2:0|3:2,0:0:0:0:
391,46,64372,1,0,3:2:0:0:
391,46,64465,1,2,1:2:0:0:
479,153,64648,1,8,2:3:0:0:
406,292,64831,5,10,2:0:0:0:
401,303,64923,1,0,3:0:0:0:
397,314,65015,1,8,2:3:0:0:
392,325,65107,1,8,2:3:0:0:
388,336,65198,1,2,1:2:0:0:
314,207,65382,5,8,2:3:0:0:
314,207,65474,1,8,2:3:0:0:
314,207,65565,1,10,1:2:0:0:
94,354,65749,1,0,3:0:0:0:
161,307,65932,6,0,P|181:249|176:156,1,144.383995605469,4|2,1:0|3:2,0:0:0:0:
298,67,66488,2,0,P|292:138|313:206,1,145.583995605469,0|0,1:0|3:0,0:0:0:0:
415,239,67040,2,0,P|484:224|507:220,1,72.0000000000001,2|0,1:2|3:0,0:0:0:0:
383,167,67410,1,2,1:2:0:0:
325,348,67595,6,0,B|301:274|354:301|303:182,1,144,0|0,1:0|1:0,0:0:0:0:
383,167,68150,2,0,P|418:159|454:153,1,72.0000000000001,2|0,1:2|3:0,0:0:0:0:
490,19,68521,2,0,P|454:26|419:33,1,72.0000000000001,2|0,1:2|3:0,0:0:0:0:
327,81,68798,5,0,3:0:0:0:
320,85,68891,2,0,P|234:73|135:62,1,176,6|2,1:2|3:2,0:0:0:0:
47,193,69439,2,0,P|120:203|204:212,1,144,2|2,1:2|1:2,0:0:0:0:
320,321,69988,1,2,1:2:0:0:
237,346,70171,2,0,P|235:305|259:256,1,72.3935978027344,2|0,3:2|3:2,0:0:0:0:
385,251,70540,6,0,B|409:171|440:222|469:116,1,144,0|0,1:2|3:0,0:0:0:0:
293,4,71099,2,0,B|321:85|347:40|371:120,1,144,2|2,1:2|1:2,0:0:0:0:
506,312,71658,5,0,3:2:0:0:
498,305,71751,1,0,3:2:0:0:
490,301,71844,2,0,P|414:287|285:291,1,176,4|0,1:2|3:0,0:0:0:0:
228,112,72392,2,0,P|283:122|378:119,1,144,2|0,1:2|1:0,0:0:0:0:
229,255,72941,2,0,P|215:221|194:192,1,72.0000000000001,2|0,1:2|3:0,0:0:0:0:
110,27,73307,5,0,1:2:0:0:
60,88,73490,1,0,1:0:0:0:
138,101,73673,1,2,3:2:0:0:
30,14,73856,5,0,3:0:0:0:
71,238,74039,2,0,P|79:192|85:156,1,72.0000000000001,2|0,1:2|3:0,0:0:0:0:
203,38,74404,2,0,P|249:46|285:52,1,72.0000000000001,2|0,1:2|3:2,0:0:0:0:
389,6,74679,5,0,3:2:0:0:
398,19,74770,2,0,P|409:104|423:220,1,176,4|2,1:2|3:2,0:0:0:0:
252,348,75322,2,0,P|242:272|233:197,1,144,2|0,1:2|3:0,0:0:0:0:
445,274,75874,6,0,P|485:249|501:207,1,72.0000000000001,2|2,1:2|3:0,0:0:0:0:
365,80,76242,5,0,1:0:0:0:
261,129,76427,1,0,3:0:0:0:
310,233,76613,1,2,1:2:0:0:
414,184,76799,1,0,3:0:0:0:
265,35,76985,5,2,1:2:0:0:
451,106,77170,1,0,3:0:0:0:
213,213,77356,1,2,1:2:0:0:
397,334,77542,1,0,3:2:0:0:
398,323,77635,1,0,3:0:0:0:
399,309,77728,2,0,B|387:223|332:251|337:144,1,168,4|0,1:0|2:0,0:0:0:0:
336,157,78096,5,8,2:0:0:0:
142,323,78280,2,0,P|206:309|326:300,1,176,2|0,1:2|1:0,0:0:0:0:
79,259,78832,1,10,2:0:0:0:
55,345,79016,1,0,3:0:0:0:
165,229,79200,2,0,P|180:179|171:122,1,88,0|0,1:2|3:0,0:0:0:0:
56,17,79568,5,10,2:0:0:0:
32,100,79752,1,0,3:0:0:0:
114,77,79936,2,0,P|161:69|220:54,1,88,2|0,1:2|3:0,0:0:0:0:
437,124,80304,2,0,P|390:116|330:101,1,88,10|0,2:0|3:2,0:0:0:0:
297,0,80580,5,0,3:2:0:0:
288,11,80672,2,0,P|276:91|275:187,1,176,2|8,1:2|2:0,0:0:0:0:
26,356,81224,2,0,P|25:268|12:181,1,176,2|0,1:2|1:0,0:0:0:0:
243,265,81777,6,0,P|200:226|193:185,1,88,10|0,2:0|3:0,0:0:0:0:
53,108,82145,2,0,P|96:69|103:28,1,88,0|0,1:2|2:0,0:0:0:0:
103,41,82414,1,8,2:3:0:0:
103,41,82504,1,10,2:0:0:0:
14,26,82683,1,0,1:0:0:0:
178,108,82863,5,10,2:0:0:0:
208,126,82953,1,8,2:3:0:0:
243,119,83043,1,0,1:2:0:0:
267,92,83133,1,4,2:3:0:0:
263,56,83222,6,0,L|252:2,1,44,10|0,2:0|2:0,0:0:0:0:
445,146,83402,6,0,L|456:92,1,44,0|0,1:2|2:0,0:0:0:0:
353,272,83582,5,0,3:1:0:0:
