osu file format v14

[General]
AudioFilename: audio.mp3
AudioLeadIn: 0
PreviewTime: 40916
Countdown: 0
SampleSet: Soft
StackLeniency: 0.7
Mode: 0
LetterboxInBreaks: 0
WidescreenStoryboard: 1

[Editor]
DistanceSpacing: 1.2
BeatDivisor: 4
GridSize: 32
TimelineZoom: 1.3

[Metadata]
Title:Hadaka no Yuusha (TV Size)
TitleUnicode:裸の勇者 (TV Size)
Artist:Vaundy
ArtistUnicode:Vaundy
Creator:Fixxis
Version:Revolver's Normal
Source:王様ランキング
Tags:Amity Black Man ImpurePug KineticDog Revolver Gouhin yusha osama ousama ranking of kings anime opening 2 two japanese rock jrock
BeatmapID:3419794
BeatmapSetID:1674096

[Difficulty]
HPDrainRate:2
CircleSize:3
OverallDifficulty:4
ApproachRate:5
SliderMultiplier:1
SliderTickRate:1

[Events]
//Background and Video events
0,0,"wp10194604-ousama-ranking-wallpapers.png",0,0
Video,185,"videosu.mp4"
//Break Periods
//Storyboard Layer 0 (Background)
//Storyboard Layer 1 (Fail)
//Storyboard Layer 2 (Pass)
//Storyboard Layer 3 (Foreground)
//Storyboard Layer 4 (Overlay)
//Storyboard Sound Samples

[TimingPoints]
7064,368.098159509202,4,2,10,50,1,0
7984,-100,4,2,10,50,0,0
8168,-100,4,2,11,50,0,0
8352,-100,4,2,11,50,0,0
8536,-100,4,2,10,50,0,0
9088,-100,4,2,10,50,0,0
9456,-100,4,2,10,50,0,0
9640,-100,4,2,11,50,0,0
9824,-100,4,2,12,50,0,0
10008,-100,4,2,10,50,0,0
11113,-100,4,2,11,50,0,0
11481,-100,4,2,10,50,0,0
12585,-100,4,2,11,50,0,0
12769,-100,4,2,12,50,0,0
12953,-100,4,2,10,50,0,0
14057,-100,4,2,11,50,0,0
14241,-100,4,2,12,50,0,0
14425,-100,4,2,10,50,0,0
15530,-100,4,2,11,50,0,0
15714,-100,4,2,12,50,0,0
15898,-100,4,2,10,50,0,0
17002,-100,4,2,11,50,0,0
17370,-100,4,2,12,50,0,0
17554,-100,4,2,10,55,0,0
17738,-100,4,2,12,60,0,0
18106,-100,4,2,10,60,0,0
18659,344.827586206897,4,2,11,70,1,0
18831,368.098159509202,4,2,1,70,1,0
20487,-100,4,2,2,70,0,0
20671,-100,4,2,1,70,0,0
21407,-100,4,2,3,55,0,0
21499,-100,4,2,3,55,0,0
21591,-100,4,2,4,60,0,0
21683,-100,4,2,4,70,0,0
21775,-100,4,2,1,70,0,0
23432,-100,4,2,2,70,0,0
23616,-100,4,2,1,70,0,0
24352,-100,4,2,3,55,0,0
24444,-100,4,2,3,55,0,0
24536,-100,4,2,4,60,0,0
24628,-100,4,2,4,70,0,0
24720,-100,4,2,1,70,0,0
26377,-100,4,2,2,70,0,0
26561,-100,4,2,2,70,0,0
26929,-100,4,2,1,70,0,0
27297,-100,4,2,3,55,0,0
27389,-100,4,2,4,55,0,0
27481,-100,4,2,4,60,0,0
27573,-100,4,2,4,70,0,0
27665,-100,4,2,1,70,0,0
29505,-100,4,2,4,55,0,0
29689,-100,4,2,1,65,0,0
29873,-100,4,2,4,55,0,0
30057,-100,4,2,4,60,0,0
30242,-100,4,2,5,65,0,0
30426,-100,4,2,1,75,0,0
30610,-100,4,2,2,80,0,0
30794,-100,4,2,2,70,0,0
30978,-100,4,2,5,70,0,0
31714,-100,4,2,5,70,0,0
32450,-100,4,2,1,70,0,0
32818,-100,4,2,5,70,0,0
33186,-100,4,2,1,70,0,0
33554,-100,4,2,5,70,0,0
35395,-100,4,2,1,70,0,0
35763,-100,4,2,5,70,0,0
36131,-100,4,2,1,70,0,0
36867,-100,4,2,5,70,0,0
37235,-100,4,2,5,70,0,0
38340,-100,4,2,1,70,0,0
38708,-100,4,2,5,70,0,0
39076,-100,4,2,1,70,0,0
39444,-100,4,2,3,70,0,0
39812,-100,4,2,1,70,0,0
40180,-100,4,2,4,70,0,0
40364,-100,4,2,1,70,0,0
40824,-100,4,2,3,80,0,0
40916,370.37037037037,4,2,3,80,1,0
41656,-100,4,2,12,50,0,0
42397,370.37037037037,4,2,2,80,1,0
42582,-100,4,2,2,65,0,0
42767,-100,4,2,2,70,0,0
42952,-100,4,2,2,75,0,0
43137,-100,4,2,2,80,0,0
43322,-100,4,2,5,80,0,0
43878,363.636363636364,4,2,5,80,1,0
44059,-100,4,2,5,80,0,0
44241,-100,4,2,1,80,0,0
44605,-100,4,2,5,80,0,0
44968,-100,4,2,1,80,0,0
45332,370.37037037037,4,2,5,80,1,0
45702,-100,4,2,2,80,0,0
45980,-100,4,2,3,80,0,0
46072,-100,4,2,5,80,0,0
46165,-100,4,2,5,80,0,0
46257,-100,4,2,5,80,0,0
46813,365.853658536585,4,2,5,80,1,0
47178,-100,4,2,1,80,0,0
47544,-100,4,2,5,80,0,0
47727,-100,4,2,5,80,0,0
47910,-100,4,2,1,80,0,0
48276,372.670807453416,4,2,1,80,1,0
48648,-100,4,2,2,80,0,0
49021,-100,4,2,2,80,0,0
49207,-100,4,2,5,80,0,0
49394,-100,4,2,5,80,0,0
49766,368.098159509202,4,2,5,80,1,0
50134,-100,4,2,1,80,0,0
50502,-100,4,2,5,80,0,0
50870,-100,4,2,1,80,0,0
51238,365.853658536585,4,2,5,80,1,0
51603,-100,4,2,2,80,0,0
51969,-100,4,2,2,80,0,0
52061,-100,4,2,2,80,0,0
52152,-100,4,2,5,80,0,0
52518,-100,4,2,5,80,0,0
52701,363.636363636364,4,2,1,80,1,0
53428,375,4,2,5,80,1,0
53615,-100,4,2,1,80,0,0
53709,-100,4,2,2,80,0,0
53803,-100,4,2,4,80,0,0
53990,-100,4,2,3,80,0,0
54084,-100,4,2,4,80,0,0
54178,365.853658536585,4,2,1,80,1,0
54543,-100,4,2,2,80,0,0
54909,-100,4,2,2,80,0,0
55275,-100,4,2,5,80,0,0
56007,-100,4,2,1,80,0,0
56373,-100,4,2,5,80,0,0
56738,-100,4,2,1,80,0,0
57104,368.098159509202,4,2,5,80,1,0
57472,-100,4,2,2,80,0,0
57748,-100,4,2,3,80,0,0
57840,-100,4,2,5,80,0,0
57932,-100,4,2,5,80,0,0
58024,-100,4,2,5,80,0,0
58944,-100,4,2,1,80,0,0
59312,-100,4,2,5,80,0,0
59680,-100,4,2,1,80,0,0
60048,-100,4,2,5,80,0,0
60416,-100,4,2,2,80,0,0
60784,-100,4,2,5,80,0,0
61521,365.853658536585,4,2,5,80,1,0
61886,-100,4,2,1,80,0,0
62252,-100,4,2,5,80,0,0
62618,-100,4,2,1,80,0,0
62984,370.37037037037,4,2,5,80,1,0
63354,-100,4,2,2,80,0,0
63632,-100,4,2,3,80,0,0
63724,-100,4,2,5,80,0,0
64095,-100,4,2,1,80,0,0
64465,366.97247706422,4,2,1,80,1,0
64831,-100,4,2,3,80,0,0
65107,-100,4,2,4,80,0,0
65198,-100,4,2,2,90,0,0
65382,-100,4,2,2,75,0,0
65474,-100,4,2,1,80,0,0
65565,-100,4,2,4,80,0,0
65932,375,4,2,1,90,1,0
66307,363.636363636364,4,2,1,90,1,0
66670,370.37037037037,4,2,1,90,1,0
67410,370.37037037037,4,2,1,90,1,0
67595,-100,4,2,2,90,0,0
67780,-100,4,2,2,90,0,0
68150,-100,4,2,1,90,0,0
68521,-100,4,2,3,75,0,0
68613,-100,4,2,4,75,0,0
68706,-100,4,2,4,80,0,0
68798,-100,4,2,4,90,0,0
68891,365.853658536585,4,2,1,90,1,0
70354,372.670807453416,4,2,1,90,1,0
70540,-100,4,2,2,90,0,0
71472,-100,4,2,3,75,0,0
71565,-100,4,2,3,75,0,0
71658,-100,4,2,4,80,0,0
71751,-100,4,2,4,80,0,0
71844,365.853658536585,4,2,1,90,1,0
73490,-100,4,2,2,90,0,0
74404,-100,4,2,3,75,0,0
74496,-100,4,2,3,75,0,0
74587,-100,4,2,3,80,0,0
74679,-100,4,2,4,90,0,0
74770,368.098159509202,4,2,1,90,1,0
75874,-100,4,2,6,70,0,0
76058,-100,4,2,6,75,0,0
76242,371.517027863777,4,2,1,80,1,0
76613,-100,4,2,4,60,0,0
76799,-100,4,2,1,70,0,0
76985,-100,4,2,4,65,0,0
77170,-100,4,2,4,68,0,0
77356,-100,4,2,5,71,0,0
77542,-100,4,2,1,74,0,0
77728,368.098159509202,4,2,2,100,1,0
77912,-100,4,2,2,85,0,0
78096,-100,4,2,5,85,0,0
79568,-100,4,2,1,85,0,0
79936,-100,4,2,5,85,0,0
80304,-100,4,2,1,85,0,0
81040,-100,4,2,5,85,0,0
81316,-100,4,2,1,85,0,0
81408,-100,4,2,5,85,0,0
81777,-100,4,2,5,85,0,0
82145,359.281437125748,4,2,2,85,1,0
82414,-100,4,2,3,85,0,0
82683,-100,4,2,1,85,0,0
82773,-100,4,2,1,85,0,0
82863,-100,4,2,3,85,0,0
82953,-100,4,2,4,85,0,0
83222,-100,4,2,3,85,0,0
83312,-100,4,2,2,85,0,0
83402,-100,4,2,5,85,0,0
83582,-100,4,2,1,85,0,0

[Colours]
Combo1 : 192,192,192
Combo2 : 255,128,0
Combo3 : 255,255,0
Combo4 : 0,128,192

[HitObjects]
36,102,7064,6,0,P|83:70|144:81,1,100,2|0,2:0|2:0,2:0:0:0:
163,102,7616,1,2,2:0:0:0:
249,52,7984,2,0,L|354:42,1,100,0|0,2:0|2:0,0:0:0:0:
398,37,8536,5,2,2:0:0:0:
483,89,8904,1,0,2:0:0:0:
483,89,9088,1,2,2:0:0:0:
447,182,9456,2,0,L|455:243,1,50,0|2,2:0|2:0,0:0:0:0:
460,281,9824,1,2,2:0:0:0:
460,281,10008,6,0,B|417:312|417:312|361:286,1,100,2|0,2:0|2:0,2:0:0:0:
330,268,10560,1,2,2:0:0:0:
253,332,10929,1,0,2:0:0:0:
253,332,11113,1,2,2:0:0:0:
163,267,11481,5,2,2:0:0:0:
137,104,12033,1,2,2:0:0:0:
137,104,12217,1,0,2:0:0:0:
49,169,12585,1,2,2:0:0:0:
49,169,12769,6,0,B|37:109|37:109|48:81|48:81|36:14,1,150,2|0,2:0|2:0,0:0:0:0:
92,19,13505,1,2,2:0:0:0:
198,45,13873,1,0,2:0:0:0:
198,45,14057,2,0,L|269:53,1,50,2|2,2:0|2:0,0:0:0:0:
299,30,14425,5,2,2:0:0:0:
335,196,14978,1,2,2:0:0:0:
335,196,15162,2,0,L|322:252,1,50,0|0,2:0|2:0,2:0:0:0:
269,251,15530,2,0,L|276:301,1,50,2|2,2:0|2:0,0:0:0:0:
279,355,15898,6,0,B|373:307|373:402|468:355,1,200,2|0,2:0|0:0,2:0:0:0:
506,251,17002,1,2,2:0:0:0:
406,204,17370,6,0,L|416:81,1,100,2|2,2:0|2:0,0:0:0:0:
304,117,18106,2,0,L|295:17,1,100,2|2,2:0|2:0,0:0:0:0:
200,66,18831,6,0,L|147:54,1,50,12|0,2:1|0:0,2:0:0:0:
100,34,19199,1,0,1:0:0:0:
12,100,19567,2,0,P|-3:157|30:224,1,100,0|4,0:0|3:0,0:0:0:0:
227,194,20671,1,0,3:0:0:0:
281,289,21039,1,4,3:0:0:0:
215,377,21407,2,0,L|154:362,1,50,12|8,2:3|2:1,2:0:0:0:
116,342,21775,6,0,P|93:292|107:223,1,100,12|0,2:1|1:0,2:0:0:0:
138,213,22327,2,0,L|241:197,1,100,8|0,3:0|1:0,2:0:0:0:
244,151,22880,2,0,L|227:83,1,50,4|0,3:0|3:0,0:0:0:0:
239,53,23248,1,0,0:0:0:0:
334,23,23616,1,0,3:0:0:0:
431,43,23984,1,4,3:0:0:0:
498,117,24352,1,12,2:3:0:0:
401,142,24720,6,0,L|285:163,1,100,12|0,2:1|1:0,2:0:0:0:
278,203,25272,2,0,L|301:322,1,100,8|0,3:0|1:0,2:0:0:0:
334,267,25824,2,0,P|377:275|404:284,1,50,4|0,3:0|3:0,2:0:0:0:
432,279,26192,1,0,1:0:0:0:
376,362,26561,1,0,0:0:0:0:
276,358,26929,1,4,3:0:0:0:
223,272,27297,1,12,2:3:0:0:
138,325,27665,6,0,P|107:328|81:317,1,50,12|0,2:1|0:0,2:0:0:0:
53,286,28033,1,0,1:0:0:0:
40,237,28217,2,0,L|9:92,1,100,8|0,3:0|1:0,2:0:0:0:
70,120,28769,2,0,L|80:66,1,50,4|0,3:0|0:0,2:0:0:0:
104,27,29137,1,0,1:0:0:0:
200,54,29505,1,8,1:2:0:0:
293,17,29873,1,8,1:0:0:0:
386,53,30242,1,8,1:0:0:0:
412,149,30610,6,0,P|384:194|320:223,1,100,4|10,1:0|2:1,2:0:0:0:
295,227,31162,2,0,P|253:253|228:296,1,100,0|0,1:0|1:0,0:0:0:0:
227,347,31714,2,0,L|97:324,1,100,10|0,2:1|0:0,0:0:0:0:
33,362,32450,1,10,2:1:0:0:
5,265,32818,1,2,1:2:0:0:
41,171,33186,1,10,2:1:0:0:
129,218,33554,6,0,B|205:179|205:256|282:218,1,150,4|0,1:2|1:0,2:0:0:0:
347,156,34475,1,0,1:0:0:0:
347,156,34659,2,0,L|466:179,1,100,10|0,2:1|0:0,0:0:0:0:
503,113,35395,2,0,L|492:8,1,100,10|2,2:1|1:2,2:0:0:0:
395,39,36131,2,0,P|364:45|318:27,1,50,10|0,2:1|0:0,2:0:0:0:
299,27,36499,6,0,L|178:46,1,100,4|10,1:0|2:1,2:0:0:0:
102,20,37235,1,2,2:0:0:0:
58,110,37604,1,10,2:1:0:0:
107,197,37972,2,0,L|90:259,1,50,2|0,2:0|1:0,2:0:0:0:
53,274,38340,2,0,L|70:336,1,50,10|0,2:1|2:0,2:0:0:0:
82,369,38708,2,0,P|113:375|144:366,1,50,2|0,1:2|1:0,0:0:0:0:
168,338,39076,6,0,L|376:369,1,200,10|8,2:1|2:1,2:0:0:0:
462,340,40180,1,8,2:1:0:0:
474,240,40548,1,8,2:3:0:0:
489,140,40916,6,0,L|456:-5,1,100,2|0,2:2|0:0,0:0:0:0:
378,89,41656,2,0,L|355:186,1,100,2|0,2:0|0:0,0:0:0:0:
266,142,42397,5,4,1:0:0:0:
184,83,42767,2,0,L|79:99,1,100,10|0,2:1|0:0,0:0:0:0:
19,173,43508,2,0,P|32:201|33:227,1,50,10|0,2:1|0:0,2:0:0:0:
11,264,43878,5,2,2:0:0:0:
86,329,44241,1,10,2:1:0:0:
159,261,44605,2,0,L|228:275,1,50,2|0,1:2|1:0,2:0:0:0:
235,229,44968,1,10,2:1:0:0:
186,143,45332,6,0,P|174:85|204:36,2,100,2|10|2,1:2|2:1|2:0,2:0:0:0:
237,130,46257,1,0,3:0:0:0:
237,130,46443,2,0,L|304:143,1,50,10|0,2:1|1:0,2:0:0:0:
325,107,46813,5,2,2:0:0:0:
383,26,47178,1,10,2:1:0:0:
457,93,47544,2,0,B|462:141|462:141|468:150|468:150|477:217,1,100,2|10,1:2|2:1,0:0:0:0:
483,241,48093,1,0,3:0:0:0:
483,241,48276,5,4,1:0:0:0:
394,286,48648,2,0,P|341:271|266:308,1,100,10|0,2:1|0:0,0:0:0:0:
220,322,49394,2,0,L|159:314,1,50,10|0,2:1|3:0,2:0:0:0:
120,309,49766,5,2,2:0:0:0:
60,228,50134,1,10,2:1:0:0:
102,137,50502,2,0,L|88:79,1,50,2|0,1:2|0:0,2:0:0:0:
75,40,50870,2,0,P|123:14|162:19,1,50,10|0,2:1|2:0,2:0:0:0:
158,43,51238,6,0,P|207:44|261:45,1,100,2|10,1:2|2:1,2:0:0:0:
304,64,51786,2,0,L|416:42,1,100,0|0,1:0|3:0,2:0:0:0:
429,86,52335,1,10,2:1:0:0:
422,186,52701,6,0,L|441:295,1,100,4|10,1:2|2:1,2:0:0:0:
384,364,53428,2,0,L|328:352,1,50,6|8,1:2|2:1,0:0:0:0:
312,308,53803,2,0,L|250:326,1,50,8|8,1:2|2:3,0:0:0:0:
218,297,54178,5,4,1:0:0:0:
139,357,54543,2,0,P|87:368|30:335,1,100,10|0,2:1|0:0,0:0:0:0:
21,256,55275,2,0,L|34:203,1,50,10|0,2:1|3:0,2:0:0:0:
63,168,55641,5,2,2:0:0:0:
40,70,56007,1,10,2:1:0:0:
125,18,56373,2,0,P|152:28|188:23,1,50,2|0,1:2|1:0,2:0:0:0:
221,14,56738,1,10,2:1:0:0:
304,67,57104,6,0,L|401:44,1,100,2|10,1:2|2:1,2:0:0:0:
450,37,57656,2,0,L|430:158,1,100,0|0,1:0|3:0,0:0:0:0:
469,184,58208,1,10,2:1:0:0:
456,277,58576,5,2,2:0:0:0:
362,241,58944,2,0,L|306:248,1,50,10|0,2:1|2:0,0:0:0:0:
263,255,59312,2,0,L|213:248,1,50,2|0,1:2|1:0,0:0:0:0:
163,246,59680,2,0,P|135:199|166:117,1,100,10|4,2:1|1:2,0:0:0:0:
65,86,60416,5,10,2:1:0:0:
139,19,60784,1,2,2:0:0:0:
236,39,61153,1,10,2:1:0:0:
283,127,61521,6,0,P|312:132|341:117,1,50,2|0,2:0|3:0,2:0:0:0:
368,92,61886,2,0,P|449:90|467:106,1,100,10|2,2:1|1:2,2:0:0:0:
494,193,62618,2,0,L|499:261,1,50,10|0,2:1|3:0,2:0:0:0:
472,285,62984,6,0,P|428:284|363:288,1,100,2|10,3:2|2:1,2:0:0:0:
324,271,63539,1,0,1:2:0:0:
280,295,63724,2,0,L|202:321,2,50,2|0|10,2:0|1:2|2:1,0:0:0:0:
270,194,64465,5,10,2:1:0:0:
173,170,64831,1,8,2:1:0:0:
76,144,65198,2,0,L|65:40,1,100,8|8,2:1|2:0,0:0:0:0:
155,5,65932,5,12,2:1:0:0:
228,76,66307,2,0,P|281:88|336:67,1,100,0|0,1:0|3:0,0:0:0:0:
407,20,67040,2,0,P|460:7|515:29,1,100,4|0,3:0|1:0,2:0:0:0:
503,122,67780,5,0,0:0:0:0:
509,221,68150,1,4,3:0:0:0:
481,317,68521,1,12,2:3:0:0:
391,271,68891,6,0,L|269:253,1,100,12|0,2:1|1:0,2:0:0:0:
254,223,69439,2,0,L|132:241,1,100,8|0,3:0|1:0,2:0:0:0:
105,242,69988,1,4,3:0:0:0:
105,242,70171,1,0,3:0:0:0:
28,113,70726,5,0,3:0:0:0:
91,35,71099,1,4,3:0:0:0:
190,41,71472,1,12,2:3:0:0:
289,45,71844,6,0,L|264:157,1,100,12|0,2:1|1:0,2:0:0:0:
243,186,72392,2,0,L|268:298,1,100,8|0,3:0|1:0,2:0:0:0:
247,330,72941,2,0,P|184:314|131:338,1,100,4|0,3:0|1:0,2:0:0:0:
65,373,73673,5,0,0:0:0:0:
14,286,74039,1,4,3:0:0:0:
39,189,74404,1,12,2:3:0:0:
64,92,74770,6,0,L|183:74,1,100,12|0,2:1|1:0,2:0:0:0:
212,73,75322,2,0,L|310:87,1,100,8|0,3:0|1:0,2:0:0:0:
359,100,75874,2,0,L|411:85,1,50,12|0,2:1|0:0,2:0:0:0:
455,73,76242,5,0,1:0:0:0:
468,172,76613,2,0,L|497:275,2,100,8|8|8,1:2|1:0|1:0,0:0:0:0:
370,195,77728,5,4,1:0:0:0:
273,220,78096,1,10,2:1:0:0:
273,220,78280,2,0,L|131:200,1,100,0|0,1:0|1:0,0:0:0:0:
123,206,78832,2,0,L|23:219,1,100,10|2,2:1|2:0,0:0:0:0:
14,120,79568,5,10,2:1:0:0:
76,42,79936,1,2,1:0:0:0:
175,48,80304,1,10,2:1:0:0:
232,129,80672,2,0,P|314:142|403:92,2,150,4|0|10,1:0|1:0|2:1,2:0:0:0:
144,178,82145,5,8,1:3:0:0:
63,237,82504,1,8,2:1:0:0:
123,316,82863,1,12,2:3:0:0:
206,260,83222,1,8,3:1:0:0:
290,207,83582,5,2,3:0:0:0:
