osu file format v14

[General]
AudioFilename: audio.mp3
AudioLeadIn: 0
PreviewTime: 40916
Countdown: 0
SampleSet: Soft
StackLeniency: 0.7
Mode: 0
LetterboxInBreaks: 0
WidescreenStoryboard: 1

[Editor]
Bookmarks: 18831,30610,42304,65932,77728,83582
DistanceSpacing: 2.3
BeatDivisor: 8
GridSize: 4
TimelineZoom: 1.3

[Metadata]
Title:Hadaka no Yuusha (TV Size)
TitleUnicode:裸の勇者 (TV Size)
Artist:Vaundy
ArtistUnicode:Vaundy
Creator:Fixxis
Version:Little Guy
Source:王様ランキング
Tags:Amity Black Man ImpurePug KineticDog Revolver Gouhin yusha osama ousama ranking of kings anime opening 2 two japanese rock jrock
BeatmapID:3419793
BeatmapSetID:1674096

[Difficulty]
HPDrainRate:6
CircleSize:4
OverallDifficulty:8.5
ApproachRate:9
SliderMultiplier:1.77
SliderTickRate:1

[Events]
//Background and Video events
0,0,"wp10194604-ousama-ranking-wallpapers.png",0,0
Video,185,"videosu.mp4"
//Break Periods
//Storyboard Layer 0 (Background)
//Storyboard Layer 1 (Fail)
//Storyboard Layer 2 (Pass)
//Storyboard Layer 3 (Foreground)
//Storyboard Layer 4 (Overlay)
//Storyboard Sound Samples

[TimingPoints]
7064,368.098159509202,4,2,10,50,1,0
7064,-142.857142857143,4,2,10,50,0,0
8168,-142.857142857143,4,2,11,50,0,0
8536,-142.857142857143,4,2,10,50,0,0
9640,-142.857142857143,4,2,11,50,0,0
9824,-142.857142857143,4,2,12,50,0,0
10008,-142.857142857143,4,2,10,50,0,0
11113,-142.857142857143,4,2,11,50,0,0
11481,-142.857142857143,4,2,10,50,0,0
12585,-142.857142857143,4,2,11,50,0,0
12769,-142.857142857143,4,2,12,50,0,0
12953,-142.857142857143,4,2,10,50,0,0
14057,-142.857142857143,4,2,11,50,0,0
14241,-142.857142857143,4,2,12,50,0,0
14425,-142.857142857143,4,2,10,50,0,0
15530,-142.857142857143,4,2,11,50,0,0
15714,-142.857142857143,4,2,12,50,0,0
15898,-142.857142857143,4,2,10,50,0,0
17002,-142.857142857143,4,2,11,50,0,0
17370,-125,4,2,12,50,0,0
17554,-125,4,2,10,55,0,0
17738,-125,4,2,12,60,0,0
18106,-125,4,2,10,60,0,0
18659,344.827586206897,4,2,11,70,1,0
18831,368.098159509202,4,2,1,70,1,0
19383,-111.111111111111,4,2,1,70,0,0
20487,-111.111111111111,4,2,2,70,0,0
20671,-111.111111111111,4,2,1,70,0,0
21407,-111.111111111111,4,2,3,55,0,0
21499,-111.111111111111,4,2,4,55,0,0
21591,-111.111111111111,4,2,4,60,0,0
21683,-111.111111111111,4,2,4,70,0,0
21775,-111.111111111111,4,2,1,70,0,0
23432,-111.111111111111,4,2,2,70,0,0
23616,-111.111111111111,4,2,1,70,0,0
24352,-111.111111111111,4,2,3,55,0,0
24444,-111.111111111111,4,2,4,55,0,0
24536,-111.111111111111,4,2,4,60,0,0
24628,-111.111111111111,4,2,4,70,0,0
24720,-111.111111111111,4,2,1,70,0,0
26377,-111.111111111111,4,2,2,70,0,0
26561,-111.111111111111,4,2,1,70,0,0
27297,-111.111111111111,4,2,3,55,0,0
27389,-111.111111111111,4,2,4,55,0,0
27481,-111.111111111111,4,2,4,60,0,0
27573,-111.111111111111,4,2,4,70,0,0
27665,-111.111111111111,4,2,1,70,0,0
29505,-111.111111111111,4,2,4,55,0,0
29689,-111.111111111111,4,2,1,65,0,0
29873,-111.111111111111,4,2,4,55,0,0
30057,-111.111111111111,4,2,4,60,0,0
30242,-111.111111111111,4,2,5,65,0,0
30426,-111.111111111111,4,2,1,75,0,0
30610,-99.9999999999999,4,2,2,80,0,0
30794,-99.9999999999999,4,2,1,70,0,0
30978,-99.9999999999999,4,2,5,70,0,0
32450,-99.9999999999999,4,2,1,70,0,0
32818,-99.9999999999999,4,2,5,70,0,0
33186,-99.9999999999999,4,2,1,70,0,0
33554,-99.9999999999999,4,2,5,70,0,0
35395,-99.9999999999999,4,2,1,70,0,0
35763,-99.9999999999999,4,2,5,70,0,0
36131,-99.9999999999999,4,2,1,70,0,0
36867,-99.9999999999999,4,2,5,70,0,0
38340,-99.9999999999999,4,2,1,70,0,0
38708,-99.9999999999999,4,2,5,70,0,0
39076,-99.9999999999999,4,2,1,70,0,0
39444,-99.9999999999999,4,2,3,70,0,0
39812,-99.9999999999999,4,2,1,70,0,0
40180,-99.9999999999999,4,2,4,70,0,0
40364,-99.9999999999999,4,2,1,70,0,0
40824,-99.9999999999999,4,2,3,80,0,0
40916,370.37037037037,4,2,3,80,1,0
40916,-166.666666666667,4,2,3,50,0,0
41656,-166.666666666667,4,2,12,50,0,0
42397,370.37037037037,4,2,2,80,1,0
42582,-100,4,2,2,65,0,0
42767,-100,4,2,2,70,0,0
42952,-100,4,2,2,75,0,0
43137,-100,4,2,2,80,0,0
43322,-100,4,2,5,80,0,0
43878,363.636363636364,4,2,5,80,1,0
44241,-100,4,2,1,80,0,0
44605,-100,4,2,5,80,0,0
44968,-100,4,2,1,80,0,0
45332,370.37037037037,4,2,5,80,1,0
45702,-100,4,2,2,80,0,0
46072,-100,4,2,5,80,0,0
46813,365.853658536585,4,2,5,80,1,0
47178,-100,4,2,1,80,0,0
47544,-100,4,2,5,80,0,0
47909,-100,4,2,1,80,0,0
48276,372.670807453416,4,2,1,80,1,0
48648,-100,4,2,2,80,0,0
49021,-100,4,2,5,80,0,0
49766,368.098159509202,4,2,5,80,1,0
50134,-100,4,2,1,80,0,0
50502,-100,4,2,5,80,0,0
50870,-100,4,2,1,80,0,0
51238,365.853658536585,4,2,5,80,1,0
51603,-100,4,2,2,80,0,0
51969,-100,4,2,5,80,0,0
52701,363.636363636364,4,2,1,80,1,0
53428,375,4,2,5,80,1,0
53615,-100,4,2,1,80,0,0
53709,-100,4,2,2,80,0,0
53803,-100,4,2,4,80,0,0
53990,-100,4,2,3,80,0,0
54083,-100,4,2,4,80,0,0
54178,365.853658536585,4,2,1,80,1,0
54543,-100,4,2,2,80,0,0
55275,-100,4,2,5,80,0,0
56007,-100,4,2,1,80,0,0
56373,-100,4,2,5,80,0,0
56738,-100,4,2,1,80,0,0
57104,368.098159509202,4,2,5,80,1,0
57472,-100,4,2,2,80,0,0
57840,-100,4,2,5,80,0,0
58944,-100,4,2,1,80,0,0
59312,-100,4,2,5,80,0,0
59680,-100,4,2,1,80,0,0
60048,-100,4,2,5,80,0,0
60416,-100,4,2,2,80,0,0
60784,-100,4,2,5,80,0,0
61521,365.853658536585,4,2,5,80,1,0
61886,-100,4,2,1,80,0,0
62252,-100,4,2,5,80,0,0
62618,-100,4,2,1,80,0,0
62984,370.37037037037,4,2,5,80,1,0
63354,-100,4,2,2,80,0,0
63724,-100,4,2,5,80,0,0
64095,-100,4,2,1,80,0,0
64465,366.97247706422,4,2,1,80,1,0
64831,-100,4,2,3,80,0,0
65107,-100,4,2,4,80,0,0
65198,-100,4,2,2,90,0,0
65382,-100,4,2,2,75,0,0
65474,-100,4,2,1,80,0,0
65565,-100,4,2,4,80,0,0
65932,375,4,2,1,90,1,0
66307,363.636363636364,4,2,1,90,1,0
66670,370.37037037037,4,2,1,90,1,0
67410,370.37037037037,4,2,1,90,1,0
67595,-100,4,2,2,90,0,0
67780,-100,4,2,1,90,0,0
68521,-100,4,2,3,75,0,0
68706,-100,4,2,4,80,0,0
68798,-100,4,2,4,90,0,0
68891,365.853658536585,4,2,1,90,1,0
70354,372.670807453416,4,2,1,90,1,0
70540,-100,4,2,2,90,0,0
71472,-100,4,2,3,75,0,0
71658,-100,4,2,4,80,0,0
71751,-100,4,2,4,90,0,0
71844,365.853658536585,4,2,1,90,1,0
73490,-100,4,2,2,90,0,0
74404,-100,4,2,3,75,0,0
74587,-100,4,2,4,80,0,0
74679,-100,4,2,4,90,0,0
74770,368.098159509202,4,2,1,90,1,0
75874,-100,4,2,6,70,0,0
76058,-100,4,2,6,75,0,0
76242,371.517027863777,4,2,1,80,1,0
76613,-100,4,2,4,60,0,0
76799,-100,4,2,1,70,0,0
76985,-100,4,2,4,65,0,0
77170,-100,4,2,4,68,0,0
77356,-100,4,2,5,71,0,0
77542,-100,4,2,1,74,0,0
77728,368.098159509202,4,2,2,100,1,0
77912,-100,4,2,1,85,0,0
78096,-100,4,2,5,85,0,0
79568,-100,4,2,1,85,0,0
79936,-100,4,2,5,85,0,0
80304,-100,4,2,1,85,0,0
81040,-100,4,2,5,85,0,0
82145,359.281437125748,4,2,2,85,1,0
82414,-100,4,2,3,85,0,0
82683,-100,4,2,1,85,0,0
82773,-100,4,2,4,85,0,0
82863,-100,4,2,3,85,0,0
82952,-100,4,2,4,85,0,0
83222,-100,4,2,3,85,0,0
83311,-100,4,2,2,85,0,0
83402,-100,4,2,5,85,0,0

[Colours]
Combo1 : 192,192,192
Combo2 : 255,128,0
Combo3 : 255,255,0
Combo4 : 0,128,192

[HitObjects]
494,131,7064,6,0,L|502:199,2,61.9499999999999,2|0|0,2:0|2:0|2:0,2:0:0:0:
416,168,7616,2,0,P|351:174|274:182,1,123.9,2|0,2:0|2:0,2:0:0:0:
221,136,8168,2,0,L|213:204,1,61.9499999999999,2|0,2:0|2:0,2:0:0:0:
271,309,8536,6,0,P|224:297|136:291,1,123.9,2|0,2:0|2:0,2:0:0:0:
92,228,9088,2,0,L|14:257,1,61.9499999999999,2|0,2:0|2:0,2:0:0:0:
170,204,9456,1,0,2:0:0:0:
249,215,9640,1,2,2:0:0:0:
325,233,9824,1,2,2:0:0:0:
384,291,10008,6,0,P|363:222|352:151,1,123.9,2|0,2:0|2:0,2:0:0:0:
367,30,10560,2,0,L|358:104,1,61.9499999999999,2|0,2:0|2:0,2:0:0:0:
274,110,10929,2,0,L|283:38,1,61.9499999999999,0|2,2:0|2:0,2:0:0:0:
281,48,11297,1,0,2:0:0:0:
185,156,11481,6,0,L|167:19,1,123.9,2|0,2:0|2:0,2:0:0:0:
78,96,12033,2,0,P|41:89|5:90,1,61.9499999999999,2|0,2:0|2:0,2:0:0:0:
39,182,12401,1,0,2:0:0:0:
119,192,12585,1,2,2:0:0:0:
196,202,12769,1,2,2:0:0:0:
119,192,12953,6,0,P|160:188|250:171,1,123.9,2|0,2:0|2:0,2:0:0:0:
362,147,13505,1,2,2:0:0:0:
280,368,13873,5,0,2:0:0:0:
266,292,14057,1,2,2:0:0:0:
244,218,14241,1,2,2:0:0:0:
244,210,14333,1,2,2:0:0:0:
244,202,14425,2,0,L|261:68,1,123.9,2|0,2:0|2:0,2:0:0:0:
347,97,14978,2,0,P|384:90|420:91,1,61.9499999999999,2|0,2:0|2:0,2:0:0:0:
473,182,15346,1,0,2:0:0:0:
393,192,15530,1,2,2:0:0:0:
314,201,15714,1,2,2:0:0:0:
393,192,15898,6,0,P|352:188|262:171,1,123.9,2|0,2:0|2:0,2:0:0:0:
241,252,16450,2,0,P|212:255|162:269,1,61.9499999999999,2|0,2:0|2:0,2:0:0:0:
110,301,16818,1,0,2:0:0:0:
120,215,17002,1,2,2:0:0:0:
127,129,17186,1,2,2:0:0:0:
120,215,17370,6,0,L|40:236,1,70.8,2|2,2:0|2:0,2:0:0:0:
226,155,17738,2,0,L|306:176,1,70.8,2|0,2:0|2:0,2:0:0:0:
495,115,18106,2,0,P|459:134|366:128,1,106.2,2|0,2:0|2:0,2:0:0:0:
394,137,18475,1,2,2:0:0:0:
255,74,18659,1,2,2:0:0:0:
254,67,18745,1,2,2:0:0:0:
253,60,18831,1,12,2:1:0:0:
461,41,19015,1,0,3:0:0:0:
406,240,19199,1,0,1:0:0:0:
185,122,19383,6,0,P|168:94|173:44,1,79.6500000000001,8|0,3:0|3:0,2:0:0:0:
308,155,19751,1,0,1:0:0:0:
171,244,19935,1,4,3:0:0:0:
297,283,20119,1,0,3:0:0:0:
297,283,20211,1,0,3:0:0:0:
297,283,20303,1,0,1:0:0:0:
103,332,20487,1,8,3:0:0:0:
351,379,20671,2,0,L|453:354,1,79.6500000000001,0|0,3:0|1:0,2:0:0:0:
251,349,21039,2,0,L|168:372,1,79.6500000000001,4|0,3:0|1:0,2:0:0:0:
25,265,21407,5,12,2:3:0:0:
31,211,21499,1,8,2:0:0:0:
72,175,21591,1,8,2:1:0:0:
129,166,21683,1,8,3:1:0:0:
179,188,21775,2,0,L|199:273,1,79.6500000000001,12|0,2:1|3:0,2:0:0:0:
362,158,22143,1,0,1:0:0:0:
453,286,22327,2,0,B|410:183|475:216|445:111,1,159.3,8|0,3:0|1:0,2:0:0:0:
271,126,22880,2,0,L|264:218,1,79.6500000000001,4|0,3:0|3:0,2:0:0:0:
334,301,23248,5,0,1:0:0:0:
214,363,23432,1,8,3:0:0:0:
99,285,23616,2,0,B|107:192,1,79.6500000000001,0|0,3:0|1:0,2:0:0:0:
113,17,23984,2,0,P|121:53|149:92,1,79.649997569275,4|0,3:0|1:0,2:0:0:0:
320,178,24352,6,12,L|269:178,1,39.8249987846375,12|8,2:3|2:0,2:3:0:0:
201,154,24536,2,0,L|199:208,2,39.8249987846375,8|8|12,2:1|3:1|2:1,2:1:0:0:
64,110,24904,1,0,3:0:0:0:
183,347,25088,1,0,1:0:0:0:
406,196,25272,2,0,P|406:153|386:118,1,79.649997569275,8|0,3:0|3:0,2:0:0:0:
206,50,25640,1,0,1:0:0:0:
138,172,25824,2,0,P|133:208|152:252,1,79.649997569275,4|0,3:0|3:0,2:0:0:0:
237,149,26192,5,0,1:0:0:0:
105,82,26377,1,8,3:0:0:0:
290,17,26561,2,0,P|302:63|296:96,1,79.6500000000001,0|0,3:0|1:0,2:0:0:0:
50,216,26929,2,0,P|38:170|44:137,1,79.6500000000001,4|0,3:0|1:0,2:0:0:0:
339,234,27297,6,12,L|288:232,1,39.8249987846375,12|8,2:3|2:0,2:3:0:0:
219,209,27481,2,0,L|217:263,2,39.8249987846375,8|8|12,2:1|3:1|2:1,2:1:0:0:
123,168,27849,1,0,3:0:0:0:
239,366,28033,1,0,1:0:0:0:
481,160,28217,2,0,L|306:144,1,159.29999513855,8|0,3:0|1:0,2:0:0:0:
196,10,28769,6,0,P|175:55|184:104,1,79.6500000000001,4|0,3:0|3:0,2:0:0:0:
215,364,29137,2,0,P|234:321|232:282,1,79.6500000000001,0|0,1:0|3:0,2:0:0:0:
193,209,29505,1,8,1:2:0:0:
268,149,29689,1,8,3:2:0:0:
177,85,29873,5,8,1:0:0:0:
378,132,30057,1,8,1:2:0:0:
318,326,30242,1,8,1:0:0:0:
117,274,30426,1,8,1:0:0:0:
318,326,30610,6,0,L|429:309,1,88.5000000000001,4|0,1:0|3:0,2:0:0:0:
184,374,30978,1,10,2:1:0:0:
21,330,31162,2,0,P|10:250|87:180,1,177,0|0,1:0|1:0,2:0:0:0:
7,91,31714,2,0,L|101:74,1,88.5000000000001,10|0,2:1|3:0,2:0:0:0:
94,75,31990,1,0,3:0:0:0:
94,75,32082,5,2,2:0:0:0:
246,150,32266,1,0,1:0:0:0:
432,94,32450,2,0,P|444:42|423:5,1,88.5000000000001,10|0,2:1|2:0,2:0:0:0:
324,17,32818,2,0,P|312:69|333:106,1,88.5000000000001,2|0,1:2|1:0,2:0:0:0:
459,200,33186,1,10,2:1:0:0:
284,245,33370,1,0,1:0:0:0:
284,245,33462,1,8,2:1:0:0:
284,245,33554,2,0,L|172:226,1,88.5000000000001,4|0,1:2|3:0,2:0:0:0:
482,293,33923,5,10,2:1:0:0:
393,346,34107,2,0,B|411:230|349:285|368:158,1,177,0|0,1:0|1:0,2:0:0:0:
293,328,34659,1,10,2:1:0:0:
195,315,34843,1,0,1:0:0:0:
98,295,35027,2,0,L|-1:315,1,88.5000000000001,2|0,2:0|3:0,2:0:0:0:
222,171,35395,2,0,L|335:150,1,88.5000000000001,10|0,2:1|2:0,2:0:0:0:
108,195,35763,1,2,1:2:0:0:
202,68,35947,1,0,1:0:0:0:
86,90,36131,1,10,2:1:0:0:
288,117,36315,5,0,3:0:0:0:
295,114,36407,1,0,3:1:0:0:
303,111,36499,1,4,1:0:0:0:
15,193,36683,1,0,3:0:0:0:
191,361,36867,1,10,2:1:0:0:
263,237,37051,1,0,1:0:0:0:
101,228,37235,6,0,L|80:326,1,88.5000000000001,2|0,2:0|1:0,2:0:0:0:
429,314,37604,2,0,L|411:228,1,88.5000000000001,10|0,2:1|3:0,2:0:0:0:
411,228,37880,1,0,3:0:0:0:
411,228,37972,1,2,2:0:0:0:
256,315,38156,1,0,1:0:0:0:
166,67,38340,6,0,L|145:165,1,88.5000000000001,10|0,2:1|2:0,2:0:0:0:
329,247,38708,1,2,1:2:0:0:
181,248,38892,1,0,1:0:0:0:
373,155,39076,2,0,L|355:69,1,88.5000000000001,10|0,2:1|3:0,2:0:0:0:
267,19,39444,5,2,1:0:0:0:
176,144,39628,1,0,3:0:0:0:
183,188,39720,1,8,2:1:0:0:
189,230,39812,1,8,2:1:0:0:
295,197,39996,5,8,2:3:0:0:
292,246,40088,1,4,2:3:0:0:
282,288,40180,1,8,2:1:0:0:
281,330,40272,1,8,2:1:0:0:
273,372,40364,1,8,2:3:0:0:
399,323,40548,5,8,2:3:0:0:
126,290,40732,1,8,2:1:0:0:
126,290,40824,1,8,2:3:0:0:
126,290,40916,2,0,B|92:227|129:167|176:173|211:207|184:236,1,185.85,2|0,2:2|2:0,2:0:0:0:
188,229,41656,2,0,B|114:218|114:218|102:220|102:220|26:210,1,159.3,2|0,2:0|2:0,2:0:0:0:
401,215,42397,6,0,L|502:223,1,88.5,4|0,1:0|1:0,2:0:0:0:
255,154,42767,1,10,2:1:0:0:
202,363,42952,2,0,P|315:335|336:264,1,177,0|0,1:0|3:0,2:0:0:0:
147,177,43508,1,10,2:1:0:0:
340,90,43693,1,0,3:0:0:0:
225,269,43878,5,2,2:0:0:0:
49,215,44059,1,0,1:0:0:0:
254,75,44241,1,10,2:1:0:0:
76,27,44423,1,0,2:0:0:0:
276,202,44605,5,2,1:2:0:0:
7,136,44787,1,0,1:0:0:0:
254,75,44968,1,10,2:1:0:0:
76,27,45150,1,0,3:0:0:0:
78,19,45241,1,0,3:0:0:0:
80,13,45332,2,0,L|91:106,1,88.5,2|0,1:2|1:0,2:0:0:0:
406,25,45702,2,0,L|395:118,1,88.5,10|0,2:1|1:0,2:0:0:0:
239,177,46072,5,2,2:0:0:0:
225,54,46257,1,0,3:0:0:0:
417,219,46443,1,10,2:1:0:0:
203,334,46628,1,0,1:0:0:0:
489,271,46813,6,0,P|504:217|493:168,1,88.5,2|0,2:0|3:0,2:0:0:0:
316,321,47178,2,0,P|374:337|416:329,1,88.5,10|0,2:1|2:0,2:0:0:0:
435,106,47544,2,0,B|226:126,1,177,2|10,1:2|2:1,2:0:0:0:
14,34,48093,5,0,3:0:0:0:
17,42,48184,1,8,2:1:0:0:
21,50,48276,1,4,1:0:0:0:
165,12,48462,1,0,1:0:0:0:
132,150,48648,1,10,2:1:0:0:
101,70,48835,1,0,1:0:0:0:
302,98,49021,5,2,2:0:0:0:
261,306,49207,1,0,3:0:0:0:
53,201,49394,1,10,2:1:0:0:
206,182,49580,1,0,3:0:0:0:
407,193,49766,6,0,L|503:206,1,88.5,2|0,2:0|1:0,2:0:0:0:
318,126,50134,2,0,P|293:170|295:233,1,88.5,10|0,2:1|2:0,2:0:0:0:
441,321,50502,1,2,1:2:0:0:
496,114,50686,1,0,1:0:0:0:
206,182,50870,2,0,P|128:190|41:202,1,132.75,10|0,2:1|2:0,2:0:0:0:
74,197,51238,5,2,1:2:0:0:
96,363,51420,1,0,1:0:0:0:
241,294,51603,1,10,2:1:0:0:
107,110,51786,5,0,1:0:0:0:
15,322,51969,1,2,2:0:0:0:
259,375,52152,1,0,3:0:0:0:
262,370,52244,1,0,3:0:0:0:
266,365,52335,2,0,B|271:301|270:207,1,132.75,10|0,2:1|2:0,2:0:0:0:
270,225,52701,5,4,1:2:0:0:
234,32,52882,1,0,3:0:0:0:
108,153,53064,1,10,2:1:0:0:
383,93,53246,1,0,3:0:0:0:
100,59,53428,5,6,1:2:0:0:
400,186,53615,1,8,2:1:0:0:
407,185,53709,1,8,2:1:0:0:
414,184,53803,2,0,L|468:173,1,44.25,8|8,1:2|2:1,2:0:0:0:
320,152,53990,6,0,L|249:137,1,44.25,8|8,2:3|2:1,2:0:0:0:
184,97,54178,6,0,L|206:203,1,88.5,4|0,1:0|1:0,2:0:0:0:
458,85,54543,1,10,2:1:0:0:
508,282,54726,2,0,P|420:266|291:263,1,177,0|0,1:0|1:0,2:0:0:0:
101,257,55275,1,10,2:1:0:0:
1,325,55458,1,0,3:0:0:0:
140,150,55641,5,2,2:0:0:0:
1,325,55824,1,0,1:0:0:0:
221,260,56007,1,10,2:1:0:0:
0,193,56190,1,0,2:0:0:0:
129,369,56373,5,2,1:2:0:0:
55,121,56556,1,0,1:0:0:0:
288,185,56738,1,10,2:1:0:0:
95,283,56921,1,0,3:0:0:0:
96,290,57013,1,8,2:1:0:0:
97,298,57104,2,0,L|76:200,1,88.5,2|0,1:2|1:0,2:0:0:0:
412,295,57472,2,0,L|423:202,1,88.5,10|0,2:1|1:0,2:0:0:0:
171,148,57840,5,2,2:0:0:0:
430,117,58024,1,0,3:0:0:0:
282,32,58208,1,10,2:1:0:0:
305,232,58392,1,0,1:0:0:0:
501,170,58576,6,0,P|516:116|505:67,1,88.5,2|0,2:0|3:0,2:0:0:0:
282,32,58944,2,0,P|327:27|371:41,1,88.5,10|0,2:1|2:0,2:0:0:0:
186,241,59312,2,0,P|140:245|96:231,1,88.5,2|0,1:2|1:0,2:0:0:0:
24,60,59680,2,0,P|10:115|26:205,1,132.75,10|0,2:1|2:0,2:0:0:0:
22,195,60048,5,4,1:2:0:0:
237,149,60232,1,0,1:0:0:0:
446,215,60416,2,0,P|456:265|447:329,1,88.5,10|0,2:1|1:0,2:0:0:0:
232,356,60784,5,2,2:0:0:0:
167,217,60969,1,0,3:0:0:0:
321,236,61153,1,10,2:1:0:0:
245,278,61337,1,0,1:0:0:0:
245,278,61429,1,8,2:1:0:0:
245,278,61521,5,2,2:0:0:0:
137,39,61703,1,0,1:0:0:0:
384,174,61886,1,10,2:1:0:0:
118,204,62069,1,0,2:0:0:0:
311,20,62252,2,0,P|357:12|417:28,1,88.5,2|0,1:2|1:0,2:0:0:0:
241,207,62618,2,0,P|223:169|245:70,1,132.75,10|0,2:1|2:0,2:0:0:0:
240,76,62984,5,2,3:2:0:0:
486,127,63169,1,0,1:0:0:0:
276,278,63354,1,10,2:1:0:0:
449,325,63539,1,0,1:2:0:0:
449,325,63632,1,0,1:1:0:0:
449,325,63724,1,2,2:0:0:0:
320,138,63909,5,0,1:2:0:0:
360,263,64095,1,10,2:1:0:0:
458,175,64280,1,0,3:0:0:0:
409,54,64465,1,10,2:1:0:0:
323,40,64648,1,8,2:3:0:0:
237,76,64831,1,8,2:1:0:0:
154,41,65015,1,8,2:3:0:0:
111,53,65107,1,8,2:0:0:0:
69,66,65198,2,0,L|17:50,1,44.25,8|0,3:0|2:0,2:0:0:0:
58,163,65382,5,8,2:3:0:0:
110,177,65474,1,8,2:0:0:0:
159,165,65565,1,8,2:0:0:0:
200,124,65657,1,8,2:1:0:0:
237,76,65749,1,4,2:3:0:0:
298,59,65841,1,4,2:3:0:0:
356,77,65932,5,12,2:1:0:0:
416,199,66119,1,0,3:0:0:0:
511,49,66307,2,0,P|469:26|405:29,1,88.5,0|8,1:0|3:0,2:0:0:0:
350,264,66670,2,0,P|392:287|456:284,1,88.5,0|0,3:0|1:0,2:0:0:0:
329,159,67040,5,4,3:0:0:0:
447,112,67225,1,0,3:0:0:0:
447,112,67318,1,0,3:0:0:0:
447,112,67410,1,0,1:0:0:0:
512,292,67595,1,8,3:0:0:0:
311,350,67780,2,0,P|269:364|216:344,1,88.5,0|0,3:0|1:0,2:0:0:0:
228,77,68150,2,0,P|186:63|133:83,1,88.5,4|0,3:0|1:0,2:0:0:0:
2,198,68521,1,12,2:3:0:0:
227,352,68706,1,8,2:1:0:0:
227,352,68798,1,8,3:1:0:0:
227,352,68891,6,0,L|235:251,1,88.5,12|0,2:1|3:0,2:0:0:0:
474,188,69256,1,0,1:0:0:0:
340,105,69439,2,0,B|303:196|378:196|331:297,1,177,8|0,3:0|1:0,2:0:0:0:
468,363,69988,2,0,L|477:263,1,88.5,4|0,3:0|3:0,2:0:0:0:
376,176,70354,5,0,1:0:0:0:
234,193,70540,1,8,3:0:0:0:
100,210,70726,2,0,B|-2:226,1,88.5,0|0,3:0|1:0,2:0:0:0:
242,24,71099,2,0,P|265:65|257:119,1,88.5,4|0,3:0|1:0,2:0:0:0:
169,83,71472,5,12,2:3:0:0:
359,113,71658,1,8,2:1:0:0:
359,113,71751,1,8,3:1:0:0:
359,113,71844,1,12,2:1:0:0:
168,230,72026,1,0,3:0:0:0:
301,261,72209,1,0,1:0:0:0:
202,354,72392,2,0,P|151:361|104:337,1,88.5,8|0,3:0|3:0,2:0:0:0:
34,230,72758,1,0,1:0:0:0:
136,112,72941,2,0,P|187:105|234:129,1,88.5,4|0,3:0|3:0,2:0:0:0:
410,237,73307,5,0,1:0:0:0:
232,272,73490,1,8,3:0:0:0:
379,341,73673,2,0,P|430:342|480:324,1,88.5,0|0,3:0|1:0,2:0:0:0:
439,138,74039,2,0,P|388:137|338:155,1,88.5,4|0,3:0|1:0,2:0:0:0:
224,184,74404,5,12,2:3:0:0:
259,41,74587,1,8,2:1:0:0:
260,32,74679,1,8,3:1:0:0:
261,25,74770,1,12,2:1:0:0:
342,253,74954,1,0,3:0:0:0:
73,220,75138,1,0,1:0:0:0:
224,184,75322,2,0,B|266:263|187:268|239:366,1,177,8|0,3:0|1:0,2:0:0:0:
2,267,75874,2,0,P|-8:195|33:139,1,132.75,12|0,2:1|2:0,2:0:0:0:
22,146,76242,5,0,1:0:0:0:
125,111,76427,1,0,3:0:0:0:
203,196,76613,1,8,1:2:0:0:
301,147,76799,1,8,3:2:0:0:
374,236,76985,5,8,1:0:0:0:
251,27,77170,1,8,1:2:0:0:
236,282,77356,1,8,1:0:0:0:
407,88,77542,1,8,1:0:0:0:
137,139,77728,6,0,L|36:121,1,88.5,4|0,1:0|3:0,2:0:0:0:
144,12,78096,1,10,2:1:0:0:
269,113,78280,2,0,B|284:192|214:213|235:281,1,177,0|0,1:0|1:0,2:0:0:0:
361,259,78832,2,0,L|453:248,1,88.5,10|0,2:1|3:0,2:0:0:0:
448,248,79108,1,0,3:0:0:0:
448,248,79200,5,2,2:0:0:0:
425,119,79384,1,0,1:0:0:0:
166,138,79568,5,10,2:1:0:0:
253,360,79752,1,0,2:0:0:0:
335,198,79936,1,2,1:0:0:0:
85,297,80120,1,0,1:0:0:0:
267,275,80304,5,10,2:1:0:0:
151,225,80488,1,0,1:0:0:0:
151,225,80580,1,8,0:1:0:0:
151,225,80672,2,0,L|39:206,1,88.5,4|0,1:0|3:0,2:0:0:0:
354,67,81040,1,10,2:1:0:0:
227,16,81224,2,0,B|251:222,1,177,0|0,1:0|1:0,2:0:0:0:
328,363,81777,1,10,2:1:0:0:
493,238,81961,1,0,3:0:0:0:
366,175,82145,5,8,1:3:0:0:
445,342,82324,1,0,3:0:0:0:
445,342,82414,1,8,2:1:0:0:
445,342,82504,2,0,L|494:330,1,44.25,8|0,2:1|2:0,2:0:0:0:
399,268,82683,5,4,2:3:0:0:
399,268,82773,1,4,2:3:0:0:
399,268,82863,2,0,L|336:239,1,44.25,12|8,2:3|2:1,2:0:0:0:
326,323,83043,6,0,L|337:370,1,44.25,8|8,2:0|2:0,2:0:0:0:
255,269,83222,6,0,L|276:219,1,44.25,8|8,3:1|2:1,2:0:0:0:
192,325,83402,6,0,L|119:344,1,44.25,8|0,2:1|2:0,2:0:0:0:
