osu file format v14

[General]
AudioFilename: audio.mp3
AudioLeadIn: 0
PreviewTime: 40026
Countdown: 0
SampleSet: Soft
StackLeniency: 0.7
Mode: 2
LetterboxInBreaks: 0
WidescreenStoryboard: 1

[Editor]
Bookmarks: 15329,28390,41451
DistanceSpacing: 1
BeatDivisor: 4
GridSize: 32
TimelineZoom: 1.3

[Metadata]
Title:CHAINSAW BLOOD (TV Size)
TitleUnicode:CHAINSAW BLOOD (TV Size)
Artist:Vaundy
ArtistUnicode:Vaundy
Creator:Zuid-Afrikaan
Version:Salad
Source:チェンソーマン
Tags:chainsaw man anime ed ending 1 one first japanese male vocals rock jrock j-rock
BeatmapID:3845371
BeatmapSetID:1869045

[Difficulty]
HPDrainRate:3
CircleSize:3
OverallDifficulty:6.8
ApproachRate:6.8
SliderMultiplier:1.9
SliderTickRate:1

[Events]
//Background and Video events
0,0,"1126211.jpg",0,0
//Break Periods
//Storyboard Layer 0 (Background)
//Storyboard Layer 1 (Fail)
//Storyboard Layer 2 (Pass)
//Storyboard Layer 3 (Foreground)
//Storyboard Layer 4 (Overlay)
//Storyboard Sound Samples

[TimingPoints]
818,408.163265306122,4,2,1,50,1,0
2450,408.163265306122,4,2,1,50,1,0
15307,-100,4,2,1,65,0,0
28980,-100,4,2,1,50,0,0
38164,-100,4,2,1,65,0,0
40001,-100,4,2,1,80,0,0
41429,-100,4,2,1,90,0,1
54592,-100,4,2,1,90,0,0
54694,-100,4,2,1,90,0,1
66225,-100,4,2,1,5,0,1
66327,-100,4,2,1,90,0,1
67654,-100,4,2,1,90,0,0
67756,-100,4,2,1,90,0,1
74388,-100,4,2,1,5,0,1
74490,-100,4,2,1,90,0,1
80613,-100,4,2,1,65,0,0

[Colours]
Combo1 : 149,0,0
Combo2 : 0,128,255
Combo3 : 198,198,0
Combo4 : 0,0,149

[HitObjects]
256,192,818,12,0,1634,2:0:0:0:
230,280,2042,5,8,2:0:0:0:
115,268,2246,6,0,L|104:51,1,190,4|2,1:2|1:2,2:0:0:0:
196,68,2858,1,10,2:0:0:0:
383,63,3266,2,0,L|504:58,2,95,2|2|8,1:2|2:0|2:0,2:0:0:0:
295,236,3878,6,0,L|285:42,1,190,2|2,2:0|2:0,2:0:0:0:
100,131,4694,2,0,P|38:90|105:25,1,190,2|2,2:0|2:0,2:0:0:0:
168,30,5307,1,10,2:0:0:0:
74,263,5511,6,0,L|64:66,1,190,2|2,2:0|2:0,2:0:0:0:
156,65,6123,1,8,2:0:0:0:
349,175,6531,2,0,L|356:63,1,95,2|2,1:2|2:0,2:0:0:0:
272,80,6939,1,10,2:0:0:0:
180,26,7143,6,0,L|375:19,1,190,2|2,2:0|2:0,2:0:0:0:
175,237,7960,2,0,P|114:188|189:117,1,190,2|2,2:0|2:0,2:0:0:0:
355,69,8776,6,0,L|129:61,1,190,2|2,2:0|2:0,2:0:0:0:
259,143,9388,1,10,2:0:0:0:
82,259,9796,2,0,L|77:152,1,95,2|2,1:2|2:0,2:0:0:0:
173,158,10205,1,8,2:0:0:0:
278,149,10409,6,0,L|490:146,1,190,2|2,2:0|2:0,2:0:0:0:
280,248,11225,2,0,L|474:238,1,190,2|2,2:0|2:0,2:0:0:0:
472,171,11837,1,10,2:0:0:0:
377,151,12041,6,0,L|166:143,1,190,2|2,2:0|2:0,2:0:0:0:
284,80,12654,1,8,2:0:0:0:
146,103,13062,2,0,L|138:2,1,95,2|2,1:2|2:0,2:0:0:0:
228,34,13470,1,10,2:0:0:0:
136,194,13674,6,0,P|82:187|36:61,1,190,2|2,3:2|2:0,2:0:0:0:
228,292,14490,2,0,L|7:279,1,190,2|2,2:0|2:0,2:0:0:0:
377,255,15307,6,0,P|446:255|486:135,1,190,6|2,2:0|2:0,2:0:0:0:
400,166,15919,2,0,L|395:56,1,95,10|2,2:0|2:0,2:0:0:0:
487,270,16327,2,0,P|482:205|355:148,1,190,2|10,1:2|2:0,2:0:0:0:
191,126,17143,6,0,L|63:125,2,95,2|2|8,1:2|2:0|2:0,2:0:0:0:
293,230,17756,2,0,P|368:223|406:98,1,190,2|2,2:0|2:0,2:0:0:0:
87,251,18572,6,0,L|79:55,1,190,2|2,2:0|2:0,2:0:0:0:
173,173,19184,2,0,L|284:173,2,95,10|2|2,2:0|2:0|1:2,2:0:0:0:
353,175,20001,2,0,L|358:60,1,95,10|2,2:0|2:0,2:0:0:0:
254,122,20409,6,0,L|251:19,1,95,2|2,1:2|2:0,2:0:0:0:
349,52,20817,1,10,2:0:0:0:
445,174,21021,2,0,P|444:118|332:60,1,190,2|2,2:0|2:0,2:0:0:0:
16,183,21837,6,0,P|19:113|122:57,1,190,2|2,2:0|2:0,2:0:0:0:
213,165,22449,2,0,L|313:159,1,95,10|2,2:0|2:0,2:0:0:0:
405,94,22858,2,0,L|209:83,1,190,2|10,1:2|2:0,2:0:0:0:
29,166,23674,6,0,L|23:50,1,95,2|2,1:2|2:0,2:0:0:0:
122,109,24082,1,8,2:0:0:0:
218,53,24286,2,0,L|19:45,1,190,2|2,2:0|2:0,2:0:0:0:
367,307,25103,6,0,P|418:254|337:180,1,190,2|2,2:0|2:0,2:0:0:0:
258,113,25715,2,0,L|359:110,1,95,10|2,2:0|2:0,2:0:0:0:
449,44,26123,2,0,L|252:40,1,190,2|10,1:2|2:0,2:0:0:0:
459,233,26939,6,0,L|464:119,1,95,2|2,1:2|2:0,2:0:0:0:
369,134,27347,1,10,2:0:0:0:
275,126,27552,2,0,L|80:119,1,190,2|2,2:0|2:0,2:0:0:0:
80,51,28164,1,0,2:0:0:0:
273,51,28368,6,0,L|377:49,1,95,10|4,2:0|1:2,2:0:0:0:
170,246,28980,2,0,P|104:188|168:136,1,190,2|10,2:0|2:0,2:0:0:0:
355,122,29796,2,0,L|245:116,1,95,2|2,2:0|2:0,2:0:0:0:
33,89,30613,6,0,L|253:81,1,190,2|10,2:0|2:0,2:0:0:0:
316,254,31225,2,0,L|321:154,1,95,2|2,2:0|2:0,2:0:0:0:
132,143,31633,1,2,2:0:0:0:
132,218,32041,5,2,2:0:0:0:
42,206,32245,1,2,2:0:0:0:
10,123,32449,1,2,1:2:0:0:
42,45,32654,1,10,2:0:0:0:
133,34,32858,1,2,2:0:0:0:
275,36,33266,6,0,L|487:26,3,190,2|2|0|2,2:0|2:0|1:0|2:0,2:0:0:0:
134,208,34898,6,0,P|68:148|137:99,1,190,2|0,2:0|2:0,2:0:0:0:
222,71,35511,2,0,L|441:68,2,190,2|10|2,2:0|2:0|2:0,2:0:0:0:
215,147,36531,1,2,2:0:0:0:
399,194,36939,6,0,L|502:192,2,95,2|2|2,2:0|2:0|1:2,2:0:0:0:
302,180,37552,1,10,2:0:0:0:
204,180,37756,2,0,L|193:59,1,95,2|2,2:0|2:0,2:0:0:0:
383,74,38164,5,6,2:0:0:0:
393,301,38572,2,0,L|282:308,1,95,2|10,1:2|2:0,2:0:0:0:
177,248,39184,1,2,1:2:0:0:
271,239,39388,1,2,1:2:0:0:
366,231,39592,1,10,2:0:0:0:
49,257,40001,6,0,P|17:175|72:78,1,190,10|8,2:0|2:0,2:0:0:0:
378,308,40817,1,10,2:0:0:0:
466,285,41021,1,0,1:0:0:0:
495,199,41225,1,0,1:0:0:0:
309,198,41429,6,0,L|94:189,1,190,2|2,1:2|1:2,2:0:0:0:
216,129,42041,1,10,2:0:0:0:
349,69,42449,2,0,L|150:59,1,190,2|10,1:2|2:0,2:0:0:0:
150,119,43062,1,2,2:0:0:0:
335,302,43266,6,0,P|408:286|448:175,1,190,2|10,1:2|2:0,2:0:0:0:
277,192,44082,2,0,L|170:188,2,95,2|2|10,1:2|2:0|2:0,2:0:0:0:
462,199,44694,6,0,P|491:122|450:28,1,190,2|2,2:0|2:0,2:0:0:0:
354,27,45307,1,10,2:0:0:0:
165,121,45715,2,0,L|395:122,1,190,2|10,1:2|2:0,2:0:0:0:
362,56,46327,1,2,2:0:0:0:
174,272,46531,6,0,P|166:212|265:152,1,190,2|10,1:2|2:0,2:0:0:0:
441,181,47347,2,0,L|444:78,1,95,2|2,1:2|2:0,2:0:0:0:
351,71,47756,1,10,2:0:0:0:
159,233,47960,6,0,P|104:181|177:112,1,190,14|2,2:0|2:0,2:0:0:0:
358,112,48776,2,0,L|142:99,1,190,2|0,2:0|2:0,2:0:0:0:
488,325,49592,6,0,P|491:246|397:211,1,190,2|0,2:0|2:0,2:0:0:0:
213,316,50409,2,0,P|137:300|96:182,1,190,2|0,2:0|2:0,2:0:0:0:
425,146,51225,6,0,L|212:110,1,190,2|2,2:0|2:0,2:0:0:0:
141,82,51837,1,10,2:0:0:0:
334,315,52245,2,0,L|337:121,1,190,2|10,1:2|2:0,2:0:0:0:
151,281,52858,6,0,L|156:86,1,190,2|2,2:0|2:0,2:0:0:0:
251,66,53470,1,10,2:0:0:0:
397,239,53878,2,0,P|453:186|389:106,1,190,2|10,1:2|2:0,2:0:0:0:
305,83,54490,1,0,1:2:0:0:
121,276,54694,6,0,P|49:259|13:152,1,190,6|10,2:0|2:0,2:0:0:0:
163,69,55511,2,0,L|362:59,1,190,2|10,1:2|2:0,2:0:0:0:
362,119,56123,1,2,2:0:0:0:
177,302,56327,6,0,P|104:286|64:175,1,190,2|10,1:2|2:0,2:0:0:0:
235,192,57143,2,0,L|342:188,2,95,2|2|10,1:2|2:0|2:0,2:0:0:0:
50,199,57756,6,0,P|21:122|62:28,1,190,2|2,2:0|2:0,2:0:0:0:
158,27,58368,1,10,2:0:0:0:
347,121,58776,2,0,L|117:122,1,190,2|10,1:2|2:0,2:0:0:0:
150,56,59388,1,2,2:0:0:0:
338,272,59592,6,0,P|346:212|247:152,1,190,2|10,1:2|2:0,2:0:0:0:
71,181,60409,2,0,L|68:78,1,95,2|2,1:2|2:0,2:0:0:0:
161,71,60817,1,10,2:0:0:0:
353,233,61021,6,0,P|408:181|335:112,1,190,14|2,2:0|2:0,2:0:0:0:
154,112,61837,2,0,L|370:99,1,190,2|0,2:0|2:0,2:0:0:0:
24,325,62654,6,0,P|21:246|115:211,1,190,2|0,2:0|2:0,2:0:0:0:
299,316,63470,2,0,P|375:300|416:182,1,190,2|0,2:0|2:0,2:0:0:0:
87,146,64286,6,0,L|300:110,1,190,2|2,2:0|2:0,2:0:0:0:
371,82,64898,1,10,2:0:0:0:
178,315,65307,2,0,L|175:121,1,190,2|10,1:2|2:0,2:0:0:0:
362,263,65919,6,0,L|357:68,1,190,2|2,2:0|2:0,2:0:0:0:
261,66,66531,1,10,2:0:0:0:
113,239,66939,2,0,P|55:219|28:90,1,190,2|10,1:2|2:0,2:0:0:0:
117,101,67552,1,0,1:2:0:0:
300,81,67756,6,0,L|106:46,1,190,6|10,2:0|2:0,2:0:0:0:
293,196,68572,2,0,L|498:183,1,190,2|10,1:2|2:0,2:0:0:0:
494,105,69184,1,2,2:0:0:0:
306,117,69388,5,2,1:2:0:0:
114,318,69796,1,10,2:0:0:0:
105,224,70001,1,2,2:0:0:0:
139,135,70205,1,2,1:2:0:0:
206,70,70409,1,2,2:0:0:0:
296,40,70613,1,10,2:0:0:0:
484,43,70817,5,2,2:0:0:0:
493,163,71225,1,2,2:0:0:0:
398,165,71429,1,10,2:0:0:0:
303,167,71633,1,2,2:0:0:0:
397,306,71837,2,0,P|452:258|389:176,1,190,2|10,1:2|2:0,2:0:0:0:
303,167,72449,1,2,2:0:0:0:
116,165,72654,5,2,1:2:0:0:
262,296,73062,1,10,2:0:0:0:
355,291,73266,1,2,2:0:0:0:
437,243,73470,1,2,1:2:0:0:
486,163,73674,1,2,2:0:0:0:
494,69,73878,1,10,2:0:0:0:
303,84,74082,6,0,L|105:79,1,190,14|2,2:0|2:0,2:0:0:0:
462,333,74898,2,0,L|470:118,1,190,2|0,2:0|2:0,2:0:0:0:
160,141,75715,6,0,P|73:124|25:35,1,190,2|0,2:0|1:0,2:0:0:0:
212,178,76531,2,0,L|20:175,1,190,2|0,2:0|1:0,2:0:0:0:
16,114,77143,1,8,2:0:0:0:
207,295,77347,6,0,L|431:284,1,190,2|2,2:0|2:0,2:0:0:0:
495,214,77960,2,0,L|288:208,1,190,10|2,2:0|1:2,2:0:0:0:
117,188,78776,1,10,2:0:0:0:
307,177,78980,6,0,P|377:146|416:31,1,190,2|2,2:0|2:0,2:0:0:0:
320,108,79592,2,0,L|313:8,1,95,10|2,2:0|2:0,2:0:0:0:
403,292,80001,2,0,L|409:189,1,95,2|0,1:2|1:2,2:0:0:0:
314,187,80409,1,10,2:0:0:0:
114,187,80613,5,4,1:2:0:0:
97,67,81021,2,0,L|214:63,1,95,2|10,1:2|2:0,2:0:0:0:
376,201,81633,2,0,L|448:132,2,95,2|2|8,1:2|2:0|2:0,2:0:0:0:
282,209,82245,6,0,P|209:204|162:88,1,190,2|2,2:0|2:0,2:0:0:0:
328,136,83062,2,0,L|123:129,1,190,2|2,2:0|2:0,2:0:0:0:
453,323,83878,6,0,P|452:256|345:207,1,190,2|2,2:0|2:0,2:0:0:0:
258,204,84490,1,8,2:0:0:0:
436,183,84898,2,0,L|444:74,1,95,2|2,1:2|2:0,2:0:0:0:
341,77,85307,1,10,2:0:0:0:
140,80,85511,6,0,L|43:77,1,95,2|8,2:0|2:0,2:0:0:0:
39,9,85919,1,2,3:2:0:0:
226,22,86327,1,2,3:2:0:0:
33,252,86735,2,0,L|31:154,1,95,8|0,2:0|1:2,2:0:0:0:
218,137,87143,5,4,1:0:0:0:
