osu file format v14

[General]
AudioFilename: audio.mp3
AudioLeadIn: 0
PreviewTime: 40026
Countdown: 0
SampleSet: Soft
StackLeniency: 0.7
Mode: 2
LetterboxInBreaks: 0
WidescreenStoryboard: 0

[Editor]
Bookmarks: 15329,28390,41451
DistanceSpacing: 1
BeatDivisor: 4
GridSize: 32
TimelineZoom: 1.2

[Metadata]
Title:CHAINSAW BLOOD (TV Size)
TitleUnicode:CHAINSAW BLOOD (TV Size)
Artist:Vaundy
ArtistUnicode:Vaundy
Creator:Zuid-Afrikaan
Version:Cup
Source:チェンソーマン
Tags:chainsaw man anime ed ending 1 one first japanese male vocals rock jrock j-rock
BeatmapID:3845366
BeatmapSetID:1869045

[Difficulty]
HPDrainRate:2
CircleSize:2.5
OverallDifficulty:5.8
ApproachRate:5.8
SliderMultiplier:1.8
SliderTickRate:1

[Events]
//Background and Video events
0,0,"1126211.jpg",0,0
//Break Periods
//Storyboard Layer 0 (Background)
//Storyboard Layer 1 (Fail)
//Storyboard Layer 2 (Pass)
//Storyboard Layer 3 (Foreground)
//Storyboard Layer 4 (Overlay)
//Storyboard Sound Samples

[TimingPoints]
818,408.163265306122,4,2,1,50,1,0
2450,408.163265306122,4,2,1,50,1,0
15307,-100,4,2,1,65,0,0
28980,-100,4,2,1,50,0,0
38164,-100,4,2,1,65,0,0
40001,-100,4,2,1,80,0,0
41429,-100,4,2,1,90,0,1
54592,-100,4,2,1,90,0,0
54694,-100,4,2,1,90,0,1
66225,-100,4,2,1,5,0,1
66327,-100,4,2,1,90,0,1
67654,-100,4,2,1,90,0,0
67756,-100,4,2,1,90,0,1
80613,-96.6183574879227,4,2,1,65,0,0
81021,-100,4,2,1,65,0,0

[Colours]
Combo1 : 149,0,0
Combo2 : 0,128,255
Combo3 : 198,198,0
Combo4 : 0,0,149

[HitObjects]
256,192,818,12,0,1634,2:0:0:0:
211,233,2042,5,8,2:0:0:0:
300,230,2246,5,4,1:2:0:0:
479,226,2654,2,0,L|481:134,1,90,2|10,1:2|2:0,2:0:0:0:
301,129,3266,2,0,L|206:126,1,90,2|2,1:2|2:0,2:0:0:0:
388,153,3878,6,0,P|425:127|382:12,1,180,2|2,2:0|2:0,2:0:0:0:
212,131,4694,2,0,P|216:67|326:16,1,180,2|2,2:0|2:0,2:0:0:0:
488,18,5511,6,0,B|487:194|487:194|381:204,1,270,2|8,2:0|2:0,2:0:0:0:
214,221,6531,2,0,L|210:125,1,90,2|2,1:2|2:0,2:0:0:0:
388,105,7143,6,0,L|202:110,1,180,2|2,2:0|2:0,2:0:0:0:
30,139,7960,2,0,L|238:129,1,180,2|2,2:0|2:0,2:0:0:0:
399,173,8776,6,0,P|395:109|203:36,1,270,2|10,2:0|2:0,2:0:0:0:
51,33,9796,2,0,L|46:124,1,90,2|2,1:2|2:0,2:0:0:0:
212,192,10409,6,0,L|422:185,1,180,2|2,2:0|2:0,2:0:0:0:
212,170,11225,2,0,P|158:106|217:50,1,180,2|2,2:0|2:0,2:0:0:0:
394,35,12041,6,0,P|400:116|225:202,1,270,2|8,2:0|2:0,2:0:0:0:
77,218,13062,2,0,L|75:110,1,90,2|2,1:2|2:0,2:0:0:0:
255,120,13674,6,0,L|263:299,1,180,2|2,3:2|2:0,2:0:0:0:
443,297,14490,2,0,L|451:117,1,180,2|2,2:0|2:0,2:0:0:0:
271,113,15307,5,6,2:0:0:0:
92,90,15715,2,0,L|214:81,1,90,2|10,2:0|2:0,2:0:0:0:
357,121,16327,2,0,P|357:55|247:5,1,180,2|10,1:2|2:0,2:0:0:0:
89,27,17143,5,2,1:2:0:0:
83,207,17552,1,8,2:0:0:0:
172,205,17756,2,0,L|357:194,2,180,2|2|2,2:0|2:0|2:0,2:0:0:0:
163,25,18980,5,2,2:0:0:0:
252,25,19184,2,0,P|310:61|253:132,1,180,10|2,2:0|1:2,2:0:0:0:
75,148,20001,1,10,2:0:0:0:
251,184,20409,6,0,L|445:174,1,180,2|10,1:2|2:0,2:0:0:0:
340,177,21021,2,0,P|281:161|231:54,1,180,2|2,2:0|2:0,2:0:0:0:
409,40,21837,6,0,L|417:237,1,180,2|2,2:0|2:0,2:0:0:0:
327,231,22449,1,10,2:0:0:0:
149,198,22858,2,0,L|347:188,1,180,2|10,1:2|2:0,2:0:0:0:
508,181,23674,6,0,P|493:112|389:73,1,180,2|8,1:2|2:0,2:0:0:0:
309,73,24286,2,0,L|118:69,2,180,2|2|2,2:0|2:0|2:0,2:0:0:0:
321,252,25511,5,2,2:0:0:0:
231,259,25715,1,10,2:0:0:0:
216,79,26123,2,0,L|430:69,1,180,2|10,1:2|2:0,2:0:0:0:
323,235,26939,6,0,L|228:237,1,90,2|2,1:2|2:0,2:0:0:0:
52,227,27552,2,0,P|6:164|68:92,1,180,2|2,2:0|2:0,2:0:0:0:
240,100,28368,6,0,L|146:94,1,90,10|4,2:0|1:2,2:0:0:0:
144,274,28980,2,0,L|139:78,1,180,2|10,2:0|2:0,2:0:0:0:
283,202,29796,2,0,L|287:89,1,90,2|2,2:0|2:0,2:0:0:0:
98,306,30613,5,2,2:0:0:0:
244,201,31021,2,0,P|329:189|416:34,1,270,10|2,2:0|2:0,2:0:0:0:
271,147,32041,6,0,P|184:76|289:-15,1,270,2|10,2:0|2:0,2:0:0:0:
272,72,32858,1,2,2:0:0:0:
126,177,33266,6,0,P|123:113|225:58,1,180,2|2,2:0|2:0,2:0:0:0:
359,160,34082,2,0,P|362:96|260:41,1,180,0|2,1:0|2:0,2:0:0:0:
124,141,34898,6,0,B|115:323|115:323|206:321,1,270,2|2,2:0|2:0,2:0:0:0:
354,223,35919,1,10,2:0:0:0:
205,121,36327,2,0,L|200:20,1,90,2|2,2:0|2:0,2:0:0:0:
349,132,36939,2,0,P|352:71|181:-6,1,270,2|10,2:0|2:0,2:0:0:0:
188,80,37756,1,2,2:0:0:0:
362,123,38164,6,0,L|148:128,1,180,6|2,2:0|1:2,2:0:0:0:
92,139,38776,1,10,2:0:0:0:
267,178,39184,2,0,P|329:176|391:61,1,180,2|10,1:2|2:0,2:0:0:0:
213,90,40001,6,0,L|209:283,1,180,10|8,2:0|2:0,2:0:0:0:
388,286,40817,1,10,2:0:0:0:
452,223,41021,1,0,1:0:0:0:
388,286,41225,1,0,1:0:0:0:
298,282,41429,6,0,P|178:272|121:118,1,270,2|10,1:2|2:0,2:0:0:0:
294,133,42449,1,2,1:2:0:0:
114,148,42858,2,0,L|109:58,1,90,10|2,2:0|2:0,2:0:0:0:
198,56,43266,6,0,L|405:55,1,180,2|10,1:2|2:0,2:0:0:0:
199,76,44082,2,0,P|145:145|207:229,1,180,2|10,1:2|2:0,2:0:0:0:
272,225,44694,5,2,2:0:0:0:
450,199,45103,2,0,L|335:192,1,90,2|10,2:0|2:0,2:0:0:0:
182,168,45715,2,0,P|98:152|74:54,1,180,2|10,1:2|2:0,2:0:0:0:
249,73,46531,6,0,L|54:64,1,180,2|10,1:2|2:0,2:0:0:0:
248,83,47347,2,0,L|461:71,1,180,2|10,1:2|2:0,2:0:0:0:
338,85,47960,6,0,L|230:93,1,90,14|2,2:0|1:2,2:0:0:0:
47,152,48776,2,0,L|146:141,1,90,2|2,2:0|1:2,2:0:0:0:
360,292,49592,6,0,L|240:278,1,90,2|2,2:0|1:2,2:0:0:0:
41,202,50409,2,0,L|34:70,1,90,2|2,2:0|1:2,2:0:0:0:
283,221,51225,6,0,P|359:205|389:94,1,180,2|2,2:0|2:0,2:0:0:0:
305,110,51837,2,0,L|111:102,1,180,10|2,2:0|1:2,2:0:0:0:
109,282,52654,1,10,2:0:0:0:
198,284,52858,6,0,L|401:278,1,180,2|2,2:0|2:0,2:0:0:0:
289,261,53470,1,10,2:0:0:0:
119,200,53878,2,0,L|304:194,1,180,2|10,1:2|2:0,2:0:0:0:
388,186,54490,1,0,1:2:0:0:
301,212,54694,6,0,L|108:210,1,180,6|10,2:0|2:0,2:0:0:0:
294,133,55511,1,2,1:2:0:0:
114,148,55919,2,0,L|109:58,1,90,10|2,2:0|2:0,2:0:0:0:
198,56,56327,6,0,L|405:55,1,180,2|10,1:2|2:0,2:0:0:0:
199,76,57143,2,0,P|145:145|207:229,1,180,2|10,1:2|2:0,2:0:0:0:
272,225,57756,5,2,2:0:0:0:
450,199,58164,2,0,L|335:192,1,90,2|10,2:0|2:0,2:0:0:0:
182,168,58776,2,0,P|98:152|74:54,1,180,2|10,1:2|2:0,2:0:0:0:
249,73,59592,6,0,L|54:64,1,180,2|10,1:2|2:0,2:0:0:0:
248,83,60409,2,0,L|461:71,1,180,2|10,1:2|2:0,2:0:0:0:
338,85,61021,6,0,L|230:93,1,90,14|2,2:0|1:2,2:0:0:0:
47,152,61837,2,0,L|146:141,1,90,2|2,2:0|1:2,2:0:0:0:
360,292,62654,6,0,L|240:278,1,90,2|2,2:0|1:2,2:0:0:0:
41,202,63470,2,0,L|34:70,1,90,2|2,2:0|1:2,2:0:0:0:
283,221,64286,6,0,P|359:205|389:94,1,180,2|2,2:0|2:0,2:0:0:0:
305,110,64898,2,0,L|111:102,1,180,10|2,2:0|1:2,2:0:0:0:
109,282,65715,1,10,2:0:0:0:
198,284,65919,6,0,L|401:278,1,180,2|2,2:0|2:0,2:0:0:0:
289,261,66531,1,10,2:0:0:0:
119,200,66939,2,0,L|304:194,1,180,2|10,1:2|2:0,2:0:0:0:
304,103,67552,1,0,1:2:0:0:
214,111,67756,5,6,2:0:0:0:
385,57,68164,2,0,L|166:50,2,180,10|2|10,2:0|1:2|2:0,2:0:0:0:
212,107,69388,6,0,L|-7:100,2,180,2|10|2,1:2|2:0|1:2,2:0:0:0:
302,108,70409,1,2,2:0:0:0:
311,18,70613,1,10,2:0:0:0:
221,15,70817,5,2,2:0:0:0:
45,52,71225,2,0,L|42:141,1,90,2|10,2:0|2:0,2:0:0:0:
221,161,71837,2,0,L|227:342,1,180,2|10,1:2|2:0,2:0:0:0:
407,349,72654,6,0,L|413:145,1,180,2|10,1:2|2:0,2:0:0:0:
234,144,73470,1,2,1:2:0:0:
162,90,73674,1,2,2:0:0:0:
232,35,73878,1,10,2:0:0:0:
321,39,74082,6,0,P|378:108|314:145,1,180,14|2,2:0|2:0,2:0:0:0:
148,197,74898,2,0,L|350:189,1,180,2|0,2:0|2:0,2:0:0:0:
149,212,75715,6,0,P|94:135|146:82,1,180,2|0,2:0|1:0,2:0:0:0:
313,136,76531,2,0,P|315:202|216:258,1,180,2|0,2:0|1:0,2:0:0:0:
49,232,77347,5,2,2:0:0:0:
227,206,77756,2,0,L|327:197,1,90,2|10,2:0|2:0,2:0:0:0:
139,168,78368,2,0,P|85:110|160:50,1,180,2|10,1:2|2:0,2:0:0:0:
232,40,78980,5,2,2:0:0:0:
409,69,79388,2,0,L|220:68,1,180,2|2,2:0|2:0,2:0:0:0:
165,163,80001,1,2,1:2:0:0:
76,148,80205,1,0,1:2:0:0:
72,58,80409,1,10,2:0:0:0:
161,52,80613,5,4,1:2:0:0:
176,231,81021,2,0,L|295:237,1,90,2|10,1:2|2:0,2:0:0:0:
445,233,81633,2,0,L|452:126,1,90,2|2,1:2|2:0,2:0:0:0:
271,159,82245,6,0,P|181:137|154:44,1,180,2|2,2:0|2:0,2:0:0:0:
331,51,83062,2,0,L|340:252,1,180,2|2,2:0|2:0,2:0:0:0:
159,234,83878,6,0,B|149:53|149:53|257:50,1,270,2|8,2:0|2:0,2:0:0:0:
417,58,84898,2,0,P|420:121|318:183,1,180,2|10,1:2|2:0,2:0:0:0:
242,189,85511,6,0,L|21:182,1,180,2|2,2:0|3:2,2:0:0:0:
241,170,86327,1,2,3:2:0:0:
61,160,86735,1,8,2:0:0:0:
240,155,87143,5,4,1:0:0:0:
