osu file format v14

[General]
AudioFilename: audio.ogg
AudioLeadIn: 0
PreviewTime: 37816
Countdown: 0
SampleSet: Soft
StackLeniency: 0.7
Mode: 0
LetterboxInBreaks: 0
WidescreenStoryboard: 1

[Editor]
DistanceSpacing: 1
BeatDivisor: 4
GridSize: 16
TimelineZoom: 1.6

[Metadata]
Title:CHAINSAW BLOOD (TV Size)
TitleUnicode:CHAINSAW BLOOD (TV Size)
Artist:Vaundy
ArtistUnicode:Vaundy
Creator:EnuHQ
Version:Insane
Source:チェンソーマン
Tags:CHAINSAW MAN anime japanese rock jrock j-rock ending one first 1 ed 1st mappa chainsawman majk00 majkowaty Centrak_ Inae
BeatmapID:4518347
BeatmapSetID:2145186

[Difficulty]
HPDrainRate:5.2
CircleSize:4
OverallDifficulty:7.8
ApproachRate:8.8
SliderMultiplier:1.62
SliderTickRate:1

[Events]
//Background and Video events
0,0,"ndfscuiahbfgiusdbnigfuadsbngf.jpg",0,0
//Break Periods
//Storyboard Layer 0 (Background)
//Storyboard Layer 1 (Fail)
//Storyboard Layer 2 (Pass)
//Storyboard Layer 3 (Foreground)
//Storyboard Layer 4 (Overlay)
//Storyboard Sound Samples

[TimingPoints]
-4735,408.163265306122,4,2,1,60,1,0
1591,-108.695652173913,4,2,1,60,0,0
27918,-129.87012987013,4,2,1,50,0,0
37509,-108.695652173913,4,2,1,60,0,0
40775,-98.0392156862745,4,2,1,60,0,0
53836,-93.4579439252336,4,2,1,60,0,0
55661,408.163265306122,4,2,1,75,1,0
55661,-93.4579439252336,4,2,1,75,0,0
66885,-89.2857142857143,4,2,1,75,0,0
79946,-108.695652173913,4,2,1,60,0,0

[Colours]
Combo1 : 191,128,255
Combo2 : 142,189,240
Combo3 : 255,128,255
Combo4 : 131,252,194

[HitObjects]
256,192,162,12,8,1387,0:0:0:0:
373,153,1591,6,0,B|322:173|322:173|297:205|297:205|247:225,1,149.039994996826,6|0,1:2|1:0,0:0:0:0:
335,315,2203,2,0,P|317:349|307:383,1,74.5199974984132,10|0,0:0|0:0,0:0:0:0:
440,307,2611,2,0,P|422:272|412:238,1,74.5199974984132,2|2,1:2|0:0,0:0:0:0:
465,172,3020,1,10,0:0:0:0:
325,78,3224,6,0,P|252:109|187:134,1,149.039994996826,2|2,0:0|0:0,0:0:0:0:
114,101,3836,1,8,0:0:0:0:
19,210,4040,6,0,P|-14:145|6:75,1,149.039994996826,2|2,0:0|0:0,0:0:0:0:
61,18,4652,1,8,0:0:0:0:
186,134,4856,6,0,B|265:144|248:169|324:189,1,149.039994996826,2|0,0:0|0:0,0:0:0:0:
450,75,5469,2,0,P|432:41|422:7,1,74.5199974984132,10|0,0:0|0:0,0:0:0:0:
330,41,5877,2,0,P|348:75|358:109,1,74.5199974984132,2|2,1:2|0:0,0:0:0:0:
425,153,6285,1,10,0:0:0:0:
322,285,6489,6,0,P|254:254|184:229,1,149.039994996826,2|2,0:0|0:0,0:0:0:0:
121,274,7101,1,8,0:0:0:0:
37,160,7305,6,0,B|-4:101|-4:101|24:71|41:32,1,149.039994996826,2|2,0:0|0:0,0:0:0:0:
110,5,7918,1,8,0:0:0:0:
232,104,8122,6,0,P|309:79|337:-2,1,149.039994996826,2|2,0:0|0:0,0:0:0:0:
408,145,8734,2,0,P|426:179|436:213,1,74.5199974984132,10|0,0:0|0:0,0:0:0:0:
387,276,9142,1,2,1:2:0:0:
472,372,9346,1,2,0:0:0:0:
472,372,9550,1,10,0:0:0:0:
315,313,9754,6,0,B|264:333|264:333|239:365|239:365|189:385,1,149.039994996826,2|2,0:0|0:0,0:0:0:0:
123,346,10367,1,8,0:0:0:0:
212,222,10571,6,0,P|186:151|156:84,1,149.039994996826,2|0,0:0|0:0,0:0:0:0:
120,17,11183,1,8,0:0:0:0:
273,137,11387,6,0,P|298:66|328:0,1,149.039994996826,2|2,0:0|0:0,0:0:0:0:
443,94,11999,2,0,P|407:104|374:122,1,74.5199974984132,10|0,0:0|0:0,0:0:0:0:
332,187,12407,1,2,1:2:0:0:
415,292,12611,1,2,0:0:0:0:
343,384,12816,1,10,0:0:0:0:
484,337,13020,6,0,P|452:269|428:199,1,149.039994996826,6|2,0:0|0:0,0:0:0:0:
428,199,13836,6,0,P|396:131|372:61,1,149.039994996826,2|2,0:0|0:0,0:0:0:0:
372,61,14652,6,0,B|321:81|321:81|296:113|296:113|246:133,1,149.039994996826,6|2,1:2|1:2,0:0:0:0:
172,79,15264,1,10,0:0:0:0:
84,196,15469,1,2,0:0:0:0:
174,229,15673,2,0,P|140:211|106:201,1,74.5199974984132,2|0,1:2|0:0,0:0:0:0:
250,268,16081,2,0,P|284:286|318:296,1,74.5199974984132,10|2,0:0|0:0,0:0:0:0:
384,235,16489,5,2,1:2:0:0:
437,336,16693,1,2,1:2:0:0:
437,336,16897,1,10,0:0:0:0:
374,215,17101,2,0,P|356:181|346:147,1,74.5199974984132,2|0,0:0|1:0,0:0:0:0:
490,78,17509,2,0,P|479:113|461:146,1,74.5199974984132,2|8,0:0|0:0,0:0:0:0:
376,40,17918,6,0,P|302:45|241:86,1,149.039994996826,2|0,1:2|0:0,0:0:0:0:
147,14,18530,2,0,P|114:31|78:43,1,74.5199974984132,10|2,0:0|0:0,0:0:0:0:
0,136,18938,2,0,P|54:143|95:181,1,111.77999624762,2|0,1:2|0:0,0:0:0:0:
108,206,19346,2,0,P|90:238|78:274,1,74.5199974984132,10|2,0:0|0:0,0:0:0:0:
177,384,19754,5,2,1:2:0:0:
97,352,19958,1,2,0:0:0:0:
0,384,20162,1,10,0:0:0:0:
160,289,20367,2,0,P|195:299|228:317,1,74.5199974984132,2|0,0:0|1:0,0:0:0:0:
301,384,20775,2,0,P|333:366|369:355,1,74.5199974984132,2|8,0:0|0:0,0:0:0:0:
512,384,21183,6,0,P|446:323|449:259,1,149.039994996826,2|0,0:0|0:0,0:0:0:0:
352,175,21795,2,0,P|342:210|324:243,1,74.5199974984132,10|2,0:0|0:0,0:0:0:0:
259,126,22203,2,0,P|248:90|230:57,1,74.5199974984132,2|0,1:2|0:0,0:0:0:0:
134,129,22611,2,0,P|84:101|29:85,1,111.77999624762,10|2,0:0|0:0,0:0:0:0:
6,78,23020,5,2,1:2:0:0:
116,22,23224,1,2,0:0:0:0:
116,22,23428,1,10,0:0:0:0:
27,174,23632,2,0,P|44:206|55:242,1,74.5199974984132,2|0,0:0|1:0,0:0:0:0:
115,384,24040,2,0,P|104:348|86:315,1,74.5199974984132,2|8,0:0|0:0,0:0:0:0:
197,205,24448,6,0,B|276:215|260:244|335:260,1,149.039994996826,2|0,0:0|0:0,0:0:0:0:
395,208,25060,1,10,0:0:0:0:
496,304,25264,1,2,0:0:0:0:
376,384,25469,2,0,P|387:348|405:315,1,74.5199974984132,2|0,1:2|0:0,0:0:0:0:
490,205,25877,2,0,P|472:172|461:136,1,74.5199974984132,10|2,0:0|0:0,0:0:0:0:
510,22,26285,5,2,1:2:0:0:
401,71,26489,1,2,0:0:0:0:
301,1,26693,1,10,0:0:0:0:
209,74,26897,2,0,P|241:142|265:212,1,149.039994996826,2|2,0:0|0:0,0:0:0:0:
2,384,27713,5,14,0:0:0:0:
17,360,27918,6,0,P|37:297|22:249,1,93.5549981442032,4|0,1:2|1:0,0:0:0:0:
16,245,28326,2,0,P|32:217|43:188,1,62.3699987628021,2|0,0:0|1:0,0:0:0:0:
0,97,28734,2,0,P|29:85|56:70,1,62.3699987628021,10|0,0:0|0:0,0:0:0:0:
80,60,29040,1,0,3:0:0:0:
80,60,29142,1,2,3:2:0:0:
195,0,29346,6,0,B|225:55|225:55|193:115,1,124.739997525604,2|0,0:0|0:0,0:0:0:0:
181,138,29856,1,0,1:0:0:0:
181,138,29958,2,0,P|196:165|208:194,1,62.3699987628021,2|0,3:2|1:0,0:0:0:0:
254,277,30367,1,10,0:0:0:0:
344,300,30571,1,2,0:0:0:0:
344,300,30775,1,2,3:2:0:0:
245,371,30979,5,2,3:2:0:0:
245,371,31081,1,0,3:0:0:0:
245,371,31183,2,0,P|218:356|189:344,1,62.3699987628021,0|2,1:0|0:0,0:0:0:0:
74,384,31591,2,0,P|89:357|101:328,1,62.3699987628021,2|0,0:0|1:2,0:0:0:0:
42,265,31999,1,10,0:0:0:0:
102,163,32203,2,0,P|90:134|74:106,1,62.3699987628021,2|0,0:0|0:0,0:0:0:0:
158,15,32611,6,0,B|233:-8|233:-8|279:22,2,124.739997525604,2|2|2,0:0|0:0|1:2,0:0:0:0:
82,30,33632,1,8,0:0:0:0:
175,131,33836,2,0,P|147:187|126:245,1,124.739997525604,2|0,3:3|3:0,0:0:0:0:
34,347,34448,6,0,P|97:327|145:342,1,93.5549981442032,0|0,1:0|1:0,0:0:0:0:
149,348,34856,2,0,P|177:332|206:321,1,62.3699987628021,2|0,0:0|1:0,0:0:0:0:
297,382,35264,2,0,P|326:370|353:355,1,62.3699987628021,10|0,0:0|0:0,0:0:0:0:
381,344,35571,1,0,3:0:0:0:
381,344,35673,1,2,3:2:0:0:
486,384,35877,6,0,P|497:354|512:327,1,62.3699987628021,2|0,0:0|1:0,0:0:0:0:
422,243,36285,1,2,0:0:0:0:
422,243,36489,2,0,P|411:213|396:186,1,62.3699987628021,2|2,0:0|1:2,0:0:0:0:
481,110,36897,2,0,P|492:80|507:53,1,62.3699987628021,10|2,0:0|0:0,0:0:0:0:
446,0,37305,1,2,3:2:0:0:
290,78,37509,6,0,B|239:98|239:98|214:130|214:130|164:150,1,149.039994996826,6|2,1:2|1:2,0:0:0:0:
82,29,38122,2,0,P|116:47|150:57,1,74.5199974984132,10|0,0:0|1:0,0:0:0:0:
60,157,38530,1,2,1:2:0:0:
60,157,38734,1,2,1:2:0:0:
192,217,38938,2,0,P|174:183|164:149,1,74.5199974984132,10|0,0:0|1:0,0:0:0:0:
222,96,39244,5,0,1:0:0:0:
222,96,39346,2,0,P|256:114|290:124,1,74.5199974984132,14|0,0:0|1:0,0:0:0:0:
380,242,39754,1,8,0:0:0:0:
497,151,39958,1,0,1:0:0:0:
383,33,40162,2,0,P|370:67|381:102,1,74.5199974984132,10|8,0:0|0:0,0:0:0:0:
419,166,40469,1,8,0:0:0:0:
422,171,40571,2,0,L|401:221,1,37.2599987492066,8|8,0:0|0:0,0:0:0:0:
512,330,40775,6,0,B|462:310|462:310|421:325|421:325|393:308|349:300,1,165.240001008545,6|2,1:2|1:2,0:0:0:0:
208,384,41387,1,10,0:0:0:0:
283,255,41591,1,2,0:0:0:0:
132,322,41795,2,0,P|94:304|55:293,1,82.6200005042725,2|0,1:2|0:0,0:0:0:0:
110,167,42203,2,0,P|147:184|186:195,1,82.6200005042725,10|2,0:0|3:2,0:0:0:0:
242,141,42509,5,0,3:0:0:0:
242,141,42611,2,0,P|224:103|213:64,1,82.6200005042725,2|0,1:2|0:0,0:0:0:0:
362,130,43020,2,0,P|344:167|333:206,1,82.6200005042725,10|2,0:0|0:0,0:0:0:0:
439,384,43428,5,2,1:2:0:0:
348,298,43632,1,2,0:0:0:0:
434,194,43836,1,10,0:0:0:0:
261,310,44040,6,0,B|194:281|194:281|153:305|97:307,1,165.240001008545,2|2,0:0|0:0,0:0:0:0:
0,151,44652,1,10,0:0:0:0:
121,221,44856,1,2,0:0:0:0:
51,76,45060,2,0,P|69:38|80:-1,1,82.6200005042725,2|0,1:2|0:0,0:0:0:0:
224,40,45469,2,0,P|206:78|195:117,1,82.6200005042725,10|2,0:0|3:2,0:0:0:0:
254,172,45775,5,0,3:0:0:0:
254,172,45877,2,0,P|292:154|331:143,1,82.6200005042725,2|0,1:2|0:0,0:0:0:0:
413,281,46285,2,0,P|375:263|336:252,1,82.6200005042725,10|2,0:0|0:0,0:0:0:0:
436,153,46693,5,2,1:2:0:0:
275,40,46897,1,2,0:0:0:0:
330,143,47101,1,10,0:0:0:0:
460,0,47305,6,0,B|365:16|392:42|307:62,1,165.240001008545,14|0,0:0|0:0,0:0:0:0:
248,12,47918,1,8,0:0:0:0:
157,132,48122,6,0,B|105:117|105:117|48:141|48:141|-8:123,1,165.240001008545,2|0,0:0|0:0,0:0:0:0:
50,47,48734,1,8,0:0:0:0:
137,225,48938,6,0,P|165:147|203:73,1,165.240001008545,2|0,0:0|0:0,0:0:0:0:
165,6,49550,1,8,0:0:0:0:
304,112,49754,6,0,P|380:90|411:16,1,165.240001008545,2|0,0:0|0:0,0:0:0:0:
334,7,50367,1,8,0:0:0:0:
512,227,50571,6,0,B|463:199|416:187|416:187|347:228,1,165.240001008545,6|2,1:2|0:0,0:0:0:0:
385,363,51183,2,0,P|347:345|308:334,1,82.6200005042725,10|0,0:0|0:0,0:0:0:0:
236,375,51489,1,0,3:0:0:0:
236,375,51591,2,0,P|218:337|207:298,1,82.6200005042725,2|0,1:2|1:0,0:0:0:0:
305,156,51999,1,8,0:0:0:0:
150,218,52203,6,0,B|101:193|101:193|59:205|59:205|33:185|-9:173,1,165.240001008545,2|2,0:0|3:2,0:0:0:0:
58,32,52816,2,0,P|75:69|86:108,1,82.6200005042725,10|0,0:0|3:0,0:0:0:0:
169,77,53122,1,0,3:0:0:0:
169,77,53224,2,0,P|151:39|140:0,1,82.6200005042725,2|0,1:2|1:0,0:0:0:0:
268,84,53632,1,10,0:0:0:0:
151,217,53836,6,0,B|76:189|76:189|30:207|4:247,1,173.339994710083,4|2,1:2|1:2,0:0:0:0:
204,325,54448,1,10,0:0:0:0:
63,369,54652,1,2,0:0:0:0:
151,217,54856,2,0,P|132:177|120:136,1,86.6699973550416,2|0,1:2|0:0,0:0:0:0:
285,50,55264,2,0,P|272:91|254:130,1,86.6699973550416,10|2,0:0|0:0,0:0:0:0:
235,212,55571,5,0,3:0:0:0:
235,212,55661,2,0,P|253:250|264:294,1,86.6699973550416,2|0,1:2|0:0,0:0:0:0:
409,219,56069,2,0,P|427:258|437:300,1,86.6699973550416,10|2,0:0|0:0,0:0:0:0:
502,186,56477,5,2,1:2:0:0:
350,304,56681,1,2,0:0:0:0:
439,136,56885,1,10,0:0:0:0:
331,0,57089,6,0,B|285:80|285:80|309:113|329:173,1,173.339994710083,2|2,0:0|0:0,0:0:0:0:
165,293,57701,1,10,0:0:0:0:
235,154,57905,1,2,0:0:0:0:
81,238,58109,2,0,P|43:220|-2:211,1,86.6699973550416,2|0,1:2|0:0,0:0:0:0:
43,72,58518,2,0,P|81:90|126:99,1,86.6699973550416,10|2,0:0|3:2,0:0:0:0:
162,79,58824,5,0,3:0:0:0:
162,79,58926,1,2,1:2:0:0:
252,18,59130,1,2,0:0:0:0:
343,81,59334,1,10,0:0:0:0:
455,26,59538,1,2,0:0:0:0:
383,162,59742,2,0,P|401:200|410:245,1,86.6699973550416,2|2,1:2|0:0,0:0:0:0:
512,172,60150,1,10,0:0:0:0:
383,333,60354,6,0,B|334:308|334:308|292:320|292:320|266:300|221:287,1,173.339994710083,14|0,0:0|0:0,0:0:0:0:
166,332,60967,1,8,0:0:0:0:
32,230,61171,6,0,P|60:310|12:389,1,173.339994710083,2|0,0:0|0:0,0:0:0:0:
145,243,61783,1,8,0:0:0:0:
26,113,61987,6,0,P|111:82|193:40,1,173.339994710083,2|0,0:0|0:0,0:0:0:0:
253,2,62599,1,8,0:0:0:0:
197,149,62803,6,0,P|282:179|364:221,1,173.339994710083,2|0,0:0|0:0,0:0:0:0:
429,249,63416,1,8,0:0:0:0:
261,306,63620,6,0,B|156:323|186:352|92:374,1,173.339994710083,6|2,1:2|0:0,0:0:0:0:
7,278,64232,2,0,P|25:240|34:195,1,86.6699973550416,10|0,0:0|0:0,0:0:0:0:
85,139,64538,1,0,3:0:0:0:
85,139,64640,2,0,P|76:96|58:57,1,86.6699973550416,2|0,1:2|1:0,0:0:0:0:
0,119,65048,1,8,0:0:0:0:
195,31,65252,6,0,B|270:3|270:3|316:21|342:61,1,173.339994710083,2|2,0:0|3:2,0:0:0:0:
468,181,65865,2,0,P|449:220|437:262,1,86.6699973550416,10|0,0:0|3:0,0:0:0:0:
356,226,66171,1,0,3:0:0:0:
356,226,66273,2,0,P|375:185|387:143,1,86.6699973550416,2|0,1:2|1:0,0:0:0:0:
264,0,66681,5,10,0:0:0:0:
264,0,66783,1,8,0:0:0:0:
264,0,66885,2,0,B|213:62|213:62|214:118|277:185,1,181.440002214844,4|2,1:2|1:2,0:0:0:0:
71,71,67497,1,14,0:0:0:0:
173,216,67701,1,2,0:0:0:0:
6,313,67905,2,0,P|25:272|37:227,1,90.7200011074219,2|0,1:2|0:0,0:0:0:0:
212,384,68314,2,0,P|223:340|242:299,1,90.7200011074219,14|2,0:0|3:2,0:0:0:0:
308,237,68620,5,0,3:0:0:0:
308,237,68722,2,0,P|288:195|277:152,1,90.7200011074219,2|0,1:2|0:0,0:0:0:0:
425,301,69130,2,0,P|436:257|455:216,1,90.7200011074219,14|2,0:0|0:0,0:0:0:0:
469,8,69538,5,2,1:2:0:0:
376,174,69742,1,2,0:0:0:0:
508,76,69946,1,14,0:0:0:0:
277,152,70150,6,0,B|210:115|210:115|169:139|106:140,1,181.440002214844,2|2,0:0|0:0,0:0:0:0:
18,319,70763,1,14,0:0:0:0:
163,217,70967,1,2,0:0:0:0:
260,384,71171,2,0,P|219:365|174:353,1,90.7200011074219,2|0,1:2|0:0,0:0:0:0:
319,229,71579,2,0,P|360:248|405:260,1,90.7200011074219,14|2,0:0|3:2,0:0:0:0:
470,197,71885,5,0,3:0:0:0:
470,197,71987,2,0,P|451:156|439:111,1,90.7200011074219,2|0,1:2|0:0,0:0:0:0:
264,29,72395,2,0,P|283:70|295:115,1,90.7200011074219,14|2,0:0|0:0,0:0:0:0:
113,56,72803,5,2,1:2:0:0:
236,193,73007,1,2,0:0:0:0:
134,355,73212,1,14,0:0:0:0:
0,178,73416,6,0,B|105:195|75:224|169:246,1,181.440002214844,14|0,0:0|1:0,0:0:0:0:
236,193,74028,1,8,0:0:0:0:
348,353,74232,6,0,P|378:268|424:182,1,181.440002214844,6|0,1:2|1:0,0:0:0:0:
468,127,74844,1,8,0:0:0:0:
252,211,75048,6,0,P|222:126|176:41,1,181.440002214844,6|0,1:2|1:0,0:0:0:0:
112,2,75660,1,8,0:0:0:0:
0,163,75865,6,0,B|82:132|82:132|133:152|158:199,1,181.440002214844,6|0,1:2|1:0,0:0:0:0:
120,263,76477,1,8,0:0:0:0:
280,135,76681,6,0,B|385:152|355:181|449:203,1,181.440002214844,6|2,1:2|1:2,0:0:0:0:
317,352,77293,2,0,P|305:308|286:267,1,90.7200011074219,14|0,0:0|3:0,0:0:0:0:
187,300,77599,1,0,3:0:0:0:
187,300,77701,2,0,P|198:343|217:384,1,90.7200011074219,2|0,1:2|0:0,0:0:0:0:
68,277,78109,5,14,0:0:0:0:
197,144,78314,1,2,3:2:0:0:
197,144,78416,1,0,3:0:0:0:
197,144,78518,1,0,1:2:0:0:
3,38,78722,1,2,1:2:0:0:
89,173,78926,2,0,P|100:129|119:88,1,90.7200011074219,14|0,0:0|1:0,0:0:0:0:
321,37,79334,5,10,0:0:0:0:
251,175,79538,1,8,0:0:0:0:
237,132,79640,1,8,0:0:0:0:
222,89,79742,1,10,0:0:0:0:
208,46,79844,1,8,0:0:0:0:
194,3,79946,6,0,B|143:23|143:23|118:55|118:55|68:75,1,149.039994996826,6|0,1:2|1:0,0:0:0:0:
0,197,80558,2,0,P|35:207|68:225,1,74.5199974984132,10|0,0:0|0:0,0:0:0:0:
139,341,80967,2,0,P|103:351|70:369,1,74.5199974984132,2|2,1:2|0:0,0:0:0:0:
162,242,81375,1,10,0:0:0:0:
284,384,81579,6,0,P|317:319|297:249,1,149.039994996826,2|2,0:0|0:0,0:0:0:0:
340,184,82191,1,8,0:0:0:0:
489,384,82395,6,0,P|456:319|476:249,1,149.039994996826,2|2,0:0|0:0,0:0:0:0:
433,184,83007,1,8,0:0:0:0:
283,291,83212,6,0,P|214:259|145:235,1,149.039994996826,2|0,0:0|0:0,0:0:0:0:
229,150,83824,2,0,P|261:167|297:178,1,74.5199974984132,10|0,0:0|0:0,0:0:0:0:
386,91,84232,5,2,1:2:0:0:
473,180,84436,1,2,1:2:0:0:
403,279,84640,1,10,0:0:0:0:
512,384,84844,5,2,0:0:0:0:
314,305,85048,1,8,0:0:0:0:
143,384,85252,1,6,1:2:0:0:
143,384,85660,6,0,P|167:313|202:235,1,149.039994996826,6|10,1:2|0:0,0:0:0:0:
512,384,86477,5,6,1:2:0:0:
