osu file format v14

[General]
AudioFilename: audio.ogg
AudioLeadIn: 0
PreviewTime: 37816
Countdown: 0
SampleSet: Soft
StackLeniency: 0.7
Mode: 0
LetterboxInBreaks: 0
WidescreenStoryboard: 1

[Editor]
DistanceSpacing: 1
BeatDivisor: 4
GridSize: 32
TimelineZoom: 1.9

[Metadata]
Title:CHAINSAW BLOOD (TV Size)
TitleUnicode:CHAINSAW BLOOD (TV Size)
Artist:Vaundy
ArtistUnicode:Vaundy
Creator:EnuHQ
Version:Inae's Normal
Source:チェンソーマン
Tags:CHAINSAW MAN anime japanese rock jrock j-rock ending one first 1 ed 1st mappa chainsawman majk00 majkowaty Centrak_ Inae
BeatmapID:4518348
BeatmapSetID:2145186

[Difficulty]
HPDrainRate:3
CircleSize:3.2
OverallDifficulty:4
ApproachRate:5
SliderMultiplier:1.2
SliderTickRate:1

[Events]
//Background and Video events
0,0,"ndfscuiahbfgiusdbnigfuadsbngf.jpg",0,0
//Break Periods
//Storyboard Layer 0 (Background)
//Storyboard Layer 1 (Fail)
//Storyboard Layer 2 (Pass)
//Storyboard Layer 3 (Foreground)
//Storyboard Layer 4 (Overlay)
//Storyboard Sound Samples

[TimingPoints]
-4735,408.163265306122,4,2,1,60,1,0
1591,-111.111111111111,4,2,1,60,0,0
27918,-125,4,2,1,50,0,0
40775,-100,4,2,1,60,0,0
55661,408.163265306122,4,2,1,75,1,0
55661,-100,4,2,1,75,0,0
79946,-111.111111111111,4,2,1,60,0,0

[Colours]
Combo1 : 191,128,255
Combo2 : 142,189,240
Combo3 : 255,128,255
Combo4 : 131,252,194

[HitObjects]
0,77,1387,5,8,0:0:0:0:
0,77,1591,2,0,P|45:58|105:64,1,107.999996704102,6|0,1:2|1:0,0:0:0:0:
144,97,2203,1,10,0:0:0:0:
223,24,2611,1,2,1:2:0:0:
302,97,3020,1,10,0:0:0:0:
302,97,3224,2,0,L|277:222,1,107.999996704102,2|2,0:0|0:0,0:0:0:0:
187,256,4040,2,0,L|162:381,1,107.999996704102,2|2,0:0|0:0,0:0:0:0:
273,373,4856,6,0,P|321:350|374:345,1,107.999996704102,2|0,0:0|0:0,0:0:0:0:
426,362,5469,1,10,0:0:0:0:
466,261,5877,1,2,1:2:0:0:
509,164,6285,1,10,0:0:0:0:
509,164,6489,2,0,L|488:57,1,107.999996704102,2|2,0:0|0:0,0:0:0:0:
390,11,7305,2,0,L|369:117,1,107.999996704102,2|2,0:0|0:0,0:0:0:0:
348,223,8122,6,0,P|312:186|236:194,1,107.999996704102,2|2,0:0|0:0,0:0:0:0:
218,218,8734,1,10,0:0:0:0:
257,318,9142,1,2,1:2:0:0:
155,346,9550,1,10,0:0:0:0:
155,346,9754,2,0,P|115:380|62:383,1,107.999996704102,2|2,0:0|0:0,0:0:0:0:
16,285,10571,2,0,P|55:249|108:246,1,107.999996704102,2|0,0:0|0:0,0:0:0:0:
208,248,11387,6,0,L|232:122,1,107.999996704102,2|2,0:0|0:0,0:0:0:0:
239,89,11999,1,10,0:0:0:0:
154,22,12407,1,2,1:2:0:0:
61,77,12816,1,10,0:0:0:0:
61,77,13020,6,0,P|82:126|82:179,1,107.999996704102,6|2,0:0|0:0,0:0:0:0:
173,238,13836,2,0,P|151:287|151:340,1,107.999996704102,2|2,0:0|0:0,0:0:0:0:
259,341,14652,6,0,B|312:333|312:333|358:361,1,107.999996704102,6|2,1:2|1:2,0:0:0:0:
411,351,15264,2,0,L|421:297,1,53.9999983520508,10|2,0:0|0:0,0:0:0:0:
405,246,15673,1,2,1:2:0:0:
494,185,16081,2,0,L|506:122,1,53.9999983520508,10|2,0:0|0:0,0:0:0:0:
509,78,16489,2,0,P|465:49|413:58,1,107.999996704102,2|10,1:2|0:0,0:0:0:0:
382,103,17101,1,2,0:0:0:0:
291,43,17509,1,2,0:0:0:0:
224,128,17918,6,0,L|244:234,1,107.999996704102,2|0,1:2|0:0,0:0:0:0:
293,257,18530,2,0,L|282:310,1,53.9999983520508,10|2,0:0|0:0,0:0:0:0:
272,363,18938,1,2,1:2:0:0:
164,366,19346,2,0,L|153:312,1,53.9999983520508,10|2,0:0|0:0,0:0:0:0:
143,259,19754,2,0,L|36:238,1,107.999996704102,2|10,1:2|0:0,0:0:0:0:
1,197,20367,1,2,0:0:0:0:
54,103,20775,1,2,0:0:0:0:
121,18,21183,6,0,P|174:22|226:38,1,107.999996704102,2|0,0:0|0:0,0:0:0:0:
242,89,21795,2,0,P|244:115|252:141,1,53.9999983520508,10|2,0:0|0:0,0:0:0:0:
282,186,22203,1,2,1:2:0:0:
221,275,22611,1,10,0:0:0:0:
288,359,23020,2,0,P|340:346|393:338,1,107.999996704102,2|10,1:2|0:0,0:0:0:0:
441,364,23632,1,2,0:0:0:0:
501,274,24040,1,2,0:0:0:0:
403,227,24448,6,0,P|368:194|366:134,1,107.999996704102,2|0,0:0|0:0,0:0:0:0:
411,109,25060,2,0,L|473:121,1,53.9999983520508,10|2,0:0|0:0,0:0:0:0:
508,88,25469,1,2,1:2:0:0:
433,9,25877,2,0,L|370:-3,1,53.9999983520508,10|2,0:0|0:0,0:0:0:0:
337,29,26285,1,2,1:2:0:0:
337,29,26489,1,2,0:0:0:0:
267,111,26897,2,0,L|157:89,1,107.999996704102,2|2,0:0|0:0,0:0:0:0:
68,143,27713,5,14,0:0:0:0:
68,143,27918,1,4,1:2:0:0:
14,222,28326,2,0,P|6:268|35:305,1,96,2|10,0:0|0:0,0:0:0:0:
121,260,29142,1,2,3:2:0:0:
121,260,29346,2,0,L|215:278,1,96,2|0,0:0|0:0,0:0:0:0:
242,317,29958,1,2,3:2:0:0:
317,377,30367,2,0,P|351:344|363:298,1,96,10|2,0:0|3:2,0:0:0:0:
344,254,30979,1,2,3:2:0:0:
316,161,31387,6,0,L|206:139,1,96,2|0,0:0|1:2,0:0:0:0:
196,183,31999,2,0,L|148:192,1,48,10|2,0:0|0:0,0:0:0:0:
56,216,32611,1,2,0:0:0:0:
15,128,33020,2,0,B|-2:69|-2:69|16:40,2,96,2|2|2,0:0|1:2|3:3,0:0:0:0:
109,108,34244,2,0,L|203:89,1,96,0|0,3:0|0:0,0:0:0:0:
224,46,34856,6,0,L|318:27,1,96,2|10,0:0|0:0,0:0:0:0:
408,61,35673,1,2,3:2:0:0:
408,61,35877,2,0,P|434:99|430:146,1,96,2|2,0:0|0:0,0:0:0:0:
416,192,36489,2,0,L|368:201,2,48,2|2|10,0:0|1:2|0:0,0:0:0:0:
449,225,37101,1,2,0:0:0:0:
434,319,37509,6,0,L|339:337,1,96,6|2,1:2|1:2,0:0:0:0:
292,345,38122,1,10,0:0:0:0:
226,274,38530,2,0,L|235:226,1,48,2|2,1:2|1:2,0:0:0:0:
246,180,38938,1,10,0:0:0:0:
264,85,39346,2,0,P|236:48|191:34,1,96,14|8,0:0|0:0,0:0:0:0:
148,50,39958,1,0,1:0:0:0:
148,50,40162,2,0,L|138:2,2,48,10|8|8,0:0|0:0|0:0,0:0:0:0:
92,74,40775,6,0,L|64:215,1,120,6|2,1:2|1:2,0:0:0:0:
22,229,41387,2,0,L|9:291,1,60,10|2,0:0|0:0,0:0:0:0:
33,343,41795,1,2,1:2:0:0:
139,287,42203,2,0,L|201:299,1,60,10|2,0:0|3:2,0:0:0:0:
235,345,42611,1,2,1:2:0:0:
353,326,43020,2,0,L|415:313,1,60,10|2,0:0|0:0,0:0:0:0:
449,268,43428,2,0,L|511:280,2,60,2|2|10,1:2|0:0|0:0,0:0:0:0:
407,224,44040,1,2,0:0:0:0:
291,226,44448,5,2,0:0:0:0:
291,226,44652,2,0,L|303:163,1,60,10|2,0:0|0:0,0:0:0:0:
320,109,45060,2,0,P|376:121|425:88,1,120,2|10,1:2|0:0,0:0:0:0:
453,37,45673,1,2,3:2:0:0:
453,37,45877,1,2,1:2:0:0:
336,9,46285,2,0,L|277:20,1,60,10|2,0:0|0:0,0:0:0:0:
237,65,46693,2,0,L|221:143,2,60,2|2|10,1:2|0:0|0:0,0:0:0:0:
185,33,47305,6,0,L|67:55,1,120,14|0,0:0|0:0,0:0:0:0:
6,159,48122,2,0,L|123:181,1,120,2|0,0:0|0:0,0:0:0:0:
241,203,48938,2,0,P|267:255|243:315,1,120,2|0,0:0|0:0,0:0:0:0:
152,383,49754,2,0,P|126:331|150:271,1,120,2|0,0:0|0:0,0:0:0:0:
118,158,50571,6,0,L|95:40,1,120,6|2,1:2|0:0,0:0:0:0:
144,6,51183,2,0,L|222:21,1,60,10|0,0:0|0:0,0:0:0:0:
261,29,51591,1,2,1:2:0:0:
356,102,51999,1,8,0:0:0:0:
356,102,52203,2,0,L|473:79,1,120,2|2,0:0|3:2,0:0:0:0:
511,126,52816,1,10,0:0:0:0:
488,243,53224,2,0,L|472:321,1,60,2|0,1:2|1:0,0:0:0:0:
429,337,53632,1,10,0:0:0:0:
429,337,53836,6,0,B|382:345|382:345|367:365|367:365|319:374,1,120,4|2,1:2|1:2,0:0:0:0:
265,349,54448,2,0,L|253:290,1,60,10|2,0:0|0:0,0:0:0:0:
289,241,54856,1,2,1:2:0:0:
381,165,55264,2,0,L|392:106,1,60,10|2,0:0|3:2,0:0:0:0:
359,59,55661,1,2,1:2:0:0:
249,10,56069,2,0,L|187:22,1,60,10|2,0:0|0:0,0:0:0:0:
150,66,56477,2,0,L|88:54,2,60,2|2|10,1:2|0:0|0:0,0:0:0:0:
185,114,57089,1,2,0:0:0:0:
271,196,57497,5,2,0:0:0:0:
271,196,57701,2,0,L|259:259,1,60,10|2,0:0|0:0,0:0:0:0:
247,313,58109,2,0,P|198:346|141:334,1,120,2|10,1:2|0:0,0:0:0:0:
37,274,58926,2,0,L|52:195,1,60,2|2,1:2|0:0,0:0:0:0:
63,156,59334,1,10,0:0:0:0:
6,50,59742,2,0,L|64:38,1,60,2|2,1:2|0:0,0:0:0:0:
116,6,60150,1,10,0:0:0:0:
116,5,60354,6,0,P|174:7|216:48,1,120,14|0,0:0|0:0,0:0:0:0:
294,140,61171,2,0,P|352:138|394:97,1,120,2|0,0:0|0:0,0:0:0:0:
510,66,61987,2,0,L|482:207,1,120,2|0,0:0|0:0,0:0:0:0:
377,232,62803,2,0,L|349:373,1,120,2|0,0:0|0:0,0:0:0:0:
236,381,63620,6,0,P|204:333|219:277,1,120,6|2,1:2|0:0,0:0:0:0:
265,238,64232,2,0,L|280:160,1,60,10|0,0:0|0:0,0:0:0:0:
290,120,64640,1,2,1:2:0:0:
217,31,65048,1,8,0:0:0:0:
217,31,65252,2,0,L|100:8,1,120,2|2,0:0|3:2,0:0:0:0:
48,39,65865,1,10,0:0:0:0:
10,153,66273,2,0,L|26:231,1,60,2|0,1:2|1:0,0:0:0:0:
69,247,66681,1,10,0:0:0:0:
69,247,66885,6,0,B|134:236|125:271|193:263,1,120,4|2,1:2|1:2,0:0:0:0:
245,269,67497,2,0,P|259:239|258:207,1,60,14|2,0:0|0:0,0:0:0:0:
234,157,67905,1,2,1:2:0:0:
123,109,68314,2,0,P|109:79|110:47,1,60,14|2,0:0|3:2,0:0:0:0:
134,0,68722,1,2,1:2:0:0:
251,25,69130,2,0,L|313:38,1,60,14|2,0:0|0:0,0:0:0:0:
358,72,69538,2,0,L|420:60,2,60,2|2|14,1:2|0:0|0:0,0:0:0:0:
333,126,70150,1,2,0:0:0:0:
438,194,70558,5,2,0:0:0:0:
438,194,70762,2,0,L|450:257,1,60,14|2,0:0|0:0,0:0:0:0:
457,312,71171,2,0,L|329:292,1,120,2|14,1:2|0:0,0:0:0:0:
295,335,71783,1,2,3:2:0:0:
295,335,71987,1,2,1:2:0:0:
178,308,72395,2,0,L|119:297,1,60,14|2,0:0|0:0,0:0:0:0:
66,325,72803,2,0,L|82:403,2,60,2|2|14,1:2|0:0|0:0,0:0:0:0:
23,282,73416,6,0,L|1:164,1,120,14|0,0:0|1:0,0:0:0:0:
80,74,74232,2,0,L|197:96,1,120,6|0,1:2|1:0,0:0:0:0:
244,142,74844,1,8,0:0:0:0:
244,142,75048,2,0,P|299:123|324:70,1,120,6|0,1:2|1:0,0:0:0:0:
430,15,75865,2,0,P|485:33|510:86,1,120,6|0,1:2|1:0,0:0:0:0:
498,205,76681,6,0,B|490:252|490:252|470:267|470:267|461:315,1,120,6|2,1:2|1:2,0:0:0:0:
443,370,77293,2,0,L|365:385,1,60,14|0,0:0|3:0,0:0:0:0:
331,354,77701,1,2,1:2:0:0:
235,290,78109,1,14,0:0:0:0:
235,290,78313,2,0,L|118:313,1,120,2|2,3:2|1:2,0:0:0:0:
58,326,78926,1,14,0:0:0:0:
79,208,79334,2,0,L|95:130,1,60,10|8,0:0|0:0,0:0:0:0:
107,94,79742,1,10,0:0:0:0:
107,94,79946,6,0,P|152:75|212:81,1,107.999996704102,6|0,1:2|1:0,0:0:0:0:
247,118,80558,1,10,0:0:0:0:
201,215,80966,1,2,1:2:0:0:
282,295,81375,1,10,0:0:0:0:
282,295,81579,2,0,L|407:270,1,107.999996704102,2|2,0:0|0:0,0:0:0:0:
455,189,82395,2,0,L|480:64,1,107.999996704102,2|2,0:0|0:0,0:0:0:0:
390,17,83211,6,0,P|327:19|291:51,1,107.999996704102,2|0,0:0|0:0,0:0:0:0:
298,100,83824,1,10,0:0:0:0:
209,161,84232,1,2,1:2:0:0:
145,73,84640,1,10,0:0:0:0:
145,73,84844,2,0,L|82:60,1,53.9999983520508,2|8,0:0|0:0,0:0:0:0:
39,50,85252,1,6,1:2:0:0:
0,151,85660,2,0,L|10:204,1,53.9999983520508,6|0,1:2|0:0,0:0:0:0:
62,219,86069,2,0,L|72:272,1,53.9999983520508,10|0,0:0|0:0,0:0:0:0:
87,323,86477,1,6,1:2:0:0:
