osu file format v14

[General]
AudioFilename: audio.ogg
AudioLeadIn: 0
PreviewTime: 37816
Countdown: 0
SampleSet: Soft
StackLeniency: 0.7
Mode: 0
LetterboxInBreaks: 0
WidescreenStoryboard: 1

[Editor]
DistanceSpacing: 1
BeatDivisor: 4
GridSize: 16
TimelineZoom: 1.6

[Metadata]
Title:CHAINSAW BLOOD (TV Size)
TitleUnicode:CHAINSAW BLOOD (TV Size)
Artist:Vaundy
ArtistUnicode:Vaundy
Creator:EnuHQ
Version:Hard
Source:チェンソーマン
Tags:CHAINSAW MAN anime japanese rock jrock j-rock ending one first 1 ed 1st mappa chainsawman majk00 majkowaty Centrak_ Inae
BeatmapID:4518346
BeatmapSetID:2145186

[Difficulty]
HPDrainRate:4.5
CircleSize:3.6
OverallDifficulty:6
ApproachRate:7.2
SliderMultiplier:1.52
SliderTickRate:1

[Events]
//Background and Video events
0,0,"ndfscuiahbfgiusdbnigfuadsbngf.jpg",0,0
//Break Periods
//Storyboard Layer 0 (Background)
//Storyboard Layer 1 (Fail)
//Storyboard Layer 2 (Pass)
//Storyboard Layer 3 (Foreground)
//Storyboard Layer 4 (Overlay)
//Storyboard Sound Samples

[TimingPoints]
-4735,408.163265306122,4,2,1,60,1,0
1591,-108.695652173913,4,2,1,60,0,0
27918,-129.87012987013,4,2,1,50,0,0
37509,-108.695652173913,4,2,1,60,0,0
40775,-98.0392156862745,4,2,1,60,0,0
53836,-93.4579439252336,4,2,1,60,0,0
55661,408.163265306122,4,2,1,75,1,0
55661,-93.4579439252336,4,2,1,75,0,0
66885,-89.2857142857143,4,2,1,75,0,0
79946,-108.695652173913,4,2,1,60,0,0

[Colours]
Combo1 : 191,128,255
Combo2 : 142,189,240
Combo3 : 255,128,255
Combo4 : 131,252,194

[HitObjects]
459,0,1387,5,8,0:0:0:0:
459,0,1591,2,0,P|487:61|511:129,1,139.839995305664,6|0,1:2|1:0,0:0:0:0:
445,200,2203,2,0,P|411:183|380:173,1,69.9199976528321,10|0,0:0|0:0,0:0:0:0:
309,120,2612,2,0,P|275:136|244:146,1,69.9199976528321,2|2,1:2|0:0,0:0:0:0:
181,197,3020,5,10,0:0:0:0:
181,197,3224,2,0,P|209:258|233:326,1,139.839995305664,2|2,0:0|0:0,0:0:0:0:
151,360,3836,1,8,0:0:0:0:
151,360,4040,2,0,P|122:298|98:230,1,139.839995305664,2|2,0:0|0:0,0:0:0:0:
33,182,4652,5,8,0:0:0:0:
33,182,4856,2,0,P|61:120|85:52,1,139.839995305664,2|0,0:0|0:0,0:0:0:0:
161,11,5469,2,0,P|194:27|225:37,1,69.9199976528321,10|0,0:0|0:0,0:0:0:0:
297,91,5878,2,0,P|330:74|361:64,1,69.9199976528321,2|2,1:2|0:0,0:0:0:0:
443,44,6285,5,10,0:0:0:0:
443,44,6489,2,0,P|473:121|428:186,1,139.839995305664,2|2,0:0|0:0,0:0:0:0:
369,155,7101,1,8,0:0:0:0:
369,155,7305,2,0,P|338:232|383:297,1,139.839995305664,2|2,0:0|0:0,0:0:0:0:
306,341,7918,5,8,0:0:0:0:
306,341,8122,2,0,P|244:312|176:288,1,139.839995305664,2|2,0:0|0:0,0:0:0:0:
106,356,8734,2,0,P|89:322|79:291,1,69.9199976528321,10|0,0:0|0:0,0:0:0:0:
26,220,9143,2,0,P|42:186|52:155,1,69.9199976528321,2|2,1:2|0:0,0:0:0:0:
95,77,9550,5,10,0:0:0:0:
95,77,9754,2,0,B|171:87|157:115|224:130,1,139.839995305664,2|2,0:0|0:0,0:0:0:0:
262,212,10367,1,8,0:0:0:0:
262,212,10571,2,0,B|185:222|199:250|132:265,1,139.839995305664,2|0,0:0|0:0,0:0:0:0:
57,326,11183,5,8,0:0:0:0:
57,326,11387,2,0,P|26:248|71:183,1,139.839995305664,2|2,0:0|0:0,0:0:0:0:
9,121,11999,2,0,P|25:87|35:56,1,69.9199976528321,10|0,0:0|0:0,0:0:0:0:
110,0,12407,2,0,P|126:33|136:64,1,69.9199976528321,2|2,1:2|0:0,0:0:0:0:
202,127,12816,1,10,0:0:0:0:
277,66,13020,1,6,0:0:0:0:
447,369,14652,6,0,B|418:300|418:300|455:231,1,139.839995305664,6|2,1:2|1:2,0:0:0:0:
511,169,15264,1,10,0:0:0:0:
511,169,15469,1,2,0:0:0:0:
444,102,15673,2,0,P|411:117|356:138,1,69.9199976528321,2|0,1:2|0:0,0:0:0:0:
304,69,16081,2,0,P|289:102|268:157,1,69.9199976528321,10|2,0:0|0:0,0:0:0:0:
205,201,16489,6,0,P|191:168|177:136,2,69.9199976528321,2|2|10,1:2|1:2|0:0,0:0:0:0:
276,270,17101,2,0,P|243:283|211:297,1,69.9199976528321,2|0,0:0|1:0,0:0:0:0:
147,357,17509,2,0,P|115:342|82:329,1,69.9199976528321,2|8,0:0|0:0,0:0:0:0:
0,291,17918,6,0,P|-1:222|43:171,1,139.839995305664,2|0,1:2|0:0,0:0:0:0:
103,102,18530,2,0,P|89:69|75:37,1,69.9199976528321,10|2,0:0|0:0,0:0:0:0:
169,0,18938,2,0,P|219:17|265:41,1,104.879996479248,2|0,1:2|0:0,0:0:0:0:
294,57,19346,2,0,P|327:43|359:29,1,69.9199976528321,10|2,0:0|0:0,0:0:0:0:
429,98,19754,6,0,P|415:131|401:163,1,69.9199976528321,2|2,1:2|0:0,0:0:0:0:
456,242,20162,1,10,0:0:0:0:
390,307,20367,2,0,P|328:271|261:252,1,139.839995305664,2|2,0:0|0:0,0:0:0:0:
193,312,20979,1,8,0:0:0:0:
170,221,21183,6,0,B|141:152|141:152|178:83,1,139.839995305664,2|0,0:0|0:0,0:0:0:0:
102,31,21795,2,0,P|69:45|37:59,1,69.9199976528321,10|2,0:0|0:0,0:0:0:0:
0,145,22203,2,0,P|14:177|27:209,1,69.9199976528321,2|0,1:2|0:0,0:0:0:0:
0,320,22611,2,0,P|50:292|105:276,1,104.879996479248,10|2,0:0|0:0,0:0:0:0:
124,254,23020,6,0,P|156:268|188:281,1,69.9199976528321,2|2,1:2|0:0,0:0:0:0:
245,352,23428,1,10,0:0:0:0:
297,272,23632,2,0,P|283:240|270:208,1,69.9199976528321,2|0,0:0|1:0,0:0:0:0:
198,151,24040,2,0,P|212:119|225:87,1,69.9199976528321,2|8,0:0|0:0,0:0:0:0:
284,11,24448,6,0,P|361:25|405:78,1,139.839995305664,2|0,0:0|0:0,0:0:0:0:
470,132,25060,1,10,0:0:0:0:
470,132,25264,1,2,0:0:0:0:
417,202,25469,2,0,P|431:234|444:266,1,69.9199976528321,2|0,1:2|0:0,0:0:0:0:
375,339,25877,2,0,P|361:307|348:275,1,69.9199976528321,10|2,0:0|0:0,0:0:0:0:
265,234,26285,6,0,P|232:248|200:262,2,69.9199976528321,2|2|10,1:2|0:0|0:0,0:0:0:0:
317,157,26897,2,0,P|304:124|290:92,1,69.9199976528321,2|0,0:0|1:0,0:0:0:0:
216,23,27305,2,0,P|203:55|188:87,1,69.9199976528321,2|0,0:0|0:0,0:0:0:0:
109,132,27713,5,14,0:0:0:0:
109,132,27918,2,0,P|65:126|32:90,2,87.7799982587586,4|0|0,1:2|1:0|1:0,0:0:0:0:
171,200,28734,2,0,P|145:257|125:313,1,117.039997678345,10|2,0:0|3:2,0:0:0:0:
310,304,29550,6,0,P|291:343|276:384,2,87.7799982587586,0|0|0,1:0|1:0|1:0,0:0:0:0:
407,277,30367,2,0,P|395:247|379:205,1,58.5199988391724,10|2,0:0|0:0,0:0:0:0:
474,173,30775,2,0,P|461:143|445:101,1,58.5199988391724,2|2,3:2|3:2,0:0:0:0:
417,41,31183,5,0,1:0:0:0:
417,41,31387,2,0,P|443:29|470:19,2,58.5199988391724,2|2|0,0:0|0:0|1:2,0:0:0:0:
337,80,31999,1,10,0:0:0:0:
337,80,32203,2,0,P|287:55|220:32,1,117.039997678345,2|2,0:0|0:0,0:0:0:0:
173,151,33020,6,0,P|228:170|280:195,1,117.039997678345,2|2,0:0|1:2,0:0:0:0:
322,279,33632,2,0,P|364:241|364:173,1,117.039997678345,8|0,0:0|3:0,0:0:0:0:
431,124,34244,1,0,3:0:0:0:
359,63,34448,6,0,L|257:103,2,87.7799982587586,0|0|0,1:0|1:0|1:0,0:0:0:0:
431,124,35264,1,10,0:0:0:0:
354,232,35673,1,2,3:2:0:0:
461,350,36081,6,0,P|478:310|460:262,2,87.7799982587586,0|0|2,1:0|1:0|1:2,0:0:0:0:
378,319,36897,2,0,P|323:338|271:363,1,117.039997678345,10|2,0:0|3:2,0:0:0:0:
155,384,37509,6,0,B|188:319|188:319|155:244,1,139.839995305664,6|2,1:2|1:2,0:0:0:0:
86,202,38122,2,0,P|70:163|49:108,1,69.9199976528321,10|0,0:0|1:0,0:0:0:0:
84,43,38530,1,2,1:2:0:0:
84,43,38734,1,2,1:2:0:0:
159,98,38938,2,0,P|198:82|252:61,1,69.9199976528321,10|0,0:0|1:0,0:0:0:0:
300,3,39346,6,0,P|339:18|393:39,1,69.9199976528321,14|0,0:0|1:0,0:0:0:0:
482,0,39754,2,0,P|466:39|445:93,1,69.9199976528321,8|0,0:0|1:0,0:0:0:0:
413,148,40162,1,10,0:0:0:0:
490,211,40367,2,0,L|475:248,3,34.9599988264161,8|8|8|8,0:0|0:0|0:0|0:0,0:0:0:0:
466,272,40775,6,0,B|380:285|402:315|322:330,1,155.040000946289,6|2,1:2|1:2,0:0:0:0:
238,384,41387,1,10,0:0:0:0:
238,384,41591,1,2,0:0:0:0:
169,301,41795,2,0,P|186:268|198:229,1,77.5200004731445,2|0,1:2|0:0,0:0:0:0:
266,145,42203,2,0,P|255:107|237:73,1,77.5200004731445,10|2,0:0|3:2,0:0:0:0:
226,50,42509,5,0,3:0:0:0:
226,50,42611,2,0,P|191:68|154:78,1,77.5200004731445,2|0,1:2|0:0,0:0:0:0:
72,19,43020,2,0,P|61:56|43:90,1,77.5200004731445,10|2,0:0|0:0,0:0:0:0:
98,173,43428,1,2,1:2:0:0:
98,173,43632,1,2,0:0:0:0:
37,250,43836,1,10,0:0:0:0:
104,325,44040,6,0,P|171:290|247:266,1,155.040000946289,2|2,0:0|0:0,0:0:0:0:
311,338,44652,1,10,0:0:0:0:
311,338,44856,1,2,0:0:0:0:
377,272,45060,2,0,P|387:229|376:197,1,77.5200004731445,2|0,1:2|0:0,0:0:0:0:
439,124,45469,2,0,P|429:81|440:49,1,77.5200004731445,10|2,0:0|3:2,0:0:0:0:
411,24,45775,5,0,3:0:0:0:
411,24,45877,2,0,P|376:42|339:52,1,77.5200004731445,2|0,1:2|0:0,0:0:0:0:
272,141,46285,2,0,P|309:151|343:169,1,77.5200004731445,10|2,0:0|0:0,0:0:0:0:
422,253,46693,1,2,1:2:0:0:
422,253,46897,1,2,0:0:0:0:
352,328,47101,1,10,0:0:0:0:
282,256,47305,6,0,B|196:269|218:299|138:314,1,155.040000946289,14|0,0:0|0:0,0:0:0:0:
52,360,47918,1,8,0:0:0:0:
52,360,48122,2,0,P|18:289|42:211,1,155.040000946289,2|0,0:0|0:0,0:0:0:0:
1,105,48734,5,8,0:0:0:0:
1,105,48938,2,0,P|69:134|149:164,1,155.040000946289,2|0,0:0|0:0,0:0:0:0:
196,258,49550,1,8,0:0:0:0:
196,258,49754,2,0,P|264:229|344:198,1,155.040000946289,2|0,0:0|0:0,0:0:0:0:
410,281,50367,1,8,0:0:0:0:
482,203,50571,6,0,P|448:150|484:52,1,155.040000946289,6|2,1:2|0:0,0:0:0:0:
382,4,51183,2,0,P|344:14|310:32,1,77.5200004731445,10|0,0:0|0:0,0:0:0:0:
287,44,51489,1,0,0:0:0:0:
287,44,51591,2,0,P|305:78|315:115,1,77.5200004731445,2|0,1:2|1:0,0:0:0:0:
260,191,51999,1,8,0:0:0:0:
328,276,52203,6,0,B|272:286|272:286|237:323|237:323|183:333,1,155.040000946289,2|2,0:0|3:2,0:0:0:0:
71,384,52816,2,0,P|89:349|99:312,1,77.5200004731445,10|0,0:0|3:0,0:0:0:0:
36,241,53224,1,2,1:2:0:0:
106,172,53428,1,0,1:0:0:0:
41,96,53632,1,10,0:0:0:0:
112,25,53836,6,0,P|180:54|264:85,1,162.639995036621,4|2,1:2|1:2,0:0:0:0:
345,25,54448,1,10,0:0:0:0:
345,25,54652,1,2,0:0:0:0:
417,105,54856,2,0,P|399:137|388:180,1,81.3199975183106,2|0,1:2|0:0,0:0:0:0:
466,244,55264,2,0,P|448:276|437:319,1,81.3199975183106,10|2,0:0|3:2,0:0:0:0:
430,362,55571,5,0,3:0:0:0:
430,362,55661,2,0,P|397:344|355:333,1,81.3199975183106,2|0,1:2|0:0,0:0:0:0:
256,380,56069,2,0,P|223:362|181:351,1,81.3199975183106,10|2,0:0|0:0,0:0:0:0:
105,285,56477,1,2,1:2:0:0:
105,285,56681,1,2,0:0:0:0:
175,211,56885,1,10,0:0:0:0:
101,146,57089,6,0,B|73:107|60:61|60:61|97:-20,1,162.639995036621,2|2,0:0|0:0,0:0:0:0:
176,58,57701,2,0,P|208:40|251:29,1,81.3199975183106,10|2,0:0|0:0,0:0:0:0:
286,12,58007,1,0,0:0:0:0:
286,12,58109,2,0,P|318:29|361:41,1,81.3199975183106,2|0,1:2|0:0,0:0:0:0:
423,131,58518,2,0,P|383:140|347:160,1,81.3199975183106,10|2,0:0|3:2,0:0:0:0:
283,244,58926,5,2,1:2:0:0:
283,244,59130,1,2,0:0:0:0:
243,150,59334,2,0,P|233:110|213:74,1,81.3199975183106,10|2,0:0|0:0,0:0:0:0:
131,16,59742,1,2,1:2:0:0:
131,16,59946,1,2,0:0:0:0:
50,81,60150,1,10,0:0:0:0:
117,168,60354,6,0,P|79:241|52:325,1,162.639995036621,14|0,0:0|0:0,0:0:0:0:
155,359,60967,1,8,0:0:0:0:
155,359,61171,2,0,P|180:281|217:209,1,162.639995036621,2|0,0:0|0:0,0:0:0:0:
327,234,61783,5,8,0:0:0:0:
327,234,61987,2,0,P|290:306|265:384,1,162.639995036621,2|0,0:0|0:0,0:0:0:0:
388,384,62599,1,8,0:0:0:0:
388,384,62803,2,0,P|414:307|451:235,1,162.639995036621,2|0,0:0|0:0,0:0:0:0:
383,158,63416,1,8,0:0:0:0:
457,80,63620,6,0,P|393:22|319:22,1,162.639995036621,6|2,1:2|0:0,0:0:0:0:
238,104,64232,2,0,P|228:64|208:28,1,81.3199975183106,10|0,0:0|0:0,0:0:0:0:
187,0,64538,1,0,0:0:0:0:
187,0,64640,2,0,P|147:9|111:29,1,81.3199975183106,2|0,1:2|1:0,0:0:0:0:
30,95,65048,1,8,0:0:0:0:
95,167,65252,6,0,P|75:202|65:242,1,81.3199975183106,2|0,0:0|0:0,0:0:0:0:
117,325,65660,1,2,3:2:0:0:
198,271,65865,2,0,P|233:290|273:300,1,81.3199975183106,10|0,0:0|3:0,0:0:0:0:
347,384,66273,1,2,1:2:0:0:
417,305,66477,1,0,1:0:0:0:
350,228,66681,5,10,0:0:0:0:
350,228,66783,1,8,0:0:0:0:
350,228,66885,2,0,B|315:188|313:140|313:140|358:70,1,170.240002078125,4|2,1:2|1:2,0:0:0:0:
256,19,67497,1,14,0:0:0:0:
256,19,67701,1,2,0:0:0:0:
161,74,67905,2,0,P|126:93|79:102,1,85.1200010390625,2|0,1:2|0:0,0:0:0:0:
4,186,68314,2,0,P|23:221|32:268,1,85.1200010390625,14|2,0:0|3:2,0:0:0:0:
37,303,68620,5,0,3:0:0:0:
37,303,68722,2,0,P|72:284|119:275,1,85.1200010390625,2|0,1:2|0:0,0:0:0:0:
195,359,69130,2,0,P|203:317|222:279,1,85.1200010390625,14|2,0:0|0:0,0:0:0:0:
299,202,69538,1,2,1:2:0:0:
223,120,69742,1,2,0:0:0:0:
293,40,69946,1,14,0:0:0:0:
372,115,70150,6,0,B|427:140|427:140|454:185|454:185|513:209,1,170.240002078125,2|2,0:0|0:0,0:0:0:0:
431,294,70763,1,14,0:0:0:0:
431,294,70967,1,2,0:0:0:0:
358,372,71171,2,0,P|321:360|278:341,1,85.1200010390625,2|0,1:2|0:0,0:0:0:0:
177,383,71579,2,0,P|165:346|146:303,1,85.1200010390625,14|2,0:0|3:2,0:0:0:0:
52,247,71987,5,2,1:2:0:0:
52,247,72191,1,0,0:0:0:0:
83,142,72395,2,0,P|96:106|115:63,1,85.1200010390625,14|2,0:0|0:0,0:0:0:0:
211,6,72803,1,2,1:2:0:0:
216,119,73007,1,2,0:0:0:0:
291,200,73212,1,14,0:0:0:0:
219,287,73416,6,0,B|108:303|136:342|34:361,1,170.240002078125,14|0,0:0|1:0,0:0:0:0:
0,265,74028,1,8,0:0:0:0:
61,172,74232,2,0,P|24:100|-4:15,1,170.240002078125,6|0,1:2|1:0,0:0:0:0:
103,51,74844,1,8,0:0:0:0:
197,0,75048,6,0,P|269:37|354:65,1,170.240002078125,6|0,1:2|1:0,0:0:0:0:
446,14,75660,1,8,0:0:0:0:
512,99,75865,2,0,P|466:178|438:263,1,170.240002078125,6|0,1:2|1:0,0:0:0:0:
378,354,76477,1,8,0:0:0:0:
305,276,76681,6,0,P|239:329|158:350,1,170.240002078125,6|2,1:2|1:2,0:0:0:0:
95,261,77293,2,0,P|114:226|123:179,1,85.1200010390625,14|0,0:0|3:0,0:0:0:0:
128,144,77599,1,0,3:0:0:0:
128,144,77701,2,0,P|163:163|210:172,1,85.1200010390625,2|0,1:2|0:0,0:0:0:0:
288,110,78109,1,14,0:0:0:0:
346,199,78314,6,0,P|327:234|318:281,1,85.1200010390625,2|0,3:2|1:2,0:0:0:0:
241,364,78722,1,2,1:2:0:0:
241,364,78926,1,14,0:0:0:0:
159,293,79130,1,0,1:0:0:0:
71,360,79334,1,10,0:0:0:0:
5,277,79538,2,0,L|23:230,3,42.5600005195313,8|8|10|8,0:0|0:0|0:0|0:0,0:0:0:0:
52,220,79946,6,0,P|23:158|0:90,1,139.839995305664,6|0,1:2|1:0,0:0:0:0:
66,20,80558,2,0,P|99:36|130:46,1,69.9199976528321,10|0,0:0|0:0,0:0:0:0:
202,100,80967,2,0,P|235:83|266:73,1,69.9199976528321,2|2,1:2|0:0,0:0:0:0:
352,49,81375,5,10,0:0:0:0:
352,49,81579,2,0,P|377:117|340:181,1,139.839995305664,2|2,0:0|0:0,0:0:0:0:
289,232,82191,1,8,0:0:0:0:
289,232,82395,2,0,P|264:300|301:364,1,139.839995305664,2|2,0:0|0:0,0:0:0:0:
370,312,83007,5,8,0:0:0:0:
370,312,83212,2,0,P|436:340|511:369,1,139.839995305664,2|0,0:0|0:0,0:0:0:0:
512,274,83824,2,0,P|495:240|485:209,1,69.9199976528321,10|0,0:0|0:0,0:0:0:0:
432,138,84233,2,0,P|448:104|458:73,1,69.9199976528321,2|2,1:2|1:2,0:0:0:0:
388,1,84640,5,10,0:0:0:0:
388,1,84844,1,2,0:0:0:0:
309,63,85048,1,8,0:0:0:0:
229,1,85252,1,6,1:2:0:0:
229,1,85660,6,0,P|206:71|177:130,1,139.839995305664,6|10,1:2|0:0,0:0:0:0:
92,273,86477,1,6,1:2:0:0:
