osu file format v14

[General]
AudioFilename: audio.mp3
AudioLeadIn: 2000
PreviewTime: 86109
Countdown: 0
SampleSet: Soft
StackLeniency: 0.7
Mode: 0
LetterboxInBreaks: 0
WidescreenStoryboard: 0

[Editor]
Bookmarks: 52,21994,43937,65880,87823,98794,109766,134452,153652,175594,197537,219480,241423,263366,288052,307252,329194,351137
DistanceSpacing: 0.5
BeatDivisor: 8
GridSize: 8
TimelineZoom: 2.4

[Metadata]
Title:One Last Night (Phloem Remix)
TitleUnicode:One Last Night (Phloem Remix)
Artist:Vaults
ArtistUnicode:Vaults
Creator:Euny
Version:Yes. Sir.
Source:
Tags:The Fifty Shades Of Grey
BeatmapID:1565774
BeatmapSetID:742332

[Difficulty]
HPDrainRate:7
CircleSize:4.2
OverallDifficulty:9
ApproachRate:8.9
SliderMultiplier:2.3
SliderTickRate:1

[Events]
//Background and Video events
0,0,"Grey.jpg",0,0
//Break Periods
2,44136,59779
//Storyboard Layer 0 (Background)
//Storyboard Layer 1 (Fail)
//Storyboard Layer 2 (Pass)
//Storyboard Layer 3 (Foreground)
//Storyboard Sound Samples

[TimingPoints]
52,342.857142857143,4,2,50,30,1,0
52,-133.333333333333,4,2,50,30,0,0
21994,-400,4,2,50,30,0,0
25080,-285.714285714286,4,2,50,30,0,0
42566,-133.333333333333,4,2,50,30,0,0
43080,-125,4,2,50,30,0,0
43594,-100,4,2,50,30,0,0
87480,-142.857142857143,4,2,50,30,0,0
87823,-83.3333333333333,4,2,50,30,0,1
89194,-83.3333333333333,4,2,50,30,0,0
97766,-71.4285714285714,4,2,50,30,0,0
98109,-62.5,4,2,50,30,0,0
98794,-83.3333333333333,4,2,50,30,0,0
110109,-83.3333333333333,4,2,50,30,0,1
111137,-83.3333333333333,4,2,50,30,0,0
134452,-125,4,2,50,30,0,0
153994,-83.3333333333333,4,2,50,30,0,1
155023,-83.3333333333333,4,2,50,30,0,0
197537,-200,4,2,50,30,0,0
219480,-100,4,2,50,30,0,0
241423,-83.3333333333333,4,2,50,30,0,1
242794,-83.3333333333333,4,2,50,30,0,0
263709,-83.3333333333333,4,2,50,30,0,1
264737,-83.3333333333333,4,2,50,30,0,0
288052,-125,4,2,50,30,0,0
307594,-83.3333333333333,4,2,50,30,0,1
308623,-83.3333333333333,4,2,50,30,0,0
329194,-100,4,2,50,30,0,0
351137,-100,4,2,50,40,0,0

[Colours]
Combo1 : 187,187,255
Combo2 : 255,166,210
Combo3 : 108,253,235

[HitObjects]
322,311,52,6,0,P|278:289|354:272,1,172.500006580353
192,272,566,2,0,P|212:210|233:189,1,86.2500032901765
297,157,909,1,0,0:0:0:0:
150,119,1080,2,0,L|132:204,1,86.2500032901765
8,8,1423,6,0,B|28:81|28:81|67:35|120:26,1,172.500006580353
3,175,1938,2,0,P|45:183|83:164,1,86.2500032901765
3,269,2280,1,0,0:0:0:0:
168,296,2452,2,0,B|132:272|132:272|84:252,1,86.2500032901765
247,340,2794,6,0,P|246:256|183:201,1,172.500006580353
328,340,3308,2,0,P|372:348|420:336,1,86.2500032901765
500,376,3652,1,0,0:0:0:0:
488,200,3822,2,0,L|484:304,1,86.2500032901765
403,177,4166,6,0,P|456:114|538:126,1,172.500006580353
345,37,4680,2,0,L|330:138,1,86.2500032901765
284,197,5023,1,0,0:0:0:0:
348,356,5194,2,0,L|320:260,1,86.2500032901765
493,324,5537,6,0,P|427:323|481:360,1,172.500006580353
400,148,6052,2,0,P|400:192|388:244,1,86.2500032901765
479,128,6395,1,0,0:0:0:0:
352,80,6566,2,0,B|388:64|388:64|416:68|416:68|433:61,1,86.2500032901765
311,162,6908,6,0,P|267:90|297:11,1,172.500006580353
144,194,7422,2,0,P|185:201|226:189,1,86.2500032901765
180,55,7766,1,0,0:0:0:0:
71,124,7936,2,0,P|56:163|51:206,1,86.2500032901765
5,355,8280,6,0,P|81:317|121:236,1,172.500006580353
116,48,8794,2,0,L|29:53,1,86.2500032901765
121,133,9137,1,0,0:0:0:0:
216,20,9308,2,0,P|198:58|197:101,1,86.2500032901765
355,124,9651,6,0,P|298:90|363:76,1,172.500006580353
504,156,10166,2,0,P|479:120|439:107,1,86.2500032901765
396,228,10509,1,0,0:0:0:0:
512,316,10680,2,0,B|494:293|494:293|480:226,1,86.2500032901765
512,4,11022,6,0,L|316:27,1,172.500006580353
376,188,11536,2,0,P|374:143|352:98,1,86.2500032901765
281,173,11879,1,0,0:0:0:0:
320,264,12050,2,0,P|360:279|402:280,1,86.2500032901765
470,177,12394,6,0,L|441:359,1,172.500006580353
264,376,12908,2,0,P|299:353|342:352,1,86.2500032901765
257,294,13251,1,0,0:0:0:0:
104,356,13422,2,0,P|136:340|200:348,1,86.2500032901765
342,298,13765,6,0,L|173:252,1,172.500006580353
140,92,14280,2,0,P|151:133|146:175,1,86.2500032901765
38,140,14623,1,0,0:0:0:0:
16,20,14794,2,0,B|44:28|44:28|132:16,1,86.2500032901765
316,40,15137,6,0,B|267:67|267:67|216:51|216:51|141:86,1,172.500006580353
392,176,15650,2,0,P|373:137|373:94,1,86.2500032901765
512,162,15993,1,0,0:0:0:0:
476,0,16164,2,0,P|481:42|476:85,1,86.2500032901765
497,384,16509,6,0,P|453:311|464:227,1,172.500006580353
270,224,17023,2,0,L|359:260,1,86.2500032901765
389,184,17366,1,0,0:0:0:0:
392,368,17537,2,0,P|353:348|311:346,1,86.2500032901765
140,368,17880,6,0,B|210:361|210:361|245:315|245:315|189:343,1,172.500006580353
39,306,18395,2,0,P|41:265|28:222,1,86.2500032901765
0,384,18738,1,0,0:0:0:0:
192,234,18909,2,0,B|111:305,1,86.2500032901765
271,275,19251,6,0,P|268:191|202:141,1,172.500006580353
328,340,19765,2,0,P|372:348|420:336,1,86.2500032901765
372,256,20108,1,0,0:0:0:0:
464,180,20279,2,0,P|468:223|490:274,1,86.2500032901765
404,112,20623,5,0,0:0:0:0:
354,122,20708,1,0,0:0:0:0:
304,106,20794,1,0,0:0:0:0:
256,89,20880,1,0,0:0:0:0:
205,95,20966,1,0,0:0:0:0:
127,145,21051,5,0,0:0:0:0:
144,158,21137,1,0,0:0:0:0:
150,178,21223,1,0,0:0:0:0:
143,198,21308,1,0,0:0:0:0:
126,211,21394,1,0,0:0:0:0:
105,213,21480,1,0,0:0:0:0:
87,201,21566,1,0,0:0:0:0:
78,181,21651,1,0,0:0:0:0:
496,20,21994,6,0,L|404:28,2,86.25
512,36,23366,6,0,L|428:72,2,86.25
512,368,25080,5,0,0:0:0:0:
508,363,25252,2,0,L|452:360,1,40.2499987716675
392,364,25594,5,0,0:0:0:0:
432,288,25766,2,0,L|384:272,1,40.2499987716675
212,208,26109,5,0,0:0:0:0:
256,48,26452,5,0,0:0:0:0:
256,48,26624,2,0,L|264:100,1,40.2499987716675
328,172,26966,6,0,L|332:128,2,40.2499987716675
408,96,27480,6,0,P|379:67|312:46,1,100.624996929169
323,46,27994,1,0,0:0:0:0:
475,173,28166,2,0,P|498:135|498:67,1,100.624996929169
499,77,28680,1,0,0:0:0:0:
432,24,28852,5,0,0:0:0:0:
348,32,29023,1,0,0:0:0:0:
288,92,29194,2,0,B|292:144|266:171|266:171|303:214|330:182|319:166,1,160.99999508667
155,96,30223,5,0,0:0:0:0:
208,268,30566,5,0,0:0:0:0:
208,268,30738,2,0,L|252:256,2,40.2499987716675
340,320,31252,2,0,L|292:320,1,40.2499987716675
504,288,31594,6,0,L|396:276,1,100.624996929169
360,176,32109,2,0,L|472:216,1,100.624996929169
512,116,32623,2,0,L|444:128,1,60.3749981575013
384,96,32966,6,0,P|383:57|352:92,1,100.624996929169
328,168,33480,2,0,P|284:144|263:99,1,100.624996929169
289,26,33994,2,0,P|260:19|232:28,1,60.3749981575013
184,96,34337,6,0,L|224:216,2,120.749996315003
4,380,36052,5,0,0:0:0:0:
0,375,36224,2,0,L|52:352,1,40.2499987716675
120,368,36566,5,0,0:0:0:0:
176,300,36738,2,0,L|136:264,1,40.2499987716675
8,144,37081,5,0,0:0:0:0:
140,32,37424,5,0,0:0:0:0:
140,32,37596,2,0,L|92:36,2,40.2499987716675
220,89,38109,5,0,0:0:0:0:
220,89,38280,1,0,0:0:0:0:
304,172,38452,6,0,P|317:132|305:63,1,100.624996929169
310,74,38966,1,0,0:0:0:0:
275,251,39138,2,0,P|330:252|371:223,1,100.624996929169
367,228,39652,1,0,0:0:0:0:
408,160,39824,5,0,0:0:0:0:
480,200,39995,1,0,0:0:0:0:
439,272,40166,2,0,P|376:314|306:281,1,160.99999508667
244,101,41195,5,0,0:0:0:0:
70,18,41537,5,0,0:0:0:0:
70,18,41709,2,0,L|114:6,2,40.2499987716675
9,137,42223,2,0,P|17:119|30:104,1,40.2499987716675
143,161,42566,6,0,P|103:228|110:150,1,215.625008225441
223,144,43080,6,0,B|244:216|201:266|201:266|253:244|300:261,1,230
305,185,43594,6,0,B|309:153|295:116|295:116|369:155|369:155|349:109|364:71,1,230
256,192,60394,12,0,65023,0:0:0:0:
324,118,65194,5,0,0:0:0:0:
336,202,65366,1,0,0:0:0:0:
257,170,65537,1,0,0:0:0:0:
257,170,65623,1,0,0:0:0:0:
257,170,65709,1,0,0:0:0:0:
368,32,65880,5,2,0:0:0:0:
433,111,66052,2,0,P|379:129|323:117,1,115
512,88,66394,1,0,0:0:0:0:
512,278,66566,2,0,B|483:212|483:212|493:156,1,115
507,9,66909,1,0,0:0:0:0:
507,9,67080,1,0,0:0:0:0:
266,64,67252,6,0,B|333:77|333:77|429:31|429:31|390:83,1,230
352,280,67766,2,0,P|339:224|355:169,1,115
432,200,68109,1,0,0:0:0:0:
280,328,68280,2,0,P|216:342|168:328,1,115
144,240,68623,5,0,0:0:0:0:
43,294,68794,2,0,P|59:239|50:183,1,115
0,367,69137,1,0,0:0:0:0:
188,346,69309,2,0,P|131:342|82:370,1,115
305,262,69652,1,0,0:0:0:0:
304,376,69823,1,0,0:0:0:0:
433,304,69994,6,0,P|428:352|387:326,2,115
485,111,70509,1,0,0:0:0:0:
485,111,70680,2,0,L|456:228,1,115
300,32,71023,2,0,P|358:56|409:94,1,115
247,130,71366,5,0,0:0:0:0:
147,217,71537,2,0,P|138:161|144:104,1,115
218,259,71880,1,0,0:0:0:0:
137,374,72052,2,0,P|193:312|276:321,1,172.5
348,369,72394,2,0,P|359:314|332:258,1,115
191,227,72737,5,0,0:0:0:0:
97,127,72909,2,0,P|136:145|209:137,1,115
23,186,73252,2,0,P|5:131|15:75,1,115
97,43,73594,1,0,0:0:0:0:
303,15,73766,2,0,L|182:46,1,115
352,87,74109,5,0,0:0:0:0:
510,24,74280,2,0,P|457:42|434:94,1,115
499,277,74623,1,0,0:0:0:0:
499,277,74794,2,0,L|512:105,1,172.5
510,14,75137,2,0,P|464:45|395:42,1,115
328,0,75480,5,0,0:0:0:0:
368,232,75652,2,0,B|401:177|340:175|371:123,1,115
288,208,75994,1,0,0:0:0:0:
478,303,76166,2,0,P|446:361|361:383,1,115
288,224,76509,5,0,0:0:0:0:
365,380,76680,1,0,0:0:0:0:
402,173,76852,1,0,0:0:0:0:
256,368,77023,6,0,P|218:313|229:252,1,115
144,352,77366,1,0,0:0:0:0:
13,285,77537,2,0,B|74:234|146:240|146:240|106:282,1,172.5
43,302,77880,2,0,P|44:216|22:179,1,115
7,41,78223,5,0,0:0:0:0:
7,41,78394,2,0,B|90:84|80:12|179:52,1,172.5
126,166,78737,2,0,P|105:151|149:154,1,115
104,254,79080,1,0,0:0:0:0:
0,136,79252,2,0,L|3:259,1,115
26,374,79594,5,0,0:0:0:0:
278,328,79766,2,0,P|200:364|114:363,1,172.5
58,290,80109,2,0,P|115:290|166:267,1,115
156,178,80452,1,0,0:0:0:0:
87,31,80623,2,0,L|72:159,1,115
3,66,80966,5,0,0:0:0:0:
168,128,81137,2,0,P|224:124|270:90,1,115
192,32,81480,1,0,0:0:0:0:
272,184,81652,1,0,0:0:0:0:
272,0,81823,1,0,0:0:0:0:
257,260,81994,2,0,P|313:257|349:214,1,115
272,184,82337,5,0,0:0:0:0:
349,342,82509,2,0,P|405:340|444:300,1,115
468,49,82852,2,0,P|441:119|460:219,1,172.5
456,213,83194,1,0,0:0:0:0:
242,140,83366,2,0,L|360:149,1,115
246,41,83709,5,0,0:0:0:0:
325,240,83881,2,0,P|328:277|301:361,1,115
77,362,84224,2,0,L|243:296,1,172.5
236,296,84566,1,0,0:0:0:0:
173,114,84738,2,0,P|193:170|190:235,1,115
85,135,85080,5,0,0:0:0:0:
83,106,85165,1,0,0:0:0:0:
90,78,85251,1,0,0:0:0:0:
106,54,85337,1,0,0:0:0:0:
128,36,85423,1,0,0:0:0:0:
166,25,85508,1,0,0:0:0:0:
205,31,85594,5,0,0:0:0:0:
238,54,85680,1,0,0:0:0:0:
257,89,85766,5,0,0:0:0:0:
265,134,85851,1,0,0:0:0:0:
256,178,85937,1,0,0:0:0:0:
231,217,86023,1,0,0:0:0:0:
191,240,86109,5,0,0:0:0:0:
198,189,86194,1,0,0:0:0:0:
227,146,86280,1,0,0:0:0:0:
271,121,86366,1,0,0:0:0:0:
322,118,86452,1,0,0:0:0:0:
379,121,86537,1,0,0:0:0:0:
428,150,86623,5,0,0:0:0:0:
458,198,86709,1,0,0:0:0:0:
462,255,86794,1,0,0:0:0:0:
440,314,86879,1,0,0:0:0:0:
398,363,86965,1,0,0:0:0:0:
331,370,87052,1,0,0:0:0:0:
256,328,87136,5,0,0:0:0:0:
336,272,87309,5,0,0:0:0:0:
208,216,87480,6,0,L|244:232,3,40.2499987716675
194,242,87823,6,0,B|-3:287|-3:287|78:218,1,275.999991577149
253,151,88337,1,0,0:0:0:0:
66,127,88509,1,0,0:0:0:0:
172,6,88680,1,0,0:0:0:0:
199,248,88852,2,0,P|287:256|342:205,1,137.999995788574
401,54,89194,6,0,B|424:117|413:226|413:226|468:121,1,275.999991577149
479,6,89709,1,0,0:0:0:0:
331,116,89880,1,0,0:0:0:0:
301,0,90052,1,0,0:0:0:0:
401,182,90223,2,0,P|325:214|265:191,1,137.999995788574
233,53,90566,5,0,0:0:0:0:
250,222,90737,1,0,0:0:0:0:
328,8,90909,1,0,0:0:0:0:
131,188,91080,1,0,0:0:0:0:
356,225,91252,1,0,0:0:0:0:
214,134,91423,1,0,0:0:0:0:
407,157,91594,2,0,P|443:213|424:277,1,137.999995788574
88,304,91937,6,0,B|224:384|224:216|368:328,1,275.999991577149
278,376,92452,1,0,0:0:0:0:
156,241,92623,1,0,0:0:0:0:
136,384,92794,1,0,0:0:0:0:
176,152,92966,2,0,P|109:159|32:112,1,137.999995788574
165,58,93309,5,0,0:0:0:0:
269,210,93480,1,0,0:0:0:0:
377,6,93652,1,0,0:0:0:0:
251,93,93823,1,0,0:0:0:0:
465,161,93994,1,0,0:0:0:0:
472,0,94166,1,0,0:0:0:0:
397,224,94337,2,0,P|458:254|519:228,1,137.999995788574
335,154,94680,6,0,B|282:235|354:323|354:323|302:368|241:318,1,275.999991577149
211,175,95194,1,0,0:0:0:0:
246,332,95366,1,0,0:0:0:0:
147,113,95537,1,0,0:0:0:0:
37,303,95709,1,0,0:0:0:0:
260,245,95880,1,0,0:0:0:0:
6,288,96052,5,0,0:0:0:0:
48,208,96223,1,0,0:0:0:0:
8,128,96394,1,0,0:0:0:0:
48,48,96566,1,0,0:0:0:0:
144,24,96737,1,0,0:0:0:0:
120,112,96909,1,0,0:0:0:0:
232,8,97080,2,0,P|264:56|248:144,1,137.999995788574
270,337,97423,6,0,P|300:264|232:304,1,206.999993682861
167,355,97766,6,0,P|220:277|128:296,1,241.499992630005
85,362,98109,6,0,P|132:266|32:304,1,276
8,384,98452,1,0,0:0:0:0:
51,178,98623,1,0,0:0:0:0:
224,248,98794,6,0,B|184:264|184:264|144:347|144:347|85:363|85:363|136:280,1,275.999991577149
253,151,99308,1,0,0:0:0:0:
66,127,99480,1,0,0:0:0:0:
172,6,99651,1,0,0:0:0:0:
199,248,99823,2,0,P|287:256|342:205,1,137.999995788574
401,54,100165,6,0,B|424:117|413:226|413:226|468:121,1,275.999991577149
479,6,100680,1,0,0:0:0:0:
331,116,100851,1,0,0:0:0:0:
301,0,101023,1,0,0:0:0:0:
401,182,101194,2,0,P|325:214|265:191,1,137.999995788574
233,53,101537,5,0,0:0:0:0:
250,222,101708,1,0,0:0:0:0:
312,9,101880,1,0,0:0:0:0:
131,188,102051,1,0,0:0:0:0:
356,225,102223,1,0,0:0:0:0:
214,134,102394,1,0,0:0:0:0:
407,157,102565,2,0,P|443:213|424:277,1,137.999995788574
88,304,102908,6,0,B|224:384|224:216|368:328,1,275.999991577149
278,376,103423,1,0,0:0:0:0:
156,241,103594,1,0,0:0:0:0:
136,384,103765,1,0,0:0:0:0:
176,152,103937,2,0,P|109:159|71:215,1,137.999995788574
165,58,104280,5,0,0:0:0:0:
269,210,104451,1,0,0:0:0:0:
377,6,104623,1,0,0:0:0:0:
251,93,104794,1,0,0:0:0:0:
465,161,104965,1,0,0:0:0:0:
484,0,105137,1,0,0:0:0:0:
397,224,105308,2,0,P|458:254|519:228,1,137.999995788574
335,154,105651,6,0,B|282:235|354:323|354:323|302:368|241:318,1,275.999991577149
211,175,106165,1,0,0:0:0:0:
246,332,106337,1,0,0:0:0:0:
147,113,106508,1,0,0:0:0:0:
37,303,106680,1,0,0:0:0:0:
260,245,106851,1,0,0:0:0:0:
6,288,107023,5,0,0:0:0:0:
48,208,107194,1,0,0:0:0:0:
8,128,107365,1,0,0:0:0:0:
48,48,107537,1,0,0:0:0:0:
184,80,107708,1,0,0:0:0:0:
120,144,107880,1,0,0:0:0:0:
232,8,108051,2,0,P|264:56|248:144,1,137.999995788574
