osu file format v14

[General]
AudioFilename: audio.mp3
AudioLeadIn: 0
PreviewTime: 55340
Countdown: 0
SampleSet: None
StackLeniency: 0.7
Mode: 0
LetterboxInBreaks: 0
WidescreenStoryboard: 1

[Editor]
Bookmarks: 169,140029,254958,397764
DistanceSpacing: 0.3
BeatDivisor: 4
GridSize: 32
TimelineZoom: 1.96

[Metadata]
Title:Genre Compilation
TitleUnicode:Genre Compilation
Artist:Varius Artists
ArtistUnicode:Varius Artists
Creator:Karen
Version:shen mapo
Source:
Tags:Krewella Surrender The Throne Ammunition whitepulse inakano_gakusei Invisible Ruins まふまふ mafumafu 輪廻転生 Rinne Tensei Reincarnation Ashita Iro World End 明日色ワールドエンド artcore dnb drum and bass rock anime electronic dubstep osu!International Mapping Contest #2 skystar yf_bmp crystal
BeatmapID:1651086
BeatmapSetID:786561

[Difficulty]
HPDrainRate:5
CircleSize:4.5
OverallDifficulty:9
ApproachRate:9.4
SliderMultiplier:3.52
SliderTickRate:1

[Events]
//Background and Video events
0,0,"contest_background.jpg",0,0
//Break Periods
2,33473,43767
2,132783,139489
2,250362,256407
//Storyboard Layer 0 (Background)
//Storyboard Layer 1 (Fail)
//Storyboard Layer 2 (Pass)
//Storyboard Layer 3 (Foreground)
//Storyboard Sound Samples

[TimingPoints]
169.8389078828,344.827586206897,4,2,0,60,1,0
11204,-250,4,2,0,40,0,0
19480,-200,4,2,0,40,0,0
20169,-166.666666666667,4,2,0,40,0,0
20859,-333.333333333334,4,2,0,40,0,0
22066,-100,4,2,0,40,0,0
22238,-133.333333333333,4,2,0,50,0,0
23962,-333.333333333334,4,2,0,50,0,0
24307,-100,4,2,0,50,0,0
24652,-166.666666666667,4,2,0,50,0,0
25428,-133.333333333333,4,2,0,50,0,0
26031,-333.333333333333,4,2,0,50,0,0
26376,-133.333333333333,4,2,0,50,0,0
27411,-200,4,2,0,50,0,0
27755,-133.333333333333,4,2,0,50,0,0
29135,-333.333333333334,4,2,0,50,0,0
29480,-133.333333333333,4,2,0,50,0,0
29824,-100,4,2,0,50,0,0
30169,-166.666666666667,4,2,0,50,0,0
30945,-133.333333333333,4,2,0,50,0,0
31548,-333.333333333333,4,2,0,50,0,0
31893,-200,4,2,0,50,0,0
32497,-200,4,2,0,5,0,0
33273,-200,4,1,0,50,0,0
54997,-200,4,1,0,60,0,0
54997,-200,4,1,0,60,0,0
55256,-200,4,2,0,5,0,0
55342,-100,4,2,1,60,0,0
56031,-76.9230769230769,4,2,1,60,0,0
56118,-76.9230769230769,4,2,1,5,0,0
56204,-76.9230769230769,4,2,1,60,0,0
56549,-100,4,2,1,60,0,0
56980,-133.333333333333,4,2,1,60,0,0
57238,-58.8235294117647,4,2,1,60,0,0
57497,-66.6666666666667,4,2,1,60,0,0
57756,-83.3333333333333,4,2,1,60,0,0
58100,-83.3333333333333,4,2,1,60,0,0
58445,-83.3333333333333,4,2,1,60,0,0
58704,-76.9230769230769,4,2,1,60,0,0
58876,-76.9230769230769,4,2,1,5,0,0
58962,-76.9230769230769,4,2,1,60,0,0
59307,-100,4,2,1,60,0,0
59825,-133.333333333333,4,2,1,60,0,0
59997,-76.9230769230769,4,2,1,60,0,0
60083,-76.9230769230769,4,2,1,5,0,0
60169,-166.666666666667,4,2,1,60,0,0
60514,-100,4,2,1,60,0,0
60859,-83.3333333333333,4,2,1,60,0,0
61204,-133.333333333333,4,2,1,60,0,0
61549,-90.9090909090909,4,2,1,60,0,0
61893,-100,4,2,1,60,0,0
62238,-83.3333333333333,4,2,1,60,0,0
62583,-66.6666666666667,4,2,1,60,0,0
63100,-100,4,2,1,60,0,0
63273,-166.666666666667,4,2,1,60,0,0
63618,-66.6666666666667,4,2,1,60,0,0
63704,-66.6666666666667,4,2,1,5,0,0
63790,-66.6666666666667,4,2,1,60,0,0
63962,-100,4,2,1,60,0,0
64221,-76.9230769230769,4,2,1,60,0,0
64393,-76.9230769230769,4,2,1,5,0,0
64480,-133.333333333333,4,2,1,60,0,0
64825,-100,4,2,1,60,0,0
65514,-66.6666666666667,4,2,1,60,0,0
65600,-66.6666666666667,4,2,1,5,0,0
65687,-133.333333333333,4,2,1,60,0,0
66031,-76.9230769230769,4,2,1,60,0,0
66204,-133.333333333333,4,2,1,60,0,0
66376,-100,4,2,1,60,0,0
67065,-76.9230769230769,4,2,1,60,0,0
67152,-76.9230769230769,4,2,1,5,0,0
67238,-76.9230769230769,4,2,1,60,0,0
67583,-100,4,2,1,60,0,0
68014,-133.333333333333,4,2,1,60,0,0
68272,-58.8235294117647,4,2,1,60,0,0
68531,-66.6666666666667,4,2,1,60,0,0
68790,-83.3333333333333,4,2,1,60,0,0
69134,-83.3333333333333,4,2,1,60,0,0
69479,-83.3333333333333,4,2,1,60,0,0
69738,-76.9230769230769,4,2,1,60,0,0
69911,-76.9230769230769,4,2,1,5,0,0
69997,-76.9230769230769,4,2,1,60,0,0
70341,-100,4,2,1,60,0,0
70859,-133.333333333333,4,2,1,60,0,0
71031,-76.9230769230769,4,2,1,60,0,0
71118,-76.9230769230769,4,2,1,5,0,0
71203,-166.666666666667,4,2,1,60,0,0
71548,-100,4,2,1,60,0,0
71893,-83.3333333333333,4,2,1,60,0,0
72238,-133.333333333333,4,2,1,60,0,0
72583,-90.9090909090909,4,2,1,60,0,0
72927,-100,4,2,1,60,0,0
73272,-83.3333333333333,4,2,1,60,0,0
73617,-66.6666666666667,4,2,1,60,0,0
74134,-100,4,2,1,60,0,0
74307,-166.666666666667,4,2,1,60,0,0
74652,-66.6666666666667,4,2,1,60,0,0
74996,-166.666666666667,4,2,1,60,0,0
75341,-76.9230769230769,4,2,1,60,0,0
75428,-76.9230769230769,4,2,1,5,0,0
75514,-76.9230769230769,4,2,1,60,0,0
75859,-100,4,2,1,60,0,0
76031,-500,4,2,1,20,0,0
76204,-333.333333333333,4,2,1,23,0,0
76376,-250,4,2,1,27,0,0
76548,-200,4,2,1,33,0,0
76721,-133.333333333333,4,2,1,39,0,0
76893,-100,4,2,1,46,0,0
77065,-80,4,2,1,53,0,0
77238,-66.6666666666667,4,2,1,60,0,0
77411,-133.333333333333,4,2,1,50,0,0
79566,-100,4,2,1,50,0,0
80169,-133.333333333333,4,2,1,50,0,0
82411,-100,4,2,1,50,0,0
83445,-133.333333333333,4,2,1,50,0,0
85169,-100,4,2,1,50,0,0
86549,-133.333333333333,4,2,1,50,0,0
86893,-266.666666666667,4,2,1,50,0,0
87411,-266.666666666667,4,2,1,5,0,0
88445,-133.333333333333,4,2,1,50,0,0
89307,-100,4,2,1,50,0,0
89652,-133.333333333333,4,2,1,50,0,0
90687,-100,4,2,1,50,0,0
91204,-133.333333333333,4,2,1,50,0,0
92066,-100,4,2,1,50,0,0
92411,-133.333333333333,4,2,1,50,0,0
93445,-100,4,2,1,50,0,0
93962,-133.333333333333,4,2,1,50,0,0
94825,-100,4,2,1,50,0,0
95169,-133.333333333333,4,2,1,50,0,0
96204,-100,4,2,1,50,0,0
96721,-133.333333333333,4,2,1,50,0,0
97583,-100,4,2,1,50,0,0
97928,-1000,4,2,1,50,0,0
98575,-1000,4,2,1,5,0,0
99393,-1000,4,2,1,50,0,0
102238,-250,4,2,1,50,0,0
103100,-166.666666666667,4,2,1,50,0,0
105342,-125,4,2,1,50,0,0
105687,-100,4,2,1,50,0,0
106031,-83.3333333333333,4,2,1,50,0,0
106376,-71.4285714285714,4,2,1,50,0,0
107928,-133.333333333333,4,2,1,50,0,0
109135,-200,4,2,1,50,0,0
110169,-700,4,2,1,80,0,0
110428,-700,4,2,1,5,0,0
110514,-100,4,2,1,60,0,0
110859,-100,4,2,1,60,0,0
111203,-66.6666666666667,4,2,1,60,0,0
111290,-66.6666666666667,4,2,1,5,0,0
111376,-100,4,2,1,60,0,0
111548,-166.666666666667,4,2,1,60,0,0
111721,-100,4,2,1,60,0,0
112238,-166.666666666667,4,2,1,60,0,0
112410,-76.9230769230769,4,2,1,60,0,0
112928,-700,4,2,1,60,0,0
113272,-100,4,2,1,60,0,0
113962,-66.6666666666667,4,2,1,60,0,0
114049,-66.6666666666667,4,2,1,5,0,0
114134,-100,4,2,1,60,0,0
114307,-166.666666666667,4,2,1,60,0,0
114479,-100,4,2,1,60,0,0
116376,-100,4,2,1,60,0,0
117411,-133.333333333333,4,2,1,60,0,0
117756,-66.6666666666667,4,2,1,60,0,0
118273,-100,4,2,1,60,0,0
118445,-166.666666666667,4,2,1,60,0,0
118790,-133.333333333333,4,2,1,60,0,0
119134,-100,4,2,1,60,0,0
119393,-76.9230769230769,4,2,1,60,0,0
119566,-76.9230769230769,4,2,1,5,0,0
119652,-76.9230769230769,4,2,1,60,0,0
119997,-100,4,2,1,60,0,0
120686,-66.6666666666667,4,2,1,60,0,0
120773,-66.6666666666667,4,2,1,5,0,0
120859,-133.333333333333,4,2,1,60,0,0
121203,-76.9230769230769,4,2,1,60,0,0
121376,-133.333333333333,4,2,1,60,0,0
121462,-100,4,2,1,60,0,0
121893,-166.666666666667,4,2,1,60,0,0
122065,-133.333333333333,4,2,1,60,0,0
122238,-66.6666666666667,4,2,1,60,0,0
122325,-66.6666666666667,4,2,1,5,0,0
122410,-100,4,2,1,60,0,0
122755,-100,4,2,1,60,0,0
123272,-133.333333333333,4,2,1,60,0,0
123445,-76.9230769230769,4,2,1,60,0,0
123790,-90.9090909090909,4,2,1,60,0,0
123962,-133.333333333333,4,2,1,60,0,0
124307,-100,4,2,1,60,0,0
124996,-66.6666666666667,4,2,1,60,0,0
125083,-66.6666666666667,4,2,1,5,0,0
125169,-100,4,2,1,60,0,0
125341,-80,4,2,1,60,0,0
125514,-133.333333333333,4,2,1,60,0,0
125686,-133.333333333333,4,2,1,60,0,0
126031,-133.333333333333,4,2,1,60,0,0
127065,-100,4,2,1,60,0,0
129824,-133.333333333333,4,2,1,60,0,0
129825,-111.111111111111,4,2,1,60,0,0
130169,-200,4,2,1,60,0,0
130514,-76.9230769230769,4,2,1,60,0,0
131032,-100,4,2,1,60,0,0
131204,-83.3333333333333,4,2,1,60,0,0
131376,-333.333333333333,4,2,1,60,0,0
131549,-76.9230769230769,4,2,1,60,0,0
131721,-200,4,2,1,60,0,0
131893,-66.6666666666667,4,2,1,60,0,0
132066,-133.333333333333,4,2,1,60,0,0
132238,-80,4,2,1,60,0,0
132411,-66.6666666666667,4,2,1,60,0,0
140029,320.855614973262,4,2,0,30,1,0
141312,-100,4,2,0,80,0,0
142595,-800,4,2,0,80,0,0
144681,-200,4,2,0,80,0,0
145162,-800,4,2,0,80,0,0
150216,-800,4,2,0,5,0,0
150296,-200,4,2,0,80,0,0
154948,-500,4,2,0,80,0,0
155430,-200,4,2,0,80,0,0
158157,-303.030303030303,4,2,0,80,0,0
158478,-133.333333333333,4,2,0,80,0,0
158799,-303.030303030303,4,2,0,80,0,0
159280,-200,4,2,0,80,0,0
160403,-303.030303030303,4,2,0,80,0,0
160563,-100,4,2,0,80,0,0
161365,-66.6666666666667,4,2,0,80,0,0
161526,-200,4,2,0,80,0,0
163451,-100,4,2,0,80,0,0
163772,-133.333333333333,4,2,0,80,0,0
164414,-200,4,2,0,80,0,0
165376,-100,4,2,0,80,0,0
165697,-100,4,2,0,80,0,0
166980,-200,4,2,0,80,0,0
168585,-100,4,2,0,80,0,0
168906,-133.333333333333,4,2,0,80,0,0
170189,-200,4,2,0,80,0,0
170510,-100,4,2,0,80,0,0
173397,-200,4,2,0,80,0,0
174039,-83.3333333333333,4,2,0,80,0,0
174520,-100,4,2,0,80,0,0
174681,-125,4,2,0,80,0,0
175323,-200,4,2,0,80,0,0
175643,-100,4,2,0,80,0,0
175964,-66.6666666666667,4,2,0,80,0,0
177248,-83.3333333333333,4,2,0,80,0,0
177569,-125,4,2,0,80,0,0
177889,-200,4,2,0,80,0,0
178852,-83.3333333333333,4,2,0,80,0,0
179173,-200,4,2,0,80,0,0
180135,-125,4,2,0,80,0,0
180456,-200,4,2,0,80,0,0
180777,-100,4,2,0,80,0,0
181098,-66.6666666666667,4,2,0,80,0,0
182381,-200,4,2,0,80,0,0
192007,-133.333333333333,4,2,0,80,0,0
192328,-100,4,2,0,80,0,0
192649,-166.666666666667,4,2,0,80,0,0
200991,-142.857142857143,4,2,0,80,0,0
201472,-125,4,2,0,80,0,0
202595,-200,4,2,0,80,0,0
202916,-100,4,2,0,80,0,0
203558,-200,4,2,0,80,0,0
204200,-142.857142857143,4,2,0,80,0,0
204841,-100,4,2,0,80,0,0
205804,-100,4,2,0,80,0,0
206446,-142.857142857143,4,2,0,80,0,0
208210,-100,4,2,0,80,0,0
208331,-125,4,2,0,5,0,0
208531,-125,4,2,0,80,0,0
209975,-100,4,2,0,80,0,0
212221,-142.857142857143,4,2,0,80,0,0
213184,-200,4,2,0,80,0,0
213344,-100,4,2,0,80,0,0
213464,-125,4,2,0,5,0,0
213665,-125,4,2,0,80,0,0
214467,-142.857142857143,4,2,0,80,0,0
215109,-100,4,2,0,80,0,0
217355,-142.857142857143,4,2,0,80,0,0
218478,-100,4,2,0,80,0,0
218598,-142.857142857143,4,2,0,5,0,0
218799,-125,4,2,0,80,0,0
220242,-100,4,2,0,80,0,0
222488,-142.857142857143,4,2,0,80,0,0
223451,-200,4,2,0,80,0,0
223611,-100,4,2,0,80,0,0
223732,-200,4,2,0,5,0,0
223932,-125,4,2,0,80,0,0
224414,-83.3333333333333,4,2,0,80,0,0
224734,-200,4,2,0,60,0,0
228585,-100,4,2,0,80,0,0
229226,-200,4,2,0,80,0,0
229547,-100,4,2,0,80,0,0
229868,-142.857142857143,4,2,0,80,0,0
233718,-200,4,2,0,80,0,0
233879,-100,4,2,0,80,0,0
233999,-100,4,2,0,5,0,0
234200,-156.25,4,2,0,80,0,0
234681,-93.4579439252336,4,2,0,80,0,0
235002,-200,4,2,0,80,0,0
240135,-133.333333333333,4,2,0,80,0,0
243184,-149.253731343284,4,2,0,80,0,0
247836,-800,4,2,0,80,0,0
249922,-200,4,2,0,80,0,0
250002,-200,4,2,0,5,0,0
250082,-200,4,2,0,80,0,0
250162,-200,4,2,0,5,0,0
254958,306.122448979592,5,2,0,5,1,0
255111,306.122448979592,5,2,0,5,1,0
256948,306.122448979592,4,2,1,50,1,0
256948,-200,4,2,1,50,0,0
264294,-125,4,2,1,60,0,0
264601,-83.3333333333333,4,2,1,60,0,0
264907,-125,4,2,1,60,0,0
266743,-125,4,2,1,60,0,0
271641,-333.333333333333,4,2,1,60,0,0
271948,-125,4,2,1,60,0,0
272254,-333.333333333333,4,2,1,60,0,0
272560,-125,4,2,1,60,0,0
272866,-333.333333333333,4,2,1,60,0,0
273172,-100,4,2,1,60,0,0
273478,-333.333333333333,4,2,1,60,0,0
273784,-100,4,2,1,60,0,0
274090,-142.857142857143,4,2,1,60,0,0
275162,-100,4,2,1,60,0,0
275468,-142.857142857143,4,2,1,60,0,0
276539,-125,4,2,1,60,0,0
280825,-100,4,2,1,60,0,0
280978,-125,4,2,1,60,0,0
281131,-166.666666666667,4,2,1,60,0,0
281284,-250.000000000001,4,2,1,60,0,0
281437,-125,4,2,1,60,0,0
286641,-200,4,2,1,50,0,0
287713,-200,4,2,0,40,0,0
288172,-200,4,2,0,50,0,0
288478,-125,4,2,1,60,0,0
288784,-125,4,2,0,50,0,0
289396,-125,4,2,1,60,0,0
290162,-166.666666666667,4,2,1,60,0,0
290774,-333.333333333333,4,2,1,60,0,0
291233,-111.111111111111,4,2,1,77,0,1
291539,-166.666666666667,4,2,1,77,0,1
299652,-133.333333333333,4,2,1,77,0,1
301029,-111.111111111111,4,2,1,77,0,1
301335,-166.666666666667,4,2,1,77,0,1
305927,-166.666666666667,4,2,0,77,0,1
306845,-166.666666666667,4,2,1,77,0,1
310825,-263.157894736842,4,2,1,60,0,0
312050,-166.666666666667,4,2,1,60,0,0
312509,-166.666666666667,4,2,0,60,0,0
313274,-166.666666666667,4,2,0,50,0,0
313580,-250.000000000001,4,2,0,50,0,0
314192,-166.666666666667,4,2,0,50,0,0
314499,-250.000000000001,4,2,0,50,0,0
315111,-250.000000000001,4,2,0,30,0,0
315723,-166.666666666667,4,2,0,50,0,0
316029,-250.000000000001,4,2,0,50,0,0
316641,-166.666666666667,4,2,0,50,0,0
316948,-250.000000000001,4,2,0,50,0,0
318172,-333.333333333336,4,2,1,50,0,0
320621,-125,4,2,1,60,0,0
323070,-200,4,2,1,40,0,0
327968,-200,4,2,1,50,0,0
328121,-200,4,2,1,5,0,0
328274,-200,4,2,1,50,0,0
328427,-200,4,2,1,5,0,0
328580,-200,4,2,1,50,0,0
328733,-200,4,2,1,5,0,0
328886,-200,4,2,1,50,0,0
329039,-200,4,2,1,5,0,0
329192,-200,4,2,1,50,0,0
330417,-166.666666666667,4,2,1,60,0,0
332407,-200,4,2,1,60,0,0
332713,306.122448979592,4,2,1,60,1,0
332713,-166.666666666667,4,2,1,60,0,0
336998,-200,4,2,1,60,0,0
337610,-166.666666666667,4,2,1,60,0,0
340059,-142.857142857143,4,2,1,60,0,0
340519,-166.666666666667,4,2,1,60,0,0
340672,-142.857142857143,4,2,1,60,0,0
341131,-166.666666666667,4,2,1,60,0,0
341284,-142.857142857143,4,2,1,60,0,0
342049,-166.666666666667,4,2,1,60,0,0
342661,306.122448979592,4,2,1,60,1,0
343732,306.122448979592,4,2,1,60,1,0
343732,-166.666666666667,4,2,1,60,0,0
344803,306.122448979592,4,2,1,60,1,0
345109,306.122448979592,4,2,1,60,1,0
345109,-250,4,2,1,60,0,0
345415,-166.666666666667,4,2,1,60,0,0
346180,306.122448979592,4,2,1,60,1,0
346180,-166.666666666667,4,2,1,60,0,0
346945,306.122448979592,4,2,1,60,1,0
347557,306.122448979592,4,2,1,60,1,0
347557,-500,4,2,1,10,0,0
348475,-500,4,2,1,30,0,0
348781,-500,4,2,1,40,0,0
349087,-166.666666666667,4,2,1,40,0,0
349393,-166.666666666667,4,2,1,50,0,0
349699,-166.666666666667,4,2,1,60,0,0
350005,-166.666666666667,4,2,1,77,0,1
350082,-166.666666666667,4,2,1,77,0,1
350771,-200,4,2,1,77,0,1
351842,-166.666666666667,4,2,1,77,0,1
352761,-200,4,2,1,77,0,1
353679,-166.666666666667,4,2,1,77,0,1
353985,-200,4,2,1,77,0,1
354291,-166.666666666667,4,2,1,77,0,1
356740,-200,4,2,1,77,0,1
357352,-133.333333333333,4,2,1,77,0,1
359801,-200,4,2,1,77,0,1
360108,-111.111111111111,4,2,1,77,0,1
360414,-166.666666666667,4,2,1,77,0,1
362250,-125,4,2,1,77,0,1
362557,-166.666666666667,4,2,1,77,0,1
364699,-133.333333333333,4,2,1,77,0,1
365005,-166.666666666667,4,2,0,77,0,1
365924,-166.666666666667,4,2,1,77,0,1
369597,-266.666666666667,4,2,1,60,0,0
371740,-500,4,2,1,30,0,0
373271,-142.857142857143,4,2,1,60,0,0
390414,-166.666666666667,4,2,1,50,0,0
392710,-666.666666666667,4,2,1,60,0,0
397761,-666.666666666667,4,2,1,10,0,0

[Colours]
Combo1 : 255,100,255
Combo2 : 62,62,255
Combo3 : 4,247,247
Combo4 : 255,134,13
Combo5 : 255,74,74
Combo6 : 139,23,255

[HitObjects]
33,294,11204,5,2,0:0:0:0:
40,81,11549,1,0,0:0:0:0:
91,141,11894,1,2,0:0:0:0:
117,66,12238,1,0,0:0:0:0:
117,66,12583,6,0,P|160:81|213:76,1,70.4,2|0,0:0|0:0,0:0:0:0:
380,126,12928,2,0,P|308:134|238:161,2,140.8,0|2|0,0:0|0:0|0:0,0:0:0:0:
380,126,13790,1,0,0:0:0:0:
360,281,13962,6,0,P|355:242|363:198,1,70.4,2|0,0:0|0:0,0:0:0:0:
144,237,14307,1,0,0:0:0:0:
144,237,14652,2,0,P|175:303|185:370,1,140.8,2|0,0:0|0:0,0:0:0:0:
0,286,15342,6,0,P|65:320|153:302,1,140.8,2|0,0:0|0:0,0:0:0:0:
304,27,16031,2,0,P|255:76|102:81,1,211.2,2|0,0:0|0:0,0:0:0:0:
109,83,16635,1,0,0:0:0:0:
101,75,16721,5,2,0:0:0:0:
290,264,17066,1,0,0:0:0:0:
285,185,17411,1,2,0:0:0:0:
355,221,17755,1,0,0:0:0:0:
355,221,18100,6,0,P|366:187|361:131,1,70.4,2|0,0:0|0:0,0:0:0:0:
512,351,18445,2,0,P|464:311|436:228,2,140.8,0|2|0,0:0|0:0|0:0,0:0:0:0:
512,351,19307,1,0,0:0:0:0:
370,346,19480,6,0,L|270:336,1,88,2|0,0:0|0:0,0:0:0:0:
148,267,19825,2,0,L|235:275,1,88
33,384,20169,6,0,B|57:367|57:367|70:259,1,105.599996777344,2|0,0:0|0:0,0:0:0:0:
218,185,20514,2,0,B|204:109|204:109|180:94,1,105.599996777344
29,56,20859,6,0,P|5:82|40:57,1,158.399995166016,2|0,0:0|0:0,0:0:0:0:
478,34,22066,2,0,L|351:58,1,88
289,118,22238,6,0,P|297:85|337:45,2,66.0000025177003,4|0|0,1:0|0:0|0:0,0:0:0:0:
129,30,22583,2,0,P|169:48|198:98,1,66.0000025177003
366,122,22756,1,0,1:0:0:0:
366,122,22928,2,0,P|297:147|205:251,1,198.000007553101,8|0,0:2|0:0,0:0:0:0:
79,334,23273,6,0,L|95:243,1,66.0000025177003
117,95,23445,2,0,L|128:29,1,66.0000025177003
212,235,23618,6,0,B|194:222|190:184|190:184|192:222|164:253,1,132.000005035401
0,237,23962,2,0,P|18:222|64:211,1,52.7999983886719,0|0,1:0|0:0,0:0:0:0:
127,29,24307,2,0,B|156:65|133:118|112:104|89:157|118:192,1,176,8|0,0:2|0:0,0:0:0:0:
118,192,24652,1,0,0:0:0:0:
49,60,24825,5,0,0:0:0:0:
49,60,24997,2,0,P|86:106|193:103,1,158.399995166016,2|0,1:2|0:0,0:1:0:0:
245,77,25342,2,0,P|253:50|242:3,1,52.7999983886719
426,8,25514,6,0,B|459:19|459:19|475:55,1,66.0000025177003,0|0,1:0|0:0,0:0:0:0:
495,166,25687,2,0,P|478:120|372:94,1,132.000005035401,10|0,0:2|0:0,0:0:0:0:
400,360,26031,2,0,P|406:331|400:299,1,52.7999983886719
406,85,26376,6,0,B|388:136|388:136|394:141|394:141|383:147|383:147|337:272,1,198.000007553101,2|0,0:0|0:0,0:0:0:0:
213,286,26721,2,0,B|240:305|240:305|305:298,1,66.0000025177003
403,308,26893,2,0,B|435:309|435:309|486:267,1,66.0000025177003,0|0,1:0|0:0,0:0:0:0:
470,208,27066,5,10,0:2:0:0:
340,262,27238,1,0,0:0:0:0:
182,216,27411,6,0,P|178:193|146:148,1,44
119,262,27583,2,0,P|108:282|108:338,1,44
44,155,27756,6,0,P|77:133|145:146,2,66.0000025177003,0|0|0,1:0|0:0|0:0,0:0:0:0:
222,362,28100,2,0,L|181:311,1,66.0000025177003
169,174,28273,1,0,1:0:0:0:
169,174,28445,2,0,P|216:249|327:251,1,198.000007553101,8|0,0:2|0:0,0:0:0:0:
497,153,28790,6,0,B|518:129|518:129|512:95,1,66.0000025177003
421,44,28962,2,0,B|443:69|443:69|439:101,1,66.0000025177003
502,241,29135,6,0,P|488:269|455:281,1,52.7999983886719
317,255,29480,2,0,B|291:218|303:183|303:183|312:216|339:231,1,132.000005035401,0|0,1:0|0:0,0:0:0:0:
440,102,29825,2,0,B|418:43|418:43|377:168|377:168|432:214,1,264,8|0,0:2|0:0,0:0:0:0:
430,212,30169,1,0,0:0:0:0:
335,34,30342,5,0,0:0:0:0:
335,34,30514,2,0,B|316:92|316:92|226:132|226:132|267:100,1,211.199993554688,2|0,1:2|0:0,0:0:0:0:
109,12,31031,1,0,1:0:0:0:
78,92,31204,2,0,P|139:32|257:33,1,198.000007553101,10|0,0:2|0:0,0:0:0:0:
266,101,31549,6,0,L|261:127,1,26.399999194336,0|0,0:2|0:0,0:0:0:0:
340,126,31721,2,0,L|335:152,1,26.399999194336,0|0,0:2|0:0,0:0:0:0:
432,225,31893,6,2,B|389:185|389:185|320:203|320:203|278:249|278:249|207:237|207:237|194:196,1,308,2|0,0:2|0:0,0:1:0:0:
194,195,33273,1,4,1:2:0:0:
68,37,44307,6,0,P|128:86|134:185,3,176
136,179,45687,6,0,P|102:199|67:195,1,44,0|0,0:0|2:0,0:0:0:0:
20,200,45859,2,0,P|41:205|62:203,1,44,0|0,0:0|2:0,0:0:0:0:
181,254,46031,2,0,P|217:190|217:82,2,176
366,368,47066,6,0,B|312:280|381:290|325:195,1,176
457,176,47756,2,0,B|364:131|427:102|328:52,1,176
334,56,48445,6,0,P|358:61|391:51,1,44,0|0,0:0|2:0,0:0:0:0:
233,16,48618,2,0,P|210:26|189:53,1,44,0|0,0:0|2:0,0:0:0:0:
255,170,48790,2,0,P|268:127|237:63,1,88,0|0,0:0|2:0,0:0:0:0:
23,58,49135,6,0,P|23:103|104:119,1,132
109,142,49480,2,0,P|148:127|218:135,1,88
453,232,49825,5,0,0:0:0:0:
427,290,49997,1,0,0:0:0:0:
430,327,50169,1,0,0:0:0:0:
367,196,50342,5,0,0:0:0:0:
323,268,50514,1,0,0:0:0:0:
325,300,50686,1,0,0:0:0:0:
289,149,50859,5,0,0:0:0:0:
229,223,51031,1,0,0:0:0:0:
289,149,51204,5,0,0:0:0:0:
261,85,51376,1,0,0:0:0:0:
264,44,51548,1,0,0:0:0:0:
195,189,51721,5,0,0:0:0:0:
146,109,51893,1,0,0:0:0:0:
148,74,52065,1,0,0:0:0:0:
109,240,52238,5,0,0:0:0:0:
43,159,52410,1,0,0:0:0:0:
109,240,52583,5,0,0:0:0:0:
81,308,52756,1,0,0:0:0:0:
265,365,52928,5,0,0:0:0:0:
159,375,53100,1,0,0:0:0:0:
316,162,53273,5,0,0:0:0:0:
328,287,53445,1,0,0:0:0:0:
512,32,53618,5,0,0:0:0:0:
333,63,53790,1,0,0:0:0:0:
123,4,53962,5,0,0:0:0:0:
128,2,54049,1,0,0:0:0:0:
134,1,54135,1,0,0:0:0:0:
140,0,54221,1,0,0:0:0:0:
150,2,54307,1,0,0:0:0:0:
161,6,54393,1,0,0:0:0:0:
172,11,54480,1,0,0:0:0:0:
185,19,54566,1,0,0:0:0:0:
214,42,54652,1,0,0:0:0:0:
242,85,54738,1,0,0:0:0:0:
268,149,54825,1,0,0:0:0:0:
267,232,54911,1,0,0:0:0:0:
224,322,54997,2,2,P|213:350|218:313,1,132,0|0,0:0|0:0,0:1:0:0:
51,108,55342,6,0,B|112:123|154:187|132:254|132:254|129:209|82:180,1,264,4|0,3:0|0:0,0:0:0:0:
56,257,55687,1,8,0:3:0:0:
16,35,55859,2,0,B|3:69|3:69|31:134,1,88,2|2,0:0|0:0,0:0:0:0:
206,309,56031,6,0,P|140:256|56:257,1,171.599992144776,2|0,0:0|0:0,0:0:0:0:
60,261,56204,2,0,P|110:271|177:200,1,114.399994763184,2|0,3:2|0:0,0:0:0:0:
316,76,56376,5,8,0:3:0:0:
316,76,56549,2,0,B|291:41|291:41|231:37,1,88,2|2,0:0|0:0,0:0:0:0:
228,276,56721,6,0,P|267:209|217:87,1,176,0|10,3:0|0:0,0:0:0:0:
173,33,56980,1,0,0:0:0:0:
160,28,57066,2,0,B|122:22|122:22|176:46,1,66.0000025177003,8|0,0:3|0:0,0:0:0:0:
34,153,57238,6,0,B|32:58|121:29|186:49|213:115|178:156|134:172|98:119,1,299.200005706787,10|0,0:0|0:0,0:0:0:0:
152,313,57497,1,2,0:0:0:0:
134,327,57583,2,0,P|92:273|153:200,1,132.000005035401,2|0,3:0|0:0,0:0:0:0:
392,251,57756,6,0,B|350:256|314:231|314:231|190:249|190:249|302:263,1,316.799990332032,8|0,0:3|0:0,0:0:0:0:
459,335,58100,5,0,3:0:0:0:
459,335,58273,2,0,B|473:362|473:362|489:242,1,105.599996777344,2|2,0:0|0:0,0:0:0:0:
378,81,58445,6,0,P|350:157|436:124,1,211.199993554688,8|2,0:3|0:0,0:0:0:0:
454,35,58704,1,2,0:0:0:0:
464,55,58790,6,0,L|241:36,1,171.599992144776,2|0,0:0|0:0,0:0:0:0:
207,42,58962,2,0,B|158:64|158:64|249:63,1,114.399994763184,2|0,3:2|0:0,0:0:0:0:
408,210,59135,5,8,0:3:0:0:
408,210,59307,2,0,P|438:149|405:88,1,88,2|2,0:0|0:0,0:0:0:0:
293,40,59480,6,0,P|324:113|321:255,1,176,0|10,3:0|0:0,0:0:0:0:
261,241,59738,1,0,0:0:0:0:
257,225,59825,2,0,P|241:204|177:183,1,66.0000025177003,8|0,0:3|0:0,0:0:0:0:
78,244,59997,6,0,B|54:275|54:275|198:257,1,171.599992144776,10|0,3:2|0:0,0:0:0:0:
206,185,60169,2,0,L|216:93,2,52.7999983886719,0|0|0,0:0|0:0|3:0,0:0:0:0:
50,16,60514,2,0,B|100:11|100:11|145:66|145:66|129:127,1,176,8|0,0:3|0:0,0:0:0:0:
154,378,60859,6,0,B|188:286|100:242|100:242|15:198|59:100,1,316.799990332032,0|0,3:0|0:0,0:0:0:0:
113,59,61204,2,0,P|133:107|106:151,1,66.0000025177003,8|0,0:3|0:0,0:0:0:0:
74,327,61376,1,2,0:0:0:0:
65,218,61549,6,0,P|134:153|229:144,1,193.600005908203,2|0,0:0|3:0,0:0:0:0:
271,212,61807,1,0,3:0:0:0:
254,224,61893,2,0,B|223:128|330:88|330:88|318:143|366:178,1,264,8|0,0:3|0:0,0:0:0:0:
501,81,62238,6,0,P|472:99|375:98,1,105.599996777344,0|0,3:0|0:0,0:0:0:0:
131,119,62411,2,0,P|183:120|229:144,1,105.599996777344,0|0,3:0|0:0,0:0:0:0:
374,314,62583,6,0,B|354:342|354:342|334:212,1,132.000005035401,8|0,0:3|0:0,0:0:0:0:
319,80,62756,2,0,B|373:45|373:45|406:117,1,132.000005035401,2|0,0:0|0:0,0:0:0:0:
507,293,62928,5,2,0:0:0:0:
507,293,63100,2,0,P|479:266|387:279,1,88,2|0,3:0|0:0,0:0:0:0:
121,340,63273,6,0,B|193:333|193:333|205:340|205:340|277:332,1,158.399995166016,8|0,0:3|0:0,0:0:0:0:
356,323,63618,6,0,P|300:257|203:307,1,198.000007553101,0|0,3:0|0:0,0:0:0:0:
208,294,63790,2,0,P|281:287|326:196,1,132.000005035401,2|0,0:0|0:0,0:0:0:0:
429,77,63962,6,0,B|404:117|404:117|316:131|316:131|353:105,1,176,8|0,0:3|0:0,0:0:0:0:
99,131,64221,2,0,B|64:174|64:174|274:140,1,228.799989526368,0|0,3:0|0:0,0:0:0:0:
348,108,64480,2,0,L|340:192,1,66.0000025177003,0|0,3:0|0:0,0:0:0:0:
158,351,64652,5,8,0:3:0:0:
158,351,64825,2,0,B|193:327|193:327|270:331,1,88,2|2,0:0|0:0,0:0:0:0:
451,296,64997,6,0,B|474:297|502:316|502:316|462:275|391:280,1,176,0|10,3:0|0:2,0:0:0:0:
283,259,65256,1,0,0:0:0:0:
289,242,65342,2,0,P|316:273|310:350,1,88,8|0,0:3|0:0,0:0:0:0:
238,329,65514,6,0,L|256:109,1,198.000007553101,10|0,3:2|0:0,0:0:0:0:
315,37,65687,2,0,P|329:82|304:132,1,66.0000025177003,0|0,3:0|0:0,0:0:0:0:
462,104,65859,2,0,P|449:149|401:177,1,66.0000025177003,0|0,3:0|0:0,0:0:0:0:
238,329,66031,6,0,P|201:293|113:311,1,114.399994763184,8|0,0:3|0:0,0:0:0:0:
23,369,66204,2,0,P|55:366|81:346,1,66.0000025177003,0|0,3:0|0:0,0:0:0:0:
254,131,66376,6,0,B|211:154|158:133|158:133|156:126|156:126|158:133|158:133|109:180|109:180|72:160|29:178,1,264,0|0,3:0|0:0,0:0:0:0:
35,78,66721,2,0,P|69:158|66:245,1,176,8|2,0:3|0:3,0:3:0:0:
70,249,66980,1,2,0:0:0:0:
74,253,67066,6,0,B|120:216|190:224|190:224|171:244|171:285,1,171.599992144776,2|0,0:0|0:0,0:0:0:0:
263,376,67238,2,0,P|241:324|252:269,1,114.399994763184,2|0,3:2|0:0,0:0:0:0:
296,39,67411,5,8,0:3:0:0:
296,39,67583,2,0,B|338:50|338:50|362:101,1,88,2|2,0:2|0:2,0:0:0:0:
171,268,67756,6,0,P|253:267|318:176,1,176,0|10,3:3|0:2,0:0:0:0:
278,114,68014,1,0,0:0:0:0:
288,131,68100,2,0,L|159:114,1,66.0000025177003,8|0,0:3|0:0,0:0:0:0:
171,268,68273,6,0,B|213:311|213:311|170:353|170:353|103:346|103:346|71:219,1,299.200005706787,10|0,0:2|0:0,0:0:0:0:
14,319,68531,1,2,0:0:0:0:
8,296,68618,2,0,B|-1:252|-1:252|-7:221|1:192|32:177,1,132.000005035401,2|0,3:2|0:0,0:0:0:0:
222,122,68790,6,0,B|249:87|223:46|158:58|134:124|151:177|169:162|179:214|152:258|106:268|76:238,1,316.799990332032,8|0,0:3|0:0,0:0:0:0:
30,178,69135,6,0,P|98:212|267:188,1,211.199993554688,0|2,3:0|0:2,0:0:0:0:
297,161,69393,1,2,0:2:0:0:
302,140,69480,2,0,B|243:225|319:299|319:299|329:265,1,211.199993554688,8|2,0:3|0:0,0:0:0:0:
459,210,69738,1,2,0:2:0:0:
470,190,69825,6,0,B|490:158|490:158|415:143|359:204,1,171.599992144776,2|0,0:2|0:0,0:0:0:0:
379,359,69997,2,0,P|370:304|329:266,1,114.399994763184,2|0,3:2|0:0,0:0:0:0:
173,146,70169,5,8,0:3:0:0:
173,146,70342,2,0,B|190:186|190:186|264:224,1,88,2|2,0:2|0:0,0:0:0:0:
362,107,70514,6,0,B|384:144|384:144|247:132,1,176,0|10,3:0|0:0,0:0:0:0:
118,265,70773,1,0,0:0:0:0:
107,273,70859,2,0,L|118:196,1,66.0000025177003,8|0,0:3|0:0,0:0:0:0:
9,70,71031,6,0,P|106:72|186:138,1,171.599992144776,10|0,3:2|0:0,0:0:0:0:
116,207,71204,2,0,P|111:175|80:135,2,52.7999983886719,0|0|0,0:0|0:0|3:0,0:0:0:0:
16,380,71549,2,0,B|5:306|5:306|51:260|51:260|27:332,1,176,8|0,0:3|0:0,0:0:0:0:
411,360,71893,6,0,B|350:352|350:352|322:367|322:367|218:358|218:358|208:344|208:344|81:327,1,316.799990332032,0|0,3:0|0:0,0:0:0:0:
39,294,72238,2,0,B|57:266|57:266|109:253,1,66.0000025177003,8|0,0:3|0:0,0:0:0:0:
344,215,72411,1,2,0:0:0:0:
148,219,72583,6,0,B|192:262|192:262|298:275|298:275|268:243,1,193.600005908203,2|0,0:0|3:0,0:0:0:0:
317,114,72842,1,0,3:0:0:0:
303,105,72928,2,0,B|291:157|341:189|341:189|389:218|374:273|374:273|371:234|337:209,1,264,8|0,0:3|0:0,0:0:0:0:
203,299,73273,6,0,B|243:268|243:268|298:275,1,105.599996777344,0|0,3:0|0:0,0:0:0:0:
512,371,73445,2,0,B|457:378|457:378|417:346,1,105.599996777344,0|0,3:0|0:0,0:0:0:0:
382,65,73618,6,0,B|407:36|407:36|391:135,1,132.000005035401,8|0,0:3|0:0,0:0:0:0:
345,330,73790,2,0,B|359:365|359:365|374:272,1,132.000005035401,2|2,0:0|0:0,0:0:0:0:
317,114,73962,5,2,0:0:0:0:
317,114,74135,2,0,P|272:109|219:155,1,88,0|0,3:0|0:0,0:0:0:0:
118,71,74307,6,0,L|168:104,1,52.7999983886719,8|0,0:3|0:0,0:0:0:0:
290,184,74480,2,0,L|340:217,1,52.7999983886719,0|0,3:0|0:0,0:0:0:0:
475,214,74652,6,0,P|504:282|429:219,1,264.000010070801,0|2,3:0|0:0,0:0:0:0:
334,213,74911,1,2,0:0:0:0:
344,200,74997,2,0,P|365:274|341:363,1,158.399995166016,8|14,0:3|0:3,0:0:0:0:
282,306,75342,6,0,P|237:268|115:279,1,171.599992144776,2|0,0:0|0:0,0:0:0:0:
39,226,75514,2,0,P|31:283|80:320,1,114.399994763184,2|0,3:2|0:0,0:0:0:0:
140,354,75687,5,8,0:3:0:0:
140,354,75859,2,0,P|145:314|115:254,1,88,2|2,0:0|0:0,0:0:0:0:
10,28,76031,6,0,L|38:44,1,17.6,8|0,0:3|0:0,0:0:0:0:
43,14,76204,2,0,L|56:40,1,26.399999194336,8|0,0:3|0:0,0:0:0:0:
102,21,76376,2,0,L|99:80,1,35.2,8|0,0:3|0:0,0:0:0:0:
176,63,76549,2,0,L|143:126,1,44,8|0,0:3|0:0,0:0:0:0:
236,159,76721,2,0,P|212:175|154:156,1,66.0000025177003,8|0,0:3|0:0,0:0:0:0:
194,310,76893,2,0,P|165:311|127:263,1,88,8|0,0:3|0:0,0:0:0:0:
0,162,77066,2,0,L|168:221,1,110,8|0,0:3|0:0,0:0:0:0:
271,262,77238,2,0,L|395:306,1,132.000005035401,8|0,0:3|0:0,0:0:0:0:
459,369,77411,5,0,1:0:0:0:
476,288,77756,1,0,1:0:0:0:
493,207,78100,1,8,0:1:0:0:
372,94,78273,6,0,P|259:96|186:168,1,198.000007553101,0|0,1:0|2:0,0:0:0:0:
197,228,78618,2,0,P|240:219|261:148,1,66.0000025177003,0|0,1:0|0:0,0:0:0:0:
116,40,78790,1,0,0:0:0:0:
116,40,78962,1,0,0:0:0:0:
197,148,79135,2,0,P|129:80|35:93,1,198.000007553101,0|0,1:0|0:0,0:0:0:0:
23,108,79480,1,8,0:1:0:0:
94,164,79652,6,2,B|46:98|46:98|122:49|122:49|216:65|216:65|195:152,1,352,0|0,0:0|0:0,0:1:0:0:
158,220,80169,5,0,1:0:0:0:
259,282,80514,1,0,1:0:0:0:
154,338,80859,1,8,0:1:0:0:
66,360,81031,6,0,P|103:271|86:144,1,198.000007553101,0|0,1:0|0:0,0:0:0:0:
34,113,81376,2,0,P|31:83|2:32,1,66.0000025177003,0|0,1:0|0:0,0:0:0:0:
0,35,81549,1,0,0:0:0:0:
181,181,81721,1,0,1:0:0:0:
181,181,81893,2,0,P|242:115|363:120,1,198.000007553101,0|0,1:0|0:0,0:0:0:0:
385,178,82238,1,8,0:1:0:0:
482,307,82411,6,2,B|533:170|421:138|421:138|418:146|418:146|421:138|421:138|379:126|358:74|387:34,1,352,0|0,0:0|0:0,0:1:0:0:
462,66,82928,5,0,1:0:0:0:
385,178,83273,1,0,1:0:0:0:
350,309,83618,1,8,0:1:0:0:
398,368,83790,6,0,P|322:340|227:345,1,132.000005035401,0|0,1:0|0:0,0:0:0:0:
149,172,84135,2,0,P|175:256|249:273,1,132.000005035401,0|0,1:0|0:0,0:0:0:0:
325,149,84480,1,0,0:0:0:0:
313,0,84652,2,0,P|303:104|243:187,1,198.000007553101,0|0,1:0|0:0,0:0:0:0:
227,193,84997,1,8,0:1:0:0:
73,95,85169,6,2,B|134:83|134:83|175:114|175:114|261:97|261:97|268:81|268:81|343:67|343:67|352:71|352:71|419:59,1,352,0|0,0:0|0:0,0:1:0:0:
478,118,85687,5,0,1:0:0:0:
357,223,86031,1,0,1:0:0:0:
478,118,86376,1,8,0:1:0:0:
357,223,86549,6,0,B|374:169|374:169|407:160|407:160|406:155|406:155|407:160|407:160|458:147|458:147|469:104,1,198.000007553101,0|0,1:0|0:0,0:0:0:0:
478,118,86893,2,0,B|466:160|466:160|415:173|415:173|417:178|417:178|415:173|415:173|382:182|382:182|365:236,1,198.000007553101,0|0,1:0|0:0,0:0:0:0:
48,38,88273,5,0,0:0:0:0:
48,38,88445,2,0,P|72:90|59:27,1,198.000007553101,4|0,1:2|0:0,0:0:0:0:
176,135,88790,2,0,P|244:134|178:118,1,198.000007553101,0|0,1:0|0:0,0:0:0:0:
329,32,89135,2,0,P|315:72|334:124,1,66.0000025177003,8|0,0:1|0:0,0:0:0:0:
436,274,89307,6,0,P|365:217|447:255,1,264,0|0,1:0|0:0,0:0:0:0:
435,253,89652,6,0,P|372:227|426:267,1,198.000007553101,0|0,1:0|0:0,0:0:0:0:
289,361,89997,2,0,P|324:366|367:346,1,66.0000025177003,0|0,1:0|0:0,0:0:0:0:
217,219,90169,6,0,P|154:244|208:204,1,198.000007553101,0|0,1:0|0:0,0:0:0:0:
71,111,90514,2,0,P|106:106|149:126,1,66.0000025177003,8|0,0:1|0:0,0:0:0:0:
218,198,90687,6,0,P|147:255|229:217,1,264
433,62,91031,2,0,P|459:100|447:161,1,88
229,217,91204,6,0,B|286:216|304:166|304:166|322:119|387:120,1,198.000007553101,0|0,1:0|0:0,0:0:0:0:
319,372,91549,6,0,B|351:323|319:281|319:281|289:240|327:187,1,198.000007553101,0|0,1:0|0:0,0:0:0:0:
178,177,91893,2,0,P|208:191|229:217,1,66.0000025177003,8|0,0:1|0:0,0:0:0:0:
45,334,92066,6,0,P|119:266|128:104,1,264,0|0,1:0|0:0,0:0:0:0:
321,329,92411,6,0,P|225:326|163:253,1,198.000007553101,0|0,1:0|0:0,0:0:0:0:
73,59,92756,6,0,P|54:92|63:142,1,66.0000025177003,0|0,1:0|0:0,0:0:0:0:
130,110,92928,2,0,P|199:74|377:58,1,198.000007553101,0|0,1:0|0:0,0:0:0:0:
490,181,93273,6,0,P|509:214|500:264,1,66.0000025177003,8|0,0:1|0:0,0:0:0:0:
433,232,93445,2,0,P|364:196|148:177,1,264
32,366,93790,6,0,P|14:326|25:285,1,88,0|0,1:0|0:0,0:0:0:0:
57,195,93962,6,0,P|97:249|44:206,1,198.000007553101,0|0,1:0|0:0,0:0:0:0:
198,272,94307,2,0,P|210:338|182:277,1,198.000007553101,0|0,1:0|0:0,0:0:0:0:
328,384,94652,2,0,P|329:351|316:321,1,66.0000025177003,8|0,0:1|0:0,0:0:0:0:
372,71,94825,6,0,P|301:128|383:90,1,264,0|0,1:0|0:0,0:0:0:0:
371,92,95169,6,0,P|308:117|362:77,1,198.000007553101,0|0,1:0|0:0,0:0:0:0:
232,7,95514,2,0,P|221:40|234:86,1,66.0000025177003,0|0,1:0|0:0,0:0:0:0:
318,222,95687,6,0,P|372:262|310:237,1,198.000007553101,0|0,1:0|0:0,0:0:0:0:
449,152,96031,2,0,P|459:183|454:215,1,66.0000025177003,8|0,0:1|0:0,0:0:0:0:
297,235,96204,6,0,P|381:270|309:216,1,264
92,216,96549,2,0,P|62:247|67:314,1,88
289,382,96721,6,0,P|205:298|97:284,1,198.000007553101,0|0,1:0|0:0,0:0:0:0:
167,176,97066,2,0,P|102:76|111:-32,1,198.000007553101,0|0,1:0|0:0,0:0:0:0:
176,8,97411,2,0,P|189:50|168:104,1,66.0000025177003,8|0,0:1|0:0,0:0:0:0:
130,281,97583,6,0,B|108:305|115:345|115:345|171:250|280:244,1,264,0|0,1:0|0:0,0:0:0:0:
346,260,97928,2,0,P|335:290|336:323,1,66.0000025177003,0|0,1:0|0:0,0:0:0:0:
406,21,99480,6,0,L|411:43,1,17.6,4|0,3:2|0:0,0:0:0:0:
430,124,99825,2,0,L|426:106,1,17.6,8|0,0:3|0:0,0:0:0:0:
406,21,100169,1,0,0:0:0:0:
283,271,100342,5,0,3:0:0:0:
283,271,100514,2,0,L|288:249,1,17.6,8|0,0:3|0:0,0:0:0:0:
307,168,100859,2,0,L|303:185,1,17.6,0|0,3:0|0:0,0:0:0:0:
283,271,101203,1,8,0:3:0:0:
135,207,101376,5,0,0:0:0:0:
135,207,101549,2,0,L|138:224,1,17.6,0|0,0:0|3:0,0:0:0:0:
219,224,101893,2,0,L|215:206,1,17.6,8|0,0:3|0:0,0:0:0:0:
32,164,102238,6,0,P|63:238|71:324,1,140.8,0|8,3:0|0:3,0:0:0:0:
71,297,103100,2,0,P|36:269|32:200,1,105.599996777344,0|8,3:0|0:3,0:0:0:0:
148,329,103445,1,0,0:0:0:0:
188,170,103618,6,0,P|139:190|102:227,1,105.599996777344,0|0,3:0|0:0,0:0:0:0:
234,283,103962,2,0,P|263:198|234:94,1,158.399995166016,8|0,0:3|0:0,0:0:0:0:
253,132,104307,1,0,0:0:0:0:
188,170,104480,2,0,P|230:205|298:191,1,105.599996777344,0|8,3:0|0:3,0:0:0:0:
413,90,104825,1,0,0:0:0:0:
413,90,104911,1,0,0:0:0:0:
413,90,104997,6,0,P|425:121|418:149,5,35.1999989257813,0|0|0|0|0|0,3:0|0:0|0:0|0:0|0:0|0:0,0:0:0:0:
450,225,105342,2,0,P|414:202|400:169,5,46.9333333333333,8|0|0|0|0|0,0:3|0:0|0:0|0:0|0:0|0:0,0:0:0:0:
278,202,105687,2,0,P|328:198|365:221,5,58.6666666666667,0|0|0|0|0|0,0:0|0:0|3:0|0:0|0:0|0:0,0:0:0:0:
346,340,106031,2,0,P|348:305|305:262,5,70.3999978515626,8|0|0|0|0|0,0:3|0:0|0:0|0:0|0:0|0:0,0:0:0:0:
278,202,106376,6,0,L|191:191,2,82.133330826823
92,213,106549,2,0,L|145:143,2,82.133330826823
175,46,106721,2,0,L|208:126,5,82.133330826823
196,191,107066,6,0,P|186:241|195:290,5,82.133330826823
278,202,107411,2,0,P|285:252|310:295,5,82.133330826823
377,329,107756,5,8,0:3:0:0:
502,127,107928,2,0,L|416:139,1,66.0000025177003,0|0,3:0|0:0,0:0:0:0:
481,204,108101,2,0,L|415:213,1,66.0000025177003,0|0,3:0|0:0,0:0:0:0:
298,52,108273,5,8,0:3:0:0:
299,279,108445,2,0,L|213:267,1,66.0000025177003,0|0,3:0|0:0,0:0:0:0:
278,202,108618,2,0,L|212:192,1,66.0000025177003,0|0,3:0|0:0,0:0:0:0:
34,52,108790,6,0,P|78:75|94:133,1,66.0000025177003,8|0,0:3|0:0,0:0:0:0:
28,183,108962,2,0,P|21:151|0:125,1,66.0000025177003,0|0,3:0|0:0,0:0:0:0:
179,26,109135,6,0,L|158:73,1,44,8|0,0:3|0:0,0:0:0:0:
79,288,109307,2,0,L|58:335,1,44,8|0,0:3|0:0,0:0:0:0:
339,342,109480,6,0,P|314:345|270:321,1,44,8|0,0:3|0:0,0:0:0:0:
28,183,109652,2,0,P|49:195|71:240,1,44,8|0,0:3|0:0,0:0:0:0:
157,381,109825,6,0,P|146:358|155:308,1,44,8|0,0:3|0:0,0:0:0:0:
161,66,109997,2,0,P|163:44|172:24,1,44,8|0,0:3|0:0,0:0:0:0:
197,170,110169,6,2,P|206:186|210:204,1,37.7142857142857,4|0,0:2|0:0,0:1:0:0:
145,340,110514,6,0,B|220:278|209:170|95:141|95:141|144:172|134:223,1,352,4|8,3:2|0:3,0:0:0:0:
270,279,111031,1,2,0:0:0:0:
61,209,111203,6,0,B|49:235|49:235|136:213|136:213|243:237,1,198.000007553101,2|0,0:0|0:0,0:0:0:0:
270,279,111376,2,0,P|313:279|347:253,1,88,2|0,3:2|0:0,0:0:0:0:
350,33,111548,2,0,P|371:32|410:54,1,52.7999983886719,8|0,0:3|0:0,0:0:0:0:
460,220,111721,6,0,P|462:246|386:298,1,88,2|2,0:0|0:0,0:0:0:0:
347,253,111893,2,0,B|352:197|352:197|358:213|358:213|353:189|353:189|360:98,1,176,0|10,3:0|0:2,0:0:0:0:
206,77,112152,1,0,0:0:0:0:
187,76,112238,2,0,L|122:74,1,52.7999983886719,8|0,0:3|0:0,0:0:0:0:
391,41,112410,6,0,B|299:22|205:76|205:76|271:54|320:72|357:112,1,343.199984289552,10|0,0:2|0:0,0:0:0:0:
208,151,112755,2,0,P|259:176|315:167,1,114.399994763184,0|0,3:0|0:0,0:0:0:0:
500,299,112928,6,0,P|492:283|474:270,1,37.7142857142857,8|0,0:3|0:0,0:0:0:0:
456,278,113272,6,0,B|375:234|304:282|304:282|297:299|297:299|212:351|134:297,1,352,0|8,3:0|0:3,0:0:0:0:
34,137,113790,1,2,0:0:0:0:
31,128,113876,1,2,0:0:0:0:
28,119,113962,6,0,P|74:153|99:274,1,132.000005035401,2|0,0:0|0:0,0:0:0:0:
135,298,114135,2,0,P|171:275|180:233,1,88,2|0,3:2|0:0,0:0:0:0:
226,21,114307,5,8,0:3:0:0:
226,21,114480,2,0,P|209:60|217:128,1,88,2|2,0:0|0:0,0:0:0:0:
404,230,114652,6,0,P|298:187|215:178,1,176,0|10,3:0|0:0,0:0:0:0:
241,182,114911,1,0,0:0:0:0:
246,187,114997,2,0,B|267:199|273:220|273:220|291:209|316:212,1,88,8|0,0:3|0:0,0:0:0:0:
443,296,115170,2,0,B|464:283|470:262|470:262|488:273|513:270,1,88,10|0,3:2|0:0,0:0:0:0:
502,30,115342,6,0,L|493:131,2,88,0|0|0,0:0|0:0|3:0,0:0:0:0:
507,198,115687,2,0,B|510:163|510:163|421:104|421:104|426:52,1,176,8|0,0:3|0:0,0:0:0:0:
349,13,116031,6,0,B|369:14|405:51|386:126|326:150|326:150|275:165|266:215,1,264,0|0,3:0|0:0,0:0:0:0:
343,230,116376,2,0,P|293:159|304:74,1,176,8|2,0:3|0:0,0:0:0:0:
424,70,116635,1,2,0:0:0:0:
441,89,116721,6,0,B|412:122|412:122|339:117,1,88
209,263,116893,2,0,B|224:222|224:222|295:201,1,88,0|0,3:0|3:0,0:0:0:0:
463,235,117066,6,0,B|283:279|283:279|385:276,1,264,8|0,0:3|0:0,0:0:0:0:
426,384,117411,2,0,B|439:353|439:353|423:301,1,66.0000025177003,0|0,3:0|0:0,0:0:0:0:
451,128,117583,2,0,B|419:140|419:140|394:188,1,66.0000025177003,0|0,3:0|0:0,0:0:0:0:
361,276,117756,6,0,L|199:299,1,132.000005035401,8|0,0:3|0:0,0:0:0:0:
37,305,117928,2,0,B|12:328|12:328|127:311,1,132.000005035401,2|0,0:0|0:0,0:0:0:0:
200,105,118100,5,2,0:0:0:0:
200,105,118273,2,0,B|231:135|231:135|237:195,1,88,0|0,3:0|0:0,0:0:0:0:
358,353,118445,2,0,P|323:303|307:189,1,158.399995166016,8|0,0:3|0:0,0:0:0:0:
152,164,118790,6,0,P|164:78|252:-6,1,198.000007553101,0|0,3:0|0:0,0:0:0:0:
382,77,119135,2,0,B|408:94|402:115|402:115|356:60|266:71,1,176,8|2,0:3|0:0,0:0:0:0:
246,210,119393,2,0,B|291:246|291:246|352:200|352:200|325:154|325:154|253:135,1,228.799989526368,2|0,3:2|0:0,0:0:0:0:
151,20,119652,2,0,B|185:-24|185:-24|263:11,1,114.399994763184,0|0,3:0|0:0,0:0:0:0:
434,256,119825,5,8,0:3:0:0:
434,256,119997,2,0,P|404:290|394:351,1,88,2|2,0:0|0:0,0:0:0:0:
469,351,120169,6,0,P|445:256|472:151,1,176,0|10,3:0|0:0,0:0:0:0:
338,115,120428,1,2,0:0:0:0:
354,94,120514,2,0,P|377:139|368:223,1,88,8|0,0:3|0:0,0:0:0:0:
217,246,120687,6,0,P|266:185|271:52,1,198.000007553101,10|0,0:2|0:0,0:0:0:0:
216,8,120859,1,2,0:0:0:0:
211,18,120945,1,2,0:0:0:0:
216,8,121031,1,2,3:2:0:0:
276,69,121204,6,0,B|324:101|394:91|394:91|323:183|186:168,1,343.199984289552,8|0,0:3|0:0,0:0:0:0:
0,183,121549,6,0,B|162:209|162:209|180:169|166:133|130:131,1,264,0|0,3:0|0:0,0:0:0:0:
117,57,121894,2,0,P|89:65|62:104,1,52.7999983886719,8|0,0:3|0:0,0:0:0:0:
131,131,122066,6,0,P|137:154|182:186,1,66.0000025177003,2|2,0:0|0:0,0:0:0:0:
482,128,122239,6,0,P|458:71|321:53,1,198.000007553101,2|0,0:0|0:0,0:0:0:0:
204,117,122411,2,0,B|238:110|238:110|249:114|249:114|315:100,1,88,2|0,3:2|0:0,0:0:0:0:
452,16,122584,5,8,0:3:0:0:
439,217,122756,2,0,P|433:245|433:215,1,88,2|2,0:0|0:0,0:0:0:0:
491,297,122928,2,0,P|466:196|515:75,1,176,0|10,3:0|0:0,0:0:0:0:
335,44,123187,1,2,0:0:0:0:
353,39,123273,6,0,B|386:29|386:29|417:44,1,66.0000025177003,8|0,0:3|0:0,0:0:0:0:
481,127,123446,6,0,B|243:166|243:166|414:164,1,343.199984289552,10|0,0:0|0:0,0:0:0:0:
433,214,123791,2,0,B|445:269|445:269|424:314,1,96.8000029541017,0|0,3:0|0:0,0:0:0:0:
203,373,123963,6,0,B|160:331|199:262|199:262|187:307|217:342,1,198.000007553101,8|0,0:3|0:0,0:0:0:0:
427,305,124308,6,0,B|473:314|473:314|321:330|321:330|274:287,1,264,0|0,3:0|0:0,0:0:0:0:
211,335,124653,2,0,B|181:341|172:369|172:369|185:349|216:337,1,88,10|0,0:3|0:0,0:0:0:0:
15,335,124825,6,0,L|128:319,1,88,2|2,0:0|0:0,0:0:0:0:
437,355,124997,6,0,P|396:301|268:289,1,198.000007553101,2|0,0:0|0:0,0:0:0:0:
216,194,125170,2,0,P|194:216|222:202,1,88,2|0,3:2|0:0,0:0:0:0:
99,195,125342,6,0,P|93:232|106:196,1,110,8|0,0:3|0:0,0:0:0:0:
0,110,125514,6,0,P|19:152|15:106,1,132.000005035401,2|0,0:0|3:0,0:0:0:0:
0,110,125860,5,10,0:0:0:0:
99,195,126032,1,8,0:3:0:0:
302,177,126204,1,10,0:0:0:0:
353,122,126291,1,2,0:0:0:0:
354,69,126377,1,0,0:0:0:0:
334,47,126463,1,2,0:0:0:0:
322,45,126549,5,2,3:2:0:0:
353,122,126722,5,8,0:3:0:0:
328,262,126894,5,2,0:0:0:0:
155,342,127066,5,0,3:0:0:0:
97,277,127238,1,2,0:0:0:0:
100,259,127325,1,2,0:0:0:0:
97,241,127411,1,8,0:3:0:0:
128,161,127584,1,2,0:0:0:0:
119,126,127670,1,0,0:0:0:0:
136,95,127756,1,2,0:0:0:0:
86,111,127842,1,0,0:0:0:0:
38,88,127928,1,0,3:0:0:0:
1,11,128101,2,0,B|82:15|82:15|92:22|92:22|211:27,1,176,8|2,0:3|0:0,0:0:0:0:
485,63,128446,5,2,3:2:0:0:
419,121,128618,1,2,0:0:0:0:
371,97,128704,1,0,0:0:0:0:
318,107,128791,1,8,0:3:0:0:
174,25,128963,1,2,0:2:0:0:
197,50,129049,1,8,0:3:0:0:
230,59,129135,1,0,0:0:0:0:
223,75,129222,1,8,0:3:0:0:
220,92,129308,1,0,3:0:0:0:
162,175,129480,2,0,P|76:171|44:247,1,176,8|2,0:3|0:0,0:0:0:0:
81,50,129825,6,0,P|149:137|146:299,1,237.599992749024,2|0,3:2|0:0,0:0:0:0:
160,260,130169,2,0,P|142:167|188:68,1,176,8|2,0:3|0:2,0:0:0:0:
169,92,130687,1,2,3:2:0:0:
50,220,130859,6,0,B|166:182|138:312|256:268,1,228.799989526368,8|2,0:3|0:2,0:0:0:0:
315,219,131118,1,2,0:2:0:0:
315,219,131204,2,0,P|272:191|221:199,1,105.599996777344,8|0,0:3|0:0,0:0:0:0:
160,260,131376,2,0,L|154:299,1,26.399999194336,0|0,3:0|0:0,0:0:0:0:
400,368,131549,6,0,P|394:321|420:226,1,114.399994763184,8|0,0:3|0:0,0:0:0:0:
221,199,131721,2,0,L|212:140,1,44,0|0,3:0|0:0,0:0:0:0:
457,37,131893,6,0,P|422:88|311:98,1,132.000005035401,8|0,0:3|0:0,0:0:0:0:
189,27,132066,2,0,P|171:46|164:95,1,66.0000025177003,0|0,3:0|0:0,0:0:0:0:
219,339,132238,6,0,P|256:301|341:293,1,110,8|0,0:3|0:0,0:0:0:0:
234,86,132411,2,0,P|312:84|387:153,1,132.000005035401,8|0,0:3|0:0,0:0:0:0:
492,278,132583,5,4,3:2:0:0:
212,292,140029,5,0,0:0:0:0:
232,312,140189,1,0,0:0:0:0:
150,220,140349,1,0,0:0:0:0:
145,265,140509,1,0,0:0:0:0:
168,126,140670,5,0,0:0:0:0:
95,169,140831,1,0,0:0:0:0:
251,82,140991,1,0,0:0:0:0:
146,43,141151,1,0,0:0:0:0:
339,120,141312,5,0,0:0:0:0:
303,5,141472,1,0,0:0:0:0:
339,120,141633,1,0,0:0:0:0:
424,123,141793,5,0,0:0:0:0:
363,213,141953,1,0,0:0:0:0:
424,123,142114,1,0,0:0:0:0:
306,289,142274,5,0,0:0:0:0:
392,279,142434,1,0,0:0:0:0:
256,192,142595,6,0,L|256:124,1,65.9999982118607,0|2,0:0|0:0,0:0:0:0:
256,356,143397,1,0,0:0:0:0:
236,284,143718,5,0,0:0:0:0:
256,280,143799,1,0,0:0:0:0:
276,284,143879,1,2,0:0:0:0:
332,340,144360,5,2,0:0:0:0:
180,340,144520,1,2,0:0:0:0:
256,192,144681,2,0,L|256:104,1,87.9999976158143,0|2,0:0|0:0,0:0:0:0:
299,292,145162,5,0,0:0:0:0:
266,324,145322,1,2,0:0:0:0:
362,220,145482,1,2,0:0:0:0:
367,265,145642,1,0,0:0:0:0:
344,126,145804,5,2,0:0:0:0:
438,181,145964,1,2,0:0:0:0:
261,82,146125,1,2,0:0:0:0:
396,31,146284,1,0,0:0:0:0:
173,120,146445,5,2,0:0:0:0:
209,5,146605,1,0,0:0:0:0:
152,52,146766,1,2,0:0:0:0:
149,213,146927,5,2,0:0:0:0:
58,78,147087,1,0,0:0:0:0:
173,120,147247,1,2,0:0:0:0:
44,270,147408,5,0,0:0:0:0:
206,289,147568,1,2,0:0:0:0:
256,128,147728,6,0,L|256:194,1,65.9999982118607,2|0,0:0|0:0,0:0:0:0:
256,8,148692,5,2,0:0:0:0:
432,60,149012,1,0,0:0:0:0:
476,0,149494,5,2,0:0:0:0:
236,88,149815,2,0,P|263:87|290:83,1,54.9999985098839,2|0,0:0|0:0,0:0:0:0:
300,96,150296,6,0,L|308:4,2,87.9999976158143,4|0|0,3:1|0:0|0:0,0:0:0:0:
436,316,150777,1,0,3:0:0:0:
464,240,150938,1,0,0:0:0:0:
380,256,151098,1,0,3:0:0:0:
380,256,151178,1,0,3:0:0:0:
380,256,151258,1,0,3:0:0:0:
280,348,151419,1,0,0:0:0:0:
208,200,151579,5,0,3:0:0:0:
200,216,151660,1,0,3:0:0:0:
200,236,151740,1,0,0:0:0:0:
216,308,151900,1,0,3:0:0:0:
304,152,152061,5,0,3:0:0:0:
286,149,152142,1,0,3:0:0:0:
267,155,152222,1,0,0:0:0:0:
144,288,152381,2,0,P|120:288|88:284,2,43.9999988079071,0|0|0,3:0|3:0|3:0,0:0:0:0:
200,128,152702,1,0,3:0:0:0:
16,52,152863,6,0,P|60:63|104:60,1,87.9999976158143,0|0,3:0|2:0,0:0:0:0:
84,44,153103,2,0,P|128:32|172:36,1,87.9999976158143,0|0,3:0|2:0,0:0:0:0:
152,48,153344,2,0,P|196:60|240:56,1,87.9999976158143,0|0,3:0|3:0,0:0:0:0:
432,40,153665,1,0,0:0:0:0:
400,16,153745,1,0,3:0:0:0:
364,32,153825,1,0,3:0:0:0:
404,200,153986,5,2,0:0:0:0:
476,188,154066,1,2,0:0:0:0:
436,176,154146,1,0,3:0:0:0:
340,360,154307,5,0,3:0:0:0:
360,376,154387,1,0,3:0:0:0:
384,384,154467,1,0,3:0:0:0:
412,384,154547,1,0,0:0:0:0:
436,372,154627,5,0,3:0:0:0:
456,328,154708,1,0,3:0:0:0:
444,284,154788,1,0,3:0:0:0:
276,296,154948,6,0,P|240:297|205:302,1,70.3999980926514,2|0,0:0|0:0,0:0:0:0:
188,320,155349,1,0,0:0:0:0:
188,320,155430,6,0,L|180:228,1,87.9999976158143,4|0,3:1|0:0,0:0:0:0:
0,356,155750,2,0,P|38:383|84:380,1,87.9999976158143,0|0,3:0|0:0,0:0:0:0:
88,364,155991,1,0,0:0:0:0:
98,346,156071,1,2,0:0:0:0:
72,188,156232,1,0,0:0:0:0:
224,152,156392,2,0,L|232:60,1,87.9999976158143,0|0,3:1|0:0,0:0:0:0:
304,16,156633,6,0,L|304:68,1,43.9999988079071,0|0,0:0|3:0,0:0:0:0:
388,188,156873,1,0,0:0:0:0:
396,188,156954,2,0,L|442:189,1,43.9999988079071,0|0,0:0|1:0,0:0:0:0:
208,8,157194,5,0,0:0:0:0:
208,16,157274,2,0,L|208:68,1,43.9999988079071,0|2,0:0|0:0,0:0:0:0:
256,360,157515,1,0,0:0:0:0:
256,352,157596,2,0,L|257:306,1,43.9999988079071,0|0,0:0|1:0,0:0:0:0:
156,188,157836,1,0,0:0:0:0:
116,188,157916,1,0,0:0:0:0:
116,188,157996,6,0,L|70:189,1,43.9999988079071,4|0,1:2|0:0,0:0:0:0:
28,128,158157,6,0,B|12:88|12:88|28:48,1,87.119997373787,4|0,1:2|0:0,0:0:0:0:
116,0,158478,6,0,B|152:91|152:91|116:183,1,198.000002188683,4|0,1:2|0:0,0:0:0:0:
24,132,158799,6,0,L|8:92,1,29.0399991245957,4|0,1:2|0:0,0:0:0:0:
28,256,158959,2,0,L|-12:272,1,29.0399991245957,0|0,1:2|0:0,0:0:0:0:
152,252,159119,1,2,0:0:0:0:
172,284,159200,1,2,0:0:0:0:
160,320,159280,5,4,1:1:0:0:
88,384,159440,2,0,L|0:384,1,87.9999976158143,0|0,1:0|0:0,0:0:0:0:
256,256,159761,1,0,1:0:0:0:
360,252,159922,5,0,1:0:0:0:
340,284,160003,1,0,0:0:0:0:
352,320,160083,1,0,1:1:0:0:
424,384,160242,2,0,L|488:384,1,43.9999988079071,0|0,1:0|0:0,0:0:0:0:
484,256,160403,2,0,L|510:266,1,29.0399991245957,2|2,0:2|0:0,0:0:0:0:
440,128,160563,6,0,P|416:154|312:80,1,175.999995231629,0|0,1:2|2:0,0:0:0:0:
220,132,160804,5,2,2:0:0:0:
150,162,160884,1,2,2:0:0:0:
157,84,160964,5,0,0:0:0:0:
157,84,161045,1,0,0:0:0:0:
157,84,161125,1,0,0:0:0:0:
194,169,161205,6,0,P|199:202|173:181,1,87.9999976158143
200,40,161365,6,0,P|239:9|231:58,1,132.000001459122
104,100,161526,6,0,P|56:81|104:62,1,132.000001459122,8|0,0:0|0:0,0:0:0:0:
92,188,161847,6,2,P|44:180|-12:116,1,131.999996423721,4|0,1:1|0:0,0:1:0:0:
176,208,162168,2,2,P|128:216|72:280,1,131.999996423721,8|0,1:1|0:0,0:1:0:0:
72,356,162488,6,0,P|95:355|120:336,1,43.9999988079071,2|0,0:3|0:0,0:0:0:0:
200,288,162649,2,0,P|202:311|216:340,1,43.9999988079071
312,287,162809,2,0,P|308:309|302:330,1,43.9999988079071,8|0,1:0|0:0,0:0:0:0:
399,344,162970,2,0,P|418:355|440:356,1,43.9999988079071,2|0,0:3|0:0,0:0:0:0:
348,176,163130,6,0,P|338:176|328:182,1,21.9999994039536,2|0,0:3|0:0,0:0:0:0:
285,210,163210,2,0,P|284:200|280:189,1,21.9999994039536,2|0,3:0|0:0,0:0:0:0:
228,211,163291,2,0,P|230:200|234:190,1,21.9999994039536,2|0,3:0|0:0,0:0:0:0:
185,182,163371,2,0,P|176:177|165:176,1,21.9999994039536,2|0,0:3|0:0,0:0:0:0:
128,196,163451,6,2,B|108:200|108:200|92:188|92:188|76:196|76:196|0:208|-32:68|112:68|92:124,1,263.999992847443,8|0,1:0|0:0,0:1:0:0:
132,20,163772,6,2,L|-4:24,1,132.000001459122,6|0,1:0|1:0,0:1:0:0:
252,88,164093,2,2,L|388:92,1,132.000001459122,8|0,1:0|2:0,0:1:0:0:
347,201,164333,1,0,3:0:0:0:
328,240,164414,5,2,1:2:0:0:
282,232,164494,1,2,3:2:0:0:
256,192,164574,1,2,3:2:0:0:
228,232,164654,1,2,3:2:0:0:
184,240,164734,6,0,P|168:217|165:193,1,43.9999988079071,8|0,1:0|0:0,0:0:0:0:
68,288,164895,2,0,P|40:290|17:280,1,43.9999988079071,0|0,1:0|0:0,0:0:0:0:
164,364,165055,6,0,P|174:364|184:358,1,21.9999994039536,2|0,0:3|0:0,0:0:0:0:
227,330,165135,2,0,P|228:340|232:351,1,21.9999994039536,2|0,3:0|0:0,0:0:0:0:
284,329,165216,2,0,P|282:340|278:350,1,21.9999994039536,2|0,3:0|0:0,0:0:0:0:
327,358,165296,2,0,P|336:363|347:364,1,21.9999994039536,2|0,0:3|0:0,0:0:0:0:
380,340,165376,6,2,B|400:344|400:344|416:332|416:332|432:340|432:340|380:264|456:232|456:232|432:264|444:300,1,263.999992847443,8|0,1:0|0:0,0:1:0:0:
512,348,165697,5,0,1:0:0:0:
416,164,165857,2,0,B|439:129|439:129|483:140,1,87.9999976158143,4|0,1:2|0:0,0:0:0:0:
448,296,166018,6,2,B|300:304|300:304|220:272|268:160,1,263.999992847443,2|0,1:1|0:0,0:1:0:0:
48,208,166339,5,0,1:0:0:0:
144,24,166499,2,0,B|120:-10|120:-10|76:0,1,87.9999976158143,4|0,1:2|0:0,0:0:0:0:
112,156,166660,6,0,L|221:162,1,87.9999976158143,0|0,1:0|0:0,0:0:0:0:
284,148,166820,2,2,P|308:112|306:69,1,87.9999976158143,2|0,0:1|0:0,0:1:0:0:
396,92,166980,6,2,P|444:100|500:164,1,131.999996423721,4|0,1:1|0:0,0:1:0:0:
312,72,167301,2,2,P|360:64|416:0,1,131.999996423721,8|0,1:1|0:0,0:1:0:0:
440,28,167622,6,0,P|417:29|392:48,1,43.9999988079071,2|0,0:3|0:0,0:0:0:0:
312,96,167783,2,0,P|310:73|296:44,1,43.9999988079071,2|0,3:0|0:0,0:0:0:0:
200,97,167943,2,0,P|204:75|210:54,1,43.9999988079071,8|0,1:0|0:0,0:0:0:0:
113,40,168104,2,0,P|94:29|72:28,1,43.9999988079071,2|0,0:3|0:0,0:0:0:0:
0,188,168264,5,2,3:2:0:0:
0,196,168344,1,2,3:2:0:0:
0,204,168424,1,2,3:2:0:0:
0,212,168504,1,2,3:2:0:0:
0,252,168585,6,2,B|8:268|8:268|0:284|0:284|8:300|8:300|0:316|0:316|16:360|76:360|96:316|96:316|108:288|140:288|152:316,1,263.999992847443,6|0,1:0|0:0,0:1:0:0:
200,384,168906,6,2,L|336:380,1,132.000001459122,6|0,1:0|1:0,0:1:0:0:
149,311,169227,2,2,L|13:307,1,132.000001459122,8|0,1:0|2:0,0:1:0:0:
165,183,169467,1,0,3:0:0:0:
184,144,169548,5,2,1:2:0:0:
230,152,169628,1,2,3:2:0:0:
256,192,169708,1,2,3:2:0:0:
284,152,169788,1,2,3:2:0:0:
328,144,169868,6,0,P|344:167|347:191,1,43.9999988079071,8|0,1:0|0:0,0:0:0:0:
444,96,170029,2,0,P|472:94|495:104,1,43.9999988079071,0|0,1:0|0:0,0:0:0:0:
348,20,170189,6,0,P|338:20|328:26,1,21.9999994039536,2|0,0:3|0:0,0:0:0:0:
285,54,170269,2,0,P|284:44|280:33,1,21.9999994039536,2|0,3:0|0:0,0:0:0:0:
228,55,170350,2,0,P|230:44|234:34,1,21.9999994039536,2|0,3:0|0:0,0:0:0:0:
185,26,170430,2,0,P|176:21|165:20,1,21.9999994039536,2|0,0:3|0:0,0:0:0:0:
132,44,170510,6,2,B|112:40|112:40|96:52|96:52|80:44|80:44|132:120|56:152|56:152|28:112|64:84,1,263.999992847443,8|0,1:0|0:0,0:1:0:0:
172,108,170831,5,0,1:0:0:0:
128,292,170991,2,0,B|93:269|93:269|104:225,1,87.9999976158143,4|0,1:2|0:0,0:0:0:0:
284,152,171152,6,2,B|292:300|292:300|260:380|148:332,1,263.999992847443,2|0,1:1|0:0,0:1:0:0:
328,80,171473,5,0,1:0:0:0:
488,168,171633,2,0,B|522:144|522:144|512:100,1,87.9999976158143,4|0,1:2|0:0,0:0:0:0:
376,148,171794,6,0,L|370:257,1,87.9999976158143,0|0,1:0|0:0,0:0:0:0:
384,320,171954,2,2,P|420:344|463:342,1,87.9999976158143,2|0,0:1|0:0,0:1:0:0:
512,192,172114,5,0,1:0:0:0:
404,256,173397,6,0,B|395:236|395:236|375:227,1,43.9999988079071,4|0,1:1|0:0,0:0:0:0:
301,227,173558,2,0,B|281:235|281:235|272:255,1,43.9999988079071,0|0,3:1|0:0,0:0:0:0:
273,328,173718,2,0,B|281:347|281:347|301:356,1,43.9999988079071,0|0,3:1|0:0,0:0:0:0:
375,357,173879,2,0,B|394:348|394:348|403:328,1,43.9999988079071,0|0,3:1|0:0,0:0:0:0:
408,144,174039,6,2,B|364:144|364:144|364:0|364:0|316:0|316:0|316:144|316:144|272:144,1,422.399975665284,0|0,1:0|1:0,0:1:0:0:
56,144,174520,1,0,3:0:0:0:
164,20,174681,5,0,3:0:0:0:
180,80,174761,1,0,3:0:0:0:
164,140,174841,1,0,3:0:0:0:
180,200,174922,1,0,3:0:0:0:
164,260,175002,6,0,L|92:260,1,70.3999980926514,0|0,1:0|0:0,0:0:0:0:
96,384,175162,2,0,L|168:384,1,70.3999980926514,0|0,1:0|0:0,0:0:0:0:
216,312,175323,6,0,L|216:352,1,21.9999994039536,0|0,3:0|0:0,0:0:0:0:
276,296,175403,2,0,L|276:268,1,21.9999994039536,0|0,3:0|0:0,0:0:0:0:
336,312,175483,2,0,L|336:352,1,21.9999994039536,0|0,3:0|0:0,0:0:0:0:
396,296,175563,2,0,L|396:268,1,21.9999994039536,0|0,3:0|0:0,0:0:0:0:
456,312,175644,6,2,B|512:312|512:312|512:296|512:296|484:296|484:296|484:232|484:232|512:232|512:232|512:216|512:216|456:216,1,263.999992847443,0|0,1:0|0:0,0:1:0:0:
456,140,175964,6,0,B|512:140|512:140|512:124|512:124|484:124|484:124|484:60|484:60|456:60|456:60|456:44|456:44|512:44,2,263.999992847443,0|0|2,1:0|1:0|1:1,0:1:0:0:
396,0,176446,1,0,1:0:0:0:
276,44,176606,2,0,B|332:44|332:44|332:60|332:60|304:60|304:60|304:124|304:124|276:124|276:124|276:140|276:140|332:140,2,263.999992847443,0|0|2,1:0|1:0|1:1,0:1:0:0:
200,160,177087,1,2,0:1:0:0:
164,16,177248,6,2,B|131:16|131:16|131:123|131:123|95:123|95:123|95:16|95:16|62:16,1,316.799981748963,0|0,1:0|2:0,0:1:0:0:
16,84,177569,6,0,B|16:176|16:176|28:188|28:188|44:188|44:188|56:200|56:200|56:272,1,211.199994277954,0|0,1:0|0:0,0:0:0:0:
162,250,177889,6,0,B|142:258|142:258|133:278,1,43.9999988079071,0|0,3:1|0:0,0:0:0:0:
133,353,178050,2,0,B|141:373|141:373|161:381,1,43.9999988079071,0|0,3:1|0:0,0:0:0:0:
234,381,178210,2,0,B|254:372|254:372|262:352,1,43.9999988079071,0|0,1:1|0:0,0:0:0:0:
263,279,178371,2,0,B|254:259|254:259|234:250,1,43.9999988079071,0|0,3:1|0:0,0:0:0:0:
200,316,178531,6,0,L|348:316,1,131.999996423721
408,364,178852,6,2,B|408:331|408:331|515:331|515:331|515:295|515:295|408:295|408:295|408:262,1,316.799981748963,0|0,1:0|2:0,0:1:0:0:
408,184,179173,6,0,L|476:184,1,43.9999988079071,2|0,3:0|0:0,0:0:0:0:
364,108,179333,2,0,L|408:108,1,43.9999988079071,2|0,3:0|0:0,0:0:0:0:
428,32,179494,2,0,L|472:32,1,43.9999988079071,2|0,1:3|0:0,0:0:0:0:
308,32,179654,2,0,L|352:32,1,43.9999988079071,2|0,3:0|0:0,0:0:0:0:
332,184,179815,5,0,3:0:0:0:
272,200,179895,1,0,3:0:0:0:
212,184,179975,1,0,3:0:0:0:
152,200,180056,1,0,3:0:0:0:
92,184,180135,6,0,L|92:112,1,70.3999980926514,0|0,1:0|0:0,0:0:0:0:
12,112,180296,2,0,L|12:184,1,70.3999980926514,0|0,1:0|0:0,0:0:0:0:
12,288,180456,6,0,L|12:248,1,21.9999994039536,0|0,3:0|0:0,0:0:0:0:
72,304,180536,2,0,L|72:332,1,21.9999994039536,0|0,3:0|0:0,0:0:0:0:
132,288,180616,2,0,L|132:248,1,21.9999994039536,0|0,3:0|0:0,0:0:0:0:
192,304,180696,2,0,L|192:332,1,21.9999994039536,0|0,3:0|0:0,0:0:0:0:
252,288,180777,6,2,B|252:232|252:232|268:232|268:232|268:260|268:260|336:260|336:260|336:288|336:288|352:288|352:288|352:232,1,263.999992847443,0|0,1:0|0:0,0:1:0:0:
352,156,181098,6,0,B|352:100|352:100|368:100|368:100|368:128|368:128|432:128|432:128|432:156|432:156|448:156|448:156|448:100,2,263.999992847443,0|0|2,1:0|1:0|1:1,0:1:0:0:
352,368,181580,1,0,1:0:0:0:
0,0,182061,5,8,0:1:0:0:
244,356,182381,5,4,1:0:0:0:
220,48,182582,5,2,0:0:0:0:
292,52,182903,1,2,0:0:0:0:
224,72,183224,1,2,0:0:0:0:
296,76,183545,1,2,0:0:0:0:
228,96,183865,5,2,0:0:0:0:
316,116,184026,1,0,0:0:0:0:
224,112,184186,5,2,0:0:0:0:
144,152,184347,1,0,0:0:0:0:
236,124,184507,5,0,0:0:0:0:
316,160,184668,1,0,0:0:0:0:
236,144,184828,5,0,0:0:0:0:
160,192,184988,1,0,0:0:0:0:
220,48,185149,5,2,0:0:0:0:
292,52,185470,1,2,0:0:0:0:
224,72,185791,1,2,0:0:0:0:
296,76,186112,1,2,0:0:0:0:
228,96,186432,5,2,0:0:0:0:
356,120,186593,1,2,0:0:0:0:
224,112,186753,5,2,0:0:0:0:
116,164,186914,1,0,0:0:0:0:
236,124,187074,5,0,0:0:0:0:
388,192,187235,1,0,0:0:0:0:
236,144,187395,5,0,0:0:0:0:
100,240,187555,1,2,2:0:0:0:
220,48,187716,5,2,0:0:0:0:
292,52,188037,1,2,0:0:0:0:
224,72,188358,1,2,0:0:0:0:
296,76,188679,1,2,0:0:0:0:
228,96,188999,5,2,0:0:0:0:
336,132,189160,1,2,0:0:0:0:
224,112,189320,5,2,0:0:0:0:
140,188,189481,1,0,0:0:0:0:
236,124,189641,5,0,0:0:0:0:
300,244,189802,1,0,0:0:0:0:
236,144,189962,5,0,0:0:0:0:
244,356,190122,1,2,2:0:0:0:
220,48,190283,5,2,0:0:0:0:
292,52,190604,1,2,0:0:0:0:
224,72,190925,1,2,0:0:0:0:
296,76,191246,1,2,0:0:0:0:
228,96,191566,5,2,0:0:0:0:
380,196,191726,1,0,0:0:0:0:
232,120,191887,1,2,0:0:0:0:
123,256,192007,6,0,B|91:260|91:260|59:252,1,66.0000007295609,4|0,1:2|0:0,0:0:0:0:
64,180,192168,2,0,B|96:175|96:175|128:183,1,66.0000007295609,4|0,0:2|0:0,0:0:0:0:
84,348,192328,6,0,L|104:72,1,263.999992847443,8|0,0:0|0:0,0:0:0:0:
16,24,192649,6,0,B|98:-3|78:72|165:46,1,158.399990874482
232,8,192970,1,0,1:0:0:0:
204,192,193130,1,0,0:0:0:0:
212,216,193210,1,0,3:0:0:0:
236,232,193291,1,0,3:0:0:0:
368,184,193451,1,0,3:0:0:0:
348,44,193611,2,0,P|276:23|234:84,1,158.399990874482,0|0,1:0|0:0,0:0:0:0:
312,244,193932,5,0,0:0:0:0:
308,240,194253,5,0,1:0:0:0:
248,360,194414,1,0,0:0:0:0:
168,312,194574,5,0,0:0:0:0:
152,232,194734,1,0,0:0:0:0:
84,160,194895,5,0,1:0:0:0:
68,208,195055,1,0,0:0:0:0:
16,360,195216,6,0,B|98:387|78:311|165:337,1,158.399990874482
232,376,195537,1,0,1:0:0:0:
204,192,195697,1,0,0:0:0:0:
212,168,195777,1,0,3:0:0:0:
236,152,195858,1,0,3:0:0:0:
368,200,196018,1,0,3:0:0:0:
348,340,196178,2,0,P|276:360|234:299,1,158.399990874482,0|0,1:0|0:0,0:0:0:0:
312,140,196499,5,0,0:0:0:0:
384,4,196660,1,0,1:0:0:0:
248,24,196820,5,0,0:0:0:0:
308,144,196981,1,0,1:0:0:0:
416,168,197141,5,0,0:0:0:0:
304,148,197301,1,0,1:0:0:0:
248,220,197462,5,0,1:0:0:0:
300,152,197622,1,0,0:0:0:0:
496,360,197783,6,0,B|414:387|434:312|347:338,1,158.399990874482,0|0,2:0|0:0,0:0:0:0:
280,376,198104,1,0,1:0:0:0:
308,192,198264,1,0,0:0:0:0:
300,168,198344,1,0,3:0:0:0:
276,152,198425,1,0,3:0:0:0:
144,200,198585,1,0,3:0:0:0:
164,340,198745,2,0,P|236:360|278:299,1,158.399990874482,0|0,1:0|0:0,0:0:0:0:
200,140,199066,5,0,0:0:0:0:
204,144,199387,5,0,1:0:0:0:
264,24,199548,1,0,0:0:0:0:
344,72,199708,5,0,0:0:0:0:
360,152,199868,1,0,0:0:0:0:
428,224,200029,5,0,1:0:0:0:
444,176,200189,1,0,0:0:0:0:
496,24,200349,5,0,0:0:0:0:
480,248,200510,2,0,P|432:256|384:224,1,105.599993916321,0|0,1:0|0:0,0:0:0:0:
492,36,200831,5,0,1:0:0:0:
480,248,200991,2,0,P|426:261|368:230,1,123.199992902375,0|0,1:0|0:0,0:0:0:0:
488,48,201312,5,0,1:0:0:0:
480,248,201472,6,0,P|392:260|336:220,1,140.799996185303,0|0,1:0|0:0,0:0:0:0:
288,184,201713,1,0,1:0:0:0:
248,172,201793,1,0,1:0:0:0:
208,176,201873,1,0,1:0:0:0:
172,196,201954,1,0,1:0:0:0:
92,360,202114,1,0,1:0:0:0:
100,176,202274,1,0,1:0:0:0:
28,8,202435,1,0,0:0:0:0:
12,84,202595,6,0,P|48:84|64:72,3,43.9999988079071,2|2|2|2,3:0|3:0|3:0|3:0,0:0:0:0:
100,176,202916,6,0,B|58:253|58:253|133:299,1,175.999995231629,4|0,1:2|0:0,0:0:0:0:
210,278,203157,2,0,B|251:200|251:200|176:154,1,175.999995231629,4|0,1:2|0:0,0:0:0:0:
156,228,203397,1,4,1:2:0:0:
480,352,203558,6,0,L|515:350,4,21.9999994039536,0|0|0|0|0,1:0|1:0|1:0|1:0|1:0,0:0:0:0:
408,360,203799,5,0,1:0:0:0:
336,368,203879,1,8,1:1:0:0:
336,368,204200,6,0,L|352:164,1,184.799989353562,4|0,0:0|0:0,0:0:0:0:
356,112,204520,1,0,1:0:0:0:
132,376,204681,1,2,0:0:0:0:
132,376,204761,1,2,0:0:0:0:
132,376,204841,6,0,P|200:288|164:220,1,175.999995231629,2|0,0:1|0:0,0:0:0:0:
132,184,205082,1,0,0:0:0:0:
111,255,205162,2,0,P|140:333|223:350,1,175.999995231629,2|0,1:1|0:0,0:0:0:0:
276,296,205403,5,0,0:0:0:0:
264,224,205483,1,2,0:0:0:0:
0,276,205643,1,0,0:0:0:0:
0,276,205724,1,0,0:0:0:0:
0,276,205804,6,0,L|15:13,1,263.999992847443,2|0,1:1|0:1,0:1:0:0:
92,20,206125,2,0,L|76:282,1,263.999992847443,2|0,0:1|0:1,0:1:0:0:
32,352,206446,5,2,1:2:0:0:
258,273,206606,1,0,0:0:0:0:
260,296,206686,1,0,0:0:0:0:
264,340,206766,5,2,1:2:0:0:
152,348,206927,1,0,0:0:0:0:
328,124,207087,6,0,P|360:154|348:208,1,61.5999964511873,0|0,1:0|0:0,0:0:0:0:
252,124,207248,2,0,P|261:80|314:64,1,61.5999964511873,2|0,0:1|0:0,0:0:0:0:
289,191,207408,6,2,P|244:200|176:132,1,123.199992902375,2|0,0:1|1:0,0:1:0:0:
472,0,207729,1,0,1:0:0:0:
504,52,207809,1,0,0:0:0:0:
508,112,207889,1,2,0:0:0:0:
484,168,207970,1,2,0:0:0:0:
436,208,208050,6,0,L|392:204,2,41.0666643007915,6|2|0,1:0|0:0|0:0,0:0:0:0:
432,228,208210,6,0,P|411:273|419:220,1,131.999996423721,0|0,1:0|0:0,0:0:0:0:
432,228,208531,6,0,P|379:313|403:223,1,281.599992370606,4|0,1:0|1:0,0:0:0:0:
432,352,209012,6,0,B|396:362|396:362|368:344,1,70.3999980926514,0|0,1:0|0:0,0:0:0:0:
252,276,209173,2,0,B|216:266|216:266|188:284,1,70.3999980926514,2|0,2:0|0:0,0:0:0:0:
60,352,209333,5,0,1:2:0:0:
144,368,209494,1,2,0:0:0:0:
60,184,209654,5,0,1:2:0:0:
144,200,209815,1,2,0:0:0:0:
144,8,209975,6,0,P|212:96|176:164,1,175.999995231629,2|0,0:1|0:0,0:0:0:0:
144,200,210216,1,0,0:0:0:0:
123,129,210296,2,0,P|152:50|235:33,1,175.999995231629,2|0,1:1|0:0,0:0:0:0:
288,88,210537,1,0,0:0:0:0:
288,88,210617,5,0,1:2:0:0:
144,200,210778,1,2,0:0:0:0:
144,8,210938,5,0,1:2:0:0:
216,232,211099,1,2,0:0:0:0:
416,260,211258,6,0,L|154:276,1,263.999992847443,2|0,0:1|0:1,0:1:0:0:
84,320,211579,5,0,1:0:0:0:
492,292,211739,1,0,0:0:0:0:
490,269,211819,1,2,0:0:0:0:
486,225,211899,5,2,1:2:0:0:
423,336,212060,1,0,1:0:0:0:
384,136,212221,6,0,P|416:166|404:220,1,61.5999964511873,0|0,1:0|0:0,0:0:0:0:
328,260,212381,2,0,P|337:216|390:200,1,61.5999964511873,2|0,0:1|0:0,0:0:0:0:
344,340,212541,6,2,P|298:337|250:253,1,123.199992902375,2|0,0:1|1:0,0:1:0:0:
256,204,212783,1,0,1:0:0:0:
261,280,212863,2,2,P|227:330|168:340,1,123.199992902375,2|0,0:1|1:0,0:1:0:0:
112,259,213103,1,0,1:0:0:0:
112,259,213184,6,0,L|68:254,1,43.9999988079071,6|2,1:0|0:0,0:0:0:0:
80,156,213344,6,0,P|100:110|92:163,1,131.999996423721,0|0,1:0|0:0,0:0:0:0:
80,156,213665,6,0,P|134:72|112:160,1,281.599992370606,4|0,1:0|1:0,0:0:0:0:
112,259,214066,1,0,1:0:0:0:
112,259,214146,5,0,1:0:0:0:
160,248,214226,1,0,1:0:0:0:
204,268,214307,1,0,1:0:0:0:
228,312,214387,1,0,1:0:0:0:
220,360,214467,6,0,L|424:344,1,184.799989353562,4|0,0:0|0:0,0:0:0:0:
480,340,214787,1,0,1:0:0:0:
420,80,214948,1,2,0:0:0:0:
420,80,215028,1,2,0:0:0:0:
420,80,215109,6,0,P|359:173|401:238,1,175.999995231629,2|0,0:1|0:0,0:0:0:0:
436,276,215349,1,0,0:0:0:0:
482,214,215429,2,0,P|488:131|420:80,1,175.999995231629,2|0,1:1|0:0,0:0:0:0:
362,142,215670,5,0,0:0:0:0:
381,222,215750,1,2,1:2:0:0:
208,296,215910,1,0,0:0:0:0:
208,296,215991,1,0,0:0:0:0:
208,296,216071,6,0,B|176:208|264:156|168:128|193:33,1,263.999992847443,2|0,1:1|0:1,0:1:0:0:
104,44,216392,2,0,B|136:132|48:184|144:212|119:307,1,263.999992847443,2|0,0:1|0:1,0:1:0:0:
168,368,216713,5,2,1:2:0:0:
292,196,216873,1,0,0:0:0:0:
290,173,216953,1,0,0:0:0:0:
286,129,217033,5,2,1:2:0:0:
300,284,217194,1,0,0:0:0:0:
119,303,217355,6,0,L|47:299,1,61.5999964511873,0|0,1:0|0:0,0:0:0:0:
224,244,217515,6,0,P|215:288|162:304,1,61.5999964511873,2|0,0:2|0:0,0:0:0:0:
144,92,217675,6,2,B|206:103|206:103|209:202,1,123.199992902375,2|2,0:1|0:2,0:1:0:0:
4,108,217996,5,0,1:0:0:0:
32,56,218076,1,2,0:0:0:0:
60,4,218156,1,2,0:0:0:0:
104,48,218237,1,2,0:0:0:0:
144,92,218317,6,0,L|205:103,2,41.0666643007915,6|2|0,1:0|0:0|0:0,0:0:0:0:
143,112,218478,6,0,P|149:163|177:121,1,131.999996423721,0|0,1:0|0:0,0:0:0:0:
143,112,218799,6,0,P|135:211|176:120,1,281.599992370606,4|0,1:0|1:0,0:0:0:0:
80,352,219279,6,0,B|116:362|116:362|144:344,1,70.3999980926514,0|0,1:0|0:0,0:0:0:0:
260,284,219440,2,0,B|296:274|296:274|324:292,1,70.3999980926514,2|0,2:0|0:0,0:0:0:0:
424,384,219601,5,4,1:2:0:0:
340,368,219762,1,2,0:0:0:0:
452,228,219922,5,0,1:2:0:0:
368,212,220083,1,2,0:0:0:0:
384,16,220242,6,0,P|445:109|403:174,1,175.999995231629,2|0,0:1|0:0,0:0:0:0:
368,212,220482,1,0,0:0:0:0:
322,150,220563,2,0,P|316:67|384:16,1,175.999995231629,2|0,1:1|0:0,0:0:0:0:
442,78,220803,5,0,0:0:0:0:
423,158,220883,1,2,1:2:0:0:
232,132,221046,1,2,0:0:0:0:
300,4,221206,5,0,1:2:0:0:
288,232,221365,1,2,0:0:0:0:
96,264,221526,6,0,B|184:296|236:208|264:304|359:279,1,263.999992847443,2|0,0:1|0:1,0:1:0:0:
428,240,221847,5,0,1:0:0:0:
256,204,222007,1,0,0:0:0:0:
256,180,222087,1,0,0:0:0:0:
256,136,222167,5,6,1:2:0:0:
252,348,222328,1,2,1:2:0:0:
199,82,222488,6,0,P|174:99|164:128,1,61.5999964511873,2|0,1:0|0:0,1:0:0:0:
348,128,222649,2,0,P|337:99|312:82,1,61.5999964511873,2|0,1:2|0:0,0:0:0:0:
168,340,222809,6,2,B|228:336|228:336|261:281,1,123.199992902375,2|0,0:1|1:0,0:1:0:0:
256,204,223051,1,0,1:0:0:0:
251,282,223130,2,2,B|284:336|284:336|343:340,1,123.199992902375,2|0,0:1|1:0,0:1:0:0:
400,259,223371,1,0,1:0:0:0:
400,259,223452,6,0,L|443:254,1,43.9999988079071,6|2,1:0|0:0,0:0:0:0:
432,156,223612,6,0,P|412:110|420:163,1,131.999996423721,0|0,1:0|0:0,0:0:0:0:
432,156,223933,6,0,P|378:72|400:160,1,281.599992370606,4|0,1:0|1:0,0:0:0:0:
400,259,224334,1,0,1:0:0:0:
400,259,224414,6,0,P|440:329|437:253,1,211.199987832642,4|0,1:0|1:0,0:0:0:0:
152,356,224734,6,0,P|72:362|-4:284,1,175.999995231629,4|0,0:0|0:0,0:0:0:0:
224,304,225216,1,2,0:0:0:0:
224,304,225296,1,2,0:0:0:0:
224,304,225376,2,0,L|228:184,1,87.9999976158143
84,100,225697,2,0,L|88:220,1,87.9999976158143,2|0,0:0|0:0,0:0:0:0:
227,216,226018,5,2,0:0:0:0:
304,240,226178,1,0,0:0:0:0:
372,196,226339,1,0,0:0:0:0:
380,276,226499,1,2,0:0:0:0:
376,280,226820,5,0,0:0:0:0:
328,132,226980,2,0,P|324:92|325:44,1,87.9999976158143,2|0,0:0|0:0,0:0:0:0:
168,16,227301,2,0,P|175:95|173:190,1,175.999995231629,2|2,0:0|0:0,0:0:0:0:
173,191,227702,1,0,0:0:0:0:
173,191,227783,1,2,0:0:0:0:
168,196,228103,5,0,0:0:0:0:
104,352,228264,1,0,0:0:0:0:
116,340,228344,1,0,0:0:0:0:
124,324,228424,1,0,0:0:0:0:
128,308,228504,1,0,0:0:0:0:
128,292,228585,6,0,P|54:251|42:167,1,175.999995231629,4|0,1:2|0:0,0:0:0:0:
168,289,228825,2,0,P|86:311|18:260,1,175.999995231629,4|0,1:2|0:0,0:0:0:0:
205,269,229066,2,0,P|183:305|137:329,1,87.9999976158143,4|0,1:2|0:0,0:0:0:0:
40,26,229227,6,0,L|38:-9,4,21.9999994039536,0|0|0|0|0,1:0|1:0|1:0|1:0|1:0,0:0:0:0:
40,96,229468,5,0,1:0:0:0:
42,166,229547,2,0,P|148:216|204:72,1,263.999992847443,8|0,1:1|0:0,0:0:0:0:
112,4,229868,6,0,L|128:136,1,123.199992902375,4|4,1:2|2:2,0:0:0:0:
272,328,230189,1,2,2:0:0:0:
456,156,230349,2,0,P|409:51|298:74,1,246.399985804749,0|0,1:0|1:0,0:0:0:0:
298,73,230750,1,0,1:0:0:0:
298,73,230831,1,0,1:0:0:0:
142,217,230991,1,0,0:0:0:0:
376,184,231151,6,0,L|360:316,1,123.199992902375,4|4,1:2|2:2,0:0:0:0:
132,384,231472,1,0,0:0:0:0:
0,184,231633,2,0,P|47:79|158:102,1,246.399985804749,6|0,1:2|1:0,0:0:0:0:
158,102,232033,1,0,1:0:0:0:
157,101,232114,6,0,P|186:121|240:104,1,61.5999964511873,0|0,1:0|0:0,0:0:0:0:
308,24,232274,2,0,P|332:5|362:3,1,61.5999964511873,2|2,0:0|0:0,0:0:0:0:
480,72,232435,6,0,L|464:204,1,123.199992902375,4|4,1:2|2:2,0:0:0:0:
276,188,232756,1,0,0:0:0:0:
280,368,232916,2,0,P|385:321|362:210,1,246.399985804749,4|0,1:2|1:0,0:0:0:0:
362,210,233317,1,0,3:0:0:0:
362,210,233397,1,0,3:0:0:0:
112,259,233558,1,0,3:0:0:0:
112,259,233638,1,0,3:0:0:0:
112,259,233718,6,0,L|67:254,1,43.9999988079071,4|2,1:0|0:0,0:0:0:0:
80,156,233879,6,0,P|100:110|92:163,1,131.999996423721,0|0,1:0|0:0,0:0:0:0:
80,156,234200,5,0,1:0:0:0:
51,110,234280,1,0,1:0:0:0:
80,65,234360,1,0,1:0:0:0:
133,71,234440,1,0,1:0:0:0:
150,121,234520,1,0,1:0:0:0:
113,159,234601,1,0,1:0:0:0:
80,156,234681,6,0,P|132:70|112:160,1,282.479983726159,8|0,1:0|2:0,0:0:0:0:
80,348,235002,5,4,1:0:0:0:
80,348,235523,1,2,0:0:0:0:
172,372,235684,2,0,P|196:344|192:292,1,87.9999976158143,2|0,2:0|2:0,0:0:0:0:
113,159,236004,1,2,0:0:0:0:
200,204,236165,2,0,L|296:192,1,87.9999976158143,2|0,0:0|0:0,0:0:0:0:
512,160,236486,1,2,0:0:0:0:
512,160,236646,1,0,0:0:0:0:
287,193,236807,5,2,0:0:0:0:
423,54,236967,1,2,0:0:0:0:
472,242,237127,1,2,0:0:0:0:
369,132,237328,5,2,0:0:0:0:
431,148,237448,1,2,0:0:0:0:
385,194,237569,5,2,0:0:0:0:
385,194,238089,1,2,0:0:0:0:
293,170,238250,2,0,P|269:198|273:250,1,87.9999976158143,2|0,2:0|2:0,0:0:0:0:
352,383,238570,1,2,0:0:0:0:
265,338,238731,2,0,L|169:350,1,87.9999976158143,2|0,0:0|0:0,0:0:0:0:
0,368,239052,1,2,0:0:0:0:
0,368,239212,1,2,0:0:0:0:
177,348,239373,5,2,0:0:0:0:
229,160,239533,1,2,0:0:0:0:
42,212,239693,1,2,0:0:0:0:
188,246,239895,5,2,0:0:0:0:
143,200,240015,1,2,0:0:0:0:
127,263,240135,6,0,L|352:244,1,198.000002188683,4|0,1:1|0:0,0:0:0:0:
396,240,240456,1,0,1:0:0:0:
432,104,240616,1,0,0:0:0:0:
424,80,240696,1,0,3:0:0:0:
400,64,240777,1,0,3:0:0:0:
264,112,240937,1,0,3:0:0:0:
324,246,241097,2,0,P|396:240|416:172,1,132.000001459122,0|0,1:0|0:0,0:0:0:0:
316,40,241418,5,0,0:0:0:0:
248,200,241579,1,0,3:0:0:0:
244,212,241660,1,0,3:0:0:0:
240,224,241739,5,0,1:0:0:0:
120,196,241900,1,0,3:0:0:0:
136,152,241980,1,0,3:0:0:0:
152,108,242061,5,0,0:0:0:0:
248,100,242220,1,0,0:0:0:0:
228,20,242381,5,0,1:0:0:0:
204,12,242462,1,0,3:0:0:0:
180,4,242541,1,0,3:0:0:0:
24,72,242702,5,0,1:0:0:0:
36,224,242863,1,0,1:0:0:0:
36,224,243184,6,0,P|64:192|148:196,1,117.919991227311,0|0,1:0|0:0,0:0:0:0:
168,372,243504,1,0,1:0:0:0:
168,372,243585,1,0,1:0:0:0:
168,372,243665,2,0,L|44:380,1,117.919991227311,0|0,1:0|0:0,0:0:0:0:
12,304,243986,1,0,1:0:0:0:
260,384,244146,1,0,1:0:0:0:
260,384,244467,1,0,1:0:0:0:
264,300,244627,2,0,L|272:152,1,117.919991227311,0|0,1:0|1:0,0:0:0:0:
120,108,244948,5,0,1:0:0:0:
168,104,245029,1,0,1:0:0:0:
212,100,245109,1,0,1:0:0:0:
256,96,245189,1,0,1:0:0:0:
300,92,245269,5,4,1:0:0:0:
280,72,245429,1,2,0:0:0:0:
362,164,245589,1,0,0:0:0:0:
367,119,245749,1,2,0:0:0:0:
344,258,245910,5,0,0:0:0:0:
417,215,246071,1,2,0:0:0:0:
261,302,246231,1,0,0:0:0:0:
366,341,246391,1,2,0:0:0:0:
173,264,246552,5,2,0:0:0:0:
209,379,246712,1,0,0:0:0:0:
173,264,246873,1,0,0:0:0:0:
88,261,247033,5,2,0:0:0:0:
149,171,247193,1,0,0:0:0:0:
88,261,247354,1,0,0:0:0:0:
206,95,247514,5,2,0:0:0:0:
120,105,247676,1,0,0:0:0:0:
256,192,247836,6,0,L|256:260,1,65.9999982118607,2|2,0:0|0:0,0:0:0:0:
256,28,248637,1,2,0:0:0:0:
276,100,248958,5,0,0:0:0:0:
256,104,249039,1,0,0:0:0:0:
236,100,249119,1,2,0:0:0:0:
180,44,249600,5,2,0:0:0:0:
332,44,249760,1,2,0:0:0:0:
216,256,249922,6,0,P|208:276|216:296,1,43.9999988079071,0|2,0:0|2:0,0:0:0:0:
295,296,250082,2,0,P|303:275|295:255,1,43.9999988079071,2|2,0:0|0:0,0:0:0:0:
257,175,256947,5,4,0:0:0:0:
277,191,257101,1,0,0:0:0:0:
402,193,257254,1,8,0:3:0:0:
425,180,257407,1,0,0:0:0:0:
294,204,257560,2,0,L|390:208,1,88,0|0,3:0|3:0,0:0:0:0:
339,131,257866,1,8,0:3:0:0:
376,292,258172,5,0,3:0:0:0:
376,292,258325,2,0,L|288:288,1,88,0|8,3:0|0:3,0:0:0:0:
288,288,258631,1,0,3:0:0:0:
84,337,258937,1,0,3:0:0:0:
84,337,259090,2,0,L|72:230,1,88,8|0,0:3|0:0,0:0:0:0:
172,205,259396,5,0,3:0:0:0:
185,182,259550,1,0,0:0:0:0:
181,54,259703,1,8,0:3:0:0:
168,31,259857,1,0,0:0:0:0:
196,159,260009,2,0,B|209:114|209:114|189:69,1,88,0|0,3:0|3:0,0:0:0:0:
118,118,260315,1,8,0:3:0:0:
286,127,260621,5,0,3:0:0:0:
286,127,260774,2,0,L|389:112,1,88,0|8,3:0|0:3,0:0:0:0:
373,114,261080,1,0,3:0:0:0:
234,240,261386,1,0,3:0:0:0:
234,240,261539,2,0,L|321:252,1,88,8|0,0:3|0:0,0:0:0:0:
460,175,261845,5,4,0:0:0:0:
454,201,261999,1,0,0:0:0:0:
420,340,262152,1,8,0:3:0:0:
413,365,262306,1,0,0:0:0:0:
446,228,262458,6,0,L|424:324,1,88,0|0,3:0|3:0,0:0:0:0:
509,292,262764,1,8,0:3:0:0:
334,313,263070,1,0,3:0:0:0:
334,313,263223,6,0,L|314:227,1,88,0|8,3:0|0:3,0:0:0:0:
314,227,263529,1,0,3:0:0:0:
412,76,263835,1,0,3:0:0:0:
412,76,263988,2,0,L|392:161,1,88,8|0,0:3|0:0,0:0:0:0:
149,349,264294,6,0,P|129:283|165:345,1,211.2,12|0,0:1|0:0,0:0:0:0:
127,264,264601,6,0,P|155:365|142:260,1,316.799990332032,10|0,0:1|0:0,0:0:0:0:
14,296,264907,2,0,P|14:331|24:365,1,70.4,8|0,0:1|0:0,0:0:0:0:
267,365,265060,2,0,P|276:331|277:296,1,70.4,8|0,0:1|0:0,0:0:0:0:
135,159,265213,5,8,0:1:0:0:
130,154,265289,1,8,0:1:0:0:
135,149,265366,1,8,0:1:0:0:
139,154,265442,1,8,0:1:0:0:
213,196,265519,6,0,L|-7:170,1,211.2,12|0,0:1|0:0,0:0:0:0:
13,181,265825,1,0,0:0:0:0:
36,50,265978,2,0,L|256:76,1,211.2,12|0,0:1|0:0,0:0:0:0:
236,65,266284,5,0,0:0:0:0:
494,62,266437,1,8,0:1:0:0:
464,41,266514,1,8,0:1:0:0:
429,40,266590,1,8,0:1:0:0:
396,52,266667,1,8,0:1:0:0:
383,84,266743,5,12,0:1:0:0:
511,171,266896,1,0,0:0:0:0:
389,99,267050,5,8,0:3:0:0:
490,261,267203,1,0,0:0:0:0:
336,295,267356,5,0,3:0:0:0:
425,184,267509,1,0,0:0:0:0:
342,308,267662,5,8,0:3:0:0:
301,125,267815,1,0,0:0:0:0:
433,329,267968,5,0,3:0:0:0:
478,81,268121,1,0,0:0:0:0:
444,338,268274,5,8,0:3:0:0:
340,206,268427,1,0,0:0:0:0:
512,281,268580,5,0,3:0:0:0:
503,268,268886,2,0,B|483:212|513:165|513:165|520:188|538:211,1,140.8,8|0,0:3|0:0,0:0:0:0:
420,262,269116,1,0,3:0:0:0:
406,264,269192,5,0,3:0:0:0:
234,352,269345,1,0,0:0:0:0:
390,267,269499,5,8,0:3:0:0:
235,174,269652,1,0,0:0:0:0:
324,362,269805,5,0,3:0:0:0:
373,183,269958,1,0,0:0:0:0:
336,371,270111,5,8,0:3:0:0:
160,228,270264,1,0,0:0:0:0:
145,372,270417,5,0,3:0:0:0:
91,163,270570,1,0,0:0:0:0:
127,377,270723,5,8,0:3:0:0:
236,265,270876,1,0,0:0:0:0:
32,362,271029,6,0,L|10:220,1,140.8,0|0,3:0|0:0,0:0:0:0:
259,133,271335,1,8,0:3:0:0:
253,167,271412,1,8,0:3:0:0:
249,201,271488,1,8,0:3:0:0:
242,235,271565,1,8,0:3:0:0:
236,265,271641,6,0,L|135:257,1,79.1999975830079,4|0,3:0|0:0,0:0:0:0:
144,271,271948,6,0,L|366:284,1,211.2,8|0,0:3|0:0,0:0:0:0:
179,181,272254,6,0,L|78:173,1,79.1999975830079,0|0,3:0|0:0,0:0:0:0:
87,187,272561,6,0,L|309:200,1,211.2,8|0,0:3|0:0,0:0:0:0:
416,144,272866,6,0,P|425:104|418:65,1,79.1999975830079,0|0,3:0|0:0,0:0:0:0:
410,51,273172,6,0,P|428:156|411:318,1,264,8|0,0:3|0:0,0:0:0:0:
239,123,273478,6,0,P|230:83|237:44,1,79.1999975830079,0|0,3:0|0:0,0:0:0:0:
245,30,273784,6,0,P|227:135|244:297,1,264,8|0,0:3|0:0,0:0:0:0:
325,360,274090,5,4,3:0:0:0:
152,286,274243,1,0,0:0:0:0:
134,279,274320,1,0,0:0:0:0:
116,273,274396,1,8,0:3:0:0:
197,369,274550,1,0,0:0:0:0:
316,236,274703,6,0,P|311:202|316:154,1,61.5999981201172,0|0,3:0|3:0,0:0:0:0:
469,252,274856,2,0,P|442:273|397:293,1,61.5999981201172,0|0,3:0|3:0,0:0:0:0:
409,108,275009,2,0,P|440:120|480:149,1,61.5999981201172,0|0,3:0|3:0,0:0:0:0:
398,197,275162,6,0,B|333:222|286:188|286:188|252:237|197:242|132:192,1,264,12|0,0:1|0:0,0:0:0:0:
206,87,275468,2,0,P|216:115|214:156,1,61.5999981201172,8|0,3:0|3:0,0:0:0:0:
96,272,275621,1,0,3:0:0:0:
101,289,275698,1,0,3:0:0:0:
106,306,275774,2,0,L|191:300,1,61.5999981201172,0|0,3:0|3:0,0:0:0:0:
75,177,275927,5,8,1:0:0:0:
75,177,276004,1,8,1:0:0:0:
75,177,276080,2,0,L|-1:165,1,61.5999981201172,8|8,1:0|1:0,0:0:0:0:
236,233,276233,2,0,L|312:221,1,61.5999981201172,8|8,1:0|1:0,0:0:0:0:
375,213,276386,2,0,L|451:201,1,61.5999981201172,8|8,1:0|1:0,0:0:0:0:
512,193,276539,5,12,0:1:0:0:
363,12,276692,1,0,0:0:0:0:
363,12,276769,1,0,0:0:0:0:
363,12,276845,2,0,L|350:94,1,70.4,8|0,0:3|0:0,0:0:0:0:
149,12,276999,1,0,0:0:0:0:
149,12,277152,2,0,L|162:94,1,70.4,0|0,3:0|0:0,0:0:0:0:
429,132,277305,1,0,0:0:0:0:
429,132,277458,2,0,L|416:214,1,70.4,8|0,0:3|0:0,0:0:0:0:
335,163,277611,2,0,L|322:245,1,70.4
118,376,277764,6,0,L|82:167,1,211.2,0|0,3:0|0:0,0:0:0:0:
383,356,278070,2,0,L|394:286,1,70.4,8|0,0:3|0:0,0:0:0:0:
182,249,278223,1,0,0:0:0:0:
182,249,278376,2,0,L|170:179,1,70.4,0|0,3:0|0:0,0:0:0:0:
296,382,278529,1,0,0:0:0:0:
296,382,278682,2,0,L|307:312,1,70.4,8|0,0:3|0:0,0:0:0:0:
473,328,278835,2,0,L|484:258,1,70.4
372,196,278988,5,0,3:0:0:0:
385,114,279141,1,0,0:0:0:0:
142,196,279294,5,8,0:3:0:0:
129,114,279447,1,0,0:0:0:0:
380,209,279601,5,0,3:0:0:0:
393,127,279754,1,0,0:0:0:0:
129,210,279907,5,8,0:3:0:0:
116,128,280060,1,0,0:0:0:0:
254,90,280213,5,0,3:0:0:0:
321,157,280366,1,0,3:0:0:0:
253,225,280519,1,8,0:3:0:0:
185,157,280672,1,8,0:3:0:0:
258,241,280825,6,0,L|352:231,1,88,8|0,1:0|0:0,0:0:0:0:
235,319,280978,6,0,L|305:312,1,70.4,8|0,0:1|0:0,0:0:0:0:
353,242,281131,6,0,L|417:236,1,52.7999983886719,8|0,0:1|0:0,0:0:0:0:
315,324,281284,6,0,L|370:318,1,35.2,8|0,0:1|0:0,0:0:0:0:
510,384,281437,6,0,B|542:310|494:234|494:234|490:264|465:306,1,211.2,12|0,0:1|0:0,0:0:0:0:
426,336,281743,1,8,0:3:0:0:
146,311,281896,2,0,L|159:393,1,70.4
332,293,282050,1,0,3:0:0:0:
332,293,282203,2,0,L|319:375,1,70.4
187,169,282356,2,0,L|200:251,1,70.4,8|0,0:3|0:0,0:0:0:0:
102,157,282509,2,0,L|113:226,1,70.4
410,340,282662,6,0,L|442:131,1,211.2,0|0,3:0|0:0,0:0:0:0:
313,3,282968,2,0,L|301:72,1,70.4,8|0,0:3|0:0,0:0:0:0:
89,6,283121,1,0,0:0:0:0:
89,6,283274,2,0,L|100:75,1,70.4,0|0,3:0|0:0,0:0:0:0:
400,0,283427,1,0,0:0:0:0:
400,0,283580,2,0,L|388:69,1,70.4,8|0,0:3|0:0,0:0:0:0:
172,4,283733,2,0,L|183:73,1,70.4
324,203,283886,6,0,B|281:165|220:172|191:220|191:220|233:285,1,211.2,12|0,0:1|0:0,0:0:0:0:
263,340,284192,2,0,P|223:348|179:337,1,70.4,8|0,0:3|0:0,0:0:0:0:
67,160,284345,2,0,P|107:152|151:163,1,70.4,0|0,3:0|0:0,0:0:0:0:
335,290,284499,1,0,3:0:0:0:
355,286,284575,1,0,3:0:0:0:
375,282,284652,1,0,3:0:0:0:
395,280,284728,1,0,3:0:0:0:
416,277,284805,2,0,L|416:193,1,70.4,8|0,0:3|0:0,0:0:0:0:
362,47,284958,6,0,B|377:19|386:-16|386:-16|375:55|372:152,1,211.2,12|0,0:1|0:0,0:0:0:0:
340,200,285264,1,0,0:0:0:0:
272,23,285417,1,8,0:3:0:0:
456,131,285570,1,8,0:3:0:0:
468,136,285646,1,8,0:3:0:0:
480,141,285723,6,0,L|474:69,1,70.4,8|0,0:3|0:0,0:0:0:0:
258,175,285876,1,8,0:3:0:0:
246,180,285952,1,8,0:3:0:0:
234,185,286029,2,0,L|240:113,1,70.4,8|0,0:3|0:0,0:0:0:0:
146,219,286182,2,0,L|152:147,1,70.4,8|0,0:3|0:0,0:0:0:0:
73,101,286335,5,8,0:3:0:0:
0,151,286488,1,8,0:3:0:0:
5,164,286565,1,8,0:3:0:0:
11,175,286641,6,0,B|31:114|32:58|32:58|85:171|58:257,1,308,12|0,0:3|0:0,0:0:0:0:
54,259,287254,1,8,0:3:0:0:
151,372,287407,6,0,P|87:351|3:340,1,132,4|0,0:0|0:0,0:0:0:0:
7,356,287713,1,4,3:0:0:0:
143,274,287866,1,4,3:0:0:0:
249,315,288019,1,4,3:0:0:0:
325,292,288172,5,12,3:0:0:0:
347,307,288325,1,12,3:0:0:0:
461,304,288478,6,0,P|483:230|463:89,1,211.2,12|0,0:1|0:0,0:0:0:0:
403,51,288784,5,0,1:0:0:0:
398,64,288937,1,0,1:0:0:0:
309,53,289090,5,0,1:0:0:0:
293,92,289243,1,0,1:0:0:0:
206,55,289396,5,8,0:3:0:0:
178,119,289549,1,8,0:3:0:0:
106,55,289703,5,8,0:3:0:0:
66,145,289856,6,0,P|81:238|97:372,1,211.2,12|0,0:1|0:0,0:0:0:0:
308,171,290162,2,0,P|299:248|292:331,1,158.399995166016,8|0,0:1|0:0,0:0:0:0:
157,218,290468,2,0,P|160:244|165:296,1,52.7999983886719,8|0,0:1|0:0,0:0:0:0:
418,320,290621,1,8,0:3:0:0:
418,320,290698,1,8,0:3:0:0:
418,320,290774,6,0,P|420:273|406:320,1,131.99999597168,2|0,0:3|0:0,0:0:0:0:
429,342,291233,6,0,P|426:249|391:339,1,237.599992749024,12|0,0:1|0:0,0:0:0:0:
394,345,291539,5,8,0:3:0:0:
238,233,291692,1,2,0:0:0:0:
293,364,291845,1,0,3:0:0:0:
354,176,291999,1,2,0:0:0:0:
354,160,292075,1,2,0:0:0:0:
355,144,292152,1,8,0:3:0:0:
217,319,292305,1,0,0:0:0:0:
140,154,292458,6,0,P|146:206|149:273,1,105.599996777344,0|2,3:0|0:0,0:0:0:0:
429,240,292764,2,0,P|431:187|437:134,1,105.599996777344,8|2,0:3|0:0,0:0:0:0:
479,38,292993,1,2,0:0:0:0:
466,27,293070,2,0,P|381:9|306:10,1,158.399995166016,0|0,3:0|0:0,0:0:0:0:
297,19,293376,1,8,0:3:0:0:
341,254,293529,1,2,0:0:0:0:
341,254,293606,1,2,0:0:0:0:
341,254,293682,6,0,P|341:195|329:94,1,158.399995166016,4|0,3:0|0:0,0:0:0:0:
313,96,293988,1,8,0:3:0:0:
239,202,294141,2,0,L|129:192,1,105.599996777344,0|2,0:0|3:0,0:0:0:0:
117,92,294371,1,2,0:0:0:0:
123,77,294448,2,0,L|233:67,1,105.599996777344,0|8,0:0|0:3,0:0:0:0:
422,166,294754,1,2,0:0:0:0:
426,180,294830,1,2,0:0:0:0:
430,195,294907,6,0,L|439:124,1,52.7999983886719,0|0,3:0|0:0,0:0:0:0:
325,192,295060,2,0,L|331:244,1,52.7999983886719,0|0,3:0|0:0,0:0:0:0:
393,299,295213,5,8,0:3:0:0:
349,102,295366,1,0,0:0:0:0:
465,352,295519,6,0,P|385:335|303:325,1,158.399995166016,0|0,3:0|0:0,0:0:0:0:
238,374,295825,1,8,0:3:0:0:
208,384,295902,1,8,0:3:0:0:
176,379,295978,1,8,0:3:0:0:
150,359,296055,1,8,0:3:0:0:
143,328,296131,6,0,P|143:271|155:218,1,105.599996777344,4|0,3:0|0:0,0:0:0:0:
217,141,296437,1,8,0:3:0:0:
52,344,296590,2,0,P|37:288|35:234,1,105.599996777344,0|0,0:0|3:0,0:0:0:0:
145,41,296896,1,2,0:0:0:0:
152,55,296973,1,2,0:0:0:0:
160,68,297050,2,0,L|273:56,1,105.599996777344,8|0,0:3|0:0,0:0:0:0:
406,161,297356,6,0,P|350:143|296:170,1,105.599996777344,0|2,3:0|0:0,0:0:0:0:
422,298,297662,1,8,0:3:0:0:
493,126,297815,1,2,0:0:0:0:
493,126,297891,1,2,0:0:0:0:
493,126,297968,2,0,P|481:184|475:235,1,105.599996777344,0|0,3:0|0:0,0:0:0:0:
480,366,298274,1,8,0:3:0:0:
346,242,298427,1,2,0:0:0:0:
346,242,298504,1,2,0:0:0:0:
346,242,298580,5,8,0:1:0:0:
401,141,298733,1,0,0:0:0:0:
375,378,298886,1,8,0:3:0:0:
247,205,299039,1,0,0:0:0:0:
418,298,299192,6,0,P|466:286|525:278,1,105.599996777344,8|0,3:0|3:0,0:0:0:0:
488,165,299499,1,8,0:3:0:0:
299,326,299652,6,0,P|196:309|88:298,1,198.000007553101,10|0,0:1|0:0,0:0:0:0:
84,305,299958,2,0,P|78:276|88:217,1,66.0000025177003,8|0,0:3|0:0,0:0:0:0:
261,179,300111,2,0,P|263:211|257:244,1,66.0000025177003,8|0,0:3|0:0,0:0:0:0:
130,168,300264,1,8,0:1:0:0:
125,148,300340,1,8,0:1:0:0:
120,128,300417,1,8,0:1:0:0:
115,108,300493,1,8,0:1:0:0:
109,88,300570,6,0,L|10:77,1,66.0000025177003,0|0,3:0|0:0,0:0:0:0:
191,81,300723,2,0,L|92:70,1,66.0000025177003,0|0,3:0|0:0,0:0:0:0:
270,77,300876,2,0,L|171:66,1,66.0000025177003,0|0,3:0|0:0,0:0:0:0:
419,66,301029,6,0,B|365:66|338:26|333:27|333:27|297:64|294:117|345:177,1,237.599992749024,12|0,0:1|0:0,0:0:0:0:
345,167,301335,5,8,0:3:0:0:
276,257,301488,1,2,0:0:0:0:
434,160,301641,1,0,3:0:0:0:
396,271,301795,1,2,0:0:0:0:
396,255,301871,1,2,0:0:0:0:
397,239,301948,1,8,0:3:0:0:
243,132,302101,1,0,0:0:0:0:
327,339,302254,6,0,P|271:332|217:328,1,105.599996777344,0|0,3:0|0:0,0:0:0:0:
49,140,302560,2,0,P|101:135|154:129,1,105.599996777344,8|2,0:3|0:0,0:0:0:0:
181,237,302789,1,2,0:0:0:0:
191,249,302866,2,0,P|117:239|17:235,1,158.399995166016,0|0,3:0|0:0,0:0:0:0:
23,247,303172,1,8,0:3:0:0:
286,262,303325,1,2,0:0:0:0:
286,262,303402,1,2,0:0:0:0:
286,262,303478,6,0,B|307:157|307:157|278:88,1,158.399995166016,4|0,3:0|0:0,0:0:0:0:
273,100,303784,1,8,0:3:0:0:
374,227,303937,2,0,P|427:238|477:211,1,105.599996777344,0|2,0:0|3:0,0:0:0:0:
466,130,304167,1,2,0:0:0:0:
456,117,304243,2,0,P|447:77|457:4,1,105.599996777344,0|8,0:0|0:3,0:0:0:0:
238,188,304550,1,0,3:0:0:0:
225,198,304626,1,0,3:0:0:0:
213,209,304703,6,0,L|133:209,1,52.7999983886719,8|0,0:3|0:0,0:0:0:0:
131,91,304856,2,0,L|211:91,1,52.7999983886719,8|0,0:3|0:0,0:0:0:0:
321,157,305009,5,0,3:0:0:0:
245,22,305162,1,0,0:0:0:0:
373,91,305315,6,0,P|361:167|352:254,1,158.399995166016,8|0,0:3|0:0,0:0:0:0:
297,312,305621,1,8,0:3:0:0:
265,306,305698,1,8,0:3:0:0:
234,299,305774,1,8,0:3:0:0:
202,292,305851,1,8,0:3:0:0:
171,285,305927,5,0,1:3:0:0:
164,293,306080,1,0,1:3:0:0:
84,256,306233,1,0,1:3:0:0:
112,362,306386,1,0,1:3:0:0:
258,217,306539,1,0,1:3:0:0:
208,378,306692,1,0,1:3:0:0:
399,316,306845,5,8,0:3:0:0:
406,308,306998,1,8,0:3:0:0:
486,345,307151,1,8,0:3:0:0:
458,239,307304,1,8,0:3:0:0:
312,384,307457,1,8,0:3:0:0:
362,223,307610,1,8,0:3:0:0:
391,328,307764,6,0,L|403:383,1,52.7999983886719,8|8,0:3|0:3,0:0:0:0:
211,332,307917,2,0,L|223:387,1,52.7999983886719,8|8,0:3|0:3,0:0:0:0:
270,226,308070,1,8,0:3:0:0:
270,226,308376,6,0,L|188:214,3,52.7999983886719,0|0|0|0,3:0|3:0|3:0|3:0,0:0:0:0:
241,135,308682,2,0,L|159:123,1,52.7999983886719,8|0,0:3|0:0,0:0:0:0:
364,229,308835,6,0,L|446:217,3,52.7999983886719,0|0|0|0,3:0|3:0|3:0|3:0,0:0:0:0:
464,150,309141,1,0,3:0:0:0:
469,129,309218,1,0,3:0:0:0:
474,107,309294,2,0,L|487:43,1,52.7999983886719,8|0,0:3|0:0,0:0:0:0:
335,144,309448,1,0,3:0:0:0:
330,123,309525,1,0,3:0:0:0:
325,101,309601,6,0,L|312:37,1,52.7999983886719,8|0,0:3|0:0,0:0:0:0:
215,11,309754,1,0,3:0:0:0:
183,6,309830,1,0,3:0:0:0:
151,11,309907,1,0,3:0:0:0:
126,30,309983,1,0,3:0:0:0:
115,60,310060,1,0,3:0:0:0:
120,90,310136,1,0,3:0:0:0:
139,115,310213,6,0,L|197:109,1,52.7999983886719,8|0,0:3|0:0,0:0:0:0:
103,201,310366,2,0,L|161:195,1,52.7999983886719,8|0,0:3|0:0,0:0:0:0:
219,258,310519,1,0,0:0:0:0:
359,232,310672,1,8,0:3:0:0:
359,232,310749,1,8,0:3:0:0:
359,232,310825,6,0,B|399:185|461:224|461:224|508:121|498:23|389:5|357:58|357:58|352:103|417:141,1,501.599993876953,12|0,0:3|0:0,0:0:0:0:
407,115,312050,6,0,L|333:112,1,52.7999983886719,8|0,0:1|0:0,0:0:0:0:
261,167,312203,1,0,3:0:0:0:
255,181,312279,1,0,3:0:0:0:
248,195,312356,2,0,L|186:194,1,52.7999983886719,0|0,3:0|3:0,0:0:0:0:
134,137,312509,5,4,3:0:0:0:
49,144,312662,1,4,3:0:0:0:
18,222,312815,1,4,3:0:0:0:
74,284,312968,1,12,3:0:0:0:
190,206,313121,1,12,3:0:0:0:
83,298,313274,6,0,L|74:366,1,52.7999983886719,0|0,1:0|0:0,0:0:0:0:
199,219,313427,2,0,L|190:287,1,52.7999983886719,0|0,1:0|0:0,0:0:0:0:
91,336,313580,6,0,L|103:254,3,70.4,2|2|2|2,0:0|0:0|0:0|0:0,0:0:0:0:
429,298,314192,6,0,L|438:366,1,52.7999983886719,0|0,1:0|0:0,0:0:0:0:
313,219,314345,2,0,L|322:287,1,52.7999983886719,0|0,1:0|0:0,0:0:0:0:
421,336,314499,6,0,L|409:254,3,70.4,2|2|2|2,0:0|0:0|0:0|0:0,0:0:0:0:
297,190,315111,2,0,L|308:260,3,70.4,2|2|2|2,0:0|0:0|0:0|0:0,0:0:0:0:
89,66,315723,6,0,L|80:-2,1,52.7999983886719,0|0,1:0|0:0,0:0:0:0:
205,145,315876,2,0,L|196:77,1,52.7999983886719,0|0,1:0|0:0,0:0:0:0:
97,28,316029,6,0,L|109:110,3,70.4,2|2|2|2,0:0|0:0|0:0|0:0,0:0:0:0:
423,66,316641,6,0,L|432:-2,1,52.7999983886719,0|0,1:0|0:0,0:0:0:0:
307,145,316794,2,0,L|316:77,1,52.7999983886719,0|0,1:0|0:0,0:0:0:0:
415,28,316948,6,0,L|403:110,3,70.4,2|2|2|2,0:0|0:0|0:0|0:0,0:0:0:0:
386,184,317560,1,8,3:0:0:0:
386,184,318172,6,0,B|356:242|293:244|251:208|251:208|198:242|115:264|1:254|13:130|96:56|188:146|188:146|146:208|154:319,1,739.199977441407,12|0,1:0|0:0,0:0:0:0:
153,305,320621,6,0,P|255:321|385:312,1,211.2,4|0,3:0|0:0,0:0:0:0:
380,303,320927,1,8,0:3:0:0:
196,180,321080,2,0,P|294:211|424:223,1,211.2,4|0,3:0|0:0,0:0:0:0:
420,213,321386,1,8,0:3:0:0:
404,11,321539,6,0,P|302:-5|172:4,1,211.2,4|0,3:0|0:0,0:0:0:0:
177,13,321845,1,8,0:3:0:0:
361,136,321998,2,0,P|262:104|132:92,1,211.2,4|0,3:0|0:0,0:0:0:0:
137,103,322304,1,8,0:3:0:0:
74,235,322458,5,4,3:0:0:0:
171,314,322611,1,0,3:0:0:0:
181,288,322687,1,0,3:0:0:0:
181,259,322764,1,0,3:0:0:0:
281,277,322917,1,0,3:0:0:0:
281,263,322993,1,0,3:0:0:0:
276,249,323070,5,4,3:0:0:0:
355,277,323376,1,0,3:0:0:0:
433,245,323682,1,0,3:0:0:0:
445,161,323988,1,0,3:0:0:0:
276,249,324294,5,0,3:0:0:0:
359,255,324600,1,0,3:0:0:0:
426,204,324906,1,0,3:0:0:0:
416,120,325212,1,0,3:0:0:0:
276,249,325519,5,0,3:0:0:0:
357,233,325825,1,0,3:0:0:0:
409,166,326131,1,0,3:0:0:0:
377,88,326437,1,0,3:0:0:0:
276,249,326743,5,0,3:0:0:0:
350,212,327049,1,0,3:0:0:0:
382,134,327355,1,0,3:0:0:0:
245,16,327662,1,0,3:0:0:0:
149,95,327815,1,0,3:3:0:0:
155,107,327891,1,0,3:3:0:0:
160,117,327968,6,0,L|270:102,1,88,8|0,3:0|0:0,0:0:0:0:
155,198,328274,2,0,L|265:183,1,88,0|0,3:0|0:0,0:0:0:0:
144,284,328580,2,0,L|254:269,1,88,0|0,3:0|0:0,0:0:0:0:
139,365,328886,2,0,L|249:350,1,88,0|0,3:0|0:0,0:0:0:0:
427,272,329192,5,8,0:3:0:0:
425,289,329345,1,0,3:0:0:0:
332,243,329499,5,8,0:3:0:0:
352,336,329652,1,0,3:0:0:0:
512,232,329805,5,8,0:3:0:0:
486,348,329958,1,0,3:0:0:0:
321,226,330111,5,8,0:3:0:0:
346,352,330264,1,0,3:0:0:0:
416,178,330417,6,0,B|416:101|432:8|432:8|417:70|382:115,1,263.99999194336,12|0,0:1|0:0,0:0:0:0:
494,112,330876,1,0,3:0:0:0:
256,182,331029,6,0,B|256:105|240:12|240:12|255:74|290:119,1,263.99999194336,12|0,0:1|0:0,0:0:0:0:
178,116,331488,1,0,3:0:0:0:
168,121,331565,1,0,3:0:0:0:
159,127,331641,6,0,L|90:125,1,52.7999983886719,8|0,0:3|0:0,0:0:0:0:
167,209,331794,6,0,L|129:207,1,26.399999194336,8|0,0:3|0:0,0:0:0:0:
183,219,332101,6,0,L|145:217,1,26.399999194336,8|0,0:3|0:0,0:0:0:0:
199,229,332407,6,0,L|49:225,1,132,8|0,0:3|0:0,0:0:0:0:
0,284,332713,6,0,B|-21:336|33:372|33:372|69:375|106:349,1,158.399995166016,12|0,0:1|0:0,0:0:0:0:
101,346,333019,1,0,3:0:0:0:
240,292,333172,2,0,P|294:280|347:298,1,105.599996777344,8|0,0:3|0:0,0:0:0:0:
443,362,333478,1,0,3:0:0:0:
512,240,333631,1,0,3:0:0:0:
456,379,333784,1,0,3:0:0:0:
301,207,333937,6,0,P|293:274|288:365,1,158.399995166016,12|0,0:1|0:0,0:0:0:0:
301,380,334243,1,0,0:0:0:0:
150,266,334396,2,0,P|154:211|150:153,1,105.599996777344,8|0,0:3|0:0,0:0:0:0:
52,20,334702,1,0,3:0:0:0:
65,202,334855,1,0,3:0:0:0:
226,110,335008,1,0,3:0:0:0:
2,111,335161,6,0,P|78:103|164:53,1,158.399995166016,12|0,0:1|0:0,0:0:0:0:
156,45,335468,1,0,0:0:0:0:
342,58,335621,2,0,P|286:41|233:45,1,105.599996777344,8|0,0:3|0:0,0:0:0:0:
82,105,335927,1,0,3:0:0:0:
180,230,336080,1,0,3:0:0:0:
278,116,336233,1,0,3:0:0:0:
134,167,336386,6,0,B|186:138|230:173|230:173|279:211|342:167,1,211.199993554688,12|0,0:1|0:0,0:0:0:0:
348,162,336769,1,0,0:0:0:0:
358,144,336845,1,0,0:0:0:0:
180,230,336998,5,12,0:1:0:0:
278,116,337151,2,0,P|293:66|292:18,1,88
34,91,337457,1,8,0:3:0:0:
34,91,337534,1,8,0:3:0:0:
34,91,337611,6,0,P|34:169|56:245,1,158.399995166016,12|0,0:1|0:0,0:0:0:0:
125,291,337917,5,8,0:3:0:0:
155,255,337993,1,0,0:0:0:0:
199,239,338070,1,8,0:3:0:0:
245,248,338146,1,0,0:0:0:0:
281,278,338223,1,8,0:3:0:0:
319,304,338299,1,8,0:3:0:0:
366,308,338376,1,8,0:3:0:0:
409,289,338452,1,8,0:3:0:0:
438,252,338529,6,0,P|447:216|445:187,1,52.7999983886719,8|0,0:3|0:0,0:0:0:0:
404,71,338682,1,8,0:3:0:0:
404,71,338758,1,8,0:3:0:0:
404,71,338835,6,0,B|371:70|354:55|354:55|311:85|311:85|281:63|251:68,1,158.399995166016
230,101,339141,5,8,0:3:0:0:
192,74,339217,1,0,0:0:0:0:
146,68,339294,1,8,0:3:0:0:
102,86,339370,1,0,0:0:0:0:
73,123,339447,2,0,L|70:183,1,52.7999983886719,8|0,0:3|0:0,0:0:0:0:
257,239,339600,2,0,L|259:186,1,52.7999983886719,8|0,0:3|0:0,0:0:0:0:
164,158,339753,2,0,L|161:218,1,52.7999983886719,8|0,0:3|0:0,0:0:0:0:
352,267,339906,1,8,0:3:0:0:
11,327,340059,6,0,B|47:319|75:336|75:336|114:297|114:297|144:313|175:306,1,184.799994360352,12|0,0:1|0:0,0:0:0:0:
199,298,340366,1,0,3:0:0:0:
361,64,340519,2,0,B|385:50|385:50|416:59,1,52.7999983886719,2|0,0:0|0:0,0:0:0:0:
469,115,340672,6,0,B|475:180|475:180|450:234|450:234|458:300,1,184.799994360352,12|0,0:1|0:0,0:0:0:0:
470,314,340978,1,0,3:0:0:0:
185,115,341131,2,0,L|180:50,1,52.7999983886719,2|0,0:0|0:0,0:0:0:0:
255,21,341284,6,0,L|272:219,1,184.799994360352,12|0,0:1|0:0,0:0:0:0:
274,229,341590,1,0,3:0:0:0:
106,166,341743,1,0,3:0:0:0:
156,362,341896,1,0,3:0:0:0:
53,240,342049,5,8,0:3:0:0:
96,257,342125,1,8,0:3:0:0:
142,251,342202,1,8,0:3:0:0:
179,222,342278,1,8,0:3:0:0:
197,179,342355,1,0,3:0:0:0:
231,147,342431,1,0,3:0:0:0:
277,138,342508,1,0,3:0:0:0:
322,153,342584,1,0,3:0:0:0:
370,214,342661,5,2,0:0:0:0:
368,226,342967,5,2,0:0:0:0:
366,238,343273,5,2,0:0:0:0:
364,250,343579,5,0,3:0:0:0:
226,305,343732,2,0,B|159:317|159:317|108:270|108:270|31:285,1,211.199993554688,12|0,0:1|3:0,0:0:0:0:
200,153,344191,1,0,3:0:0:0:
204,173,344267,1,0,3:0:0:0:
197,192,344344,1,0,3:0:0:0:
201,212,344420,1,0,3:0:0:0:
194,231,344497,1,0,3:0:0:0:
93,178,344650,1,0,0:0:0:0:
320,42,344803,5,12,0:1:0:0:
305,185,344956,1,0,0:0:0:0:
434,354,345109,6,0,L|429:241,1,105.6,12|0,0:1|0:0,0:0:0:0:
426,227,345415,1,0,3:0:0:0:
381,162,345568,1,0,3:0:0:0:
305,185,345721,1,0,3:0:0:0:
304,265,345874,1,0,3:0:0:0:
228,288,346027,2,0,L|160:285,1,52.7999983886719,0|0,3:0|0:0,0:0:0:0:
109,333,346180,6,0,P|200:315|284:317,1,158.399995166016,12|0,0:1|0:0,0:0:0:0:
329,356,346486,1,8,0:3:0:0:
215,140,346639,1,0,3:0:0:0:
334,166,346792,5,8,0:3:0:0:
109,333,346945,1,8,0:3:0:0:
224,247,347557,6,0,L|218:175,4,70.4,0|0|0|0|0,0:2|0:0|0:0|0:0|0:0,0:0:0:0:
373,316,349011,1,0,0:0:0:0:
366,327,349087,6,0,L|421:323,1,52.8,0|0,3:0|0:0,0:0:0:0:
237,337,349240,2,0,L|292:333,1,52.8,0|0,3:0|0:0,0:0:0:0:
360,338,349393,6,0,L|419:333,1,52.7999983886719,0|0,3:0|0:0,0:0:0:0:
220,348,349546,2,0,L|279:343,1,52.7999983886719,0|0,3:0|0:0,0:0:0:0:
129,368,349699,1,0,3:0:0:0:
87,348,349775,1,0,3:0:0:0:
65,307,349852,1,0,3:0:0:0:
72,261,349928,1,0,3:0:0:0:
108,223,350005,6,0,B|125:138|53:166|73:74,1,158.399995166016,12|0,0:1|0:0,0:0:0:0:
105,13,350312,1,8,0:3:0:0:
33,201,350465,1,2,0:0:0:0:
284,128,350618,5,0,3:0:0:0:
148,100,350771,2,0,L|199:97,2,44,2|2|8,0:0|0:0|0:3,0:0:0:0:
388,302,351077,1,2,0:0:0:0:
388,302,351153,1,2,0:0:0:0:
388,302,351230,6,0,L|394:203,1,88,0|0,3:0|0:0,0:0:0:0:
154,206,351536,2,0,L|148:107,1,88,10|0,0:3|0:0,0:0:0:0:
148,100,351766,1,2,0:0:0:0:
148,100,351842,2,0,B|184:105|208:76|208:76|248:117|313:105,1,158.399995166016,0|0,3:0|0:0,0:0:0:0:
363,91,352148,5,8,0:3:0:0:
58,41,352301,1,2,0:0:0:0:
58,41,352378,1,2,0:0:0:0:
58,41,352454,6,0,B|20:113|20:113|75:190,1,158.399995166016,4|0,3:0|0:0,0:0:0:0:
121,336,352761,2,0,L|118:245,1,88,8|2,0:3|0:0,0:0:0:0:
118,230,352990,1,2,0:0:0:0:
118,230,353067,1,0,3:0:0:0:
302,287,353220,6,0,L|394:282,1,88,0|8,0:0|0:3,0:0:0:0:
238,187,353526,1,2,0:0:0:0:
238,187,353602,1,2,0:0:0:0:
238,187,353679,6,0,L|233:256,1,52.7999983886719,0|0,3:0|0:0,0:0:0:0:
227,318,353832,2,0,L|222:387,1,52.7999983886719,0|0,3:0|0:0,0:0:0:0:
389,282,353985,5,8,0:3:0:0:
137,334,354138,1,0,0:0:0:0:
112,137,354291,2,0,B|162:149|198:122|198:122|162:149|163:196,1,158.399995166016,0|0,3:0|0:0,0:0:0:0:
238,187,354597,1,8,0:3:0:0:
267,153,354673,1,8,0:3:0:0:
309,140,354750,1,8,0:3:0:0:
351,149,354826,1,8,0:3:0:0:
384,178,354903,6,0,P|381:117|392:66,1,105.599996777344,4|2,3:0|0:0,0:0:0:0:
312,224,355210,1,8,0:3:0:0:
137,58,355363,2,0,P|114:51|82:46,2,52.7999983886719,2|2|0,0:0|0:0|3:0,0:0:0:0:
133,266,355669,2,0,P|89:254|14:247,1,105.599996777344,0|8,0:0|0:3,0:0:0:0:
478,346,355975,6,0,B|435:350|411:340|411:340|388:353|388:353|354:337|320:350,1,158.399995166016
254,377,356281,1,2,0:0:0:0:
456,254,356434,1,8,0:3:0:0:
227,207,356587,1,2,0:0:0:0:
406,182,356740,6,0,P|449:166|500:176,1,88,0|2,3:0|0:0,0:0:0:0:
259,287,357046,2,0,P|215:292|175:276,1,88,8|0,0:3|0:0,0:0:0:0:
108,138,357276,1,0,3:0:0:0:
116,120,357352,6,0,B|130:253|62:181|79:334,1,198.000007553101,4|0,3:0|0:0,0:0:0:0:
30,157,357659,2,0,L|28:88,1,66.0000025177003,8|0,0:3|0:0,0:0:0:0:
175,276,357812,2,0,L|176:341,1,66.0000025177003,8|0,0:3|0:0,0:0:0:0:
386,343,357965,5,8,0:3:0:0:
415,308,358042,1,8,0:3:0:0:
423,263,358118,1,8,0:3:0:0:
408,220,358195,1,8,0:3:0:0:
390,178,358271,1,0,3:0:0:0:
407,137,358348,1,0,3:0:0:0:
465,180,358424,6,0,B|308:174|308:174|290:195|260:204,1,198.000007553101,4|0,3:0|0:0,0:0:0:0:
231,332,358730,2,0,L|236:264,1,66.0000025177003,8|0,0:3|0:0,0:0:0:0:
245,126,358883,1,8,0:3:0:0:
339,269,359036,1,0,0:0:0:0:
116,175,359189,5,0,3:0:0:0:
118,221,359266,1,0,3:0:0:0:
120,266,359342,1,0,3:0:0:0:
122,312,359419,1,0,3:0:0:0:
124,357,359495,1,8,0:3:0:0:
321,88,359648,6,0,L|326:11,1,66.0000025177003
245,126,359801,1,0,3:0:0:0:
243,133,359954,5,8,0:3:0:0:
241,141,360031,1,8,0:3:0:0:
240,149,360108,6,0,B|214:132|215:93|215:93|193:127|166:152|131:160|84:157|50:124,1,237.599992749024,12|0,0:1|0:0,0:0:0:0:
50,150,360414,6,0,P|19:111|34:46,1,105.599996777344,0|2,3:0|0:0,0:0:0:0:
40,42,360643,1,2,0:0:0:0:
39,42,360720,1,8,0:3:0:0:
333,157,360873,2,0,L|322:228,1,52.7999983886719
289,281,361026,5,0,3:0:0:0:
309,66,361179,1,2,0:0:0:0:
418,253,361332,1,8,0:3:0:0:
221,164,361485,1,2,0:0:0:0:
431,120,361638,5,2,3:2:0:0:
427,129,361715,1,2,0:0:0:0:
423,138,361791,1,2,0:0:0:0:
419,147,361868,1,2,0:0:0:0:
415,156,361944,2,0,B|362:153,1,52.7999983886719,8|0,0:3|0:0,0:0:0:0:
170,242,362097,2,0,B|117:244,1,52.7999983886719,8|0,0:3|0:0,0:0:0:0:
277,91,362250,6,0,B|218:197|325:193|248:329,1,211.2,4|0,3:0|0:0,0:0:0:0:
253,314,362557,1,8,0:3:0:0:
166,134,362710,1,2,0:0:0:0:
166,134,362786,1,2,0:0:0:0:
166,134,362863,2,0,L|164:73,1,52.7999983886719,0|0,3:0|0:0,0:0:0:0:
375,251,363016,2,0,P|371:289|346:362,1,105.599996777344,0|8,0:0|0:3,0:0:0:0:
32,256,363322,1,0,3:0:0:0:
69,238,363398,1,0,3:0:0:0:
111,242,363475,5,0,3:0:0:0:
144,267,363551,1,0,3:0:0:0:
159,306,363628,2,0,P|157:340|145:365,1,52.7999983886719,0|0,3:0|0:0,0:0:0:0:
84,319,363781,5,8,0:3:0:0:
65,90,363934,1,0,0:0:0:0:
84,319,364087,2,0,L|89:194,1,105.599996777344,0|0,3:0|0:0,0:0:0:0:
208,28,364393,1,8,0:3:0:0:
220,68,364470,1,8,0:3:0:0:
203,105,364546,1,8,0:3:0:0:
215,146,364623,1,8,0:3:0:0:
198,183,364699,6,0,B|225:181|225:181|230:188|230:188|233:180|233:180|386:169,1,198.000007553101,12|0,0:1|0:0,0:0:0:0:
467,161,365005,5,0,0:0:0:0:
247,294,365159,1,0,1:0:0:0:
439,81,365312,5,0,1:0:0:0:
328,284,365465,1,0,1:0:0:0:
411,1,365618,5,0,1:0:0:0:
409,274,365771,1,0,1:0:0:0:
100,42,365924,6,0,L|93:106,1,52.7999983886719,8|0,0:3|0:0,0:0:0:0:
70,292,366077,1,8,0:3:0:0:
29,225,366230,5,8,0:3:0:0:
313,188,366383,1,8,0:3:0:0:
233,200,366536,6,0,L|229:147,1,52.7999983886719,8|0,0:3|0:0,0:0:0:0:
495,264,366689,2,0,L|498:316,1,52.7999983886719,8|0,0:3|0:0,0:0:0:0:
375,39,366842,1,8,0:3:0:0:
375,39,367148,6,0,L|369:109,3,52.7999983886719,0|0|0|0,3:0|3:0|3:0|3:0,3:0:0:0:
443,115,367454,2,0,L|437:185,1,52.7999983886719,8|0,0:3|0:0,0:0:0:0:
377,335,367608,6,0,P|366:305|365:274,3,52.7999983886719,0|0|0|0,3:0|3:0|3:0|3:0,3:0:0:0:
286,294,367914,2,0,P|287:262|298:233,1,52.7999983886719,8|0,0:3|0:0,0:0:0:0:
334,171,368067,5,8,0:3:0:0:
163,302,368220,1,0,3:0:0:0:
127,324,368296,1,0,3:0:0:0:
85,327,368373,1,0,3:0:0:0:
47,309,368449,1,0,3:0:0:0:
22,276,368526,2,0,L|21:220,3,52.7999983886719,0|0|0|0,3:0|3:0|3:0|3:0,3:0:0:0:
66,162,368832,2,0,L|65:106,1,52.7999983886719,8|0,0:3|0:0,0:0:0:0:
40,38,368985,5,0,0:0:0:0:
323,128,369291,1,0,0:0:0:0:
256,180,369444,1,8,0:3:0:0:
241,157,369521,1,8,0:3:0:0:
239,133,369597,6,0,B|234:50|315:0|408:23|425:86|433:143|420:184|362:210|338:214|338:214|319:244|314:297|377:345,1,528,12|0,0:3|3:0,0:0:0:0:
361,331,370975,1,8,0:3:0:0:
55,192,371740,6,0,B|230:173|230:173|233:165|233:165|237:172|237:172|253:171|253:171|258:178|258:178|261:170|261:170|313:164|313:164|316:156|316:156|321:163|321:163|324:155|324:155|329:163|329:163|357:160,1,334.4,2|0,0:0|0:0,0:0:0:0:
423,152,373271,6,0,P|433:88|420:24,1,123.199996240234,12|0,0:1|0:0,0:0:0:0:
341,41,373500,1,0,0:0:0:0:
329,55,373577,2,0,P|274:71|202:59,1,123.199996240234,8|0,0:3|0:0,0:0:0:0:
74,16,373883,1,0,3:0:0:0:
6,127,374036,5,2,0:0:0:0:
21,160,374113,1,2,0:0:0:0:
37,192,374189,2,0,L|120:184,1,61.5999981201172,8|0,0:3|0:0,0:0:0:0:
188,178,374342,2,0,L|271:170,1,61.5999981201172
311,244,374495,5,0,3:0:0:0:
327,354,374648,1,0,0:0:0:0:
436,338,374801,1,8,0:3:0:0:
421,228,374954,1,0,0:0:0:0:
430,376,375108,5,0,3:0:0:0:
453,230,375261,1,0,0:0:0:0:
307,206,375414,1,8,0:3:0:0:
284,353,375567,1,8,0:3:0:0:
298,341,375643,1,8,0:3:0:0:
313,330,375720,6,0,P|250:313|178:335,1,123.199996240234,4|0,3:0|0:0,0:0:0:0:
112,369,375949,1,0,0:0:0:0:
97,357,376026,2,0,P|82:291|90:237,1,123.199996240234,8|0,0:3|0:0,0:0:0:0:
202,102,376332,1,0,3:0:0:0:
388,124,376485,1,2,0:0:0:0:
370,157,376562,1,2,0:0:0:0:
352,189,376638,6,0,L|285:180,1,61.5999981201172,8|0,0:3|0:0,0:0:0:0:
210,189,376791,2,0,L|143:180,1,61.5999981201172
11,123,376944,5,0,3:0:0:0:
1,17,377097,1,0,0:0:0:0:
105,8,377250,1,8,0:3:0:0:
115,112,377403,1,0,0:0:0:0:
124,24,377557,5,0,3:0:0:0:
0,39,377710,1,0,0:0:0:0:
196,75,377863,1,8,0:3:0:0:
213,78,377939,1,8,0:3:0:0:
231,81,378016,1,8,0:3:0:0:
248,85,378092,1,8,0:3:0:0:
266,88,378169,6,0,P|328:120|395:107,1,123.199996240234,4|0,3:0|0:0,0:0:0:0:
451,53,378398,1,0,0:0:0:0:
466,63,378475,2,0,P|466:115|450:186,1,123.199996240234,8|0,0:3|0:0,0:0:0:0:
358,308,378781,1,0,3:0:0:0:
280,183,378934,1,2,0:0:0:0:
244,173,379011,1,2,0:0:0:0:
209,161,379087,6,0,L|224:228,1,61.5999981201172,8|0,0:3|0:0,0:0:0:0:
237,303,379240,2,0,L|252:370,1,61.5999981201172
367,346,379393,5,0,3:0:0:0:
383,236,379546,1,0,0:0:0:0:
492,252,379699,1,8,0:3:0:0:
477,362,379852,1,0,0:0:0:0:
486,214,380005,5,0,3:0:0:0:
509,360,380159,1,0,0:0:0:0:
363,384,380312,1,8,0:3:0:0:
340,237,380465,1,8,0:3:0:0:
354,249,380541,1,8,0:3:0:0:
367,261,380618,6,0,P|300:260|227:247,1,123.199996240234,4|0,3:0|0:0,0:0:0:0:
140,228,380847,1,0,0:0:0:0:
156,236,380924,2,0,P|167:294|163:361,1,123.199996240234,8|0,0:3|0:0,0:0:0:0:
278,346,381230,1,0,3:0:0:0:
177,145,381383,1,2,0:0:0:0:
214,141,381460,1,2,0:0:0:0:
250,137,381536,6,0,L|316:129,1,61.5999981201172,8|0,0:3|0:0,0:0:0:0:
380,177,381689,2,0,L|446:169,1,61.5999981201172
505,93,381842,5,4,3:0:0:0:
379,29,381995,1,0,3:0:0:0:
379,29,382072,1,0,3:0:0:0:
379,29,382148,2,0,P|379:66|394:107,1,61.5999981201172,0|0,3:0|3:0,0:0:0:0:
298,250,382301,5,0,3:0:0:0:
260,243,382378,1,0,3:0:0:0:
217,234,382454,1,0,3:0:0:0:
183,206,382531,5,0,3:0:0:0:
154,193,382608,1,0,3:0:0:0:
123,194,382684,1,0,3:0:0:0:
75,223,382761,5,8,0:3:0:0:
67,277,382837,1,8,0:3:0:0:
101,328,382914,1,8,0:3:0:0:
162,332,382990,1,8,0:3:0:0:
211,276,383067,6,0,P|200:199|204:118,1,123.199996240234,4|0,3:0|0:0,0:0:0:0:
309,274,383296,1,0,0:0:0:0:
305,254,383373,2,0,P|304:224|321:129,1,123.199996240234,8|0,0:3|0:0,0:0:0:0:
485,99,383679,1,0,3:0:0:0:
289,26,383832,1,2,0:0:0:0:
255,42,383909,1,2,0:0:0:0:
222,59,383985,6,0,L|148:51,1,61.5999981201172,8|0,0:3|0:0,0:0:0:0:
87,126,384138,2,0,L|13:118,1,61.5999981201172
28,342,384291,5,0,3:0:0:0:
44,232,384444,1,0,0:0:0:0:
153,248,384597,1,8,0:3:0:0:
138,358,384750,1,0,0:0:0:0:
147,210,384904,5,0,3:0:0:0:
170,356,385057,1,0,0:0:0:0:
24,380,385210,1,8,0:3:0:0:
1,233,385363,1,8,0:3:0:0:
15,245,385439,1,8,0:3:0:0:
29,256,385516,6,0,P|84:274|173:285,1,123.199996240234,0|0,3:0|0:0,0:0:0:0:
231,215,385745,1,0,0:0:0:0:
244,201,385822,2,0,P|301:199|353:245,1,123.199996240234,8|0,0:3|0:0,0:0:0:0:
304,108,386128,1,0,3:0:0:0:
275,285,386281,1,2,0:0:0:0:
286,320,386358,1,2,0:0:0:0:
298,354,386434,6,0,L|372:353,1,61.5999981201172,8|0,0:3|0:0,0:0:0:0:
423,286,386587,2,0,L|497:285,1,61.5999981201172
501,177,386740,5,0,3:0:0:0:
511,71,386893,1,0,0:0:0:0:
407,62,387046,1,8,0:3:0:0:
397,166,387199,1,0,0:0:0:0:
388,78,387353,5,0,3:0:0:0:
512,93,387506,1,0,0:0:0:0:
305,141,387659,1,8,0:3:0:0:
309,158,387735,1,8,0:3:0:0:
313,176,387812,1,8,0:3:0:0:
316,193,387888,1,8,0:3:0:0:
320,211,387965,6,0,P|255:211|185:201,1,123.199996240234,4|0,3:0|0:0,0:0:0:0:
130,149,388194,1,0,0:0:0:0:
122,132,388271,2,0,P|119:100|161:20,1,123.199996240234,8|0,0:3|0:0,0:0:0:0:
310,54,388577,1,0,3:0:0:0:
409,183,388730,1,2,0:0:0:0:
403,219,388807,1,2,0:0:0:0:
395,254,388883,6,0,L|410:333,1,61.5999981201172,8|0,0:3|0:0,0:0:0:0:
487,261,389036,2,0,L|502:340,1,61.5999981201172
291,356,389189,5,0,3:0:0:0:
306,246,389342,1,0,0:0:0:0:
197,230,389495,1,8,0:3:0:0:
181,340,389648,1,0,0:0:0:0:
168,243,389802,5,0,3:0:0:0:
177,378,389955,1,0,0:0:0:0:
323,354,390108,1,8,0:3:0:0:
300,208,390261,1,8,0:3:0:0:
293,225,390337,1,8,0:3:0:0:
286,241,390414,6,0,P|279:179|279:129,1,105.599996777344,0|0,3:0|0:0,0:0:0:0:
438,37,390720,1,8,0:3:0:0:
357,10,390873,1,0,0:0:0:0:
199,111,391026,1,8,0:3:0:0:
118,84,391179,1,0,3:0:0:0:
118,84,391255,1,0,3:0:0:0:
118,84,391332,1,8,0:3:0:0:
232,245,391485,1,0,0:0:0:0:
269,49,391638,5,8,0:3:0:0:
128,169,391791,1,0,0:0:0:0:
181,21,391944,5,8,0:3:0:0:
288,142,392097,1,0,3:0:0:0:
288,142,392174,1,0,3:0:0:0:
288,142,392250,6,0,L|210:133,1,52.7999983886719,8|0,0:3|0:0,0:0:0:0:
353,162,392403,2,0,L|275:153,1,52.7999983886719,8|0,0:3|0:0,0:0:0:0:
418,183,392557,2,0,L|340:174,1,52.7999983886719,8|0,0:3|0:0,0:0:0:0:
427,195,392710,6,0,B|397:396|112:406|23:193|110:-36|351:-10|397:95|397:95|376:101|348:124|336:152,1,871.199973413087,12|0,0:1|0:0,0:0:0:0:
