osu file format v14

[General]
AudioFilename: audio3.mp3
AudioLeadIn: 0
PreviewTime: 121328
Countdown: 0
SampleSet: Normal
StackLeniency: 1
Mode: 0
LetterboxInBreaks: 1
WidescreenStoryboard: 1

[Editor]
DistanceSpacing: 0.6
BeatDivisor: 4
GridSize: 32
TimelineZoom: 1.8

[Metadata]
Title:STREAM TRAINING
TitleUnicode:STREAM TRAINING
Artist:Various artists
ArtistUnicode:Various artists
Creator:waywern2012
Version:STREAM LEVEL 3
Source:東方Project
Tags:butterfly little u.n.オーエンは彼女なのか? zun touhou project eosd remix contest t+pazolite Electric "Sister" Bitch Cirno Break flandre stream deathstream training leaf version 3rd eye in breast the 2hu satori komeiji scarlet SOUND VOLTEX INFINITE INFECTION 2 practice
BeatmapID:1020238
BeatmapSetID:464894

[Difficulty]
HPDrainRate:4
CircleSize:4
OverallDifficulty:8
ApproachRate:9.9
SliderMultiplier:3
SliderTickRate:1

[Events]
//Background and Video events
0,0,"SatoriKEK.jpeg",0,0
//Break Periods
//Storyboard Layer 0 (Background)
//Storyboard Layer 1 (Fail)
//Storyboard Layer 2 (Pass)
//Storyboard Layer 3 (Foreground)
//Storyboard Sound Samples

[TimingPoints]
463,288.461538461538,4,1,0,100,1,0
463,-100,4,1,0,5,0,0
8251,-100,4,1,0,40,0,0
27001,-100,4,1,0,60,0,0
45462,-100,4,1,0,80,0,0
73011,-100,4,1,0,95,0,1
100703,-100,4,1,0,85,0,0
121472,-100,4,1,0,100,0,1
149164,-100,4,1,0,90,0,0

[Colours]
Combo1 : 255,255,255
Combo2 : 255,0,0
Combo3 : 255,45,45
Combo4 : 255,89,89
Combo5 : 255,147,147

[HitObjects]
263,259,463,5,0,0:0:0:0:
266,262,511,1,0,0:0:0:0:
268,266,559,1,0,0:0:0:0:
271,269,607,1,0,0:0:0:0:
274,272,655,2,0,L|334:333,1,50
336,176,895,1,0,0:0:0:0:
339,172,943,1,0,0:0:0:0:
343,169,991,1,0,0:0:0:0:
347,166,1039,1,0,0:0:0:0:
350,163,1087,2,0,L|407:104,1,50
199,114,2770,5,0,0:2:0:0:
196,118,2818,1,0,0:2:0:0:
194,122,2866,1,0,0:2:0:0:
192,126,2914,1,0,0:2:0:0:
189,130,2962,2,0,L|152:202,1,50
306,50,3203,1,0,0:0:0:0:
302,47,3251,1,0,0:0:0:0:
298,45,3299,1,0,0:0:0:0:
293,43,3347,1,0,0:0:0:0:
288,40,3395,2,0,L|236:7,1,50
67,159,5078,5,0,0:0:0:0:
70,155,5126,1,0,0:0:0:0:
73,151,5174,1,0,0:0:0:0:
76,147,5222,1,0,0:0:0:0:
78,142,5270,2,0,L|131:68,1,50
156,273,5511,1,0,0:0:0:0:
160,274,5559,1,0,0:0:0:0:
164,275,5607,1,0,0:0:0:0:
168,276,5655,1,0,0:0:0:0:
172,277,5703,2,0,L|249:293,1,50
325,75,7386,5,0,0:0:0:0:
328,78,7434,1,0,0:0:0:0:
331,81,7482,1,0,0:0:0:0:
334,84,7530,1,0,0:0:0:0:
337,87,7578,2,0,L|402:150,1,50
253,220,7818,1,0,0:0:0:0:
257,219,7866,1,0,0:0:0:0:
261,218,7914,1,0,0:0:0:0:
265,217,7962,1,0,0:0:0:0:
269,214,8011,2,0,L|360:192,1,50
115,101,8539,5,0,0:0:0:0:
147,80,8612,1,0,0:0:0:0:
183,71,8684,2,0,P|260:71|293:82,1,75
380,122,8828,1,0,0:0:0:0:
353,148,8900,1,0,0:0:0:0:
318,161,8972,2,0,P|256:177|235:215,1,75
116,199,9116,1,0,0:0:0:0:
136,230,9188,1,0,0:0:0:0:
147,266,9261,1,0,0:0:0:0:
165,298,9333,1,0,0:0:0:0:
198,314,9405,1,0,0:0:0:0:
235,313,9477,1,0,0:0:0:0:
270,300,9549,2,0,P|356:247|393:248,1,75
409,114,9693,5,0,0:0:0:0:
417,125,9741,1,0,0:0:0:0:
427,134,9789,1,0,0:0:0:0:
437,138,9837,2,0,P|483:133|503:94,1,75
336,16,9982,1,0,0:0:0:0:
300,28,10054,1,0,0:0:0:0:
275,56,10126,1,0,0:0:0:0:
267,67,10174,1,0,0:0:0:0:
257,76,10222,1,0,0:0:0:0:
247,80,10270,2,0,P|201:75|181:36,1,75
61,71,10414,1,0,0:0:0:0:
94,87,10487,1,0,0:0:0:0:
121,111,10559,1,0,0:0:0:0:
143,141,10631,1,0,0:0:0:0:
157,175,10703,2,0,P|205:212|249:213,1,75
311,142,10847,5,0,0:0:0:0:
343,159,10919,1,0,0:0:0:0:
363,190,10991,1,0,0:0:0:0:
373,225,11063,1,0,0:0:0:0:
361,261,11136,1,0,0:0:0:0:
340,292,11208,1,0,0:0:0:0:
305,307,11280,2,0,P|250:339|238:373,1,75
83,275,11424,1,0,0:0:0:0:
114,254,11496,1,0,0:0:0:0:
126,218,11568,1,0,0:0:0:0:
123,180,11640,1,0,0:0:0:0:
106,146,11712,1,0,0:0:0:0:
105,108,11785,1,0,0:0:0:0:
122,75,11857,2,0,P|175:34|211:39,1,75
297,123,12001,5,0,0:0:0:0:
314,131,12049,1,0,0:0:0:0:
329,126,12097,1,0,0:0:0:0:
341,114,12145,2,0,P|356:79|400:59,1,75
457,170,12289,1,0,0:0:0:0:
472,204,12362,1,0,0:0:0:0:
460,239,12434,1,0,0:0:0:0:
450,245,12482,1,0,0:0:0:0:
437,243,12530,1,0,0:0:0:0:
426,235,12578,2,0,P|376:206|327:221,1,75
164,231,12722,1,0,0:0:0:0:
186,261,12794,1,0,0:0:0:0:
216,283,12866,1,0,0:0:0:0:
251,295,12938,1,0,0:0:0:0:
288,287,13011,2,0,P|347:291|408:323,1,75
334,78,13155,5,0,0:0:0:0:
301,96,13227,1,0,0:0:0:0:
263,100,13299,1,0,0:0:0:0:
229,84,13371,1,0,0:0:0:0:
204,55,13443,2,0,P|151:24|77:38,1,75
45,156,13587,1,0,0:0:0:0:
79,140,13660,1,0,0:0:0:0:
116,140,13732,1,0,0:0:0:0:
152,149,13804,1,0,0:0:0:0:
182,171,13876,2,0,P|245:204|277:200,1,75
84,259,14020,1,0,0:0:0:0:
120,269,14092,1,0,0:0:0:0:
148,292,14164,2,0,P|216:316|246:309,1,75
387,260,14309,5,0,0:0:0:0:
379,271,14357,1,0,0:0:0:0:
369,280,14405,1,0,0:0:0:0:
359,284,14453,2,0,P|313:279|293:240,1,75
321,73,14598,1,0,0:0:0:0:
336,110,14670,1,0,0:0:0:0:
321,141,14742,1,0,0:0:0:0:
313,152,14790,1,0,0:0:0:0:
303,161,14838,1,0,0:0:0:0:
293,165,14886,2,0,P|247:160|227:121,1,75
95,86,15030,1,0,0:0:0:0:
113,117,15103,1,0,0:0:0:0:
123,152,15175,1,0,0:0:0:0:
125,189,15247,1,0,0:0:0:0:
118,225,15319,2,0,P|138:282|174:306,1,75
236,204,15462,5,0,0:0:0:0:
271,218,15535,1,0,0:0:0:0:
308,222,15607,1,0,0:0:0:0:
344,212,15679,1,0,0:0:0:0:
373,188,15751,1,0,0:0:0:0:
390,155,15823,1,0,0:0:0:0:
385,117,15895,1,0,0:0:0:0:
365,84,15967,1,0,0:0:0:0:
335,61,16039,1,0,0:0:0:0:
298,50,16112,1,0,0:0:0:0:
260,50,16184,2,0,P|209:24|152:52,1,75
65,111,16328,1,0,0:0:0:0:
102,106,16400,1,0,0:0:0:0:
137,117,16472,2,0,P|196:135|224:130,1,75
174,270,16616,5,0,0:0:0:0:
188,266,16664,1,0,0:0:0:0:
202,262,16712,1,0,0:0:0:0:
216,258,16761,2,0,L|318:225,1,75
457,170,16905,1,0,0:0:0:0:
470,216,16977,1,0,0:0:0:0:
455,258,17049,1,0,0:0:0:0:
441,264,17097,1,0,0:0:0:0:
427,270,17145,1,0,0:0:0:0:
413,277,17193,2,0,L|332:314,1,75
220,180,17337,1,0,0:0:0:0:
259,157,17410,1,0,0:0:0:0:
303,152,17482,1,0,0:0:0:0:
347,150,17554,1,0,0:0:0:0:
391,145,17626,2,0,P|453:98|461:63,1,75
348,12,17770,5,0,0:0:0:0:
306,28,17842,1,0,0:0:0:0:
261,32,17914,1,0,0:0:0:0:
215,26,17987,1,0,0:0:0:0:
170,24,18059,1,0,0:0:0:0:
125,29,18131,1,0,0:0:0:0:
84,49,18203,1,0,0:0:0:0:
57,85,18275,1,0,0:0:0:0:
42,127,18347,1,0,0:0:0:0:
43,171,18419,1,0,0:0:0:0:
52,214,18491,1,0,0:0:0:0:
77,250,18563,1,0,0:0:0:0:
114,275,18636,1,0,0:0:0:0:
157,284,18708,1,0,0:0:0:0:
200,271,18780,2,0,P|286:253|321:266,1,75
161,132,18924,5,0,0:0:0:0:
193,101,18996,1,0,0:0:0:0:
231,77,19068,1,0,0:0:0:0:
274,64,19140,1,0,0:0:0:0:
318,57,19212,1,0,0:0:0:0:
363,57,19285,1,0,0:0:0:0:
406,70,19357,1,0,0:0:0:0:
450,74,19429,1,0,0:0:0:0:
489,53,19501,1,0,0:0:0:0:
478,96,19573,1,0,0:0:0:0:
459,137,19645,1,0,0:0:0:0:
426,168,19717,1,0,0:0:0:0:
388,192,19789,1,0,0:0:0:0:
343,202,19862,1,0,0:0:0:0:
301,220,19934,2,0,P|246:259|230:280,1,75
336,105,20078,5,0,0:0:0:0:
304,72,20150,1,0,0:0:0:0:
263,52,20222,1,0,0:0:0:0:
219,39,20294,1,0,0:0:0:0:
174,40,20366,1,0,0:0:0:0:
132,57,20438,1,0,0:0:0:0:
105,94,20511,2,0,P|80:144|31:162,1,75
35,293,20655,1,0,0:0:0:0:
66,260,20727,1,0,0:0:0:0:
104,236,20799,1,0,0:0:0:0:
146,222,20871,1,0,0:0:0:0:
190,219,20943,1,0,0:0:0:0:
234,226,21015,1,0,0:0:0:0:
278,228,21087,2,0,P|347:207|362:190,1,75
232,110,21232,5,0,0:0:0:0:
272,90,21304,1,0,0:0:0:0:
316,86,21376,1,0,0:0:0:0:
359,95,21448,1,0,0:0:0:0:
398,115,21520,1,0,0:0:0:0:
428,148,21592,1,0,0:0:0:0:
449,187,21664,1,0,0:0:0:0:
460,231,21737,1,0,0:0:0:0:
461,275,21809,1,0,0:0:0:0:
417,264,21881,1,0,0:0:0:0:
372,259,21953,1,0,0:0:0:0:
327,263,22025,1,0,0:0:0:0:
284,276,22097,1,0,0:0:0:0:
247,301,22169,1,0,0:0:0:0:
208,323,22241,2,0,P|131:338|63:325,1,75
193,193,22386,5,0,0:0:0:0:
222,159,22458,1,0,0:0:0:0:
236,116,22530,1,0,0:0:0:0:
223,72,22602,1,0,0:0:0:0:
192,38,22674,1,0,0:0:0:0:
149,22,22746,1,0,0:0:0:0:
104,25,22818,1,0,0:0:0:0:
61,39,22890,1,0,0:0:0:0:
16,38,22962,1,0,0:0:0:0:
43,74,23035,1,0,0:0:0:0:
61,114,23107,1,0,0:0:0:0:
68,158,23179,1,0,0:0:0:0:
59,202,23251,1,0,0:0:0:0:
46,245,23323,1,0,0:0:0:0:
39,289,23395,2,0,P|64:332|102:350,1,75
152,253,23539,5,0,0:0:0:0:
190,277,23612,1,0,0:0:0:0:
234,284,23684,1,0,0:0:0:0:
277,273,23756,1,0,0:0:0:0:
315,249,23828,2,0,P|366:191|373:164,1,75
250,103,23972,1,0,0:0:0:0:
293,91,24044,1,0,0:0:0:0:
336,101,24116,2,0,P|430:118|456:107,1,75
458,23,24261,1,0,0:0:0:0:
413,15,24333,1,0,0:0:0:0:
368,9,24405,1,0,0:0:0:0:
323,11,24477,1,0,0:0:0:0:
278,15,24549,1,0,0:0:0:0:
235,28,24621,1,0,0:0:0:0:
197,52,24693,6,0,P|138:118|132:146,1,75
96,292,24837,2,0,P|143:235|152:214,1,75
139,33,24982,2,0,P|111:130|119:162,1,75
155,331,25126,2,0,P|174:248|173:222,1,75
61,52,25270,2,0,P|82:152|105:177,1,75
240,328,25414,2,0,P|218:244|204:221,1,75
0,112,25559,2,0,P|34:176|61:188,1,75
304,275,25703,2,0,P|243:196|208:181,1,75
11,245,25847,5,0,0:0:0:0:
24,287,25919,1,0,0:0:0:0:
55,319,25991,1,0,0:0:0:0:
98,331,26063,1,0,0:0:0:0:
143,324,26136,1,0,0:0:0:0:
183,303,26208,1,0,0:0:0:0:
233,287,26280,1,0,0:0:0:0:
285,286,26352,1,0,0:0:0:0:
343,300,26424,1,0,0:0:0:0:
397,325,26496,1,0,0:0:0:0:
447,356,26568,1,0,0:0:0:0:
437,296,26640,1,0,0:0:0:0:
446,236,26712,1,0,0:0:0:0:
468,179,26785,1,0,0:0:0:0:
493,124,26857,2,0,P|504:85|495:43,1,75
346,19,27001,5,0,0:0:0:0:
346,19,27073,1,0,0:0:0:0:
346,19,27145,2,0,L|288:103,1,75
147,67,27289,1,0,0:0:0:0:
147,67,27362,1,0,0:0:0:0:
147,67,27434,2,0,L|202:136,1,75
310,288,27578,1,0,0:0:0:0:
310,288,27650,1,0,0:0:0:0:
310,288,27722,2,0,L|287:208,1,75
74,228,27866,1,0,0:0:0:0:
74,228,27938,1,0,0:0:0:0:
74,228,28011,2,0,L|166:220,1,75
391,172,28155,5,0,0:0:0:0:
391,172,28227,1,0,0:0:0:0:
391,172,28299,2,0,L|303:138,1,75
155,23,28443,1,0,0:0:0:0:
155,23,28515,1,0,0:0:0:0:
155,23,28587,2,0,L|159:158,1,75
424,29,28732,1,0,0:0:0:0:
424,29,28804,1,0,0:0:0:0:
424,29,28876,2,0,L|381:103,1,75
114,259,29020,1,0,0:0:0:0:
114,259,29092,1,0,0:0:0:0:
114,259,29164,2,0,L|191:235,1,75
311,327,29309,5,0,0:0:0:0:
354,315,29381,1,0,0:0:0:0:
393,293,29453,1,0,0:0:0:0:
423,259,29525,1,0,0:0:0:0:
431,214,29597,1,0,0:0:0:0:
429,169,29669,1,0,0:0:0:0:
403,132,29741,1,0,0:0:0:0:
369,102,29813,1,0,0:0:0:0:
327,82,29886,1,0,0:0:0:0:
283,72,29958,1,0,0:0:0:0:
238,70,30030,1,0,0:0:0:0:
196,86,30102,1,0,0:0:0:0:
163,117,30174,1,0,0:0:0:0:
138,154,30246,1,0,0:0:0:0:
128,197,30318,2,0,P|105:269|81:293,1,75
18,152,30462,5,0,0:0:0:0:
38,111,30535,1,0,0:0:0:0:
74,84,30607,1,0,0:0:0:0:
114,63,30679,1,0,0:0:0:0:
157,51,30751,2,0,P|238:32|259:18,1,75
209,172,30895,1,0,0:0:0:0:
249,192,30967,1,0,0:0:0:0:
293,192,31039,2,0,P|370:164|387:145,1,75
225,297,31184,1,0,0:0:0:0:
265,317,31256,1,0,0:0:0:0:
309,322,31328,1,0,0:0:0:0:
352,311,31400,1,0,0:0:0:0:
388,284,31472,2,0,P|467:221|495:217,1,75
465,69,31616,5,0,0:0:0:0:
465,69,31688,1,0,0:0:0:0:
465,69,31761,2,0,L|357:112,1,75
192,32,31905,1,0,0:0:0:0:
192,32,31977,1,0,0:0:0:0:
192,32,32049,2,0,L|264:133,1,75
70,192,32193,1,0,0:0:0:0:
70,192,32265,1,0,0:0:0:0:
70,192,32337,2,0,L|190:197,1,75
339,304,32482,1,0,0:0:0:0:
339,304,32554,1,0,0:0:0:0:
339,304,32626,2,0,L|301:202,1,75
133,108,32770,5,0,0:0:0:0:
133,108,32842,1,0,0:0:0:0:
133,108,32914,2,0,L|203:137,1,75
392,135,33059,1,0,0:0:0:0:
392,135,33131,1,0,0:0:0:0:
392,135,33203,2,0,L|312:154,1,75
134,333,33347,1,0,0:0:0:0:
134,333,33419,1,0,0:0:0:0:
134,333,33491,2,0,L|179:254,1,75
450,255,33636,1,0,0:0:0:0:
450,255,33708,1,0,0:0:0:0:
450,255,33780,2,0,L|405:343,1,75
268,258,33924,5,0,0:0:0:0:
309,240,33996,1,0,0:0:0:0:
342,210,34068,1,0,0:0:0:0:
363,170,34140,1,0,0:0:0:0:
365,125,34212,1,0,0:0:0:0:
343,84,34285,1,0,0:0:0:0:
307,57,34357,1,0,0:0:0:0:
263,46,34429,1,0,0:0:0:0:
219,55,34501,1,0,0:0:0:0:
185,85,34573,1,0,0:0:0:0:
164,125,34645,1,0,0:0:0:0:
139,162,34717,1,0,0:0:0:0:
105,191,34789,1,0,0:0:0:0:
63,209,34862,1,0,0:0:0:0:
18,216,34934,2,0,L|87:259,1,75
261,298,35078,5,0,0:0:0:0:
255,253,35150,1,0,0:0:0:0:
276,213,35222,1,0,0:0:0:0:
316,192,35294,1,0,0:0:0:0:
360,194,35366,1,0,0:0:0:0:
396,220,35438,1,0,0:0:0:0:
421,257,35511,2,0,P|468:279|504:259,1,75
465,117,35655,1,0,0:0:0:0:
429,89,35727,1,0,0:0:0:0:
385,79,35799,1,0,0:0:0:0:
340,77,35871,1,0,0:0:0:0:
296,88,35943,2,0,P|205:105|178:98,1,75
81,54,36087,2,0,P|139:42|171:46,1,75
348,168,36232,5,0,0:0:0:0:
348,168,36304,1,0,0:0:0:0:
348,168,36376,2,0,L|401:245,1,75
178,237,36520,1,0,0:0:0:0:
178,237,36592,1,0,0:0:0:0:
178,237,36664,2,0,L|119:293,1,75
273,36,36809,1,0,0:0:0:0:
273,36,36881,1,0,0:0:0:0:
273,36,36953,2,0,L|259:168,1,75
29,137,37097,1,0,0:0:0:0:
29,137,37169,1,0,0:0:0:0:
29,137,37241,2,0,L|150:118,1,75
330,285,37386,5,0,0:0:0:0:
330,285,37458,1,0,0:0:0:0:
330,285,37530,2,0,L|281:211,1,75
423,39,37674,1,0,0:0:0:0:
423,39,37746,1,0,0:0:0:0:
423,39,37818,2,0,L|391:143,1,75
106,75,37962,1,0,0:0:0:0:
106,75,38035,1,0,0:0:0:0:
106,75,38107,2,0,L|190:103,1,75
152,290,38251,1,0,0:0:0:0:
152,290,38323,1,0,0:0:0:0:
152,290,38395,2,0,L|221:214,1,75
259,51,38539,5,0,0:0:0:0:
286,86,38612,1,0,0:0:0:0:
321,113,38684,1,0,0:0:0:0:
363,126,38756,1,0,0:0:0:0:
405,139,38828,1,0,0:0:0:0:
440,165,38900,1,0,0:0:0:0:
460,204,38972,1,0,0:0:0:0:
458,248,39044,1,0,0:0:0:0:
443,290,39116,1,0,0:0:0:0:
408,318,39188,1,0,0:0:0:0:
363,327,39261,1,0,0:0:0:0:
318,321,39333,1,0,0:0:0:0:
285,290,39405,2,0,P|226:242|169:243,1,75
119,147,39549,1,0,0:0:0:0:
163,154,39621,1,0,0:0:0:0:
207,151,39693,2,0,P|286:125|308:102,1,75
358,20,39837,5,0,0:0:0:0:
312,13,39910,1,0,0:0:0:0:
267,13,39982,1,0,0:0:0:0:
223,23,40054,1,0,0:0:0:0:
179,34,40126,1,0,0:0:0:0:
134,37,40198,1,0,0:0:0:0:
90,27,40270,1,0,0:0:0:0:
106,68,40342,1,0,0:0:0:0:
105,112,40414,1,0,0:0:0:0:
99,157,40487,1,0,0:0:0:0:
85,199,40559,1,0,0:0:0:0:
64,238,40631,1,0,0:0:0:0:
31,269,40703,2,0,P|17:338|39:358,1,75
161,333,40847,5,0,0:0:0:0:
161,333,40919,1,0,0:0:0:0:
161,333,40991,2,0,L|193:235,1,75
229,121,41136,1,0,0:0:0:0:
229,121,41208,1,0,0:0:0:0:
229,121,41280,2,0,L|308:154,1,75
421,188,41424,1,0,0:0:0:0:
421,188,41496,1,0,0:0:0:0:
421,188,41568,2,0,L|376:293,1,75
333,377,41712,1,0,0:0:0:0:
333,377,41785,1,0,0:0:0:0:
333,377,41857,2,0,L|238:313,1,75
65,168,42001,5,0,0:0:0:0:
65,168,42073,1,0,0:0:0:0:
65,168,42145,2,0,L|183:115,1,75
319,53,42290,1,0,0:0:0:0:
319,53,42362,1,0,0:0:0:0:
319,53,42434,2,0,L|355:154,1,75
417,288,42578,1,0,0:0:0:0:
417,288,42650,1,0,0:0:0:0:
417,288,42722,2,0,L|282:334,1,75
168,364,42866,1,0,0:0:0:0:
168,364,42939,1,0,0:0:0:0:
168,364,43011,2,0,L|148:222,1,75
146,43,43155,5,0,0:0:0:0:
189,33,43227,1,0,0:0:0:0:
233,38,43299,1,0,0:0:0:0:
273,57,43371,1,0,0:0:0:0:
307,86,43443,1,0,0:0:0:0:
329,125,43515,1,0,0:0:0:0:
327,169,43587,1,0,0:0:0:0:
312,212,43660,1,0,0:0:0:0:
281,244,43732,1,0,0:0:0:0:
273,199,43804,1,0,0:0:0:0:
252,158,43876,1,0,0:0:0:0:
214,132,43948,1,0,0:0:0:0:
171,117,44020,1,0,0:0:0:0:
126,120,44092,1,0,0:0:0:0:
91,149,44164,1,0,0:0:0:0:
59,181,44237,1,0,0:0:0:0:
23,208,44309,5,0,0:0:0:0:
67,215,44381,1,0,0:0:0:0:
110,226,44453,1,0,0:0:0:0:
150,245,44525,1,0,0:0:0:0:
194,272,44597,1,0,0:0:0:0:
141,278,44669,1,0,0:0:0:0:
88,284,44741,1,0,0:0:0:0:
44,312,44813,1,0,0:0:0:0:
5,359,44886,1,0,0:0:0:0:
64,352,44958,1,0,0:0:0:0:
123,349,45030,1,0,0:0:0:0:
182,355,45102,1,0,0:0:0:0:
245,376,45174,1,0,0:0:0:0:
228,310,45246,1,0,0:0:0:0:
227,242,45318,1,0,0:0:0:0:
241,176,45390,1,0,0:0:0:0:
269,114,45462,6,0,P|315:81|365:80,1,75
457,130,45607,2,0,P|421:145|379:144,1,75
295,10,45751,2,0,P|368:29|392:53,1,75
324,184,45895,1,0,0:0:0:0:
358,212,45967,1,0,0:0:0:0:
401,221,46039,2,0,P|454:236|481:255,1,75
500,349,46184,2,0,P|441:330|431:313,1,75
233,201,46328,2,0,P|273:235|332:256,1,75
372,375,46472,2,0,P|357:322|363:278,1,75
501,132,46616,2,0,P|459:180|426:187,1,75
199,327,46761,2,0,P|252:293|285:295,1,75
470,263,46905,2,0,P|401:238|373:203,1,75
269,75,47049,2,0,P|317:110|332:147,1,75
187,239,47193,5,0,0:0:0:0:
231,235,47265,1,0,0:0:0:0:
275,240,47337,1,0,0:0:0:0:
318,254,47410,1,0,0:0:0:0:
362,246,47482,1,0,0:0:0:0:
402,226,47554,1,0,0:0:0:0:
427,188,47626,1,0,0:0:0:0:
414,144,47698,1,0,0:0:0:0:
384,110,47770,2,0,P|333:70|278:60,1,75
192,125,47914,2,0,P|251:138|297:133,1,75
498,42,48059,2,0,P|452:55|422:78,1,75
317,236,48203,2,0,P|343:187|351:139,1,75
325,13,48347,2,0,P|280:41|253:83,1,75
171,217,48491,5,0,0:0:0:0:
171,217,48563,2,0,L|230:263,1,75
222,360,48708,1,0,0:0:0:0:
222,360,48780,2,0,L|332:336,1,75
426,303,48924,1,0,0:0:0:0:
455,268,48996,1,0,0:0:0:0:
469,225,49068,1,0,0:0:0:0:
466,180,49140,1,0,0:0:0:0:
448,138,49212,1,0,0:0:0:0:
418,102,49285,1,0,0:0:0:0:
377,81,49357,2,0,L|382:35,1,37.5
322,78,49429,2,0,L|315:12,1,37.5
273,94,49501,1,0,0:0:0:0:
233,115,49573,1,0,0:0:0:0:
205,150,49645,2,0,L|161:123,1,37.5
187,194,49717,2,0,L|132:192,1,37.5
179,240,49789,1,0,0:0:0:0:
197,281,49862,1,0,0:0:0:0:
236,301,49934,2,0,P|292:301|328:322,1,75
474,296,50078,5,0,0:0:0:0:
443,263,50150,1,0,0:0:0:0:
425,221,50222,1,0,0:0:0:0:
421,176,50294,1,0,0:0:0:0:
433,132,50366,1,0,0:0:0:0:
424,87,50438,1,0,0:0:0:0:
394,52,50511,1,0,0:0:0:0:
353,32,50583,1,0,0:0:0:0:
308,25,50655,1,0,0:0:0:0:
263,29,50727,1,0,0:0:0:0:
224,52,50799,1,0,0:0:0:0:
201,90,50871,1,0,0:0:0:0:
189,133,50943,1,0,0:0:0:0:
200,176,51015,1,0,0:0:0:0:
226,212,51087,2,0,P|300:268|307:302,1,75
313,124,51232,5,0,0:0:0:0:
283,89,51304,1,0,0:0:0:0:
244,65,51376,1,0,0:0:0:0:
200,52,51448,1,0,0:0:0:0:
155,51,51520,1,0,0:0:0:0:
111,63,51592,1,0,0:0:0:0:
74,89,51664,1,0,0:0:0:0:
52,129,51737,1,0,0:0:0:0:
50,173,51809,1,0,0:0:0:0:
56,217,51881,1,0,0:0:0:0:
84,252,51953,1,0,0:0:0:0:
123,273,52025,1,0,0:0:0:0:
167,277,52097,1,0,0:0:0:0:
210,267,52169,1,0,0:0:0:0:
254,269,52241,2,0,P|303:290|344:364,1,75
457,277,52386,5,0,0:0:0:0:
424,246,52458,1,0,0:0:0:0:
387,220,52530,2,0,P|319:202|275:218,1,75
78,216,52674,1,0,0:0:0:0:
125,178,52746,1,0,0:0:0:0:
181,157,52818,2,0,P|257:143|288:150,1,75
477,162,52962,1,0,0:0:0:0:
423,119,53035,1,0,0:0:0:0:
362,88,53107,2,0,P|268:63|237:68,1,75
49,85,53251,1,0,0:0:0:0:
113,46,53323,1,0,0:0:0:0:
183,21,53395,2,0,P|250:4|289:9,1,75
479,57,53539,5,0,0:0:0:0:
473,71,53612,1,0,0:0:0:0:
467,85,53684,1,0,0:0:0:0:
461,99,53756,1,0,0:0:0:0:
455,113,53828,1,0,0:0:0:0:
449,127,53900,1,0,0:0:0:0:
443,141,53972,1,0,0:0:0:0:
438,155,54044,1,0,0:0:0:0:
433,169,54116,1,0,0:0:0:0:
428,183,54188,1,0,0:0:0:0:
422,197,54261,1,0,0:0:0:0:
417,211,54333,1,0,0:0:0:0:
412,225,54405,1,0,0:0:0:0:
356,159,54693,5,0,0:0:0:0:
339,125,54765,1,0,0:0:0:0:
314,96,54837,1,0,0:0:0:0:
282,74,54910,1,0,0:0:0:0:
247,60,54982,1,0,0:0:0:0:
209,56,55054,1,0,0:0:0:0:
172,61,55126,1,0,0:0:0:0:
138,77,55198,1,0,0:0:0:0:
112,104,55270,1,0,0:0:0:0:
100,139,55342,1,0,0:0:0:0:
101,176,55414,1,0,0:0:0:0:
116,210,55487,1,0,0:0:0:0:
142,236,55559,1,0,0:0:0:0:
175,251,55631,1,0,0:0:0:0:
211,260,55703,1,0,0:0:0:0:
245,274,55775,1,0,0:0:0:0:
274,296,55847,1,0,0:0:0:0:
282,259,55919,1,0,0:0:0:0:
308,232,55991,1,0,0:0:0:0:
340,213,56063,1,0,0:0:0:0:
377,209,56136,1,0,0:0:0:0:
412,197,56208,1,0,0:0:0:0:
441,174,56280,1,0,0:0:0:0:
460,142,56352,1,0,0:0:0:0:
457,104,56424,1,0,0:0:0:0:
435,73,56496,1,0,0:0:0:0:
402,54,56568,1,0,0:0:0:0:
365,44,56640,1,0,0:0:0:0:
328,52,56712,1,0,0:0:0:0:
295,72,56785,1,0,0:0:0:0:
260,86,56857,1,0,0:0:0:0:
222,88,56929,1,0,0:0:0:0:
184,82,57001,1,0,0:0:0:0:
149,66,57073,1,0,0:0:0:0:
119,42,57145,1,0,0:0:0:0:
83,29,57217,1,0,0:0:0:0:
45,32,57289,1,0,0:0:0:0:
14,55,57362,1,0,0:0:0:0:
5,91,57434,1,0,0:0:0:0:
21,124,57506,1,0,0:0:0:0:
48,149,57578,1,0,0:0:0:0:
84,158,57650,1,0,0:0:0:0:
121,162,57722,1,0,0:0:0:0:
156,174,57794,1,0,0:0:0:0:
182,200,57866,1,0,0:0:0:0:
200,232,57938,1,0,0:0:0:0:
207,269,58011,1,0,0:0:0:0:
202,306,58083,1,0,0:0:0:0:
181,337,58155,1,0,0:0:0:0:
148,355,58227,1,0,0:0:0:0:
110,360,58299,1,0,0:0:0:0:
74,349,58371,1,0,0:0:0:0:
48,321,58443,1,0,0:0:0:0:
38,284,58515,1,0,0:0:0:0:
43,246,58587,1,0,0:0:0:0:
65,215,58660,1,0,0:0:0:0:
96,194,58732,1,0,0:0:0:0:
132,187,58804,1,0,0:0:0:0:
169,188,58876,1,0,0:0:0:0:
206,182,58948,1,0,0:0:0:0:
238,163,59020,1,0,0:0:0:0:
264,136,59092,1,0,0:0:0:0:
279,102,59164,1,0,0:0:0:0:
273,64,59237,1,0,0:0:0:0:
255,30,59309,2,0,P|218:9|142:55,1,75
193,114,59453,5,0,0:0:0:0:
155,117,59525,1,0,0:0:0:0:
119,106,59597,1,0,0:0:0:0:
81,103,59669,1,0,0:0:0:0:
45,116,59741,1,0,0:0:0:0:
26,148,59814,1,0,0:0:0:0:
27,185,59886,1,0,0:0:0:0:
44,217,59958,1,0,0:0:0:0:
77,233,60030,1,0,0:0:0:0:
114,230,60102,1,0,0:0:0:0:
148,216,60174,1,0,0:0:0:0:
184,208,60246,1,0,0:0:0:0:
221,208,60318,1,0,0:0:0:0:
257,214,60390,1,0,0:0:0:0:
292,226,60462,2,0,P|349:249|373:278,1,75
430,119,60607,5,0,0:0:0:0:
387,133,60679,1,0,0:0:0:0:
343,120,60751,1,0,0:0:0:0:
310,88,60823,1,0,0:0:0:0:
283,51,60895,1,0,0:0:0:0:
242,30,60967,1,0,0:0:0:0:
198,19,61039,1,0,0:0:0:0:
152,24,61112,1,0,0:0:0:0:
109,37,61184,1,0,0:0:0:0:
77,69,61256,1,0,0:0:0:0:
69,113,61328,1,0,0:0:0:0:
80,156,61400,1,0,0:0:0:0:
103,194,61472,1,0,0:0:0:0:
142,216,61544,1,0,0:0:0:0:
185,226,61616,2,0,P|235:232|269:255,1,75
186,116,61761,5,0,0:0:0:0:
221,87,61833,1,0,0:0:0:0:
260,66,61905,1,0,0:0:0:0:
304,59,61977,1,0,0:0:0:0:
348,65,62049,1,0,0:0:0:0:
388,84,62121,1,0,0:0:0:0:
419,115,62193,2,0,P|476:133|504:125,1,75
310,160,62337,1,0,0:0:0:0:
350,180,62410,1,0,0:0:0:0:
380,212,62482,1,0,0:0:0:0:
398,252,62554,1,0,0:0:0:0:
393,296,62626,1,0,0:0:0:0:
358,324,62698,1,0,0:0:0:0:
314,333,62770,2,0,P|269:348|245:376,1,75
96,335,62914,5,0,0:0:0:0:
137,316,62987,1,0,0:0:0:0:
181,311,63059,2,0,P|254:280|275:262,1,75
313,170,63203,1,0,0:0:0:0:
268,166,63275,1,0,0:0:0:0:
226,181,63347,2,0,P|179:212|123:207,1,75
40,186,63491,1,0,0:0:0:0:
72,154,63563,1,0,0:0:0:0:
113,136,63636,2,0,P|171:106|186:83,1,75
313,59,63780,1,0,0:0:0:0:
274,35,63852,1,0,0:0:0:0:
229,27,63924,2,0,P|136:14|119:2,1,75
40,63,64068,5,0,0:0:0:0:
20,103,64140,1,0,0:0:0:0:
18,147,64212,1,0,0:0:0:0:
28,191,64285,1,0,0:0:0:0:
50,229,64357,2,0,L|9:269,1,37.5
87,256,64429,2,0,L|68:299,1,37.5
130,265,64501,1,0,0:0:0:0:
174,260,64573,1,0,0:0:0:0:
215,242,64645,1,0,0:0:0:0:
247,211,64717,1,0,0:0:0:0:
258,167,64789,1,0,0:0:0:0:
267,122,64862,1,0,0:0:0:0:
293,85,64934,1,0,0:0:0:0:
335,69,65006,1,0,0:0:0:0:
379,66,65078,2,0,P|454:54|467:37,1,75
359,182,65222,5,0,0:0:0:0:
403,177,65294,1,0,0:0:0:0:
442,197,65366,1,0,0:0:0:0:
471,230,65438,1,0,0:0:0:0:
481,274,65511,2,0,P|492:337|510:356,1,75
355,349,65655,5,0,0:0:0:0:
343,329,65727,1,0,0:0:0:0:
331,309,65799,1,0,0:0:0:0:
319,289,65871,1,0,0:0:0:0:
307,269,65943,1,0,0:0:0:0:
295,249,66015,1,0,0:0:0:0:
284,229,66087,1,0,0:0:0:0:
272,209,66160,1,0,0:0:0:0:
259,190,66232,5,0,0:0:0:0:
216,174,66304,1,0,0:0:0:0:
171,183,66376,1,0,0:0:0:0:
134,209,66448,1,0,0:0:0:0:
90,221,66520,1,0,0:0:0:0:
46,208,66592,1,0,0:0:0:0:
25,168,66664,1,0,0:0:0:0:
29,122,66737,1,0,0:0:0:0:
59,89,66809,2,0,P|92:53|104:16,1,75
201,79,66953,5,0,0:0:0:0:
201,79,67025,2,0,L|283:12,1,75
340,91,67169,1,0,0:0:0:0:
340,91,67241,2,0,L|419:22,1,75
457,114,67386,5,0,0:0:0:0:
481,151,67458,1,0,0:0:0:0:
493,194,67530,1,0,0:0:0:0:
495,238,67602,1,0,0:0:0:0:
480,280,67674,1,0,0:0:0:0:
445,309,67746,1,0,0:0:0:0:
401,319,67818,2,0,L|404:365,1,37.5
356,315,67890,2,0,L|342:368,1,37.5
313,300,67962,1,0,0:0:0:0:
275,274,68035,1,0,0:0:0:0:
249,236,68107,2,0,L|304:216,1,37.5
241,191,68179,2,0,L|301:157,1,37.5
223,146,68251,1,0,0:0:0:0:
193,112,68323,1,0,0:0:0:0:
151,94,68395,2,0,P|97:60|81:31,1,75
46,173,68539,5,0,0:0:0:0:
89,188,68612,1,0,0:0:0:0:
122,218,68684,1,0,0:0:0:0:
143,257,68756,1,0,0:0:0:0:
166,295,68828,1,0,0:0:0:0:
201,322,68900,1,0,0:0:0:0:
243,336,68972,1,0,0:0:0:0:
287,331,69044,1,0,0:0:0:0:
330,318,69116,1,0,0:0:0:0:
361,285,69188,1,0,0:0:0:0:
380,243,69261,1,0,0:0:0:0:
374,198,69333,1,0,0:0:0:0:
344,163,69405,1,0,0:0:0:0:
309,134,69477,1,0,0:0:0:0:
267,115,69549,2,0,P|221:78|213:43,1,75
356,41,69693,5,0,0:0:0:0:
397,57,69765,1,0,0:0:0:0:
428,88,69837,1,0,0:0:0:0:
441,131,69910,1,0,0:0:0:0:
442,175,69982,1,0,0:0:0:0:
426,217,70054,1,0,0:0:0:0:
383,232,70126,1,0,0:0:0:0:
338,223,70198,1,0,0:0:0:0:
299,200,70270,1,0,0:0:0:0:
256,184,70342,1,0,0:0:0:0:
211,186,70414,1,0,0:0:0:0:
169,204,70487,1,0,0:0:0:0:
135,233,70559,1,0,0:0:0:0:
118,274,70631,1,0,0:0:0:0:
109,318,70703,2,0,P|85:352|27:382,1,75
47,219,70847,5,0,0:0:0:0:
65,186,70919,1,0,0:0:0:0:
93,162,70991,1,0,0:0:0:0:
126,145,71063,1,0,0:0:0:0:
171,138,71136,1,0,0:0:0:0:
132,114,71208,1,0,0:0:0:0:
88,104,71280,1,0,0:0:0:0:
45,117,71352,1,0,0:0:0:0:
0,144,71424,1,0,0:0:0:0:
16,94,71496,1,0,0:0:0:0:
55,59,71568,1,0,0:0:0:0:
103,39,71640,1,0,0:0:0:0:
162,29,71712,1,0,0:0:0:0:
178,87,71785,1,0,0:0:0:0:
212,135,71857,1,0,0:0:0:0:
266,160,71929,1,0,0:0:0:0:
325,153,72001,5,0,0:0:0:0:
336,143,72073,1,0,0:0:0:0:
347,133,72145,1,0,0:0:0:0:
358,123,72217,1,0,0:0:0:0:
369,114,72289,1,0,0:0:0:0:
381,104,72362,1,0,0:0:0:0:
393,95,72434,1,0,0:0:0:0:
405,86,72506,1,0,0:0:0:0:
417,77,72578,1,0,0:0:0:0:
429,68,72650,1,0,0:0:0:0:
441,59,72722,1,0,0:0:0:0:
453,50,72794,1,0,0:0:0:0:
465,41,72866,1,0,0:0:0:0:
328,8,73155,5,0,0:0:0:0:
290,6,73227,1,0,0:0:0:0:
252,10,73299,1,0,0:0:0:0:
217,25,73371,1,0,0:0:0:0:
192,52,73443,1,0,0:0:0:0:
183,88,73515,1,0,0:0:0:0:
192,124,73587,1,0,0:0:0:0:
212,155,73660,1,0,0:0:0:0:
241,178,73732,1,0,0:0:0:0:
264,207,73804,1,0,0:0:0:0:
273,243,73876,1,0,0:0:0:0:
274,280,73948,1,0,0:0:0:0:
259,314,74020,1,0,0:0:0:0:
233,341,74092,1,0,0:0:0:0:
191,357,74164,1,0,0:0:0:0:
138,363,74237,1,0,0:0:0:0:
82,339,74309,1,0,0:0:0:0:
65,297,74381,1,0,0:0:0:0:
70,259,74453,1,0,0:0:0:0:
92,229,74525,1,0,0:0:0:0:
113,198,74597,1,0,0:0:0:0:
123,162,74669,1,0,0:0:0:0:
120,124,74741,1,0,0:0:0:0:
104,90,74813,1,0,0:0:0:0:
74,66,74886,1,0,0:0:0:0:
111,73,74958,1,0,0:0:0:0:
148,72,75030,1,0,0:0:0:0:
183,61,75102,1,0,0:0:0:0:
217,47,75174,1,0,0:0:0:0:
253,38,75246,1,0,0:0:0:0:
290,36,75318,1,0,0:0:0:0:
327,39,75390,1,0,0:0:0:0:
362,49,75462,1,0,0:0:0:0:
396,65,75535,1,0,0:0:0:0:
425,88,75607,1,0,0:0:0:0:
448,116,75679,1,0,0:0:0:0:
460,151,75751,1,0,0:0:0:0:
462,188,75823,1,0,0:0:0:0:
451,224,75895,1,0,0:0:0:0:
430,255,75967,1,0,0:0:0:0:
400,277,76039,1,0,0:0:0:0:
364,289,76112,1,0,0:0:0:0:
327,296,76184,1,0,0:0:0:0:
289,290,76256,1,0,0:0:0:0:
255,273,76328,1,0,0:0:0:0:
229,245,76400,1,0,0:0:0:0:
198,223,76472,1,0,0:0:0:0:
162,211,76544,1,0,0:0:0:0:
124,208,76616,1,0,0:0:0:0:
152,183,76688,1,0,0:0:0:0:
174,152,76761,1,0,0:0:0:0:
181,115,76833,1,0,0:0:0:0:
190,78,76905,1,0,0:0:0:0:
218,54,76977,1,0,0:0:0:0:
252,40,77049,1,0,0:0:0:0:
289,39,77121,1,0,0:0:0:0:
324,52,77193,1,0,0:0:0:0:
351,77,77265,1,0,0:0:0:0:
368,109,77337,1,0,0:0:0:0:
369,146,77410,1,0,0:0:0:0:
356,181,77482,1,0,0:0:0:0:
341,215,77554,1,0,0:0:0:0:
339,252,77626,1,0,0:0:0:0:
354,286,77698,1,0,0:0:0:0:
379,313,77770,5,0,0:0:0:0:
404,285,77842,1,0,0:0:0:0:
419,250,77914,1,0,0:0:0:0:
421,212,77987,1,0,0:0:0:0:
411,175,78059,1,0,0:0:0:0:
395,140,78131,1,0,0:0:0:0:
369,112,78203,1,0,0:0:0:0:
336,93,78275,1,0,0:0:0:0:
301,79,78347,1,0,0:0:0:0:
263,75,78419,1,0,0:0:0:0:
225,78,78491,1,0,0:0:0:0:
189,88,78563,1,0,0:0:0:0:
156,108,78636,1,0,0:0:0:0:
130,134,78708,1,0,0:0:0:0:
112,167,78780,1,0,0:0:0:0:
103,203,78852,1,0,0:0:0:0:
110,239,78924,5,0,0:0:0:0:
128,242,78996,1,0,0:0:0:0:
146,245,79068,1,0,0:0:0:0:
164,248,79140,1,0,0:0:0:0:
182,252,79212,1,0,0:0:0:0:
200,255,79285,1,0,0:0:0:0:
217,258,79357,1,0,0:0:0:0:
235,261,79429,1,0,0:0:0:0:
253,265,79501,1,0,0:0:0:0:
271,268,79573,1,0,0:0:0:0:
289,271,79645,1,0,0:0:0:0:
307,274,79717,1,0,0:0:0:0:
325,278,79789,1,0,0:0:0:0:
360,264,79862,1,0,0:0:0:0:
382,234,79934,1,0,0:0:0:0:
387,196,80006,1,0,0:0:0:0:
375,160,80078,5,0,0:0:0:0:
362,151,80150,1,0,0:0:0:0:
349,142,80222,1,0,0:0:0:0:
336,133,80294,1,0,0:0:0:0:
323,124,80366,1,0,0:0:0:0:
310,115,80438,1,0,0:0:0:0:
297,106,80511,1,0,0:0:0:0:
284,97,80583,1,0,0:0:0:0:
271,88,80655,1,0,0:0:0:0:
258,79,80727,1,0,0:0:0:0:
245,70,80799,1,0,0:0:0:0:
232,61,80871,1,0,0:0:0:0:
219,52,80943,1,0,0:0:0:0:
174,46,81015,1,0,0:0:0:0:
133,64,81087,1,0,0:0:0:0:
105,100,81160,1,0,0:0:0:0:
100,144,81232,5,0,0:0:0:0:
107,145,81304,1,0,0:0:0:0:
114,146,81376,1,0,0:0:0:0:
121,147,81448,1,0,0:0:0:0:
128,148,81520,1,0,0:0:0:0:
135,149,81592,1,0,0:0:0:0:
142,150,81664,1,0,0:0:0:0:
149,151,81737,1,0,0:0:0:0:
156,152,81809,1,0,0:0:0:0:
163,153,81881,1,0,0:0:0:0:
170,154,81953,1,0,0:0:0:0:
177,155,82025,1,0,0:0:0:0:
184,156,82097,1,0,0:0:0:0:
191,157,82169,1,0,0:0:0:0:
198,157,82241,1,0,0:0:0:0:
205,158,82313,1,0,0:0:0:0:
212,158,82386,6,0,L|314:73,1,75
389,80,82530,2,0,L|332:136,1,75
213,173,82674,2,0,L|311:137,1,75
402,84,82818,2,0,L|354:154,1,75
216,192,82962,2,0,L|345:164,1,75
416,84,83106,2,0,L|398:162,1,75,0|0,2:0|2:0,2:0:0:0:
214,208,83250,2,0,L|317:222,1,75
431,83,83394,2,0,L|429:172,1,75,0|0,2:0|2:0,2:0:0:0:
207,218,83539,2,0,L|281:258,1,75
444,76,83684,2,0,L|465:161,1,75
195,226,83828,2,0,L|250:289,1,75
455,65,83972,2,0,L|501:135,1,75
369,300,84116,5,0,0:0:0:0:
345,270,84188,1,0,0:0:0:0:
330,234,84261,1,0,0:0:0:0:
331,196,84333,1,0,0:0:0:0:
338,159,84405,2,0,P|353:93|334:45,1,75
210,36,84549,1,0,0:0:0:0:
197,54,84621,1,0,0:0:0:0:
184,72,84693,1,0,0:0:0:0:
171,90,84765,1,0,0:0:0:0:
158,108,84837,1,0,0:0:0:0:
145,127,84910,1,0,0:0:0:0:
132,145,84982,1,0,0:0:0:0:
119,163,85054,1,0,0:0:0:0:
106,181,85126,1,0,0:0:0:0:
94,200,85198,1,0,0:0:0:0:
82,219,85270,1,0,0:0:0:0:
68,237,85342,5,0,0:0:0:0:
59,265,85414,1,0,0:0:0:0:
66,302,85487,1,0,0:0:0:0:
101,329,85559,1,0,0:0:0:0:
145,326,85631,1,0,0:0:0:0:
186,293,85703,1,0,0:0:0:0:
212,239,85775,1,0,0:0:0:0:
242,187,85847,2,0,P|334:119|351:118,1,75
414,122,85991,2,0,P|322:190|305:191,1,75
198,176,86136,2,0,P|314:107|320:107,1,75
455,129,86280,2,0,P|338:196|333:197,1,75
164,157,86424,2,0,P|256:89|273:88,1,75
492,145,86568,2,0,P|400:213|383:214,1,75
130,142,86712,1,0,0:0:0:0:
130,142,86785,2,0,P|183:65|207:55,1,75
245,10,86929,5,0,0:0:0:0:
245,10,87001,2,0,P|302:27|335:50,1,75
350,146,87145,2,0,P|293:129|260:106,1,75
245,10,87289,2,0,P|302:27|335:50,1,75
362,177,87434,2,0,P|305:160|272:137,1,75
245,10,87578,2,0,P|302:27|335:50,1,75
374,207,87722,2,0,P|317:190|284:167,1,75
245,10,87866,2,0,P|302:27|335:50,1,75
382,242,88011,2,0,P|325:225|292:202,1,75
245,10,88155,2,0,P|302:27|335:50,1,75
394,275,88299,2,0,P|337:258|304:235,1,75
245,10,88443,2,0,P|302:27|335:50,1,75
400,306,88587,2,0,P|343:289|310:266,1,75
245,10,88732,2,0,P|302:27|335:50,1,75
413,342,88876,2,0,P|356:325|323:302,1,75
245,10,89020,2,0,P|302:27|335:50,1,75
455,258,89164,5,0,0:0:0:0:
473,216,89237,1,0,0:0:0:0:
467,171,89309,1,0,0:0:0:0:
450,129,89381,1,0,0:0:0:0:
412,103,89453,1,0,0:0:0:0:
368,93,89525,1,0,0:0:0:0:
323,98,89597,1,0,0:0:0:0:
278,102,89669,1,0,0:0:0:0:
234,90,89741,1,0,0:0:0:0:
196,65,89813,1,0,0:0:0:0:
164,31,89886,1,0,0:0:0:0:
161,75,89958,1,0,0:0:0:0:
140,114,90030,1,0,0:0:0:0:
110,148,90102,1,0,0:0:0:0:
76,177,90174,1,0,0:0:0:0:
56,217,90246,1,0,0:0:0:0:
52,261,90318,1,0,0:0:0:0:
73,300,90390,1,0,0:0:0:0:
112,321,90462,6,0,L|101:368,1,37.5
157,317,90535,1,0,0:0:0:0:
197,297,90607,2,0,L|238:335,1,37.5
217,257,90679,1,0,0:0:0:0:
244,221,90751,2,0,L|210:184,1,37.5
284,201,90823,1,0,0:0:0:0:
328,204,90895,2,0,L|348:152,1,37.5
364,229,90967,1,0,0:0:0:0:
403,249,91039,2,0,L|383:319,1,37.5
447,256,91112,1,0,0:0:0:0:
487,237,91184,1,0,0:0:0:0:
505,195,91256,1,0,0:0:0:0:
494,151,91328,1,0,0:0:0:0:
460,121,91400,1,0,0:0:0:0:
416,110,91472,2,0,P|376:88|361:51,1,75
276,159,91616,5,0,0:0:0:0:
253,120,91688,1,0,0:0:0:0:
221,86,91761,1,0,0:0:0:0:
181,65,91833,1,0,0:0:0:0:
136,59,91905,1,0,0:0:0:0:
167,91,91977,1,0,0:0:0:0:
188,130,92049,1,0,0:0:0:0:
196,174,92121,1,0,0:0:0:0:
188,218,92193,1,0,0:0:0:0:
161,181,92265,1,0,0:0:0:0:
122,157,92337,1,0,0:0:0:0:
78,144,92410,1,0,0:0:0:0:
33,150,92482,1,0,0:0:0:0:
66,179,92554,1,0,0:0:0:0:
88,217,92626,1,0,0:0:0:0:
101,259,92698,1,0,0:0:0:0:
106,303,92770,5,0,0:0:0:0:
145,282,92842,1,0,0:0:0:0:
188,271,92914,1,0,0:0:0:0:
233,276,92987,1,0,0:0:0:0:
274,294,93059,1,0,0:0:0:0:
259,251,93131,1,0,0:0:0:0:
229,217,93203,1,0,0:0:0:0:
187,200,93275,1,0,0:0:0:0:
142,192,93347,2,0,P|90:191|43:216,1,75
197,127,93491,2,0,P|231:119|290:130,1,75
109,77,93636,2,0,P|65:77|8:91,1,75
227,8,93780,5,0,0:0:0:0:
245,21,93852,1,0,0:0:0:0:
263,34,93924,1,0,0:0:0:0:
281,47,93996,1,0,0:0:0:0:
299,60,94068,1,0,0:0:0:0:
317,73,94140,1,0,0:0:0:0:
335,86,94212,1,0,0:0:0:0:
353,99,94285,1,0,0:0:0:0:
371,111,94357,1,0,0:0:0:0:
389,123,94429,1,0,0:0:0:0:
407,136,94501,1,0,0:0:0:0:
425,149,94573,1,0,0:0:0:0:
442,162,94645,2,0,L|510:214,1,75
320,189,94789,2,0,L|254:153,1,75
398,260,94934,5,0,0:0:0:0:
395,282,95006,1,0,0:0:0:0:
382,300,95078,1,0,0:0:0:0:
362,311,95150,1,0,0:0:0:0:
340,316,95222,1,0,0:0:0:0:
317,313,95294,1,0,0:0:0:0:
296,303,95366,1,0,0:0:0:0:
281,285,95438,1,0,0:0:0:0:
260,274,95511,1,0,0:0:0:0:
237,273,95583,1,0,0:0:0:0:
215,279,95655,1,0,0:0:0:0:
197,292,95727,1,0,0:0:0:0:
181,307,95799,1,0,0:0:0:0:
161,318,95871,1,0,0:0:0:0:
138,319,95943,1,0,0:0:0:0:
117,310,96015,1,0,0:0:0:0:
101,293,96087,1,0,0:0:0:0:
92,271,96160,1,0,0:0:0:0:
92,248,96232,5,0,0:0:0:0:
108,226,96304,1,0,0:0:0:0:
141,214,96376,1,0,0:0:0:0:
177,210,96448,1,0,0:0:0:0:
220,218,96520,1,0,0:0:0:0:
206,190,96592,1,0,0:0:0:0:
165,176,96664,1,0,0:0:0:0:
119,173,96737,1,0,0:0:0:0:
69,184,96809,1,0,0:0:0:0:
96,154,96881,1,0,0:0:0:0:
147,147,96953,1,0,0:0:0:0:
199,148,97025,1,0,0:0:0:0:
252,165,97097,1,0,0:0:0:0:
234,128,97169,1,0,0:0:0:0:
180,110,97241,1,0,0:0:0:0:
120,106,97313,1,0,0:0:0:0:
55,127,97386,5,0,0:0:0:0:
100,77,97458,1,0,0:0:0:0:
165,62,97530,1,0,0:0:0:0:
231,72,97602,1,0,0:0:0:0:
295,109,97674,1,0,0:0:0:0:
265,40,97746,1,0,0:0:0:0:
195,12,97818,1,0,0:0:0:0:
120,12,97890,1,0,0:0:0:0:
50,38,97962,1,0,0:0:0:0:
45,68,98035,1,0,0:0:0:0:
40,97,98107,1,0,0:0:0:0:
35,126,98179,1,0,0:0:0:0:
29,155,98251,2,0,L|9:266,1,75
72,336,98395,5,0,0:0:0:0:
80,323,98467,1,0,0:0:0:0:
90,312,98539,1,0,0:0:0:0:
102,303,98612,1,0,0:0:0:0:
115,296,98684,1,0,0:0:0:0:
128,289,98756,1,0,0:0:0:0:
141,283,98828,1,0,0:0:0:0:
155,279,98900,1,0,0:0:0:0:
169,277,98972,1,0,0:0:0:0:
183,277,99044,1,0,0:0:0:0:
197,280,99116,1,0,0:0:0:0:
210,285,99188,1,0,0:0:0:0:
223,292,99261,1,0,0:0:0:0:
236,299,99333,1,0,0:0:0:0:
249,304,99405,1,0,0:0:0:0:
263,305,99477,1,0,0:0:0:0:
277,304,99549,1,0,0:0:0:0:
291,300,99621,1,0,0:0:0:0:
303,292,99693,6,0,P|378:250|401:254,1,75
468,154,99837,2,0,P|417:155|369:180,1,75
231,220,99982,2,0,P|260:184|309:164,1,75
497,70,100126,2,0,P|441:69|393:81,1,75
167,101,100270,1,0,0:0:0:0:
178,90,100342,1,0,0:0:0:0:
190,82,100414,1,0,0:0:0:0:
203,74,100487,1,0,0:0:0:0:
216,68,100559,1,0,0:0:0:0:
230,63,100631,1,0,0:0:0:0:
244,59,100703,1,0,0:0:0:0:
258,56,100775,1,0,0:0:0:0:
272,55,100847,2,0,P|346:51|375:43,1,75
467,102,100991,5,0,0:0:0:0:
446,133,101063,1,0,0:0:0:0:
414,154,101136,1,0,0:0:0:0:
377,163,101208,1,0,0:0:0:0:
339,164,101280,1,0,0:0:0:0:
302,171,101352,1,0,0:0:0:0:
271,192,101424,2,0,P|227:243|215:284,1,75
58,261,101568,1,0,0:0:0:0:
85,235,101640,1,0,0:0:0:0:
118,218,101712,2,0,P|189:187|206:164,1,75
282,91,101857,1,0,0:0:0:0:
245,82,101929,1,0,0:0:0:0:
208,88,102001,2,0,P|156:94|98:78,1,75
46,16,102145,5,0,0:0:0:0:
39,52,102217,1,0,0:0:0:0:
33,89,102289,1,0,0:0:0:0:
29,126,102362,1,0,0:0:0:0:
32,163,102434,1,0,0:0:0:0:
40,199,102506,1,0,0:0:0:0:
57,232,102578,1,0,0:0:0:0:
82,259,102650,1,0,0:0:0:0:
112,281,102722,1,0,0:0:0:0:
145,298,102794,1,0,0:0:0:0:
181,308,102866,2,0,P|229:314|279:340,1,75
391,304,103011,2,0,P|352:288|292:284,1,75
175,204,103155,6,0,P|214:200|271:217,1,75
431,215,103299,1,0,0:0:0:0:
404,188,103371,1,0,0:0:0:0:
374,164,103443,2,0,P|312:144|271:144,1,75
151,106,103587,2,0,P|189:88|266:97,1,75
404,57,103732,2,0,P|362:39|303:32,1,75
158,13,103876,1,0,0:0:0:0:
121,21,103948,1,0,0:0:0:0:
96,49,104020,2,0,P|69:103|31:132,1,75
29,257,104164,1,0,0:0:0:0:
60,235,104237,1,0,0:0:0:0:
97,230,104309,2,0,P|164:223|206:210,1,75
173,79,104453,5,0,0:0:0:0:
183,114,104525,1,0,0:0:0:0:
202,145,104597,1,0,0:0:0:0:
227,171,104669,1,0,0:0:0:0:
258,191,104741,1,0,0:0:0:0:
294,200,104813,1,0,0:0:0:0:
331,197,104886,2,0,P|408:182|467:198,1,75
392,37,105030,1,0,0:0:0:0:
359,56,105102,1,0,0:0:0:0:
321,56,105174,1,0,0:0:0:0:
285,43,105246,1,0,0:0:0:0:
249,30,105318,1,0,0:0:0:0:
211,26,105390,1,0,0:0:0:0:
175,37,105462,2,0,P|125:59|56:55,1,75
13,203,105607,5,0,0:0:0:0:
45,184,105679,1,0,0:0:0:0:
82,182,105751,1,0,0:0:0:0:
118,191,105823,1,0,0:0:0:0:
149,210,105895,1,0,0:0:0:0:
176,235,105967,1,0,0:0:0:0:
199,264,106039,1,0,0:0:0:0:
223,292,106112,1,0,0:0:0:0:
254,312,106184,1,0,0:0:0:0:
290,322,106256,1,0,0:0:0:0:
327,322,106328,1,0,0:0:0:0:
361,307,106400,1,0,0:0:0:0:
388,281,106472,1,0,0:0:0:0:
399,245,106544,1,0,0:0:0:0:
396,207,106616,2,0,P|405:149|439:104,1,75
357,16,106761,5,0,0:0:0:0:
335,46,106833,1,0,0:0:0:0:
317,79,106905,1,0,0:0:0:0:
311,116,106977,1,0,0:0:0:0:
310,153,107049,1,0,0:0:0:0:
300,189,107121,1,0,0:0:0:0:
277,218,107193,1,0,0:0:0:0:
242,233,107265,1,0,0:0:0:0:
206,222,107337,1,0,0:0:0:0:
179,194,107410,1,0,0:0:0:0:
166,158,107482,1,0,0:0:0:0:
176,122,107554,1,0,0:0:0:0:
171,84,107626,1,0,0:0:0:0:
148,54,107698,1,0,0:0:0:0:
117,32,107770,2,0,P|82:20|37:45,1,75
24,142,107914,5,0,0:0:0:0:
61,139,107987,1,0,0:0:0:0:
92,159,108059,1,0,0:0:0:0:
108,192,108131,1,0,0:0:0:0:
103,229,108203,1,0,0:0:0:0:
107,266,108275,1,0,0:0:0:0:
122,300,108347,2,0,P|157:335|202:340,1,75
295,304,108491,1,0,0:0:0:0:
260,290,108563,1,0,0:0:0:0:
236,260,108636,1,0,0:0:0:0:
234,222,108708,1,0,0:0:0:0:
244,186,108780,1,0,0:0:0:0:
243,148,108852,1,0,0:0:0:0:
233,111,108924,2,0,P|198:60|151:54,1,75
26,124,109068,5,0,0:0:0:0:
63,125,109140,1,0,0:0:0:0:
95,142,109212,2,0,P|164:175|200:175,1,75
392,200,109357,1,0,0:0:0:0:
364,164,109429,1,0,0:0:0:0:
325,140,109501,2,0,P|281:102|261:49,1,75
141,23,109645,1,0,0:0:0:0:
121,63,109717,1,0,0:0:0:0:
126,115,109789,2,0,P|139:199|128:233,1,75
158,342,109934,1,0,0:0:0:0:
199,299,110006,1,0,0:0:0:0:
255,277,110078,2,0,P|331:271|389:295,1,75
472,125,110222,5,0,0:0:0:0:
431,144,110294,1,0,0:0:0:0:
386,144,110366,1,0,0:0:0:0:
343,128,110438,1,0,0:0:0:0:
311,95,110511,1,0,0:0:0:0:
288,56,110583,1,0,0:0:0:0:
246,39,110655,1,0,0:0:0:0:
201,31,110727,1,0,0:0:0:0:
156,29,110799,1,0,0:0:0:0:
113,43,110871,1,0,0:0:0:0:
89,81,110943,1,0,0:0:0:0:
78,124,111015,1,0,0:0:0:0:
79,168,111087,1,0,0:0:0:0:
96,209,111160,1,0,0:0:0:0:
102,253,111232,5,0,0:0:0:0:
136,224,111304,1,0,0:0:0:0:
178,208,111376,1,0,0:0:0:0:
222,213,111448,1,0,0:0:0:0:
259,237,111520,1,0,0:0:0:0:
294,264,111592,1,0,0:0:0:0:
337,274,111664,1,0,0:0:0:0:
381,264,111737,1,0,0:0:0:0:
418,239,111809,1,0,0:0:0:0:
436,197,111881,1,0,0:0:0:0:
431,152,111953,1,0,0:0:0:0:
409,112,112025,1,0,0:0:0:0:
371,87,112097,1,0,0:0:0:0:
327,76,112169,1,0,0:0:0:0:
282,73,112241,1,0,0:0:0:0:
239,58,112313,1,0,0:0:0:0:
207,25,112386,5,0,0:0:0:0:
196,68,112458,1,0,0:0:0:0:
174,107,112530,1,0,0:0:0:0:
139,135,112602,1,0,0:0:0:0:
105,164,112674,1,0,0:0:0:0:
86,204,112746,1,0,0:0:0:0:
91,248,112818,1,0,0:0:0:0:
122,280,112890,1,0,0:0:0:0:
163,295,112962,1,0,0:0:0:0:
207,283,113035,1,0,0:0:0:0:
238,251,113107,1,0,0:0:0:0:
258,211,113179,1,0,0:0:0:0:
294,184,113251,1,0,0:0:0:0:
338,176,113323,1,0,0:0:0:0:
382,184,113395,1,0,0:0:0:0:
418,209,113467,1,0,0:0:0:0:
439,248,113539,5,0,0:0:0:0:
452,204,113612,1,0,0:0:0:0:
473,164,113684,1,0,0:0:0:0:
494,124,113756,1,0,0:0:0:0:
487,79,113828,1,0,0:0:0:0:
458,44,113900,1,0,0:0:0:0:
414,33,113972,1,0,0:0:0:0:
369,36,114044,1,0,0:0:0:0:
332,61,114116,1,0,0:0:0:0:
306,97,114188,1,0,0:0:0:0:
263,114,114261,1,0,0:0:0:0:
218,105,114333,1,0,0:0:0:0:
181,78,114405,1,0,0:0:0:0:
153,42,114477,1,0,0:0:0:0:
117,13,114549,2,0,P|82:10|34:30,1,75
23,168,114693,5,0,0:0:0:0:
48,153,114765,1,0,0:0:0:0:
77,149,114837,1,0,0:0:0:0:
107,152,114910,1,0,0:0:0:0:
135,161,114982,1,0,0:0:0:0:
158,179,115054,1,0,0:0:0:0:
176,202,115126,1,0,0:0:0:0:
188,229,115198,1,0,0:0:0:0:
198,257,115270,1,0,0:0:0:0:
214,281,115342,1,0,0:0:0:0:
238,298,115414,1,0,0:0:0:0:
265,310,115487,1,0,0:0:0:0:
294,314,115559,1,0,0:0:0:0:
323,312,115631,1,0,0:0:0:0:
350,299,115703,2,0,P|403:274|443:274,1,75
491,150,115847,5,0,0:0:0:0:
455,162,115919,1,0,0:0:0:0:
417,156,115991,1,0,0:0:0:0:
384,137,116063,1,0,0:0:0:0:
361,106,116136,1,0,0:0:0:0:
348,70,116208,1,0,0:0:0:0:
318,46,116280,1,0,0:0:0:0:
282,34,116352,1,0,0:0:0:0:
244,30,116424,1,0,0:0:0:0:
206,35,116496,1,0,0:0:0:0:
173,53,116568,1,0,0:0:0:0:
153,85,116640,1,0,0:0:0:0:
153,122,116712,1,0,0:0:0:0:
166,157,116785,1,0,0:0:0:0:
189,185,116857,2,0,P|224:234|226:284,1,75
252,114,117001,5,0,0:0:0:0:
294,128,117073,1,0,0:0:0:0:
335,145,117145,1,0,0:0:0:0:
368,175,117217,1,0,0:0:0:0:
384,216,117289,1,0,0:0:0:0:
374,260,117362,1,0,0:0:0:0:
336,285,117434,2,0,P|289:326|274:366,1,75
103,341,117578,1,0,0:0:0:0:
142,306,117650,1,0,0:0:0:0:
163,258,117722,1,0,0:0:0:0:
143,209,117794,1,0,0:0:0:0:
104,173,117866,1,0,0:0:0:0:
61,142,117938,1,0,0:0:0:0:
39,93,118011,1,0,0:0:0:0:
68,49,118083,1,0,0:0:0:0:
116,28,118155,6,0,L|220:7,1,75
283,107,118299,1,0,0:0:0:0:
283,107,118371,1,0,0:0:0:0:
283,107,118443,2,0,L|366:127,1,75
311,269,118587,1,0,0:0:0:0:
311,269,118660,1,0,0:0:0:0:
311,269,118732,2,0,L|214:315,1,75
44,144,118876,1,0,0:0:0:0:
44,143,118948,1,0,0:0:0:0:
44,144,119020,2,0,L|92:237,1,75
362,27,119164,1,0,0:0:0:0:
362,27,119237,1,0,0:0:0:0:
364,32,119309,2,0,L|362:125,1,75
458,113,119453,5,0,0:0:0:0:
460,127,119525,1,0,0:0:0:0:
461,141,119597,1,0,0:0:0:0:
460,155,119669,1,0,0:0:0:0:
456,169,119741,1,0,0:0:0:0:
450,183,119813,1,0,0:0:0:0:
443,196,119886,1,0,0:0:0:0:
434,208,119958,1,0,0:0:0:0:
423,218,120030,1,0,0:0:0:0:
411,227,120102,1,0,0:0:0:0:
398,234,120174,1,0,0:0:0:0:
383,236,120246,1,0,0:0:0:0:
368,236,120318,1,0,0:0:0:0:
353,232,120390,1,0,0:0:0:0:
339,224,120462,6,0,P|241:157|232:155,1,75
147,108,120607,2,0,P|181:168|199:182,1,75
245,296,120751,2,0,P|266:243|261:211,1,75
244,28,120895,2,0,P|228:97|237:125,1,75
61,260,121039,1,0,0:0:0:0:
83,263,121112,1,0,0:0:0:0:
105,264,121184,1,0,0:0:0:0:
127,259,121256,1,0,0:0:0:0:
147,250,121328,2,0,P|194:229|248:246,1,75
329,49,121472,5,0,0:0:0:0:
355,85,121544,1,0,0:0:0:0:
395,103,121616,2,0,P|455:120|497:157,1,75
459,275,121761,1,0,0:0:0:0:
433,237,121833,1,0,0:0:0:0:
397,209,121905,1,0,0:0:0:0:
353,196,121977,1,0,0:0:0:0:
309,183,122049,1,0,0:0:0:0:
279,148,122121,1,0,0:0:0:0:
261,106,122193,1,0,0:0:0:0:
233,70,122265,1,0,0:0:0:0:
193,47,122337,1,0,0:0:0:0:
147,40,122410,1,0,0:0:0:0:
103,52,122482,1,0,0:0:0:0:
74,86,122554,1,0,0:0:0:0:
63,129,122626,2,0,P|62:178|37:224,1,75
69,315,122770,5,0,0:0:0:0:
103,286,122842,1,0,0:0:0:0:
146,273,122914,1,0,0:0:0:0:
191,273,122987,1,0,0:0:0:0:
232,290,123059,1,0,0:0:0:0:
267,317,123131,1,0,0:0:0:0:
309,330,123203,2,0,P|358:318|414:340,1,75
469,187,123347,1,0,0:0:0:0:
425,198,123419,1,0,0:0:0:0:
381,187,123491,1,0,0:0:0:0:
348,156,123563,1,0,0:0:0:0:
327,115,123636,1,0,0:0:0:0:
287,92,123708,1,0,0:0:0:0:
242,86,123780,2,0,P|186:90|123:68,1,75
21,26,123924,5,0,0:0:0:0:
48,61,123996,1,0,0:0:0:0:
63,103,124068,1,0,0:0:0:0:
59,147,124140,1,0,0:0:0:0:
45,190,124212,1,0,0:0:0:0:
44,235,124285,1,0,0:0:0:0:
58,277,124357,2,0,P|97:331|140:357,1,75
254,312,124501,1,0,0:0:0:0:
214,290,124573,1,0,0:0:0:0:
184,256,124645,1,0,0:0:0:0:
174,212,124717,1,0,0:0:0:0:
201,176,124789,1,0,0:0:0:0:
243,160,124862,1,0,0:0:0:0:
281,136,124934,2,0,P|321:107|342:64,1,75
469,45,125078,5,0,0:0:0:0:
477,89,125150,1,0,0:0:0:0:
474,133,125222,1,0,0:0:0:0:
465,177,125294,1,0,0:0:0:0:
443,216,125366,1,0,0:0:0:0:
411,247,125438,1,0,0:0:0:0:
373,273,125511,2,0,L|398:313,1,37.5
328,279,125583,2,0,L|332:333,1,37.5
283,281,125655,1,0,0:0:0:0:
238,275,125727,1,0,0:0:0:0:
195,261,125799,2,0,L|158:315,1,37.5
156,237,125871,2,0,L|111:272,1,37.5
121,208,125943,1,0,0:0:0:0:
93,172,126015,1,0,0:0:0:0:
74,131,126087,1,0,0:0:0:0:
72,85,126160,1,0,0:0:0:0:
91,44,126232,2,0,P|119:28|180:36,1,75
165,157,126376,5,0,0:0:0:0:
205,176,126448,1,0,0:0:0:0:
249,177,126520,1,0,0:0:0:0:
290,159,126592,1,0,0:0:0:0:
317,123,126664,1,0,0:0:0:0:
318,77,126737,1,0,0:0:0:0:
344,40,126809,1,0,0:0:0:0:
388,34,126881,1,0,0:0:0:0:
431,45,126953,1,0,0:0:0:0:
466,72,127025,1,0,0:0:0:0:
479,115,127097,1,0,0:0:0:0:
464,157,127169,1,0,0:0:0:0:
429,185,127241,1,0,0:0:0:0:
409,225,127313,1,0,0:0:0:0:
414,270,127386,6,0,P|451:337|491:364,1,75
302,362,127530,2,0,P|318:300|313:239,1,75
187,230,127674,2,0,P|208:270|199:327,1,75
81,358,127818,2,0,P|70:296|92:263,1,75
18,151,127962,1,0,0:0:0:0:
46,115,128035,1,0,0:0:0:0:
84,92,128107,1,0,0:0:0:0:
127,80,128179,1,0,0:0:0:0:
171,78,128251,1,0,0:0:0:0:
214,88,128323,1,0,0:0:0:0:
255,105,128395,1,0,0:0:0:0:
291,130,128467,1,0,0:0:0:0:
320,163,128539,2,0,P|398:199|438:203,1,75
492,134,128684,5,0,0:0:0:0:
459,103,128756,1,0,0:0:0:0:
418,84,128828,2,0,P|351:65|296:74,1,75
122,152,128972,1,0,0:0:0:0:
174,148,129044,1,0,0:0:0:0:
224,163,129116,2,0,P|283:195|302:221,1,75
438,226,129261,1,0,0:0:0:0:
448,245,129333,1,0,0:0:0:0:
426,251,129405,1,0,0:0:0:0:
423,228,129477,1,0,0:0:0:0:
435,246,129549,2,0,P|457:326|436:347,1,75
331,349,129693,5,0,0:0:0:0:
323,347,129765,1,0,0:0:0:0:
315,345,129837,1,0,0:0:0:0:
307,343,129910,1,0,0:0:0:0:
299,341,129982,1,0,0:0:0:0:
291,339,130054,1,0,0:0:0:0:
283,337,130126,1,0,0:0:0:0:
275,335,130198,1,0,0:0:0:0:
267,333,130270,1,0,0:0:0:0:
264,326,130342,1,0,0:0:0:0:
261,319,130414,1,0,0:0:0:0:
258,311,130487,1,0,0:0:0:0:
255,303,130559,1,0,0:0:0:0:
252,295,130631,1,0,0:0:0:0:
249,287,130703,1,0,0:0:0:0:
246,279,130775,1,0,0:0:0:0:
243,271,130847,2,0,L|208:172,1,75
207,20,130991,5,0,0:0:0:0:
236,54,131063,1,0,0:0:0:0:
279,68,131136,1,0,0:0:0:0:
323,60,131208,1,0,0:0:0:0:
363,41,131280,1,0,0:0:0:0:
406,30,131352,1,0,0:0:0:0:
449,39,131424,1,0,0:0:0:0:
482,69,131496,1,0,0:0:0:0:
496,111,131568,1,0,0:0:0:0:
496,155,131640,1,0,0:0:0:0:
467,189,131712,1,0,0:0:0:0:
428,212,131785,1,0,0:0:0:0:
383,217,131857,1,0,0:0:0:0:
341,234,131929,1,0,0:0:0:0:
308,264,132001,5,0,0:0:0:0:
294,221,132073,1,0,0:0:0:0:
261,189,132145,1,0,0:0:0:0:
218,173,132217,1,0,0:0:0:0:
173,177,132289,1,0,0:0:0:0:
133,199,132362,1,0,0:0:0:0:
109,237,132434,1,0,0:0:0:0:
106,281,132506,1,0,0:0:0:0:
111,325,132578,1,0,0:0:0:0:
144,294,132650,1,0,0:0:0:0:
186,278,132722,1,0,0:0:0:0:
227,295,132794,1,0,0:0:0:0:
261,324,132866,1,0,0:0:0:0:
303,338,132938,1,0,0:0:0:0:
348,334,133011,1,0,0:0:0:0:
386,310,133083,1,0,0:0:0:0:
409,271,133155,5,0,0:0:0:0:
364,268,133227,1,0,0:0:0:0:
323,248,133299,1,0,0:0:0:0:
302,208,133371,1,0,0:0:0:0:
296,163,133443,1,0,0:0:0:0:
317,123,133515,1,0,0:0:0:0:
357,104,133587,1,0,0:0:0:0:
402,107,133660,1,0,0:0:0:0:
434,137,133732,1,0,0:0:0:0:
453,96,133804,1,0,0:0:0:0:
435,54,133876,1,0,0:0:0:0:
398,28,133948,1,0,0:0:0:0:
354,15,134020,1,0,0:0:0:0:
309,13,134092,1,0,0:0:0:0:
265,24,134164,1,0,0:0:0:0:
226,47,134237,1,0,0:0:0:0:
195,79,134309,5,0,0:0:0:0:
239,81,134381,1,0,0:0:0:0:
279,101,134453,1,0,0:0:0:0:
306,136,134525,1,0,0:0:0:0:
302,180,134597,1,0,0:0:0:0:
281,219,134669,1,0,0:0:0:0:
248,250,134741,2,0,L|279:297,1,37.5
205,265,134813,2,0,L|211:317,1,37.5
159,265,134886,1,0,0:0:0:0:
117,247,134958,1,0,0:0:0:0:
87,213,135030,2,0,L|32:239,1,37.5
64,174,135102,2,0,L|5:187,1,37.5
53,130,135174,1,0,0:0:0:0:
59,85,135246,1,0,0:0:0:0:
90,52,135318,2,0,P|124:34|144:3,1,75
171,189,135462,5,0,0:0:0:0:
151,148,135535,1,0,0:0:0:0:
158,103,135607,1,0,0:0:0:0:
180,64,135679,1,0,0:0:0:0:
220,44,135751,1,0,0:0:0:0:
264,37,135823,1,0,0:0:0:0:
307,46,135895,1,0,0:0:0:0:
347,66,135967,1,0,0:0:0:0:
377,98,136039,1,0,0:0:0:0:
392,140,136112,1,0,0:0:0:0:
394,184,136184,1,0,0:0:0:0:
380,226,136256,1,0,0:0:0:0:
350,259,136328,1,0,0:0:0:0:
310,281,136400,1,0,0:0:0:0:
265,282,136472,2,0,P|203:300|176:339,1,75
137,167,136616,5,0,0:0:0:0:
140,114,136688,1,0,0:0:0:0:
171,71,136761,1,0,0:0:0:0:
214,41,136833,1,0,0:0:0:0:
264,26,136905,1,0,0:0:0:0:
316,26,136977,1,0,0:0:0:0:
364,45,137049,1,0,0:0:0:0:
400,82,137121,1,0,0:0:0:0:
422,129,137193,1,0,0:0:0:0:
436,179,137265,1,0,0:0:0:0:
432,231,137337,1,0,0:0:0:0:
420,282,137410,1,0,0:0:0:0:
387,323,137482,1,0,0:0:0:0:
339,344,137554,1,0,0:0:0:0:
286,345,137626,2,0,P|227:341|196:368,1,75
90,195,137770,5,0,0:0:0:0:
101,136,137842,1,0,0:0:0:0:
130,83,137914,1,0,0:0:0:0:
177,45,137987,1,0,0:0:0:0:
234,26,138059,1,0,0:0:0:0:
293,26,138131,1,0,0:0:0:0:
349,47,138203,2,0,P|421:85|465:81,1,75
414,228,138347,1,0,0:0:0:0:
384,280,138419,1,0,0:0:0:0:
338,318,138491,1,0,0:0:0:0:
281,336,138563,1,0,0:0:0:0:
220,339,138636,1,0,0:0:0:0:
170,305,138708,1,0,0:0:0:0:
138,253,138780,2,0,P|103:212|43:192,1,75
86,22,138924,5,0,0:0:0:0:
118,40,138996,1,0,0:0:0:0:
154,48,139068,1,0,0:0:0:0:
191,46,139140,1,0,0:0:0:0:
233,32,139212,1,0,0:0:0:0:
207,69,139285,1,0,0:0:0:0:
166,89,139357,1,0,0:0:0:0:
122,98,139429,1,0,0:0:0:0:
72,81,139501,1,0,0:0:0:0:
101,124,139573,1,0,0:0:0:0:
145,151,139645,1,0,0:0:0:0:
197,154,139717,1,0,0:0:0:0:
252,131,139789,1,0,0:0:0:0:
232,188,139862,1,0,0:0:0:0:
184,224,139934,1,0,0:0:0:0:
126,240,140006,1,0,0:0:0:0:
69,220,140078,6,0,P|26:179|16:131,1,75
68,2,140222,1,0,0:0:0:0:
100,43,140294,1,0,0:0:0:0:
147,64,140366,1,0,0:0:0:0:
199,67,140438,1,0,0:0:0:0:
250,54,140511,1,0,0:0:0:0:
299,37,140583,1,0,0:0:0:0:
351,32,140655,2,0,P|414:52|435:85,1,75
251,144,140799,1,0,0:0:0:0:
302,132,140871,1,0,0:0:0:0:
354,134,140943,2,0,P|427:161|450:184,1,75
227,254,141087,1,0,0:0:0:0:
276,234,141160,1,0,0:0:0:0:
328,234,141232,2,0,P|386:248|404:270,1,75
483,127,141376,5,0,0:0:0:0:
493,178,141448,1,0,0:0:0:0:
488,230,141520,1,0,0:0:0:0:
473,280,141592,1,0,0:0:0:0:
433,314,141664,1,0,0:0:0:0:
384,334,141737,1,0,0:0:0:0:
331,339,141809,1,0,0:0:0:0:
278,333,141881,1,0,0:0:0:0:
228,314,141953,1,0,0:0:0:0:
187,280,142025,1,0,0:0:0:0:
163,232,142097,2,0,P|128:189|84:177,1,75
71,69,142241,2,0,P|124:111|158:119,1,75
252,161,142386,2,0,P|216:115|164:96,1,75
99,3,142530,5,0,0:0:0:0:
137,38,142602,1,0,0:0:0:0:
189,38,142674,2,0,P|260:33|325:63,1,75
405,132,142818,2,0,P|322:119|292:95,1,75
170,167,142962,2,0,P|209:204|257:215,1,75
365,204,143107,1,0,0:0:0:0:
402,241,143179,1,0,0:0:0:0:
406,293,143251,2,0,P|404:336|427:379,1,75
249,331,143395,1,0,0:0:0:0:
279,288,143467,1,0,0:0:0:0:
284,235,143539,2,0,P|289:171|330:130,1,75
249,29,143684,5,0,0:0:0:0:
199,11,143756,1,0,0:0:0:0:
146,11,143828,1,0,0:0:0:0:
95,25,143900,1,0,0:0:0:0:
53,57,143972,1,0,0:0:0:0:
39,107,144044,1,0,0:0:0:0:
35,159,144116,1,0,0:0:0:0:
45,210,144188,1,0,0:0:0:0:
70,256,144261,1,0,0:0:0:0:
112,286,144333,1,0,0:0:0:0:
164,291,144405,1,0,0:0:0:0:
213,272,144477,1,0,0:0:0:0:
256,242,144549,2,0,P|277:180|273:138,1,75
249,29,144693,2,0,P|226:98|230:123,1,75
328,242,144837,5,0,0:0:0:0:
368,222,144910,1,0,0:0:0:0:
396,187,144982,1,0,0:0:0:0:
404,142,145054,1,0,0:0:0:0:
388,99,145126,1,0,0:0:0:0:
355,68,145198,1,0,0:0:0:0:
313,50,145270,1,0,0:0:0:0:
268,43,145342,1,0,0:0:0:0:
223,51,145414,1,0,0:0:0:0:
183,73,145487,1,0,0:0:0:0:
157,110,145559,1,0,0:0:0:0:
154,154,145631,1,0,0:0:0:0:
166,197,145703,2,0,P|169:253|152:302,1,75
326,285,145847,5,0,0:0:0:0:
374,266,145919,1,0,0:0:0:0:
407,225,145991,1,0,0:0:0:0:
431,178,146063,1,0,0:0:0:0:
434,124,146136,1,0,0:0:0:0:
415,75,146208,1,0,0:0:0:0:
375,41,146280,1,0,0:0:0:0:
325,24,146352,1,0,0:0:0:0:
272,20,146424,1,0,0:0:0:0:
219,25,146496,1,0,0:0:0:0:
172,49,146568,1,0,0:0:0:0:
140,90,146640,1,0,0:0:0:0:
121,139,146712,1,0,0:0:0:0:
117,192,146785,1,0,0:0:0:0:
137,240,146857,2,0,P|158:278|166:322,1,75
330,318,147001,5,0,0:0:0:0:
389,311,147073,1,0,0:0:0:0:
441,282,147145,1,0,0:0:0:0:
478,235,147217,1,0,0:0:0:0:
494,177,147289,1,0,0:0:0:0:
479,117,147362,1,0,0:0:0:0:
462,59,147434,2,0,P|473:28|508:1,1,75
290,16,147578,1,0,0:0:0:0:
320,67,147650,1,0,0:0:0:0:
329,126,147722,1,0,0:0:0:0:
309,182,147794,1,0,0:0:0:0:
268,226,147866,1,0,0:0:0:0:
208,233,147938,1,0,0:0:0:0:
149,248,148011,2,0,P|111:311|123:348,1,75
2,320,148155,5,0,0:0:0:0:
2,320,148227,1,0,0:0:0:0:
2,320,148299,2,0,L|42:228,1,75
22,113,148443,1,0,0:0:0:0:
22,113,148515,1,0,0:0:0:0:
22,113,148587,2,0,L|97:147,1,75
171,28,148732,2,0,L|219:104,1,75
180,238,148876,1,0,0:0:0:0:
230,270,148948,1,0,0:0:0:0:
289,269,149020,2,0,P|355:262|398:274,1,75
512,205,149164,2,0,P|467:196|417:205,1,75
245,152,149309,5,0,0:0:0:0:
289,156,149381,1,0,0:0:0:0:
331,141,149453,1,0,0:0:0:0:
365,112,149525,1,0,0:0:0:0:
357,67,149597,1,0,0:0:0:0:
323,37,149669,1,0,0:0:0:0:
280,22,149741,1,0,0:0:0:0:
235,24,149813,1,0,0:0:0:0:
194,43,149886,1,0,0:0:0:0:
160,72,149958,1,0,0:0:0:0:
115,78,150030,1,0,0:0:0:0:
71,67,150102,1,0,0:0:0:0:
29,84,150174,1,0,0:0:0:0:
9,124,150246,1,0,0:0:0:0:
10,168,150318,1,0,0:0:0:0:
42,198,150390,1,0,0:0:0:0:
64,236,150462,5,0,0:0:0:0:
94,202,150535,1,0,0:0:0:0:
135,185,150607,1,0,0:0:0:0:
179,186,150679,1,0,0:0:0:0:
218,208,150751,1,0,0:0:0:0:
249,239,150823,1,0,0:0:0:0:
263,281,150895,1,0,0:0:0:0:
287,318,150967,1,0,0:0:0:0:
325,340,151039,1,0,0:0:0:0:
370,341,151112,1,0,0:0:0:0:
411,323,151184,1,0,0:0:0:0:
433,284,151256,1,0,0:0:0:0:
437,239,151328,1,0,0:0:0:0:
437,194,151400,1,0,0:0:0:0:
427,150,151472,1,0,0:0:0:0:
430,105,151544,1,0,0:0:0:0:
450,64,151616,5,0,0:0:0:0:
407,78,151688,1,0,0:0:0:0:
361,84,151761,1,0,0:0:0:0:
316,79,151833,1,0,0:0:0:0:
275,60,151905,1,0,0:0:0:0:
236,36,151977,1,0,0:0:0:0:
191,27,152049,1,0,0:0:0:0:
146,32,152121,1,0,0:0:0:0:
108,56,152193,1,0,0:0:0:0:
150,70,152265,1,0,0:0:0:0:
187,95,152337,1,0,0:0:0:0:
208,135,152410,1,0,0:0:0:0:
210,179,152482,1,0,0:0:0:0:
193,220,152554,1,0,0:0:0:0:
164,254,152626,1,0,0:0:0:0:
122,272,152698,1,0,0:0:0:0:
77,274,152770,5,0,0:0:0:0:
107,307,152842,1,0,0:0:0:0:
145,330,152914,1,0,0:0:0:0:
189,338,152987,1,0,0:0:0:0:
233,330,153059,1,0,0:0:0:0:
271,306,153131,1,0,0:0:0:0:
299,271,153203,1,0,0:0:0:0:
341,256,153275,1,0,0:0:0:0:
385,256,153347,1,0,0:0:0:0:
428,266,153419,1,0,0:0:0:0:
472,257,153491,1,0,0:0:0:0:
504,226,153563,1,0,0:0:0:0:
502,180,153636,1,0,0:0:0:0:
486,137,153708,1,0,0:0:0:0:
477,93,153780,2,0,P|481:33|501:9,1,75
360,122,153924,5,0,0:0:0:0:
346,115,153996,1,0,0:0:0:0:
332,108,154068,1,0,0:0:0:0:
318,101,154140,1,0,0:0:0:0:
304,94,154212,1,0,0:0:0:0:
290,87,154285,1,0,0:0:0:0:
276,80,154357,1,0,0:0:0:0:
262,73,154429,1,0,0:0:0:0:
248,67,154501,1,0,0:0:0:0:
234,61,154573,1,0,0:0:0:0:
220,55,154645,1,0,0:0:0:0:
206,49,154717,1,0,0:0:0:0:
192,43,154789,1,0,0:0:0:0:
178,36,154862,1,0,0:0:0:0:
164,30,154934,1,0,0:0:0:0:
150,24,155006,1,0,0:0:0:0:
136,17,155078,5,0,0:0:0:0:
141,38,155150,1,0,0:0:0:0:
146,59,155222,1,0,0:0:0:0:
151,80,155294,1,0,0:0:0:0:
156,101,155366,1,0,0:0:0:0:
161,122,155438,1,0,0:0:0:0:
166,144,155511,1,0,0:0:0:0:
171,165,155583,1,0,0:0:0:0:
176,186,155655,1,0,0:0:0:0:
181,207,155727,1,0,0:0:0:0:
186,228,155799,1,0,0:0:0:0:
192,249,155871,1,0,0:0:0:0:
198,270,155943,1,0,0:0:0:0:
203,291,156015,1,0,0:0:0:0:
209,312,156087,1,0,0:0:0:0:
215,333,156160,1,0,0:0:0:0:
221,354,156232,5,0,0:0:0:0:
235,338,156304,1,0,0:0:0:0:
252,316,156376,1,0,0:0:0:0:
268,295,156448,1,0,0:0:0:0:
284,273,156520,1,0,0:0:0:0:
301,252,156592,1,0,0:0:0:0:
318,231,156664,1,0,0:0:0:0:
335,209,156737,1,0,0:0:0:0:
352,189,156809,1,0,0:0:0:0:
369,168,156881,1,0,0:0:0:0:
386,148,156953,1,0,0:0:0:0:
403,127,157025,1,0,0:0:0:0:
420,107,157097,1,0,0:0:0:0:
436,86,157169,1,0,0:0:0:0:
453,66,157241,1,0,0:0:0:0:
470,45,157313,1,0,0:0:0:0:
486,21,157386,6,0,L|488:92,1,37.5
456,23,157458,2,0,L|458:94,1,37.5
426,22,157530,2,0,L|427:84,1,37.5
396,21,157602,2,0,L|397:71,1,37.5
366,20,157674,2,0,L|366:62,1,37.5
336,19,157746,2,0,L|336:65,1,37.5
306,18,157818,2,0,L|306:64,1,37.5
276,17,157890,2,0,L|276:63,1,37.5
246,16,157962,2,0,L|246:60,1,37.5
215,15,158035,2,0,L|215:60,1,37.5
185,14,158107,2,0,L|185:57,1,37.5
155,13,158179,2,0,L|155:60,1,37.5
125,12,158251,2,0,L|125:58,1,37.5
95,11,158323,2,0,L|95:53,1,37.5
65,10,158395,2,0,L|65:56,1,37.5
35,9,158467,2,0,L|33:56,1,37.5
5,11,158539,5,0,0:0:0:0:
6,18,158612,1,0,0:0:0:0:
8,25,158684,1,0,0:0:0:0:
10,32,158756,1,0,0:0:0:0:
12,38,158828,1,0,0:0:0:0:
15,44,158900,1,0,0:0:0:0:
19,50,158972,1,0,0:0:0:0:
23,55,159044,1,0,0:0:0:0:
28,60,159116,1,0,0:0:0:0:
33,64,159188,1,0,0:0:0:0:
39,68,159261,1,0,0:0:0:0:
45,71,159333,1,0,0:0:0:0:
52,73,159405,1,0,0:0:0:0:
59,74,159477,1,0,0:0:0:0:
66,75,159549,1,0,0:0:0:0:
73,77,159621,1,0,0:0:0:0:
79,79,159693,5,0,0:0:0:0:
85,82,159765,1,0,0:0:0:0:
91,86,159837,1,0,0:0:0:0:
96,90,159910,1,0,0:0:0:0:
101,95,159982,1,0,0:0:0:0:
106,100,160054,1,0,0:0:0:0:
110,106,160126,1,0,0:0:0:0:
113,112,160198,1,0,0:0:0:0:
115,118,160270,1,0,0:0:0:0:
117,125,160342,1,0,0:0:0:0:
118,132,160414,1,0,0:0:0:0:
118,139,160487,1,0,0:0:0:0:
118,150,160559,6,0,L|95:171,1,25
106,209,160607,2,0,L|89:235,1,25
122,263,160655,2,0,L|131:291,1,25
182,303,160703,2,0,L|203:324,1,25
263,300,160751,2,0,L|290:313,1,25
334,279,160799,2,0,L|362:269,1,25
370,210,160847,1,0,0:0:0:0:
