osu file format v14

[General]
AudioFilename: audio.mp3
AudioLeadIn: 0
PreviewTime: 35512
Countdown: 0
SampleSet: Soft
StackLeniency: 1
Mode: 0
LetterboxInBreaks: 1
EpilepsyWarning: 1
WidescreenStoryboard: 1

[Editor]
DistanceSpacing: 0.5
BeatDivisor: 6
GridSize: 8
TimelineZoom: 1.1

[Metadata]
Title:STREAM TRAINING
TitleUnicode:STREAM TRAINING
Artist:Various artists
ArtistUnicode:Various artists
Creator:waywern2012
Version:STREAM LEVEL 1
Source:東方Project
Tags:butterfly little u.n.オーエンは彼女なのか? zun touhou project eosd remix contest t+pazolite Electric "Sister" Bitch Cirno Break flandre stream deathstream training leaf version 3rd eye in breast the 2hu satori komeiji scarlet SOUND VOLTEX INFINITE INFECTION 2 practice
BeatmapID:995312
BeatmapSetID:464894

[Difficulty]
HPDrainRate:6
CircleSize:4
OverallDifficulty:7
ApproachRate:9.3
SliderMultiplier:3
SliderTickRate:1

[Events]
//Background and Video events
0,0,"BACHGRAUND.jpg",0,0
//Break Periods
//Storyboard Layer 0 (Background)
//Storyboard Layer 1 (Fail)
//Storyboard Layer 2 (Pass)
//Storyboard Layer 3 (Foreground)
//Storyboard Sound Samples

[TimingPoints]
810,324.324324324324,4,2,0,100,1,0
59188,-100,4,2,0,100,0,1
87728,-100,4,2,0,100,0,0

[Colours]
Combo1 : 255,255,255
Combo2 : 255,0,0
Combo3 : 255,45,45
Combo4 : 255,89,89
Combo5 : 255,147,147

[HitObjects]
104,64,810,6,4,P|67:105|61:162,1,75
75,234,972,1,0,0:0:0:0:
100,206,1053,1,0,0:0:0:0:
135,195,1134,2,0,P|210:169|223:149,1,75
241,280,1296,1,0,0:0:0:0:
276,291,1377,1,0,0:0:0:0:
313,287,1458,1,0,0:0:0:0:
348,275,1540,1,0,0:0:0:0:
380,255,1621,1,0,0:0:0:0:
405,227,1702,1,0,0:0:0:0:
413,190,1783,2,0,L|396:109,1,75
305,52,1945,2,0,L|333:153,1,75
224,174,2107,6,4,L|149:95,1,75
93,39,2269,1,0,0:0:0:0:
64,62,2350,1,0,0:0:0:0:
52,97,2431,2,4,P|49:162|37:176,1,75
65,278,2593,1,0,0:0:0:0:
97,259,2675,1,0,0:0:0:0:
133,268,2756,2,0,P|204:290|240:266,1,75
245,187,2918,2,0,P|316:208|330:227,1,75
367,305,3080,1,4,0:0:0:0:
388,288,3134,1,0,0:0:0:0:
407,272,3188,1,0,0:0:0:0:
427,257,3242,1,0,0:0:0:0:
447,242,3296,1,0,0:0:0:0:
467,227,3350,1,0,0:0:0:0:
484,209,3404,6,0,P|491:151|467:120,1,75
400,63,3566,1,0,0:0:0:0:
369,84,3647,1,0,0:0:0:0:
331,90,3729,2,8,P|262:71|242:48,1,75
149,55,3891,1,0,0:0:0:0:
164,89,3972,1,0,0:0:0:0:
170,125,4053,1,0,0:0:0:0:
161,161,4134,1,0,0:0:0:0:
141,193,4215,2,0,P|122:251|131:278,1,75
219,311,4377,1,8,0:0:0:0:
229,272,4458,1,8,0:0:0:0:
250,241,4539,1,0,0:0:0:0:
281,221,4620,1,0,0:0:0:0:
306,193,4702,6,0,P|343:154|346:117,1,75
429,57,4864,2,0,P|441:151|456:163,1,75
492,219,5026,2,0,P|421:255|415:280,1,75
366,341,5188,1,0,0:0:0:0:
336,317,5269,1,0,0:0:0:0:
298,313,5350,2,0,P|205:303|185:285,1,75
213,201,5512,2,0,P|127:202|108:220,1,75
85,103,5674,1,8,0:0:0:0:
122,105,5755,1,8,0:0:0:0:
155,97,5837,1,8,0:0:0:0:
185,75,5918,1,8,0:0:0:0:
210,47,5999,6,0,P|286:18|323:27,1,75
363,90,6161,1,0,0:0:0:0:
357,127,6242,1,0,0:0:0:0:
372,161,6323,2,8,P|409:227|405:252,1,75
296,219,6485,2,0,P|286:287|270:302,1,75
178,250,6647,1,0,0:0:0:0:
144,268,6729,1,0,0:0:0:0:
107,274,6810,1,0,0:0:0:0:
70,267,6891,1,0,0:0:0:0:
38,246,6972,2,8,P|24:187|35:151,1,75,8|0,0:0|0:0,0:0:0:0:
82,76,7134,2,0,P|116:155|111:181,1,75
228,141,7296,6,0,L|273:58,1,75
282,107,7458,2,0,L|341:10,1,75
337,76,7620,2,0,L|385:7,1,75
473,77,7783,1,0,0:1:0:0:
450,106,7864,1,0,0:1:0:0:
442,142,7945,1,0,0:1:0:0:
445,179,8026,1,0,0:1:0:0:
457,214,8107,1,0,0:1:0:0:
474,247,8188,1,0,0:0:0:0:
495,277,8269,2,8,P|483:334|435:350,1,75
379,279,8431,5,8,0:0:0:0:
354,307,8512,1,8,0:0:0:0:
321,325,8593,2,0,P|255:328|221:302,1,75
168,245,8756,1,0,0:0:0:0:
193,218,8837,1,0,0:0:0:0:
229,208,8918,2,8,P|286:197|301:178,1,75
318,76,9080,1,0,0:0:0:0:
287,53,9161,1,0,0:0:0:0:
249,48,9242,2,0,P|158:66|143:81,1,75
132,158,9404,1,0,0:0:0:0:
98,140,9485,1,0,0:0:0:0:
73,111,9566,2,8,P|47:34|38:25,1,75
23,149,9729,5,0,0:0:0:0:
31,185,9810,1,0,0:0:0:0:
59,209,9891,2,0,L|146:239,1,75
100,257,10053,2,0,L|202:293,1,75
141,305,10215,2,0,L|244:348,1,75
246,227,10377,1,0,0:0:0:0:
277,247,10458,1,0,0:0:0:0:
312,258,10539,1,0,0:0:0:0:
349,253,10620,1,0,0:0:0:0:
383,238,10702,1,0,0:0:0:0:
407,209,10783,1,0,0:0:0:0:
421,174,10864,2,8,P|458:125|487:118,1,75
398,32,11026,2,8,P|333:70|316:68,1,75
231,29,11188,5,0,0:0:0:0:
195,42,11269,1,0,0:0:0:0:
163,62,11350,1,0,0:0:0:0:
136,88,11431,1,0,0:0:0:0:
115,119,11512,1,0,0:0:0:0:
103,154,11593,1,0,0:0:0:0:
101,191,11674,1,0,0:0:0:0:
107,227,11755,1,0,0:0:0:0:
123,261,11837,5,0,0:0:0:0:
140,227,11918,1,0,0:0:0:0:
167,201,11999,1,0,0:0:0:0:
202,189,12080,1,0,0:0:0:0:
239,189,12161,1,0,0:0:0:0:
274,201,12242,1,0,0:0:0:0:
310,210,12323,1,0,0:0:0:0:
347,206,12404,1,0,0:0:0:0:
383,199,12485,6,0,P|455:140|456:116,1,75
357,74,12646,1,0,0:0:0:0:
357,74,12728,2,0,P|301:83|276:67,1,75
170,93,12891,1,0,0:0:0:0:
170,93,12972,2,0,P|120:42|90:43,1,75
43,123,13134,5,0,0:0:0:0:
44,160,13215,1,0,0:0:0:0:
61,193,13296,1,0,0:0:0:0:
91,214,13377,1,0,0:0:0:0:
117,240,13458,1,0,0:0:0:0:
127,275,13539,1,0,0:0:0:0:
117,311,13620,1,0,0:0:0:0:
87,334,13702,1,0,0:0:0:0:
50,342,13783,2,0,P|10:310|11:280,1,75
49,185,13945,6,0,P|58:97|87:62,1,75,2|0,0:0|0:0,0:0:0:0:
126,112,14107,2,0,P|141:36|165:14,1,75,2|0,0:0|0:0,0:0:0:0:
235,96,14269,1,0,0:0:0:0:
263,71,14350,1,0,0:0:0:0:
299,64,14431,2,0,P|385:68|412:85,1,75,2|0,0:0|0:0,0:0:0:0:
421,164,14593,1,0,0:0:0:0:
421,164,14675,2,0,P|446:243|431:269,1,75,2|0,0:0|0:0,0:0:0:0:
342,265,14837,1,0,0:0:0:0:
342,265,14918,2,0,P|299:322|273:323,1,75,2|0,0:0|0:0,0:0:0:0:
237,228,15080,5,0,0:0:0:0:
237,228,15161,2,0,P|177:214|146:232,1,75,2|0,0:0|0:0,0:0:0:0:
163,105,15323,1,0,0:0:0:0:
163,105,15404,2,0,P|229:70|254:76,1,75,2|0,0:0|0:0,0:0:0:0:
375,68,15566,2,0,P|337:94|308:143,1,75,2|0,0:0|0:0,0:0:0:0:
400,195,15728,2,0,P|425:295|413:318,1,75,2|0,0:0|0:0,0:0:0:0:
317,257,15891,1,0,0:0:0:0:
317,257,15972,2,0,P|267:321|275:347,1,75,2|0,0:0|0:0,0:0:0:0:
206,212,16134,1,0,0:0:0:0:
206,212,16215,2,0,P|142:187|129:157,1,75,2|0,0:0|0:0,0:0:0:0:
164,74,16377,5,0,0:0:0:0:
197,56,16458,1,0,0:0:0:0:
234,55,16539,2,0,P|305:62|322:52,1,75,2|0,0:0|0:0,0:0:0:0:
455,49,16701,2,0,P|469:120|456:139,1,75,2|0,0:0|0:0,0:0:0:0:
367,166,16864,1,0,0:0:0:0:
388,196,16945,1,0,0:0:0:0:
398,231,17026,2,0,P|384:303|363:320,1,75,2|0,0:0|0:0,0:0:0:0:
286,247,17188,1,0,0:0:0:0:
286,247,17269,2,0,P|248:289|198:308,1,75,2|0,0:0|0:0,0:0:0:0:
195,191,17431,1,0,0:0:0:0:
195,191,17512,2,0,P|141:165|126:130,1,75,2|0,0:0|0:0,0:0:0:0:
175,49,17674,5,0,0:0:0:0:
175,49,17755,2,0,P|239:64|264:56,1,75,2|0,0:0|0:0,0:0:0:0:
300,161,17918,1,0,0:0:0:0:
300,161,17999,2,0,P|360:80|380:64,1,75,2|0,0:0|0:0,0:0:0:0:
477,37,18161,2,0,L|436:141,1,75,2|0,0:0|0:0,0:0:0:0:
448,219,18323,2,0,P|380:250|368:268,1,75,2|0,0:0|0:0,0:0:0:0:
272,222,18485,1,0,0:0:0:0:
272,222,18566,2,0,P|186:170|161:174,1,75,2|0,0:0|0:0,0:0:0:0:
237,63,18728,1,0,0:0:0:0:
237,63,18809,2,0,P|173:29|145:30,1,75,2|0,0:0|0:0,0:0:0:0:
22,43,18972,5,0,0:0:0:0:
54,62,19053,1,0,0:0:0:0:
69,96,19134,2,0,P|104:149|128:155,1,75,2|0,0:0|0:0,0:0:0:0:
37,236,19296,2,0,P|79:264|109:264,1,75,2|0,0:0|0:0,0:0:0:0:
188,192,19458,1,0,0:0:0:0:
222,177,19539,1,0,0:0:0:0:
259,174,19620,2,0,P|320:180|346:170,1,75,2|0,0:0|0:0,0:0:0:0:
287,72,19782,1,0,0:0:0:0:
287,72,19863,2,2,L|387:43,1,75,2|0,0:0|0:0,0:0:0:0:
440,129,20026,1,0,0:0:0:0:
440,129,20107,2,0,L|471:226,1,75,2|0,0:0|0:0,0:0:0:0:
381,277,20269,5,0,0:0:0:0:
381,277,20350,2,0,L|297:308,1,75,2|0,0:0|0:0,0:0:0:0:
219,223,20512,1,0,0:0:0:0:
219,223,20593,2,0,L|198:115,1,75
143,54,20755,2,0,P|66:98|66:122,1,75,2|0,0:0|0:0,0:0:0:0:
26,217,20918,2,0,P|65:238|78:283,1,75,2|0,0:0|0:0,0:0:0:0:
121,161,21080,1,0,0:0:0:0:
121,161,21161,2,0,P|192:115|239:134,1,75,2|0,0:0|0:0,0:0:0:0:
234,19,21323,1,0,0:0:0:0:
234,19,21404,2,0,P|302:28|320:50,1,75,2|0,0:0|0:0,0:0:0:0:
403,82,21566,5,0,0:0:0:0:
403,82,21647,1,0,0:0:0:0:
403,82,21729,2,0,P|453:158|451:194,1,75,2|0,0:0|0:0,0:0:0:0:
342,174,21891,2,0,P|352:232|381:256,1,75,2|0,0:0|0:0,0:0:0:0:
471,265,22053,1,0,0:0:0:0:
471,302,22134,1,0,0:0:0:0:
444,328,22215,2,0,P|379:346|368:368,1,75,2|0,0:0|0:0,0:0:0:0:
295,271,22377,1,0,0:0:0:0:
295,271,22458,2,0,L|195:210,1,75,2|0,0:0|0:0,0:0:0:0:
151,152,22620,1,0,0:0:0:0:
151,152,22702,2,0,L|239:106,1,75,2|0,0:0|0:0,0:0:0:0:
263,14,22864,5,0,0:0:0:0:
263,14,22945,2,0,L|338:78,1,75,2|0,0:0|0:0,0:0:0:0:
430,39,23107,1,0,0:0:0:0:
430,39,23188,2,0,L|433:132,1,75,2|0,0:0|0:0,0:0:0:0:
502,201,23350,1,0,0:0:0:0:
502,201,23431,2,0,L|414:265,1,75,2|0,0:0|0:0,0:0:0:0:
481,350,23592,1,0,0:0:0:0:
481,350,23674,2,0,L|385:310,1,75,2|0,0:0|0:0,0:0:0:0:
328,195,23837,1,0,0:0:0:0:
334,231,23918,1,0,0:0:0:0:
312,261,23999,2,0,P|256:298|249:342,1,75,2|0,0:0|0:0,0:0:0:0:
144,199,24161,6,0,P|97:237|67:238,1,75
63,128,24323,1,0,0:0:0:0:
90,102,24404,1,0,0:0:0:0:
124,86,24485,2,0,P|204:76|225:86,1,75
258,167,24647,2,0,P|321:67|332:62,1,75
384,47,24809,1,0,0:0:0:0:
384,47,24890,1,0,0:0:0:0:
384,47,24971,2,0,P|425:104|425:129,1,75
356,195,25134,1,0,0:0:0:0:
346,231,25215,1,0,0:0:0:0:
359,265,25296,2,0,P|407:306|448:301,1,75
308,340,25458,5,0,0:0:0:0:
271,329,25539,1,0,0:0:0:0:
240,306,25620,2,0,P|222:242|238:215,1,75
170,282,25782,2,0,P|152:218|168:191,1,75
96,263,25945,2,0,P|78:199|94:172,1,75
25,245,26107,2,0,P|7:181|23:154,1,75
28,65,26269,1,0,0:0:0:0:
51,94,26350,1,0,0:0:0:0:
87,103,26431,2,0,P|156:95|185:78,1,75
222,186,26593,5,0,0:0:0:0:
241,153,26675,1,0,0:0:0:0:
271,131,26756,2,0,P|340:105|372:116,1,75
488,110,26918,2,0,P|452:154|444:197,1,75
345,261,27080,2,0,P|400:309|403:335,1,75
194,298,27242,2,0,P|108:251|84:248,1,75
206,95,27404,2,0,P|139:31|126:34,1,75
53,91,27566,2,0,P|24:108|15:110,1,37.5
32,124,27647,2,0,P|4:142|0:151,1,37.5
29,163,27729,2,0,P|32:234|44:249,1,75
155,182,27891,2,0,P|219:184|247:213,1,75
302,49,28053,6,0,L|361:114,1,75
503,227,28215,2,0,L|416:210,1,75
288,274,28377,2,0,L|309:175,1,75
468,22,28539,2,0,L|456:133,1,75
398,279,28701,1,0,0:0:0:0:
374,308,28782,1,0,0:0:0:0:
342,328,28864,1,0,0:0:0:0:
306,340,28945,1,0,0:0:0:0:
268,342,29026,1,0,0:0:0:0:
231,335,29107,1,0,0:0:0:0:
196,320,29188,1,0,0:0:0:0:
171,291,29269,1,0,0:0:0:0:
163,254,29350,6,0,P|133:191|93:182,1,75
203,103,29512,1,0,0:0:0:0:
234,82,29593,1,0,0:0:0:0:
271,79,29675,2,0,P|360:76|380:64,1,75
491,108,29837,2,0,P|436:131|415:147,1,75
485,233,29999,1,0,0:0:0:0:
465,264,30080,1,0,0:0:0:0:
429,275,30161,2,0,P|369:246|356:212,1,75
285,99,30323,1,0,0:0:0:0:
285,99,30404,1,0,0:0:0:0:
285,99,30485,2,0,P|240:52|199:47,1,75
121,34,30646,5,0,0:0:0:0:
120,71,30728,1,0,0:0:0:0:
97,100,30809,2,0,L|34:159,1,75
142,150,30972,2,0,L|79:209,1,75
192,194,31134,2,0,L|129:253,1,75
237,242,31296,2,0,L|174:301,1,75
257,376,31458,1,0,0:0:0:0:
279,346,31539,1,0,0:0:0:0:
314,335,31620,2,0,L|385:314,1,75
447,218,31782,5,0,0:0:0:0:
413,234,31863,1,0,0:0:0:0:
376,224,31944,2,0,P|311:201|291:211,1,75
164,160,32107,2,0,P|222:151|247:158,1,75
376,100,32269,2,0,P|310:87|280:94,1,75
154,67,32431,2,0,P|215:51|243:55,1,75
372,19,32593,2,0,P|453:35|479:64,1,75
434,136,32755,2,0,L|373:156,1,37.5
413,179,32836,2,0,L|361:212,1,37.5
405,222,32917,2,0,P|424:311|449:318,1,75
301,243,33080,2,0,P|298:330|284:357,1,75
196,210,33242,5,0,0:0:0:0:
176,242,33323,1,0,0:0:0:0:
140,253,33404,1,0,0:0:0:0:
102,247,33485,1,0,0:0:0:0:
72,224,33566,1,0,0:0:0:0:
56,189,33648,1,0,0:0:0:0:
59,151,33729,1,0,0:0:0:0:
83,122,33810,1,0,0:0:0:0:
117,106,33891,1,0,0:0:0:0:
154,105,33972,1,0,0:0:0:0:
190,111,34053,1,0,0:0:0:0:
224,126,34134,1,0,0:0:0:0:
259,139,34215,1,0,0:0:0:0:
296,138,34296,1,0,0:0:0:0:
330,123,34377,1,0,0:0:0:0:
354,95,34458,1,0,0:0:0:0:
368,60,34539,6,0,P|408:11|456:13,1,75
475,104,34701,1,0,0:0:0:0:
489,138,34782,1,0,0:0:0:0:
482,174,34863,2,0,P|451:232|451:260,1,75
346,195,35026,1,0,0:0:0:0:
345,232,35107,1,0,0:0:0:0:
355,268,35188,2,0,P|399:313|433:319,1,75
260,297,35350,2,0,P|181:236|141:241,1,75
100,218,35512,1,0,0:0:0:0:
105,193,35566,1,0,0:0:0:0:
113,169,35620,1,0,0:0:0:0:
126,148,35674,1,0,0:0:0:0:
144,131,35728,1,0,0:0:0:0:
165,118,35782,1,0,0:0:0:0:
189,111,35837,6,0,P|257:114|286:97,1,75
349,41,35999,1,0,0:0:0:0:
384,52,36080,1,0,0:0:0:0:
409,79,36161,1,0,0:0:0:0:
415,115,36242,1,0,0:0:0:0:
415,152,36323,2,0,P|467:197|490:197,1,75
362,229,36485,1,0,0:0:0:0:
362,229,36566,2,0,P|346:311|311:318,1,75
266,236,36728,1,0,0:0:0:0:
266,236,36809,2,0,P|199:274|175:276,1,75
61,220,36972,2,0,P|114:227|145:219,1,75
72,86,37134,5,0,0:0:0:0:
101,62,37215,1,0,0:0:0:0:
138,60,37296,1,0,0:0:0:0:
173,71,37377,2,0,P|242:99|266:98,1,75
307,8,37539,1,0,0:0:0:0:
307,8,37620,2,0,P|358:54|365:81,1,75
472,57,37782,1,0,0:0:0:0:
472,57,37863,2,0,P|445:126|422:136,1,75
369,195,38026,2,0,L|443:210,1,50
381,232,38107,2,0,P|400:285|381:316,1,75
238,245,38269,2,0,P|261:290|257:325,1,75
131,236,38431,6,0,P|98:212|71:160,1,75
167,114,38592,1,0,0:0:0:0:
167,114,38674,2,0,P|201:41|214:35,1,75
290,101,38837,1,0,0:0:0:0:
290,101,38918,2,0,P|350:42|350:24,1,75
412,147,39080,1,0,0:0:0:0:
412,147,39161,2,0,P|466:93|467:75,1,75
466,211,39323,1,0,0:0:0:0:
466,211,39404,2,0,L|479:299,1,75
374,332,39566,2,0,L|374:252,1,75
339,149,39728,5,0,0:0:0:0:
301,154,39809,1,0,0:0:0:0:
263,154,39890,1,0,0:0:0:0:
226,145,39971,1,0,0:0:0:0:
194,125,40052,1,0,0:0:0:0:
169,96,40133,1,0,0:0:0:0:
149,63,40215,2,0,P|107:19|72:17,1,75
37,112,40377,1,0,0:0:0:0:
62,139,40458,1,0,0:0:0:0:
81,170,40539,1,0,0:0:0:0:
87,206,40620,1,0,0:0:0:0:
89,243,40701,2,0,P|107:309|128:316,1,75
195,239,40864,2,0,P|213:283|241:295,1,75
322,171,41026,5,0,0:0:0:0:
326,133,41107,1,0,0:0:0:0:
333,96,41188,2,0,P|402:58|423:65,1,75
474,133,41350,2,0,P|448:192|456:224,1,75
488,305,41512,1,0,0:0:0:0:
455,323,41593,1,0,0:0:0:0:
417,317,41674,1,0,0:0:0:0:
383,300,41755,1,0,0:0:0:0:
347,286,41837,1,0,0:0:0:0:
310,282,41918,1,0,0:0:0:0:
273,289,41999,2,0,P|213:332|205:351,1,75
66,303,42161,2,0,P|118:276|154:292,1,75
80,137,42323,5,0,0:1:0:0:
111,157,42404,1,0,0:1:0:0:
147,164,42485,1,0,0:1:0:0:
183,157,42566,1,0,0:0:0:0:
217,142,42647,2,0,P|281:97|299:97,1,75
408,29,42809,1,0,0:0:0:0:
390,62,42890,1,0,0:0:0:0:
389,99,42971,1,0,0:0:0:0:
396,135,43052,1,0,0:0:0:0:
424,160,43134,1,0,0:0:0:0:
450,185,43215,1,0,0:0:0:0:
465,219,43296,2,0,L|494:312,1,75
347,236,43458,2,0,L|356:333,1,75
214,255,43620,5,0,0:0:0:0:
193,223,43701,1,0,0:0:0:0:
191,185,43782,1,0,0:0:0:0:
206,150,43864,1,0,0:0:0:0:
213,113,43945,1,0,0:0:0:0:
197,78,44026,1,0,0:0:0:0:
171,50,44107,2,0,P|128:34|78:48,1,75
31,126,44269,1,0,0:0:0:0:
31,126,44350,2,0,P|88:162|96:175,1,75
50,271,44512,1,0,0:0:0:0:
50,271,44593,2,0,P|119:254|134:260,3,75
194,170,44918,5,0,0:0:0:0:
215,200,44999,1,0,0:0:0:0:
247,218,45080,1,0,0:0:0:0:
284,219,45161,2,0,P|348:198|365:186,1,75
282,107,45323,1,0,0:0:0:0:
282,107,45404,2,0,P|339:74|365:72,1,75
447,122,45566,1,0,0:0:0:0:
447,122,45647,2,0,P|488:202|484:220,1,75
407,261,45809,1,0,0:0:0:0:
407,261,45890,2,0,P|352:318|316:327,1,75
269,245,46052,2,0,P|215:294|202:316,1,75
72,245,46215,5,0,0:0:0:0:
108,238,46296,1,0,0:0:0:0:
140,218,46377,1,0,0:0:0:0:
165,190,46458,1,0,0:0:0:0:
182,157,46539,1,0,0:0:0:0:
201,125,46620,1,0,0:0:0:0:
228,98,46701,1,0,0:0:0:0:
263,85,46782,1,0,0:0:0:0:
300,83,46864,2,0,P|346:73|380:52,1,75
355,171,47026,1,0,0:0:0:0:
363,207,47107,1,0,0:0:0:0:
359,244,47188,1,0,0:0:0:0:
341,277,47269,1,0,0:0:0:0:
311,299,47350,1,0,0:0:0:0:
275,310,47431,1,0,0:0:0:0:
237,306,47512,6,0,B|196:318|196:318|151:285,1,75
75,236,47674,2,0,B|110:206|110:206|154:216,1,75
251,212,47837,1,8,0:0:0:0:
237,177,47918,1,0,0:0:0:0:
211,149,47999,1,0,0:0:0:0:
179,128,48080,1,0,0:0:0:0:
141,122,48161,2,0,B|103:139|103:139|52:102,1,75
133,11,48323,2,0,B|162:40|162:40|224:31,1,75
298,23,48485,1,8,0:0:0:0:
303,60,48566,1,0,0:0:0:0:
333,82,48647,1,0,0:0:0:0:
369,92,48729,1,0,0:0:0:0:
402,108,48810,6,0,P|444:157|450:187,1,75
401,308,48972,2,0,P|384:265|332:217,1,75
251,157,49134,2,0,P|229:215|241:238,1,75
44,331,49296,2,0,P|91:277|117:276,1,75
112,100,49458,2,0,P|139:177|151:182,1,75
189,306,49620,2,0,L|198:346,1,37.5
226,313,49701,2,0,L|266:341,1,37.5
258,293,49782,2,0,P|317:270|336:233,1,75
296,118,49945,2,0,P|375:141|385:156,1,75
479,264,50107,6,0,B|462:287|462:287|403:294,1,75
286,210,50269,2,0,B|318:191|318:191|395:208,1,75
469,100,50431,2,8,P|492:82|495:69,1,37.5
439,66,50512,1,0,0:0:0:0:
401,57,50593,1,0,0:0:0:0:
363,57,50674,2,8,L|351:17,1,37.5
323,70,50755,2,0,B|288:57|288:57|219:79,1,75
88,127,50918,2,0,B|118:148|118:148|169:135,1,75
147,266,51080,1,8,0:0:0:0:
162,299,51161,1,0,0:0:0:0:
194,317,51242,1,0,0:0:0:0:
231,327,51323,1,0,0:0:0:0:
268,330,51404,6,0,P|337:352|352:380,1,75
327,201,51565,1,0,0:0:0:0:
360,218,51647,1,0,0:0:0:0:
396,211,51728,2,0,P|455:183|496:192,1,75
487,73,51891,2,0,P|440:33|401:32,1,75
316,37,52053,1,0,0:0:0:0:
310,74,52134,1,0,0:0:0:0:
281,97,52215,2,0,P|229:137|219:161,1,75
174,43,52377,1,0,0:0:0:0:
138,56,52458,1,0,0:0:0:0:
121,89,52539,2,0,P|86:131|39:137,1,75
165,193,52701,5,0,0:0:0:0:
141,222,52782,1,0,0:0:0:0:
135,259,52863,2,0,P|155:306|195:313,1,75
324,302,53026,2,0,P|296:301|257:263,1,75
232,124,53188,2,0,P|283:162|314:156,1,75
435,120,53351,2,0,P|380:118|362:100,1,75
274,42,53512,1,0,0:0:0:0:
237,32,53593,1,0,0:0:0:0:
199,35,53675,2,0,P|134:51|105:43,1,75
26,99,53837,2,0,P|67:130|104:136,1,75
211,143,53999,5,0,0:0:0:0:
177,160,54080,1,0,0:0:0:0:
151,187,54161,1,0,0:0:0:0:
137,222,54242,1,0,0:0:0:0:
130,258,54323,1,0,0:0:0:0:
139,294,54404,1,0,0:0:0:0:
161,323,54485,1,0,0:0:0:0:
193,341,54566,1,0,0:0:0:0:
230,346,54647,1,0,0:0:0:0:
264,332,54728,1,0,0:0:0:0:
289,304,54809,1,0,0:0:0:0:
315,276,54891,1,0,0:0:0:0:
350,264,54972,1,0,0:0:0:0:
387,266,55053,1,0,0:0:0:0:
422,277,55134,1,0,0:0:0:0:
453,297,55215,1,0,0:0:0:0:
479,323,55296,5,0,0:0:0:0:
480,308,55377,1,0,0:0:0:0:
481,293,55458,1,0,0:0:0:0:
482,278,55539,1,0,0:0:0:0:
483,263,55620,1,0,0:0:0:0:
484,248,55701,1,0,0:0:0:0:
485,233,55782,1,0,0:0:0:0:
486,217,55864,1,0,0:0:0:0:
487,202,55945,1,0,0:0:0:0:
488,187,56026,1,0,0:0:0:0:
490,172,56107,1,0,0:0:0:0:
492,157,56188,1,0,0:0:0:0:
494,142,56269,1,0,0:0:0:0:
496,127,56350,1,0,0:0:0:0:
498,112,56431,1,0,0:0:0:0:
500,97,56512,1,0,0:0:0:0:
501,82,56593,6,0,P|463:23|433:23,1,75
392,110,56755,1,0,0:0:0:0:
366,83,56837,1,0,0:0:0:0:
334,66,56918,1,0,0:0:0:0:
296,64,56999,1,0,0:0:0:0:
258,68,57080,1,0,0:0:0:0:
223,83,57161,1,0,0:0:0:0:
197,110,57242,2,0,P|175:154|176:206,1,75
292,198,57404,1,0,0:0:0:0:
327,187,57485,1,0,0:0:0:0:
363,191,57566,1,0,0:0:0:0:
395,209,57647,1,0,0:0:0:0:
418,239,57729,1,0,0:0:0:0:
428,275,57810,1,0,0:0:0:0:
426,312,57891,6,0,L|291:310,1,75
90,310,58053,2,0,L|206:310,1,75
369,237,58215,2,0,L|272:237,1,75
118,235,58377,2,0,L|204:235,1,75
339,169,58539,2,8,L|252:168,1,75,8|0,0:0|0:0,0:0:0:0:
135,168,58701,2,0,L|244:167,1,75
316,111,58864,2,0,L|217:111,1,75
160,112,59026,2,0,L|250:110,1,75
349,13,59188,5,0,0:0:0:0:
383,27,59269,1,0,0:0:0:0:
411,50,59350,1,0,0:0:0:0:
431,81,59431,1,0,0:0:0:0:
443,116,59512,2,0,L|478:210,1,75
320,206,59674,2,0,L|286:285,1,75
194,158,59837,1,0,0:0:0:0:
157,151,59918,1,0,0:0:0:0:
125,131,59999,1,0,0:0:0:0:
103,100,60080,1,0,0:0:0:0:
94,63,60161,2,0,P|72:25|26:16,1,75
186,37,60323,5,0,0:0:0:0:
227,24,60404,1,0,0:0:0:0:
264,29,60485,2,0,P|325:47|361:44,1,75
481,83,60647,2,0,P|417:97|396:92,1,75
312,153,60809,2,0,P|386:180|407:174,1,75
487,210,60972,1,0,0:0:0:0:
471,244,61053,1,0,0:0:0:0:
441,267,61134,2,0,P|380:277|339:263,1,75
234,207,61296,1,0,0:0:0:0:
225,243,61377,1,0,0:0:0:0:
200,271,61458,2,0,P|145:290|107:278,1,75
159,179,61620,5,0,0:0:0:0:
122,168,61701,1,0,0:0:0:0:
100,137,61782,2,0,P|89:86|109:42,1,75
237,18,61945,1,0,0:0:0:0:
253,51,62026,1,0,0:0:0:0:
286,67,62107,2,0,P|347:79|375:73,1,75
497,134,62269,2,0,P|450:149|410:139,1,75
279,178,62431,1,0,0:0:0:0:
311,197,62512,1,0,0:0:0:0:
340,220,62594,2,0,P|354:299|329:326,1,75
213,250,62755,5,0,0:0:0:0:
179,267,62837,1,0,0:0:0:0:
142,275,62918,2,0,P|83:247|73:222,1,75
135,144,63080,1,0,0:0:0:0:
109,116,63161,1,0,0:0:0:0:
103,78,63242,2,0,P|126:32|159:18,1,75
249,110,63404,2,0,P|226:171|239:193,1,75
359,177,63566,1,0,0:0:0:0:
348,140,63647,1,0,0:0:0:0:
357,103,63729,2,0,P|396:64|430:69,1,75
507,179,63891,5,0,0:0:0:0:
491,213,63972,1,0,0:0:0:0:
464,239,64053,1,0,0:0:0:0:
428,251,64134,1,0,0:0:0:0:
390,256,64215,1,0,0:0:0:0:
352,254,64296,1,0,0:0:0:0:
318,236,64377,2,0,P|254:196|213:197,1,75
303,94,64539,1,0,0:0:0:0:
266,100,64620,1,0,0:0:0:0:
234,79,64702,2,0,P|181:52|141:50,1,75
40,130,64864,2,0,P|89:136|126:129,1,75
205,197,65026,5,0,0:0:0:0:
171,213,65107,1,0,0:0:0:0:
149,243,65188,2,0,P|150:311|186:339,1,75
300,333,65350,1,0,0:0:0:0:
293,296,65431,1,0,0:0:0:0:
303,260,65512,2,0,P|345:221|381:229,1,75
416,82,65674,5,0,0:0:0:0:
383,100,65755,1,0,0:0:0:0:
345,102,65836,2,0,P|295:63|289:36,1,75
141,45,65999,2,0,P|191:66|211:50,1,75
259,155,66161,1,0,0:0:0:0:
265,191,66242,1,0,0:0:0:0:
250,225,66323,2,0,P|153:212|151:201,1,75
96,316,66485,1,0,0:0:0:0:
125,338,66566,1,0,0:0:0:0:
162,339,66647,2,0,P|236:322|251:328,1,75
371,265,66809,5,0,0:0:0:0:
371,265,66890,1,0,0:0:0:0:
371,265,66971,2,0,P|432:227|441:202,1,75
427,76,67134,1,0,0:0:0:0:
398,100,67215,1,0,0:0:0:0:
363,114,67296,1,0,0:0:0:0:
325,115,67377,1,0,0:0:0:0:
288,105,67458,1,0,0:0:0:0:
255,86,67539,1,0,0:0:0:0:
223,65,67620,1,0,0:0:0:0:
186,55,67701,1,0,0:0:0:0:
148,59,67782,1,0,0:0:0:0:
112,72,67864,1,0,0:0:0:0:
80,92,67945,6,0,P|42:150|43:173,1,75
125,296,68107,2,0,P|138:231|120:204,1,75
285,268,68269,1,0,0:0:0:0:
321,274,68350,1,0,0:0:0:0:
358,268,68431,1,0,0:0:0:0:
388,246,68512,1,0,0:0:0:0:
407,213,68594,2,0,P|443:164|481:152,1,75
402,17,68755,2,0,P|373:72|346:82,1,75
224,22,68918,5,0,0:0:0:0:
187,13,68999,1,0,0:0:0:0:
150,20,69080,1,0,0:0:0:0:
116,36,69161,1,0,0:0:0:0:
88,61,69242,1,0,0:0:0:0:
68,93,69323,1,0,0:0:0:0:
58,129,69404,1,0,0:0:0:0:
56,166,69485,1,0,0:0:0:0:
63,202,69566,6,0,P|101:250|123:255,1,75
260,232,69728,1,0,0:0:0:0:
237,201,69809,1,0,0:0:0:0:
238,163,69890,2,0,P|288:116|331:127,1,75
395,222,70053,2,0,P|439:191|456:159,1,75
435,24,70215,1,0,0:0:0:0:
402,42,70296,1,0,0:0:0:0:
365,48,70377,1,0,0:0:0:0:
328,39,70458,1,0,0:0:0:0:
291,28,70539,1,0,0:0:0:0:
253,28,70620,1,0,0:0:0:0:
217,40,70701,2,0,P|187:88|199:143,1,75
40,143,70864,5,0,0:0:0:0:
77,147,70945,1,0,0:0:0:0:
114,151,71026,1,0,0:0:0:0:
151,155,71107,1,0,0:0:0:0:
188,159,71188,1,0,0:0:0:0:
225,163,71269,1,0,0:0:0:0:
262,167,71350,1,0,0:0:0:0:
299,171,71431,1,0,0:0:0:0:
336,176,71512,1,0,0:0:0:0:
316,198,71593,1,0,0:0:0:0:
296,220,71674,1,0,0:0:0:0:
276,242,71755,1,0,0:0:0:0:
256,265,71837,1,0,0:0:0:0:
236,288,71918,1,0,0:0:0:0:
217,311,71999,1,0,0:0:0:0:
198,334,72080,1,0,0:0:0:0:
172,350,72161,6,0,P|120:297|123:280,1,75
34,232,72323,1,0,0:0:0:0:
34,232,72404,1,0,0:0:0:0:
34,232,72485,2,0,P|50:173|82:149,1,75
111,23,72647,2,0,P|132:85|166:101,1,75
249,97,72809,1,0,0:0:0:0:
274,69,72890,1,0,0:0:0:0:
305,48,72971,2,0,P|355:44|410:62,1,75
496,143,73134,1,0,0:0:0:0:
463,161,73215,1,0,0:0:0:0:
453,197,73296,2,0,P|472:249|498:263,1,75
345,209,73458,5,0,0:0:0:0:
326,241,73539,1,0,0:0:0:0:
299,268,73621,2,0,P|253:283|220:269,1,75
231,162,73782,1,0,0:0:0:0:
231,162,73863,2,0,P|174:132|158:96,1,75
251,47,74026,1,0,0:0:0:0:
251,47,74107,2,0,P|321:45|342:31,1,75
353,152,74269,1,0,0:0:0:0:
353,152,74350,2,0,P|408:111|423:76,1,75
463,205,74512,1,0,0:0:0:0:
463,205,74593,2,0,P|481:283|469:308,1,75
371,259,74755,5,0,0:0:0:0:
345,287,74837,1,0,0:0:0:0:
310,302,74918,1,0,0:0:0:0:
273,308,74999,1,0,0:0:0:0:
238,293,75080,1,0,0:0:0:0:
217,261,75161,1,0,0:0:0:0:
215,223,75242,1,0,0:0:0:0:
230,188,75323,1,0,0:0:0:0:
245,153,75404,1,0,0:0:0:0:
241,115,75485,1,0,0:0:0:0:
222,82,75566,1,0,0:0:0:0:
192,58,75647,1,0,0:0:0:0:
155,49,75728,1,0,0:0:0:0:
119,61,75809,1,0,0:0:0:0:
92,87,75891,6,0,P|72:128|81:169,1,75
125,303,76053,2,0,P|148:250|179:226,1,75
284,321,76215,1,0,0:0:0:0:
304,289,76296,1,0,0:0:0:0:
336,273,76377,1,0,0:0:0:0:
373,273,76458,1,0,0:0:0:0:
409,264,76539,1,0,0:0:0:0:
436,238,76620,1,0,0:0:0:0:
450,203,76701,1,0,0:0:0:0:
448,165,76782,1,0,0:0:0:0:
426,133,76864,1,0,0:0:0:0:
393,113,76945,1,0,0:0:0:0:
356,119,77026,2,0,P|297:130|268:105,1,75
189,9,77188,5,0,0:0:0:0:
184,46,77269,1,0,0:0:0:0:
161,75,77350,2,0,P|133:105|126:158,1,75
263,191,77512,1,0,0:0:0:0:
228,205,77594,1,0,0:0:0:0:
201,231,77675,1,0,0:0:0:0:
194,267,77756,1,0,0:0:0:0:
206,302,77837,2,0,P|253:354|257:372,1,75
391,288,77999,1,0,0:0:0:0:
377,252,78080,1,0,0:0:0:0:
391,217,78161,2,0,P|412:170|400:136,1,75
325,23,78323,1,0,0:0:0:0:
329,60,78404,1,0,0:0:0:0:
310,92,78485,2,0,P|286:117|283:162,1,75
138,34,78647,5,0,0:0:0:0:
101,44,78728,1,0,0:0:0:0:
70,66,78809,1,0,0:0:0:0:
56,101,78890,1,0,0:0:0:0:
59,138,78971,2,0,P|102:173|148:170,1,75
196,92,79134,1,0,0:0:0:0:
232,101,79215,1,0,0:0:0:0:
253,131,79296,2,0,P|285:177|331:184,1,75
364,90,79458,2,0,P|431:102|461:93,1,75
312,15,79620,1,0,0:0:0:0:
274,15,79701,1,0,0:0:0:0:
238,25,79782,1,0,0:0:0:0:
206,44,79863,1,0,0:0:0:0:
182,72,79944,2,0,P|162:135|175:166,1,75
312,126,80107,5,0,0:0:0:0:
344,144,80188,1,0,0:0:0:0:
369,171,80269,1,0,0:0:0:0:
383,205,80350,1,0,0:0:0:0:
380,242,80431,1,0,0:0:0:0:
357,271,80512,1,0,0:0:0:0:
325,290,80593,1,0,0:0:0:0:
287,295,80674,1,0,0:0:0:0:
250,285,80755,2,0,P|192:273|139:292,1,75
80,159,80918,1,0,0:0:0:0:
111,179,80999,1,0,0:0:0:0:
148,181,81080,2,0,P|209:167|243:183,1,75
292,39,81242,6,0,P|244:69|210:64,1,75
125,21,81404,1,0,0:0:0:0:
92,38,81485,1,0,0:0:0:0:
67,65,81566,1,0,0:0:0:0:
53,99,81647,1,0,0:0:0:0:
49,136,81729,1,0,0:0:0:0:
55,172,81810,1,0,0:0:0:0:
76,202,81891,1,0,0:0:0:0:
106,223,81972,1,0,0:0:0:0:
142,228,82053,2,0,P|204:228|227:244,1,75
215,120,82215,1,0,0:0:0:0:
215,120,82296,2,0,P|269:137|292:132,1,75
309,24,82458,1,0,0:0:0:0:
309,24,82539,2,0,P|355:51|384:54,1,75
487,154,82701,5,0,0:0:0:0:
460,180,82782,1,0,0:0:0:0:
445,215,82864,1,0,0:0:0:0:
452,251,82945,1,0,0:0:0:0:
451,288,83026,2,0,P|436:336|398:353,1,75
336,270,83188,1,0,0:0:0:0:
298,264,83269,1,0,0:0:0:0:
264,280,83350,2,0,P|224:309|179:311,1,75
118,234,83512,1,0,0:0:0:0:
125,197,83593,1,0,0:0:0:0:
118,160,83674,2,0,P|86:102|60:93,1,75
175,37,83837,5,0,0:0:0:0:
206,57,83918,1,0,0:0:0:0:
235,33,83999,1,0,0:0:0:0:
257,62,84080,1,0,0:0:0:0:
280,32,84161,1,0,0:0:0:0:
302,61,84242,1,0,0:0:0:0:
320,28,84323,1,0,0:0:0:0:
338,60,84404,1,0,0:0:0:0:
351,24,84485,1,0,0:0:0:0:
369,56,84566,1,0,0:0:0:0:
382,21,84647,1,0,0:0:0:0:
392,56,84728,1,0,0:0:0:0:
407,21,84809,1,0,0:0:0:0:
414,58,84891,1,0,0:0:0:0:
423,21,84972,1,0,0:0:0:0:
432,57,85053,1,0,0:0:0:0:
450,33,85134,6,0,P|485:48|500:99,1,75
425,163,85296,1,0,0:0:0:0:
453,187,85377,1,0,0:0:0:0:
474,217,85458,1,0,0:0:0:0:
477,254,85539,1,0,0:0:0:0:
461,287,85620,1,0,0:0:0:0:
427,303,85701,1,0,0:0:0:0:
390,309,85782,1,0,0:0:0:0:
352,300,85864,1,0,0:0:0:0:
318,284,85945,1,0,0:0:0:0:
290,258,86026,1,0,0:0:0:0:
257,238,86107,1,0,0:0:0:0:
220,230,86188,1,0,0:0:0:0:
183,237,86269,1,0,0:0:0:0:
149,253,86350,1,0,0:0:0:0:
125,281,86431,6,0,P|96:337|71:353,1,75
23,207,86593,1,0,0:0:0:0:
23,207,86674,2,0,P|76:172|87:156,1,75
84,50,86837,1,0,0:0:0:0:
84,50,86918,2,0,P|143:73|167:68,1,75
249,14,87080,1,0,0:0:0:0:
272,43,87161,1,0,0:0:0:0:
308,50,87242,2,0,P|374:37|406:48,1,75
486,121,87404,5,0,0:0:0:0:
482,145,87458,1,0,0:0:0:0:
478,169,87512,1,0,0:0:0:0:
473,193,87566,1,0,0:0:0:0:
467,217,87620,1,0,0:0:0:0:
461,241,87674,1,0,0:0:0:0:
455,265,87728,6,0,P|423:303|385:315,1,75
364,205,87891,1,0,0:0:0:0:
364,205,87972,2,0,P|336:156|302:138,1,75
284,40,88134,1,0,0:0:0:0:
284,40,88215,2,0,P|207:57|185:82,1,75
101,37,88377,1,0,0:0:0:0:
101,37,88458,2,0,P|81:123|97:137,1,75
9,194,88620,1,0,0:0:0:0:
9,194,88702,2,0,P|49:219|83:219,1,75
185,243,88864,2,0,P|146:297|123:308,1,75
150,151,89026,5,0,0:0:0:0:
164,116,89107,1,0,0:0:0:0:
185,85,89188,1,0,0:0:0:0:
215,63,89269,1,0,0:0:0:0:
251,56,89350,1,0,0:0:0:0:
288,58,89431,1,0,0:0:0:0:
320,76,89512,2,0,P|375:91|403:78,1,75
426,192,89674,1,0,0:0:0:0:
448,221,89755,1,0,0:0:0:0:
461,256,89836,1,0,0:0:0:0:
454,292,89917,1,0,0:0:0:0:
426,317,89999,2,0,P|379:318|328:343,1,75
303,210,90161,2,0,P|266:230|216:225,1,75
158,100,90323,5,0,0:0:0:0:
121,93,90404,1,0,0:0:0:0:
85,104,90485,1,0,0:0:0:0:
58,130,90566,1,0,0:0:0:0:
46,165,90648,2,0,P|62:225|54:251,1,75
193,303,90809,1,0,0:0:0:0:
188,265,90890,1,0,0:0:0:0:
195,228,90971,1,0,0:0:0:0:
216,197,91052,1,0,0:0:0:0:
244,172,91134,1,0,0:0:0:0:
278,158,91215,1,0,0:0:0:0:
311,141,91296,2,0,P|337:113|344:65,1,75
424,189,91458,2,0,P|449:245|479:265,1,75
491,88,91620,5,0,0:0:0:0:
459,67,91701,1,0,0:0:0:0:
424,53,91782,1,0,0:0:0:0:
387,43,91864,1,0,0:0:0:0:
349,38,91945,1,0,0:0:0:0:
311,38,92026,1,0,0:0:0:0:
274,46,92107,2,0,P|206:73|169:65,1,75
103,27,92269,1,0,0:0:0:0:
69,44,92350,1,0,0:0:0:0:
43,71,92431,1,0,0:0:0:0:
32,107,92512,1,0,0:0:0:0:
42,142,92593,2,0,P|78:195|111:211,1,75
214,170,92755,2,0,P|218:241|230:257,1,75
362,286,92918,5,0,0:0:0:0:
390,262,92999,1,0,0:0:0:0:
408,229,93080,1,0,0:0:0:0:
413,192,93161,1,0,0:0:0:0:
407,154,93242,1,0,0:0:0:0:
391,120,93323,1,0,0:0:0:0:
359,99,93404,1,0,0:0:0:0:
323,87,93485,1,0,0:0:0:0:
285,92,93566,2,0,P|225:121|191:121,1,75
52,24,93728,2,0,P|111:32|156:18,1,75
58,172,93891,5,0,0:0:0:0:
73,191,93945,1,0,0:0:0:0:
88,210,93999,1,0,0:0:0:0:
103,229,94053,1,0,0:0:0:0:
118,248,94107,1,0,0:0:0:0:
134,267,94161,1,0,0:0:0:0:
150,286,94215,6,0,P|213:317|253:306,1,75
225,220,94377,1,0,0:0:0:0:
225,220,94458,2,0,P|291:238|315:239,1,75
285,147,94620,1,0,0:0:0:0:
285,147,94701,2,0,P|360:157|379:155,1,75
336,66,94864,1,0,0:0:0:0:
336,66,94945,2,0,P|424:77|446:73,1,75
396,0,95107,1,0,0:0:0:0:
396,0,95188,2,0,P|469:8|494:3,1,75
282,18,95350,2,0,P|231:32|173:27,1,75
219,182,95512,5,0,0:0:0:0:
204,147,95593,1,0,0:0:0:0:
178,119,95674,1,0,0:0:0:0:
147,97,95755,1,0,0:0:0:0:
110,87,95837,1,0,0:0:0:0:
72,88,95918,1,0,0:0:0:0:
40,108,95999,1,0,0:0:0:0:
21,140,96080,1,0,0:0:0:0:
23,177,96161,1,0,0:0:0:0:
41,209,96242,1,0,0:0:0:0:
68,234,96323,1,0,0:0:0:0:
103,247,96404,1,0,0:0:0:0:
132,269,96485,1,0,0:0:0:0:
154,299,96566,1,0,0:0:0:0:
170,332,96647,2,0,P|205:369|252:370,1,75
244,224,96809,6,0,B|272:258|272:258|308:274,1,75
250,129,96972,2,0,B|204:97|204:97|196:39,1,75
302,29,97134,1,8,0:0:0:0:
339,29,97215,1,0,0:0:0:0:
372,45,97296,2,0,P|391:55|409:54,2,37.5
425,150,97458,2,0,B|464:157|464:157|501:201,1,75
412,268,97620,2,0,B|363:262|363:262|331:221,1,75
303,98,97783,1,8,0:0:0:0:
287,132,97864,1,0,0:0:0:0:
256,153,97945,1,0,0:0:0:0:
221,166,98026,1,0,0:0:0:0:
184,158,98107,6,0,P|123:122|91:127,1,75
101,270,98269,1,0,0:0:0:0:
72,245,98350,1,0,0:0:0:0:
59,209,98431,1,0,0:0:0:0:
53,171,98512,1,0,0:0:0:0:
55,133,98594,1,0,0:0:0:0:
70,99,98675,1,0,0:0:0:0:
95,71,98756,1,0,0:0:0:0:
127,51,98837,1,0,0:0:0:0:
162,37,98918,1,0,0:0:0:0:
199,37,98999,1,0,0:0:0:0:
235,47,99080,1,0,0:0:0:0:
268,63,99161,1,0,0:0:0:0:
295,88,99242,2,0,P|351:110|381:103,1,75
438,23,99404,6,0,B|478:37|478:37|498:81,1,75
415,195,99566,2,0,B|442:223|442:223|496:224,1,75
336,274,99728,2,8,L|331:316,1,37.5
292,296,99809,1,0,0:0:0:0:
247,299,99891,1,0,0:0:0:0:
209,294,99972,2,8,P|191:319|179:341,1,37.5
177,265,100053,2,0,P|141:214|113:210,1,75
52,84,100215,2,0,P|126:114|153:109,1,75
218,2,100377,1,8,0:0:0:0:
232,36,100458,1,0,0:0:0:0:
263,56,100539,1,0,0:0:0:0:
300,64,100621,1,0,0:0:0:0:
336,56,100702,2,0,P|382:39|420:38,1,75
471,172,100864,5,0,0:0:0:0:
435,160,100945,1,0,0:0:0:0:
397,156,101026,1,0,0:0:0:0:
359,166,101107,1,0,0:0:0:0:
328,188,101188,1,0,0:0:0:0:
304,217,101269,1,0,0:0:0:0:
299,254,101350,1,0,0:0:0:0:
288,289,101431,1,0,0:0:0:0:
264,318,101512,1,0,0:0:0:0:
229,331,101593,1,0,0:0:0:0:
191,332,101674,2,0,P|138:319|98:326,1,75
36,193,101837,2,0,P|98:219|126:214,1,75
135,72,101999,5,0,0:0:0:0:
158,100,102080,1,0,0:0:0:0:
192,114,102161,1,0,0:0:0:0:
227,103,102242,1,0,0:0:0:0:
256,79,102323,1,0,0:0:0:0:
284,54,102404,1,0,0:0:0:0:
319,43,102485,1,0,0:0:0:0:
356,46,102566,1,0,0:0:0:0:
389,61,102647,2,0,P|475:89|498:83,1,75
383,176,102809,1,0,0:0:0:0:
383,176,102890,2,0,P|446:232|446:249,1,75
293,239,103053,1,0,0:0:0:0:
293,239,103134,2,0,P|332:294|336:309,1,75
184,187,103296,5,0,0:0:0:0:
146,191,103377,1,0,0:0:0:0:
109,184,103458,1,0,0:0:0:0:
78,162,103539,1,0,0:0:0:0:
71,125,103620,1,0,0:0:0:0:
89,92,103701,1,0,0:0:0:0:
119,70,103782,1,0,0:0:0:0:
155,60,103864,1,0,0:0:0:0:
192,65,103945,1,0,0:0:0:0:
226,79,104026,1,0,0:0:0:0:
263,81,104107,1,0,0:0:0:0:
297,65,104188,1,0,0:0:0:0:
322,37,104269,1,0,0:0:0:0:
356,23,104350,1,0,0:0:0:0:
393,24,104431,2,0,P|450:36|489:27,1,75
409,173,104593,5,0,0:0:0:0:
441,190,104674,1,0,0:0:0:0:
460,221,104755,1,0,0:0:0:0:
468,258,104837,1,0,0:0:0:0:
452,292,104918,1,0,0:0:0:0:
420,312,104999,1,0,0:0:0:0:
383,320,105080,1,0,0:0:0:0:
345,318,105161,1,0,0:0:0:0:
309,307,105242,1,0,0:0:0:0:
272,297,105323,1,0,0:0:0:0:
234,299,105404,1,0,0:0:0:0:
197,305,105485,1,0,0:0:0:0:
160,296,105566,1,0,0:0:0:0:
133,269,105647,1,0,0:0:0:0:
126,232,105728,2,0,P|106:170|90:163,1,75
163,30,105891,5,0,0:0:0:0:
186,59,105972,1,0,0:0:0:0:
216,80,106053,1,0,0:0:0:0:
253,79,106134,1,0,0:0:0:0:
287,64,106215,1,0,0:0:0:0:
324,59,106296,1,0,0:0:0:0:
360,66,106377,1,0,0:0:0:0:
389,88,106458,1,0,0:0:0:0:
410,118,106539,1,0,0:0:0:0:
406,155,106620,1,0,0:0:0:0:
386,187,106701,1,0,0:0:0:0:
351,201,106782,1,0,0:0:0:0:
316,216,106864,1,0,0:0:0:0:
296,248,106945,1,0,0:0:0:0:
291,285,107026,2,0,P|311:334|334:356,1,75
446,260,107188,5,2,0:0:0:0:
463,226,107269,1,0,0:0:0:0:
467,188,107350,1,0,0:0:0:0:
453,153,107431,1,0,0:0:0:0:
427,125,107512,1,2,0:0:0:0:
395,104,107593,1,0,0:0:0:0:
357,101,107674,1,0,0:0:0:0:
319,103,107755,1,0,0:0:0:0:
286,122,107837,2,0,P|243:165|236:192,1,75,2|0,0:0|0:0,0:0:0:0:
129,74,107999,2,0,P|94:31|85:7,1,75,2|0,0:0|0:0,0:0:0:0:
64,240,108161,6,4,L|29:213,1,37.5,4|6,0:0|0:0,0:0:0:0:
49,260,108242,2,4,L|91:255,1,37.5,4|6,0:0|0:0,0:0:0:0:
48,293,108323,2,4,L|13:266,1,37.5,4|4,0:0|0:0,0:0:0:0:
34,314,108404,2,4,L|76:309,1,37.5
33,347,108485,1,4,0:0:0:0:
