osu file format v14

[General]
AudioFilename: Vitalization.mp3
AudioLeadIn: 0
PreviewTime: 71385
Countdown: 0
SampleSet: Normal
StackLeniency: 0.7
Mode: 3
LetterboxInBreaks: 0
SpecialStyle: 0
WidescreenStoryboard: 1

[Editor]
DistanceSpacing: 0.5
BeatDivisor: 4
GridSize: 32
TimelineZoom: 2.699999

[Metadata]
Title:Nixo's JumpStream MiniPack 1
TitleUnicode:Nixo's JumpStream MiniPack 1
Artist:Various artists
ArtistUnicode:Various artists
Creator:Nixo
Version:Vitalization
Source:
Tags:NixoNS stepmania jumpstream pack
BeatmapID:869823
BeatmapSetID:399642

[Difficulty]
HPDrainRate:8
CircleSize:4
OverallDifficulty:7
ApproachRate:5
SliderMultiplier:1.4
SliderTickRate:1

[Events]
//Background and Video events
0,0,"Vitalization bg.jpg",0,0
//Break Periods
//Storyboard Layer 0 (Background)
//Storyboard Layer 1 (Fail)
//Storyboard Layer 2 (Pass)
//Storyboard Layer 3 (Foreground)
//Storyboard Sound Samples

[TimingPoints]
649,315.789473684211,4,1,0,0,1,0

[HitObjects]
64,192,649,5,0,0:0:0:0:
320,192,649,128,0,1596:0:0:0:0:
448,192,649,128,0,1596:0:0:0:0:
64,192,1596,1,0,0:0:0:0:
448,192,1675,1,0,0:0:0:0:
64,192,1754,1,0,0:0:0:0:
448,192,1833,1,0,0:0:0:0:
192,192,1912,5,0,0:0:0:0:
320,192,1912,1,0,0:0:0:0:
64,192,1912,1,0,0:0:0:0:
448,192,2070,1,0,0:0:0:0:
192,192,2070,1,0,0:0:0:0:
64,192,2227,1,0,0:0:0:0:
192,192,2227,1,0,0:0:0:0:
448,192,2227,1,0,0:0:0:0:
192,192,2385,1,0,0:0:0:0:
320,192,2385,1,0,0:0:0:0:
192,192,2543,1,0,0:0:0:0:
448,192,2543,1,0,0:0:0:0:
64,192,2543,1,0,0:0:0:0:
192,192,2701,1,0,0:0:0:0:
448,192,2701,1,0,0:0:0:0:
320,192,2859,1,0,0:0:0:0:
448,192,2859,1,0,0:0:0:0:
192,192,2938,1,0,0:0:0:0:
64,192,2938,1,0,0:0:0:0:
320,192,3017,1,0,0:0:0:0:
448,192,3017,1,0,0:0:0:0:
192,192,3096,1,0,0:0:0:0:
64,192,3096,1,0,0:0:0:0:
320,192,3175,1,0,0:0:0:0:
448,192,3175,1,0,0:0:0:0:
448,192,3412,1,0,0:0:0:0:
448,192,3649,1,0,0:0:0:0:
64,192,3806,1,0,0:0:0:0:
448,192,3885,1,0,0:0:0:0:
64,192,3964,1,0,0:0:0:0:
192,192,3964,1,0,0:0:0:0:
320,192,4043,1,0,0:0:0:0:
448,192,4043,1,0,0:0:0:0:
64,192,4122,1,0,0:0:0:0:
320,192,4280,1,0,0:0:0:0:
192,192,4359,1,0,0:0:0:0:
448,192,4438,128,0,5070:0:0:0:0:
64,192,4438,1,0,0:0:0:0:
320,192,4438,1,0,0:0:0:0:
192,192,4912,128,0,5385:0:0:0:0:
64,192,5070,128,0,5385:0:0:0:0:
320,192,5385,1,0,0:0:0:0:
448,192,5543,128,0,6333:0:0:0:0:
64,192,5543,128,0,6333:0:0:0:0:
320,192,6649,128,0,6964:0:0:0:0:
192,192,6806,128,0,6964:0:0:0:0:
448,192,6964,128,0,7754:0:0:0:0:
64,192,7280,1,0,0:0:0:0:
64,192,7438,128,0,7754:0:0:0:0:
320,192,7754,128,0,8070:0:0:0:0:
192,192,8070,128,0,8543:0:0:0:0:
320,192,8227,128,0,8543:0:0:0:0:
64,192,8543,1,0,0:0:0:0:
64,192,8701,128,0,9017:0:0:0:0:
192,192,9175,128,0,9333:0:0:0:0:
320,192,9333,128,0,9491:0:0:0:0:
448,192,9491,128,0,10122:0:0:0:0:
64,192,9491,1,0,0:0:0:0:
192,192,9491,128,0,9964:0:0:0:0:
320,192,9964,1,0,0:0:0:0:
64,192,10122,128,0,10438:0:0:0:0:
320,192,10280,1,0,0:0:0:0:
192,192,10438,128,0,10754:0:0:0:0:
448,192,10596,1,0,0:0:0:0:
320,192,10754,128,0,11701:0:0:0:0:
192,192,11070,128,0,11385:0:0:0:0:
64,192,11385,128,0,11543:0:0:0:0:
192,192,11701,1,0,0:0:0:0:
448,192,11701,1,0,0:0:0:0:
64,192,11701,1,0,0:0:0:0:
64,192,12017,1,0,0:0:0:0:
448,192,12017,1,0,0:0:0:0:
320,192,12017,128,0,12333:0:0:0:0:
448,192,12333,1,0,0:0:0:0:
192,192,12333,128,0,12649:0:0:0:0:
448,192,12649,1,0,0:0:0:0:
64,192,12649,128,0,13122:0:0:0:0:
320,192,12885,128,0,13122:0:0:0:0:
448,192,13122,1,0,0:0:0:0:
64,192,13280,1,0,0:0:0:0:
192,192,13280,1,0,0:0:0:0:
320,192,13280,1,0,0:0:0:0:
448,192,13280,128,0,13596:0:0:0:0:
320,192,13596,128,0,13912:0:0:0:0:
192,192,13912,128,0,14227:0:0:0:0:
448,192,14070,1,0,0:0:0:0:
64,192,14227,128,0,14543:0:0:0:0:
448,192,14227,1,0,0:0:0:0:
320,192,14227,1,0,0:0:0:0:
192,192,14385,1,0,0:0:0:0:
448,192,14543,1,0,0:0:0:0:
192,192,14543,1,0,0:0:0:0:
320,192,14543,1,0,0:0:0:0:
320,192,14701,1,0,0:0:0:0:
448,192,14701,1,0,0:0:0:0:
64,192,15017,1,0,0:0:0:0:
192,192,15017,1,0,0:0:0:0:
448,192,15017,1,0,0:0:0:0:
192,192,15175,1,0,0:0:0:0:
448,192,15175,1,0,0:0:0:0:
64,192,15491,1,0,0:0:0:0:
192,192,15491,1,0,0:0:0:0:
320,192,15491,1,0,0:0:0:0:
64,192,15649,1,0,0:0:0:0:
192,192,15649,1,0,0:0:0:0:
448,192,15964,1,0,0:0:0:0:
320,192,15964,1,0,0:0:0:0:
64,192,15964,1,0,0:0:0:0:
320,192,16122,1,0,0:0:0:0:
448,192,16122,1,0,0:0:0:0:
64,192,16438,1,0,0:0:0:0:
192,192,16438,1,0,0:0:0:0:
320,192,16438,1,0,0:0:0:0:
448,192,16438,1,0,0:0:0:0:
64,192,16754,1,0,0:0:0:0:
192,192,16754,1,0,0:0:0:0:
320,192,16754,1,0,0:0:0:0:
448,192,16754,1,0,0:0:0:0:
192,192,17070,1,0,0:0:0:0:
320,192,17070,1,0,0:0:0:0:
64,192,17070,1,0,0:0:0:0:
192,192,17227,1,0,0:0:0:0:
320,192,17227,1,0,0:0:0:0:
448,192,17543,1,0,0:0:0:0:
192,192,17543,1,0,0:0:0:0:
64,192,17543,1,0,0:0:0:0:
64,192,17701,1,0,0:0:0:0:
192,192,17701,1,0,0:0:0:0:
448,192,18017,1,0,0:0:0:0:
320,192,18017,1,0,0:0:0:0:
192,192,18017,1,0,0:0:0:0:
192,192,18175,1,0,0:0:0:0:
320,192,18175,1,0,0:0:0:0:
448,192,18491,1,0,0:0:0:0:
320,192,18491,1,0,0:0:0:0:
64,192,18491,1,0,0:0:0:0:
64,192,18649,1,0,0:0:0:0:
320,192,18649,1,0,0:0:0:0:
64,192,18964,1,0,0:0:0:0:
192,192,18964,1,0,0:0:0:0:
448,192,18964,1,0,0:0:0:0:
320,192,18964,1,0,0:0:0:0:
64,192,19280,1,0,0:0:0:0:
192,192,19280,1,0,0:0:0:0:
320,192,19280,1,0,0:0:0:0:
448,192,19280,1,0,0:0:0:0:
64,192,19596,1,0,0:0:0:0:
192,192,19596,1,0,0:0:0:0:
320,192,19596,1,0,0:0:0:0:
448,192,19754,1,0,0:0:0:0:
192,192,19754,1,0,0:0:0:0:
320,192,19912,1,0,0:0:0:0:
64,192,19912,1,0,0:0:0:0:
448,192,19912,1,0,0:0:0:0:
320,192,20070,1,0,0:0:0:0:
64,192,20070,1,0,0:0:0:0:
192,192,20227,1,0,0:0:0:0:
320,192,20227,1,0,0:0:0:0:
448,192,20227,1,0,0:0:0:0:
448,192,20385,1,0,0:0:0:0:
192,192,20385,1,0,0:0:0:0:
192,192,20543,1,0,0:0:0:0:
64,192,20543,1,0,0:0:0:0:
448,192,20543,1,0,0:0:0:0:
320,192,20701,1,0,0:0:0:0:
64,192,20701,1,0,0:0:0:0:
64,192,20859,1,0,0:0:0:0:
192,192,20859,1,0,0:0:0:0:
320,192,20938,1,0,0:0:0:0:
448,192,20938,1,0,0:0:0:0:
192,192,21017,1,0,0:0:0:0:
64,192,21017,1,0,0:0:0:0:
320,192,21096,1,0,0:0:0:0:
448,192,21096,1,0,0:0:0:0:
192,192,21175,1,0,0:0:0:0:
64,192,21175,1,0,0:0:0:0:
320,192,21254,1,0,0:0:0:0:
448,192,21254,1,0,0:0:0:0:
192,192,21333,1,0,0:0:0:0:
64,192,21333,1,0,0:0:0:0:
320,192,21412,1,0,0:0:0:0:
448,192,21412,1,0,0:0:0:0:
64,192,21491,1,0,0:0:0:0:
192,192,21530,1,0,0:0:0:0:
448,192,21570,1,0,0:0:0:0:
320,192,21609,1,0,0:0:0:0:
64,192,21649,1,0,0:0:0:0:
192,192,21688,1,0,0:0:0:0:
448,192,21727,1,0,0:0:0:0:
320,192,21767,1,0,0:0:0:0:
64,192,21806,1,0,0:0:0:0:
192,192,21846,1,0,0:0:0:0:
448,192,21885,1,0,0:0:0:0:
320,192,21925,1,0,0:0:0:0:
64,192,21964,1,0,0:0:0:0:
192,192,22004,1,0,0:0:0:0:
448,192,22043,1,0,0:0:0:0:
320,192,22083,1,0,0:0:0:0:
64,192,22122,128,0,22438:0:0:0:0:
192,192,22122,1,0,0:0:0:0:
320,192,22438,128,0,22754:0:0:0:0:
192,192,22438,1,0,0:0:0:0:
448,192,22596,1,0,0:0:0:0:
64,192,22596,1,0,0:0:0:0:
192,192,22596,1,0,0:0:0:0:
64,192,22754,128,0,23070:0:0:0:0:
448,192,22754,1,0,0:0:0:0:
192,192,22912,1,0,0:0:0:0:
448,192,22912,1,0,0:0:0:0:
320,192,23070,128,0,23543:0:0:0:0:
448,192,23070,1,0,0:0:0:0:
192,192,23070,1,0,0:0:0:0:
448,192,23227,128,0,23543:0:0:0:0:
64,192,23227,1,0,0:0:0:0:
192,192,23227,1,0,0:0:0:0:
192,192,23543,1,0,0:0:0:0:
64,192,23543,128,0,23859:0:0:0:0:
192,192,23701,128,0,24017:0:0:0:0:
320,192,23701,1,0,0:0:0:0:
448,192,23701,1,0,0:0:0:0:
320,192,23859,1,0,0:0:0:0:
448,192,23859,128,0,24017:0:0:0:0:
320,192,24017,128,0,24333:0:0:0:0:
64,192,24017,1,0,0:0:0:0:
64,192,24175,1,0,0:0:0:0:
448,192,24175,1,0,0:0:0:0:
192,192,24175,128,0,24333:0:0:0:0:
448,192,24333,128,0,24649:0:0:0:0:
64,192,24333,1,0,0:0:0:0:
320,192,24491,1,0,0:0:0:0:
64,192,24491,1,0,0:0:0:0:
192,192,24491,1,0,0:0:0:0:
320,192,24649,1,0,0:0:0:0:
192,192,24649,128,0,24964:0:0:0:0:
64,192,24649,1,0,0:0:0:0:
64,192,24964,128,0,25280:0:0:0:0:
320,192,24964,1,0,0:0:0:0:
320,192,25122,128,0,25438:0:0:0:0:
192,192,25122,1,0,0:0:0:0:
448,192,25122,1,0,0:0:0:0:
192,192,25280,128,0,25596:0:0:0:0:
448,192,25280,1,0,0:0:0:0:
448,192,25438,128,0,25754:0:0:0:0:
320,192,25596,1,0,0:0:0:0:
64,192,25596,1,0,0:0:0:0:
320,192,25754,128,0,26070:0:0:0:0:
192,192,25754,1,0,0:0:0:0:
64,192,25754,1,0,0:0:0:0:
64,192,26070,128,0,26385:0:0:0:0:
448,192,26070,1,0,0:0:0:0:
192,192,26227,128,0,26543:0:0:0:0:
320,192,26227,1,0,0:0:0:0:
448,192,26385,128,0,26701:0:0:0:0:
320,192,26385,1,0,0:0:0:0:
320,192,26543,128,0,26859:0:0:0:0:
64,192,26543,1,0,0:0:0:0:
192,192,26701,1,0,0:0:0:0:
64,192,26701,128,0,27017:0:0:0:0:
192,192,26859,1,0,0:0:0:0:
192,192,27017,1,0,0:0:0:0:
320,192,27017,1,0,0:0:0:0:
448,192,27017,128,0,27175:0:0:0:0:
320,192,27175,128,0,27491:0:0:0:0:
192,192,27175,1,0,0:0:0:0:
64,192,27175,1,0,0:0:0:0:
192,192,27491,128,0,27806:0:0:0:0:
64,192,27491,1,0,0:0:0:0:
448,192,27649,128,0,27964:0:0:0:0:
320,192,27649,1,0,0:0:0:0:
64,192,27649,1,0,0:0:0:0:
64,192,27806,128,0,27964:0:0:0:0:
192,192,27964,1,0,0:0:0:0:
320,192,27964,128,0,28122:0:0:0:0:
192,192,28122,1,0,0:0:0:0:
448,192,28122,1,0,0:0:0:0:
64,192,28122,128,0,28438:0:0:0:0:
448,192,28280,128,0,28596:0:0:0:0:
192,192,28280,1,0,0:0:0:0:
320,192,28280,1,0,0:0:0:0:
192,192,28596,128,0,28912:0:0:0:0:
64,192,28596,1,0,0:0:0:0:
320,192,28754,128,0,29070:0:0:0:0:
448,192,28754,1,0,0:0:0:0:
448,192,28912,1,0,0:0:0:0:
64,192,28912,128,0,29227:0:0:0:0:
448,192,29070,128,0,29385:0:0:0:0:
192,192,29070,1,0,0:0:0:0:
320,192,29227,128,0,29543:0:0:0:0:
192,192,29227,1,0,0:0:0:0:
64,192,29385,1,0,0:0:0:0:
192,192,29385,1,0,0:0:0:0:
192,192,29543,1,0,0:0:0:0:
448,192,29543,1,0,0:0:0:0:
192,192,29701,1,0,0:0:0:0:
64,192,29701,1,0,0:0:0:0:
448,192,29859,1,0,0:0:0:0:
320,192,29859,1,0,0:0:0:0:
448,192,30017,1,0,0:0:0:0:
64,192,30017,1,0,0:0:0:0:
192,192,30017,1,0,0:0:0:0:
192,192,30175,1,0,0:0:0:0:
320,192,30175,1,0,0:0:0:0:
320,192,30333,1,0,0:0:0:0:
448,192,30333,1,0,0:0:0:0:
64,192,30491,1,0,0:0:0:0:
192,192,30491,1,0,0:0:0:0:
64,192,30649,1,0,0:0:0:0:
448,192,30649,1,0,0:0:0:0:
320,192,30649,1,0,0:0:0:0:
192,192,30806,1,0,0:0:0:0:
448,192,30806,1,0,0:0:0:0:
320,192,30964,1,0,0:0:0:0:
64,192,30964,1,0,0:0:0:0:
448,192,31122,1,0,0:0:0:0:
64,192,31122,1,0,0:0:0:0:
192,192,31122,1,0,0:0:0:0:
320,192,31280,1,0,0:0:0:0:
64,192,31280,1,0,0:0:0:0:
448,192,31280,1,0,0:0:0:0:
320,192,31438,1,0,0:0:0:0:
64,192,31438,1,0,0:0:0:0:
448,192,31596,1,0,0:0:0:0:
320,192,31596,1,0,0:0:0:0:
64,192,31596,1,0,0:0:0:0:
192,192,31754,1,0,0:0:0:0:
320,192,31754,1,0,0:0:0:0:
448,192,31754,1,0,0:0:0:0:
64,192,31912,1,0,0:0:0:0:
192,192,31912,1,0,0:0:0:0:
192,192,32070,1,0,0:0:0:0:
448,192,32070,1,0,0:0:0:0:
64,192,32070,1,0,0:0:0:0:
320,192,32070,1,0,0:0:0:0:
64,192,32543,1,0,0:0:0:0:
320,192,32543,1,0,0:0:0:0:
64,192,32701,1,0,0:0:0:0:
320,192,32701,1,0,0:0:0:0:
448,192,32701,1,0,0:0:0:0:
192,192,32859,1,0,0:0:0:0:
448,192,32859,1,0,0:0:0:0:
192,192,33017,1,0,0:0:0:0:
448,192,33017,1,0,0:0:0:0:
64,192,33017,1,0,0:0:0:0:
192,192,33175,1,0,0:0:0:0:
320,192,33175,1,0,0:0:0:0:
192,192,33333,1,0,0:0:0:0:
320,192,33333,1,0,0:0:0:0:
448,192,33333,1,0,0:0:0:0:
64,192,33491,1,0,0:0:0:0:
320,192,33491,1,0,0:0:0:0:
64,192,33649,1,0,0:0:0:0:
320,192,33649,1,0,0:0:0:0:
448,192,33649,1,0,0:0:0:0:
64,192,33806,1,0,0:0:0:0:
448,192,33806,1,0,0:0:0:0:
64,192,33964,1,0,0:0:0:0:
192,192,33964,1,0,0:0:0:0:
320,192,33964,1,0,0:0:0:0:
448,192,34122,1,0,0:0:0:0:
192,192,34122,1,0,0:0:0:0:
192,192,34280,1,0,0:0:0:0:
448,192,34280,1,0,0:0:0:0:
320,192,34280,1,0,0:0:0:0:
64,192,34438,1,0,0:0:0:0:
320,192,34438,1,0,0:0:0:0:
320,192,34596,1,0,0:0:0:0:
448,192,34596,1,0,0:0:0:0:
64,192,34596,1,0,0:0:0:0:
192,192,34754,1,0,0:0:0:0:
448,192,34754,1,0,0:0:0:0:
192,192,34912,1,0,0:0:0:0:
448,192,34912,1,0,0:0:0:0:
320,192,34912,1,0,0:0:0:0:
64,192,35070,1,0,0:0:0:0:
448,192,35070,1,0,0:0:0:0:
64,192,35227,1,0,0:0:0:0:
448,192,35227,1,0,0:0:0:0:
320,192,35227,1,0,0:0:0:0:
64,192,35385,1,0,0:0:0:0:
320,192,35385,1,0,0:0:0:0:
64,192,35543,1,0,0:0:0:0:
320,192,35543,1,0,0:0:0:0:
448,192,35543,1,0,0:0:0:0:
448,192,35701,1,0,0:0:0:0:
64,192,35701,1,0,0:0:0:0:
64,192,35859,1,0,0:0:0:0:
448,192,35859,1,0,0:0:0:0:
192,192,35859,1,0,0:0:0:0:
64,192,36017,1,0,0:0:0:0:
320,192,36017,1,0,0:0:0:0:
64,192,36175,1,0,0:0:0:0:
192,192,36175,1,0,0:0:0:0:
320,192,36175,1,0,0:0:0:0:
448,192,36333,1,0,0:0:0:0:
192,192,36333,1,0,0:0:0:0:
192,192,36491,1,0,0:0:0:0:
320,192,36491,1,0,0:0:0:0:
448,192,36491,1,0,0:0:0:0:
64,192,36649,1,0,0:0:0:0:
448,192,36649,1,0,0:0:0:0:
64,192,36806,1,0,0:0:0:0:
192,192,36806,1,0,0:0:0:0:
448,192,36964,1,0,0:0:0:0:
64,192,36964,1,0,0:0:0:0:
64,192,37122,1,0,0:0:0:0:
320,192,37122,1,0,0:0:0:0:
448,192,37122,1,0,0:0:0:0:
64,192,37280,1,0,0:0:0:0:
192,192,37280,1,0,0:0:0:0:
320,192,37280,1,0,0:0:0:0:
448,192,37280,1,0,0:0:0:0:
192,192,37438,1,0,0:0:0:0:
64,192,37596,1,0,0:0:0:0:
320,192,37596,1,0,0:0:0:0:
448,192,37754,1,0,0:0:0:0:
192,192,37754,1,0,0:0:0:0:
64,192,37912,128,0,38227:0:0:0:0:
448,192,37912,1,0,0:0:0:0:
192,192,38227,1,0,0:0:0:0:
448,192,38227,1,0,0:0:0:0:
320,192,38385,1,0,0:0:0:0:
64,192,38385,128,0,38701:0:0:0:0:
192,192,38701,1,0,0:0:0:0:
448,192,38701,1,0,0:0:0:0:
320,192,38859,1,0,0:0:0:0:
64,192,38859,128,0,39175:0:0:0:0:
192,192,39175,1,0,0:0:0:0:
320,192,39175,1,0,0:0:0:0:
448,192,39333,1,0,0:0:0:0:
64,192,39333,1,0,0:0:0:0:
64,192,39491,1,0,0:0:0:0:
192,192,39491,1,0,0:0:0:0:
320,192,39649,1,0,0:0:0:0:
448,192,39649,1,0,0:0:0:0:
192,192,39806,1,0,0:0:0:0:
64,192,39806,1,0,0:0:0:0:
64,192,39964,1,0,0:0:0:0:
192,192,39964,1,0,0:0:0:0:
448,192,40122,1,0,0:0:0:0:
320,192,40122,1,0,0:0:0:0:
320,192,40280,1,0,0:0:0:0:
192,192,40280,1,0,0:0:0:0:
448,192,40438,1,0,0:0:0:0:
64,192,40438,128,0,40754:0:0:0:0:
320,192,40754,1,0,0:0:0:0:
192,192,40912,1,0,0:0:0:0:
64,192,41070,1,0,0:0:0:0:
448,192,41070,128,0,41306:0:0:0:0:
320,192,41306,128,0,41543:0:0:0:0:
64,192,41306,1,0,0:0:0:0:
64,192,41543,1,0,0:0:0:0:
64,192,41701,1,0,0:0:0:0:
320,192,41701,1,0,0:0:0:0:
64,192,41859,1,0,0:0:0:0:
192,192,41859,1,0,0:0:0:0:
64,192,42017,1,0,0:0:0:0:
448,192,42017,1,0,0:0:0:0:
320,192,42175,1,0,0:0:0:0:
64,192,42175,1,0,0:0:0:0:
320,192,42333,1,0,0:0:0:0:
448,192,42333,1,0,0:0:0:0:
448,192,42649,128,0,42964:0:0:0:0:
64,192,42964,1,0,0:0:0:0:
320,192,42964,1,0,0:0:0:0:
192,192,43122,1,0,0:0:0:0:
448,192,43122,1,0,0:0:0:0:
64,192,43280,1,0,0:0:0:0:
320,192,43438,128,0,43912:0:0:0:0:
192,192,43438,1,0,0:0:0:0:
64,192,43596,1,0,0:0:0:0:
448,192,43754,1,0,0:0:0:0:
192,192,43912,128,0,44227:0:0:0:0:
64,192,43912,1,0,0:0:0:0:
448,192,44070,1,0,0:0:0:0:
64,192,44227,128,0,44543:0:0:0:0:
320,192,44227,1,0,0:0:0:0:
448,192,44385,1,0,0:0:0:0:
192,192,44543,128,0,44859:0:0:0:0:
320,192,44543,1,0,0:0:0:0:
64,192,44859,1,0,0:0:0:0:
320,192,44859,1,0,0:0:0:0:
448,192,44859,1,0,0:0:0:0:
192,192,45017,1,0,0:0:0:0:
448,192,45017,1,0,0:0:0:0:
320,192,45017,1,0,0:0:0:0:
64,192,45333,1,0,0:0:0:0:
320,192,45333,1,0,0:0:0:0:
192,192,45333,1,0,0:0:0:0:
192,192,45491,1,0,0:0:0:0:
448,192,45491,1,0,0:0:0:0:
64,192,45491,1,0,0:0:0:0:
64,192,45806,1,0,0:0:0:0:
320,192,45806,1,0,0:0:0:0:
192,192,45806,1,0,0:0:0:0:
192,192,45964,1,0,0:0:0:0:
448,192,45964,1,0,0:0:0:0:
320,192,45964,1,0,0:0:0:0:
64,192,46280,1,0,0:0:0:0:
320,192,46280,1,0,0:0:0:0:
448,192,46280,1,0,0:0:0:0:
192,192,46438,1,0,0:0:0:0:
448,192,46438,128,0,46754:0:0:0:0:
320,192,46438,1,0,0:0:0:0:
64,192,46754,128,0,46991:0:0:0:0:
320,192,46754,1,0,0:0:0:0:
192,192,46991,128,0,47227:0:0:0:0:
448,192,46991,1,0,0:0:0:0:
448,192,47227,1,0,0:0:0:0:
320,192,47227,1,0,0:0:0:0:
64,192,47543,1,0,0:0:0:0:
192,192,47701,1,0,0:0:0:0:
448,192,47701,1,0,0:0:0:0:
320,192,47859,1,0,0:0:0:0:
64,192,47859,1,0,0:0:0:0:
448,192,48017,1,0,0:0:0:0:
64,192,48017,128,0,48333:0:0:0:0:
320,192,48017,1,0,0:0:0:0:
448,192,48333,1,0,0:0:0:0:
320,192,48491,1,0,0:0:0:0:
64,192,48491,128,0,48806:0:0:0:0:
192,192,48806,1,0,0:0:0:0:
320,192,48806,1,0,0:0:0:0:
64,192,48964,1,0,0:0:0:0:
320,192,48964,1,0,0:0:0:0:
448,192,49122,1,0,0:0:0:0:
192,192,49122,1,0,0:0:0:0:
64,192,49280,1,0,0:0:0:0:
448,192,49280,1,0,0:0:0:0:
192,192,49438,1,0,0:0:0:0:
320,192,49438,1,0,0:0:0:0:
448,192,49596,1,0,0:0:0:0:
64,192,49596,1,0,0:0:0:0:
320,192,49754,1,0,0:0:0:0:
64,192,49754,1,0,0:0:0:0:
320,192,49912,1,0,0:0:0:0:
448,192,49912,1,0,0:0:0:0:
64,192,50070,1,0,0:0:0:0:
192,192,50070,1,0,0:0:0:0:
192,192,50227,1,0,0:0:0:0:
448,192,50227,1,0,0:0:0:0:
64,192,50385,1,0,0:0:0:0:
320,192,50385,1,0,0:0:0:0:
192,192,50543,1,0,0:0:0:0:
448,192,50543,128,0,50859:0:0:0:0:
64,192,50543,1,0,0:0:0:0:
64,192,50859,128,0,51175:0:0:0:0:
320,192,50859,1,0,0:0:0:0:
192,192,51175,1,0,0:0:0:0:
320,192,51175,1,0,0:0:0:0:
448,192,51412,1,0,0:0:0:0:
64,192,51412,1,0,0:0:0:0:
64,192,51649,1,0,0:0:0:0:
320,192,51649,1,0,0:0:0:0:
320,192,51806,1,0,0:0:0:0:
448,192,51806,1,0,0:0:0:0:
192,192,51964,1,0,0:0:0:0:
448,192,51964,1,0,0:0:0:0:
320,192,52122,1,0,0:0:0:0:
192,192,52122,1,0,0:0:0:0:
64,192,52280,1,0,0:0:0:0:
448,192,52280,1,0,0:0:0:0:
320,192,52280,1,0,0:0:0:0:
64,192,52754,1,0,0:0:0:0:
192,192,52833,1,0,0:0:0:0:
448,192,52833,1,0,0:0:0:0:
320,192,52912,1,0,0:0:0:0:
64,192,52912,1,0,0:0:0:0:
192,192,52991,1,0,0:0:0:0:
64,192,53070,1,0,0:0:0:0:
448,192,53070,128,0,53306:0:0:0:0:
320,192,53306,1,0,0:0:0:0:
192,192,53306,128,0,53543:0:0:0:0:
64,192,53543,1,0,0:0:0:0:
320,192,53543,128,0,53859:0:0:0:0:
448,192,53543,1,0,0:0:0:0:
64,192,53859,1,0,0:0:0:0:
448,192,53859,1,0,0:0:0:0:
192,192,54017,1,0,0:0:0:0:
320,192,54096,1,0,0:0:0:0:
64,192,54096,1,0,0:0:0:0:
192,192,54175,1,0,0:0:0:0:
448,192,54175,1,0,0:0:0:0:
320,192,54254,1,0,0:0:0:0:
448,192,54333,1,0,0:0:0:0:
64,192,54333,1,0,0:0:0:0:
320,192,54649,1,0,0:0:0:0:
64,192,54649,1,0,0:0:0:0:
448,192,54649,1,0,0:0:0:0:
448,192,54806,1,0,0:0:0:0:
192,192,54806,128,0,55122:0:0:0:0:
320,192,54806,1,0,0:0:0:0:
448,192,55122,1,0,0:0:0:0:
64,192,55122,1,0,0:0:0:0:
448,192,55280,1,0,0:0:0:0:
320,192,55280,1,0,0:0:0:0:
192,192,55438,1,0,0:0:0:0:
448,192,55438,1,0,0:0:0:0:
64,192,55596,1,0,0:0:0:0:
320,192,55596,1,0,0:0:0:0:
192,192,55596,1,0,0:0:0:0:
192,192,55754,1,0,0:0:0:0:
320,192,55754,1,0,0:0:0:0:
448,192,55754,1,0,0:0:0:0:
64,192,56070,1,0,0:0:0:0:
320,192,56070,1,0,0:0:0:0:
192,192,56070,1,0,0:0:0:0:
192,192,56227,1,0,0:0:0:0:
320,192,56227,1,0,0:0:0:0:
192,192,56464,1,0,0:0:0:0:
320,192,56464,1,0,0:0:0:0:
192,192,56701,1,0,0:0:0:0:
320,192,56701,1,0,0:0:0:0:
64,192,56859,1,0,0:0:0:0:
320,192,56859,1,0,0:0:0:0:
64,192,57096,1,0,0:0:0:0:
448,192,57096,1,0,0:0:0:0:
192,192,57333,1,0,0:0:0:0:
448,192,57333,1,0,0:0:0:0:
64,192,57491,128,0,57806:0:0:0:0:
192,192,57491,1,0,0:0:0:0:
320,192,57491,1,0,0:0:0:0:
448,192,57649,1,0,0:0:0:0:
320,192,57806,1,0,0:0:0:0:
192,192,57964,1,0,0:0:0:0:
64,192,58122,1,0,0:0:0:0:
320,192,58122,128,0,58438:0:0:0:0:
448,192,58122,128,0,58754:0:0:0:0:
64,192,58912,1,0,0:0:0:0:
320,192,58912,1,0,0:0:0:0:
192,192,59070,1,0,0:0:0:0:
448,192,59227,1,0,0:0:0:0:
64,192,59227,1,0,0:0:0:0:
320,192,59385,128,0,59701:0:0:0:0:
448,192,59701,1,0,0:0:0:0:
320,192,59859,1,0,0:0:0:0:
64,192,59859,1,0,0:0:0:0:
448,192,60017,1,0,0:0:0:0:
192,192,60017,1,0,0:0:0:0:
320,192,60175,1,0,0:0:0:0:
64,192,60333,1,0,0:0:0:0:
448,192,60333,1,0,0:0:0:0:
192,192,60491,1,0,0:0:0:0:
192,192,60964,1,0,0:0:0:0:
320,192,61043,1,0,0:0:0:0:
64,192,61043,1,0,0:0:0:0:
192,192,61122,1,0,0:0:0:0:
448,192,61122,1,0,0:0:0:0:
320,192,61201,1,0,0:0:0:0:
192,192,61280,128,0,61359:0:0:0:0:
64,192,61280,128,0,61359:0:0:0:0:
448,192,61280,128,0,61359:0:0:0:0:
192,192,61517,128,0,61596:0:0:0:0:
320,192,61517,128,0,61596:0:0:0:0:
448,192,61517,128,0,61596:0:0:0:0:
64,192,61754,128,0,61833:0:0:0:0:
448,192,61754,128,0,61833:0:0:0:0:
320,192,61754,128,0,61833:0:0:0:0:
192,192,61912,128,0,61991:0:0:0:0:
320,192,61912,128,0,61991:0:0:0:0:
64,192,61912,128,0,62227:0:0:0:0:
320,192,62227,1,0,0:0:0:0:
448,192,62227,1,0,0:0:0:0:
192,192,62385,1,0,0:0:0:0:
320,192,62385,1,0,0:0:0:0:
448,192,62543,128,0,63175:0:0:0:0:
192,192,62543,128,0,62859:0:0:0:0:
64,192,62543,128,0,62701:0:0:0:0:
64,192,63175,128,0,63806:0:0:0:0:
192,192,63175,128,0,63491:0:0:0:0:
320,192,63175,128,0,63333:0:0:0:0:
192,192,63964,1,0,0:0:0:0:
448,192,63964,1,0,0:0:0:0:
320,192,64122,1,0,0:0:0:0:
64,192,64280,1,0,0:0:0:0:
448,192,64280,1,0,0:0:0:0:
320,192,64438,128,0,64754:0:0:0:0:
64,192,64754,1,0,0:0:0:0:
192,192,64912,1,0,0:0:0:0:
448,192,64912,1,0,0:0:0:0:
320,192,65070,1,0,0:0:0:0:
64,192,65227,1,0,0:0:0:0:
448,192,65227,1,0,0:0:0:0:
192,192,65385,1,0,0:0:0:0:
320,192,65543,1,0,0:0:0:0:
448,192,65543,1,0,0:0:0:0:
192,192,65701,1,0,0:0:0:0:
64,192,65701,1,0,0:0:0:0:
448,192,65780,1,0,0:0:0:0:
192,192,65859,1,0,0:0:0:0:
64,192,65859,1,0,0:0:0:0:
320,192,65938,1,0,0:0:0:0:
448,192,65938,1,0,0:0:0:0:
64,192,66017,1,0,0:0:0:0:
320,192,66096,1,0,0:0:0:0:
448,192,66096,1,0,0:0:0:0:
192,192,66175,1,0,0:0:0:0:
64,192,66175,1,0,0:0:0:0:
448,192,66254,1,0,0:0:0:0:
192,192,66333,1,0,0:0:0:0:
64,192,66333,1,0,0:0:0:0:
320,192,66333,1,0,0:0:0:0:
192,192,66570,1,0,0:0:0:0:
64,192,66570,1,0,0:0:0:0:
448,192,66570,1,0,0:0:0:0:
192,192,66806,1,0,0:0:0:0:
320,192,66806,1,0,0:0:0:0:
448,192,66806,1,0,0:0:0:0:
64,192,66964,1,0,0:0:0:0:
192,192,66964,128,0,67280:0:0:0:0:
448,192,67043,1,0,0:0:0:0:
64,192,67122,1,0,0:0:0:0:
320,192,67280,1,0,0:0:0:0:
448,192,67280,128,0,67596:0:0:0:0:
64,192,67359,1,0,0:0:0:0:
320,192,67438,1,0,0:0:0:0:
192,192,67596,1,0,0:0:0:0:
320,192,67596,1,0,0:0:0:0:
64,192,67754,1,0,0:0:0:0:
320,192,67754,1,0,0:0:0:0:
320,192,67912,1,0,0:0:0:0:
448,192,67912,1,0,0:0:0:0:
448,192,68070,1,0,0:0:0:0:
64,192,68070,1,0,0:0:0:0:
320,192,68227,1,0,0:0:0:0:
64,192,68227,128,0,68543:0:0:0:0:
192,192,68543,1,0,0:0:0:0:
320,192,68701,128,0,70122:0:0:0:0:
64,192,69017,1,0,0:0:0:0:
192,192,69017,1,0,0:0:0:0:
192,192,69175,1,0,0:0:0:0:
448,192,69175,1,0,0:0:0:0:
64,192,69333,1,0,0:0:0:0:
448,192,69333,1,0,0:0:0:0:
192,192,69491,1,0,0:0:0:0:
448,192,69491,1,0,0:0:0:0:
448,192,69649,1,0,0:0:0:0:
64,192,69649,1,0,0:0:0:0:
192,192,69806,1,0,0:0:0:0:
64,192,69806,1,0,0:0:0:0:
64,192,69964,1,0,0:0:0:0:
192,192,69964,1,0,0:0:0:0:
64,192,70280,5,0,0:0:0:0:
320,192,70280,1,0,0:0:0:0:
192,192,70438,1,0,0:0:0:0:
448,192,70438,1,0,0:0:0:0:
64,192,70754,1,0,0:0:0:0:
320,192,70754,1,0,0:0:0:0:
192,192,70912,1,0,0:0:0:0:
448,192,70912,1,0,0:0:0:0:
64,192,71227,1,0,0:0:0:0:
320,192,71227,1,0,0:0:0:0:
64,192,71385,5,0,0:0:0:0:
320,192,71385,1,0,0:0:0:0:
448,192,71385,1,0,0:0:0:0:
192,192,71464,1,0,0:0:0:0:
320,192,71543,1,0,0:0:0:0:
448,192,71622,1,0,0:0:0:0:
320,192,71701,1,0,0:0:0:0:
64,192,71701,1,0,0:0:0:0:
192,192,71780,1,0,0:0:0:0:
320,192,71859,1,0,0:0:0:0:
448,192,71938,1,0,0:0:0:0:
320,192,72017,1,0,0:0:0:0:
192,192,72017,1,0,0:0:0:0:
64,192,72096,1,0,0:0:0:0:
192,192,72175,1,0,0:0:0:0:
320,192,72254,1,0,0:0:0:0:
192,192,72333,1,0,0:0:0:0:
448,192,72333,1,0,0:0:0:0:
320,192,72412,1,0,0:0:0:0:
192,192,72491,1,0,0:0:0:0:
320,192,72570,1,0,0:0:0:0:
448,192,72649,1,0,0:0:0:0:
64,192,72649,1,0,0:0:0:0:
320,192,72727,1,0,0:0:0:0:
192,192,72806,1,0,0:0:0:0:
320,192,72885,1,0,0:0:0:0:
448,192,72964,1,0,0:0:0:0:
64,192,72964,1,0,0:0:0:0:
192,192,73043,1,0,0:0:0:0:
320,192,73122,1,0,0:0:0:0:
192,192,73201,1,0,0:0:0:0:
64,192,73280,1,0,0:0:0:0:
448,192,73280,1,0,0:0:0:0:
320,192,73359,1,0,0:0:0:0:
192,192,73438,1,0,0:0:0:0:
320,192,73517,1,0,0:0:0:0:
448,192,73596,1,0,0:0:0:0:
64,192,73596,1,0,0:0:0:0:
192,192,73675,1,0,0:0:0:0:
320,192,73754,1,0,0:0:0:0:
192,192,73833,1,0,0:0:0:0:
64,192,73912,1,0,0:0:0:0:
320,192,73912,1,0,0:0:0:0:
448,192,73912,1,0,0:0:0:0:
192,192,73991,1,0,0:0:0:0:
320,192,74070,1,0,0:0:0:0:
448,192,74149,1,0,0:0:0:0:
320,192,74227,1,0,0:0:0:0:
192,192,74227,1,0,0:0:0:0:
64,192,74306,1,0,0:0:0:0:
192,192,74385,1,0,0:0:0:0:
320,192,74464,1,0,0:0:0:0:
192,192,74543,1,0,0:0:0:0:
448,192,74543,1,0,0:0:0:0:
64,192,74622,1,0,0:0:0:0:
192,192,74701,1,0,0:0:0:0:
320,192,74780,1,0,0:0:0:0:
192,192,74859,1,0,0:0:0:0:
64,192,74859,1,0,0:0:0:0:
320,192,74938,1,0,0:0:0:0:
448,192,75017,1,0,0:0:0:0:
320,192,75096,1,0,0:0:0:0:
192,192,75175,1,0,0:0:0:0:
448,192,75175,1,0,0:0:0:0:
64,192,75254,1,0,0:0:0:0:
192,192,75333,1,0,0:0:0:0:
320,192,75412,1,0,0:0:0:0:
64,192,75491,1,0,0:0:0:0:
448,192,75491,1,0,0:0:0:0:
192,192,75570,1,0,0:0:0:0:
320,192,75649,1,0,0:0:0:0:
192,192,75727,1,0,0:0:0:0:
64,192,75806,1,0,0:0:0:0:
320,192,75806,1,0,0:0:0:0:
448,192,75885,1,0,0:0:0:0:
320,192,75964,1,0,0:0:0:0:
192,192,76043,1,0,0:0:0:0:
64,192,76122,1,0,0:0:0:0:
448,192,76122,1,0,0:0:0:0:
192,192,76175,1,0,0:0:0:0:
320,192,76227,1,0,0:0:0:0:
448,192,76280,1,0,0:0:0:0:
64,192,76280,1,0,0:0:0:0:
192,192,76333,1,0,0:0:0:0:
320,192,76385,1,0,0:0:0:0:
448,192,76438,1,0,0:0:0:0:
64,192,76438,1,0,0:0:0:0:
192,192,76517,1,0,0:0:0:0:
320,192,76596,1,0,0:0:0:0:
192,192,76675,1,0,0:0:0:0:
64,192,76754,1,0,0:0:0:0:
320,192,76754,1,0,0:0:0:0:
448,192,76833,1,0,0:0:0:0:
320,192,76912,1,0,0:0:0:0:
192,192,76991,1,0,0:0:0:0:
64,192,77070,1,0,0:0:0:0:
448,192,77070,1,0,0:0:0:0:
320,192,77149,1,0,0:0:0:0:
192,192,77227,1,0,0:0:0:0:
320,192,77306,1,0,0:0:0:0:
192,192,77385,1,0,0:0:0:0:
448,192,77385,1,0,0:0:0:0:
64,192,77464,1,0,0:0:0:0:
192,192,77543,1,0,0:0:0:0:
320,192,77622,1,0,0:0:0:0:
64,192,77701,1,0,0:0:0:0:
448,192,77701,1,0,0:0:0:0:
320,192,77780,1,0,0:0:0:0:
192,192,77859,1,0,0:0:0:0:
320,192,77938,1,0,0:0:0:0:
192,192,78017,1,0,0:0:0:0:
448,192,78017,1,0,0:0:0:0:
320,192,78096,1,0,0:0:0:0:
192,192,78175,1,0,0:0:0:0:
64,192,78254,1,0,0:0:0:0:
448,192,78333,1,0,0:0:0:0:
320,192,78333,1,0,0:0:0:0:
64,192,78412,1,0,0:0:0:0:
320,192,78491,1,0,0:0:0:0:
448,192,78491,1,0,0:0:0:0:
64,192,78570,1,0,0:0:0:0:
320,192,78649,1,0,0:0:0:0:
448,192,78649,1,0,0:0:0:0:
192,192,78727,1,0,0:0:0:0:
64,192,78727,1,0,0:0:0:0:
320,192,78806,1,0,0:0:0:0:
448,192,78806,1,0,0:0:0:0:
192,192,78885,1,0,0:0:0:0:
64,192,78885,1,0,0:0:0:0:
320,192,78964,1,0,0:0:0:0:
448,192,78964,1,0,0:0:0:0:
64,192,79280,1,0,0:0:0:0:
192,192,79280,1,0,0:0:0:0:
320,192,79280,1,0,0:0:0:0:
320,192,79596,1,0,0:0:0:0:
64,192,79596,1,0,0:0:0:0:
448,192,79596,128,0,79833:0:0:0:0:
64,192,79833,1,0,0:0:0:0:
192,192,79833,128,0,80070:0:0:0:0:
448,192,80070,1,0,0:0:0:0:
320,192,80070,1,0,0:0:0:0:
64,192,80070,1,0,0:0:0:0:
448,192,80227,1,0,0:0:0:0:
192,192,80227,1,0,0:0:0:0:
448,192,80385,1,0,0:0:0:0:
192,192,80385,1,0,0:0:0:0:
64,192,80543,1,0,0:0:0:0:
448,192,80543,1,0,0:0:0:0:
192,192,80701,1,0,0:0:0:0:
320,192,80701,1,0,0:0:0:0:
64,192,80859,1,0,0:0:0:0:
320,192,80859,1,0,0:0:0:0:
64,192,81017,1,0,0:0:0:0:
320,192,81017,1,0,0:0:0:0:
64,192,81175,1,0,0:0:0:0:
448,192,81175,1,0,0:0:0:0:
192,192,81333,1,0,0:0:0:0:
320,192,81333,1,0,0:0:0:0:
64,192,81491,1,0,0:0:0:0:
320,192,81491,1,0,0:0:0:0:
448,192,81491,1,0,0:0:0:0:
192,192,81570,1,0,0:0:0:0:
320,192,81649,1,0,0:0:0:0:
192,192,81727,1,0,0:0:0:0:
64,192,81806,1,0,0:0:0:0:
320,192,81806,1,0,0:0:0:0:
448,192,81885,1,0,0:0:0:0:
192,192,81885,1,0,0:0:0:0:
320,192,81964,1,0,0:0:0:0:
192,192,82043,1,0,0:0:0:0:
64,192,82122,1,0,0:0:0:0:
448,192,82122,1,0,0:0:0:0:
192,192,82201,1,0,0:0:0:0:
320,192,82280,1,0,0:0:0:0:
192,192,82359,1,0,0:0:0:0:
448,192,82359,1,0,0:0:0:0:
64,192,82438,1,0,0:0:0:0:
320,192,82438,1,0,0:0:0:0:
192,192,82517,1,0,0:0:0:0:
320,192,82596,1,0,0:0:0:0:
64,192,82596,1,0,0:0:0:0:
448,192,82675,1,0,0:0:0:0:
320,192,82754,1,0,0:0:0:0:
192,192,82754,1,0,0:0:0:0:
64,192,82833,1,0,0:0:0:0:
192,192,82912,1,0,0:0:0:0:
320,192,82991,1,0,0:0:0:0:
64,192,82991,1,0,0:0:0:0:
192,192,83070,1,0,0:0:0:0:
448,192,83070,1,0,0:0:0:0:
320,192,83149,1,0,0:0:0:0:
192,192,83227,1,0,0:0:0:0:
448,192,83227,1,0,0:0:0:0:
64,192,83306,1,0,0:0:0:0:
192,192,83385,1,0,0:0:0:0:
320,192,83385,1,0,0:0:0:0:
448,192,83464,1,0,0:0:0:0:
320,192,83543,1,0,0:0:0:0:
64,192,83543,1,0,0:0:0:0:
192,192,83622,1,0,0:0:0:0:
320,192,83701,1,0,0:0:0:0:
64,192,83701,1,0,0:0:0:0:
448,192,83780,1,0,0:0:0:0:
320,192,83859,1,0,0:0:0:0:
192,192,83938,1,0,0:0:0:0:
64,192,84017,1,0,0:0:0:0:
448,192,84017,1,0,0:0:0:0:
320,192,84096,1,0,0:0:0:0:
192,192,84175,1,0,0:0:0:0:
448,192,84175,1,0,0:0:0:0:
320,192,84254,1,0,0:0:0:0:
448,192,84333,1,0,0:0:0:0:
64,192,84333,1,0,0:0:0:0:
192,192,84412,1,0,0:0:0:0:
320,192,84491,1,0,0:0:0:0:
64,192,84491,1,0,0:0:0:0:
192,192,84570,1,0,0:0:0:0:
64,192,84649,1,0,0:0:0:0:
448,192,84649,1,0,0:0:0:0:
320,192,84727,1,0,0:0:0:0:
192,192,84806,1,0,0:0:0:0:
320,192,84885,1,0,0:0:0:0:
448,192,84964,1,0,0:0:0:0:
64,192,84964,1,0,0:0:0:0:
192,192,85043,1,0,0:0:0:0:
320,192,85122,1,0,0:0:0:0:
192,192,85201,1,0,0:0:0:0:
64,192,85280,1,0,0:0:0:0:
320,192,85280,1,0,0:0:0:0:
448,192,85359,1,0,0:0:0:0:
320,192,85438,1,0,0:0:0:0:
192,192,85517,1,0,0:0:0:0:
448,192,85517,1,0,0:0:0:0:
320,192,85596,1,0,0:0:0:0:
64,192,85596,1,0,0:0:0:0:
448,192,85675,1,0,0:0:0:0:
320,192,85754,1,0,0:0:0:0:
64,192,85754,1,0,0:0:0:0:
192,192,85833,1,0,0:0:0:0:
64,192,85912,1,0,0:0:0:0:
448,192,85912,1,0,0:0:0:0:
320,192,85991,1,0,0:0:0:0:
192,192,86070,1,0,0:0:0:0:
448,192,86070,1,0,0:0:0:0:
64,192,86149,1,0,0:0:0:0:
448,192,86227,1,0,0:0:0:0:
320,192,86280,1,0,0:0:0:0:
192,192,86333,1,0,0:0:0:0:
64,192,86385,1,0,0:0:0:0:
448,192,86385,1,0,0:0:0:0:
320,192,86438,1,0,0:0:0:0:
192,192,86491,1,0,0:0:0:0:
64,192,86543,1,0,0:0:0:0:
448,192,86543,1,0,0:0:0:0:
320,192,86622,1,0,0:0:0:0:
192,192,86701,1,0,0:0:0:0:
320,192,86780,1,0,0:0:0:0:
448,192,86859,1,0,0:0:0:0:
192,192,86859,1,0,0:0:0:0:
320,192,86938,1,0,0:0:0:0:
192,192,87017,1,0,0:0:0:0:
64,192,87096,1,0,0:0:0:0:
192,192,87175,1,0,0:0:0:0:
448,192,87175,1,0,0:0:0:0:
320,192,87254,1,0,0:0:0:0:
192,192,87333,1,0,0:0:0:0:
320,192,87412,1,0,0:0:0:0:
64,192,87491,1,0,0:0:0:0:
448,192,87491,1,0,0:0:0:0:
192,192,87570,1,0,0:0:0:0:
320,192,87649,1,0,0:0:0:0:
448,192,87727,1,0,0:0:0:0:
64,192,87806,1,0,0:0:0:0:
192,192,87806,1,0,0:0:0:0:
320,192,87885,1,0,0:0:0:0:
192,192,87964,1,0,0:0:0:0:
64,192,87964,1,0,0:0:0:0:
448,192,88043,1,0,0:0:0:0:
192,192,88122,1,0,0:0:0:0:
64,192,88122,1,0,0:0:0:0:
320,192,88201,1,0,0:0:0:0:
192,192,88280,1,0,0:0:0:0:
64,192,88280,1,0,0:0:0:0:
448,192,88359,1,0,0:0:0:0:
192,192,88438,1,0,0:0:0:0:
64,192,88438,1,0,0:0:0:0:
320,192,88517,1,0,0:0:0:0:
448,192,88517,1,0,0:0:0:0:
192,192,88596,1,0,0:0:0:0:
64,192,88596,1,0,0:0:0:0:
320,192,88675,1,0,0:0:0:0:
448,192,88675,1,0,0:0:0:0:
192,192,88754,1,0,0:0:0:0:
64,192,88754,1,0,0:0:0:0:
320,192,88833,1,0,0:0:0:0:
448,192,88833,1,0,0:0:0:0:
192,192,88912,1,0,0:0:0:0:
64,192,88912,1,0,0:0:0:0:
320,192,88991,1,0,0:0:0:0:
448,192,88991,1,0,0:0:0:0:
192,192,89070,1,0,0:0:0:0:
64,192,89070,128,0,89543:0:0:0:0:
320,192,89543,1,0,0:0:0:0:
448,192,89543,1,0,0:0:0:0:
192,192,89859,1,0,0:0:0:0:
448,192,89859,1,0,0:0:0:0:
192,192,90017,1,0,0:0:0:0:
448,192,90017,1,0,0:0:0:0:
64,192,90017,1,0,0:0:0:0:
64,192,90175,1,0,0:0:0:0:
320,192,90175,1,0,0:0:0:0:
192,192,90333,1,0,0:0:0:0:
64,192,90333,128,0,90806:0:0:0:0:
64,192,90964,1,0,0:0:0:0:
448,192,90964,128,0,91280:0:0:0:0:
320,192,91280,128,0,91596:0:0:0:0:
64,192,91280,1,0,0:0:0:0:
64,192,91596,1,0,0:0:0:0:
192,192,91596,1,0,0:0:0:0:
64,192,91754,1,0,0:0:0:0:
320,192,91754,1,0,0:0:0:0:
192,192,91912,1,0,0:0:0:0:
448,192,91912,1,0,0:0:0:0:
448,192,92070,1,0,0:0:0:0:
64,192,92070,1,0,0:0:0:0:
448,192,92227,128,0,92543:0:0:0:0:
64,192,92227,1,0,0:0:0:0:
64,192,92543,1,0,0:0:0:0:
192,192,92543,1,0,0:0:0:0:
64,192,92701,1,0,0:0:0:0:
320,192,92701,1,0,0:0:0:0:
192,192,92859,1,0,0:0:0:0:
448,192,92859,1,0,0:0:0:0:
64,192,93017,1,0,0:0:0:0:
448,192,93017,1,0,0:0:0:0:
64,192,93175,1,0,0:0:0:0:
448,192,93175,128,0,93491:0:0:0:0:
320,192,93491,128,0,93806:0:0:0:0:
192,192,93806,1,0,0:0:0:0:
64,192,93964,1,0,0:0:0:0:
448,192,94122,1,0,0:0:0:0:
320,192,94162,1,0,0:0:0:0:
192,192,94201,1,0,0:0:0:0:
64,192,94241,1,0,0:0:0:0:
448,192,94280,1,0,0:0:0:0:
320,192,94320,1,0,0:0:0:0:
192,192,94359,1,0,0:0:0:0:
64,192,94399,1,0,0:0:0:0:
448,192,94438,1,0,0:0:0:0:
320,192,94477,1,0,0:0:0:0:
192,192,94517,1,0,0:0:0:0:
64,192,94556,1,0,0:0:0:0:
448,192,94596,1,0,0:0:0:0:
320,192,94635,1,0,0:0:0:0:
192,192,94675,1,0,0:0:0:0:
64,192,94714,1,0,0:0:0:0:
320,192,94754,1,0,0:0:0:0:
448,192,94754,1,0,0:0:0:0:
192,192,94912,1,0,0:0:0:0:
448,192,94912,1,0,0:0:0:0:
448,192,95070,1,0,0:0:0:0:
64,192,95070,1,0,0:0:0:0:
64,192,95227,1,0,0:0:0:0:
320,192,95227,1,0,0:0:0:0:
192,192,95385,1,0,0:0:0:0:
448,192,95385,1,0,0:0:0:0:
64,192,95543,1,0,0:0:0:0:
448,192,95543,1,0,0:0:0:0:
192,192,95701,1,0,0:0:0:0:
448,192,95701,1,0,0:0:0:0:
448,192,95859,1,0,0:0:0:0:
64,192,95859,1,0,0:0:0:0:
320,192,96017,1,0,0:0:0:0:
64,192,96017,1,0,0:0:0:0:
192,192,96175,1,0,0:0:0:0:
320,192,96175,1,0,0:0:0:0:
192,192,96333,1,0,0:0:0:0:
448,192,96333,1,0,0:0:0:0:
320,192,96412,1,0,0:0:0:0:
448,192,96491,1,0,0:0:0:0:
64,192,96491,1,0,0:0:0:0:
192,192,96570,1,0,0:0:0:0:
448,192,96649,1,0,0:0:0:0:
320,192,96649,1,0,0:0:0:0:
