osu file format v14

[General]
AudioFilename: The Sampling Paradise.mp3
AudioLeadIn: 0
PreviewTime: 64408
Countdown: 0
SampleSet: Normal
StackLeniency: 0.7
Mode: 3
LetterboxInBreaks: 0
SpecialStyle: 0
WidescreenStoryboard: 1

[Editor]
DistanceSpacing: 1.6
BeatDivisor: 4
GridSize: 8
TimelineZoom: 2.3

[Metadata]
Title:Nixo's JumpStream MiniPack 1
TitleUnicode:Nixo's JumpStream MiniPack 1
Artist:Various artists
ArtistUnicode:Various artists
Creator:Nixo
Version:The Sampling Paradise
Source:
Tags:NixoNS stepmania jumpstream pack
BeatmapID:869822
BeatmapSetID:399642

[Difficulty]
HPDrainRate:8
CircleSize:4
OverallDifficulty:7
ApproachRate:5
SliderMultiplier:1.4
SliderTickRate:1

[Events]
//Background and Video events
0,0,"The sampling paradise bg.jpg",0,0
//Break Periods
//Storyboard Layer 0 (Background)
//Storyboard Layer 1 (Fail)
//Storyboard Layer 2 (Pass)
//Storyboard Layer 3 (Foreground)
//Storyboard Sound Samples

[TimingPoints]
408,400,4,1,0,0,1,0

[HitObjects]
320,192,408,5,0,0:0:0:0:
448,192,408,1,0,0:0:0:0:
64,192,408,128,0,808:0:0:0:0:
192,192,608,1,0,0:0:0:0:
320,192,808,1,0,0:0:0:0:
448,192,808,1,0,0:0:0:0:
64,192,1008,128,0,1408:0:0:0:0:
320,192,1008,1,0,0:0:0:0:
192,192,1108,1,0,0:0:0:0:
448,192,1208,1,0,0:0:0:0:
320,192,1208,1,0,0:0:0:0:
192,192,1408,1,0,0:0:0:0:
320,192,1408,1,0,0:0:0:0:
64,192,1608,1,0,0:0:0:0:
320,192,1608,1,0,0:0:0:0:
448,192,1608,1,0,0:0:0:0:
192,192,1808,1,0,0:0:0:0:
320,192,1908,1,0,0:0:0:0:
192,192,2008,1,0,0:0:0:0:
64,192,2008,1,0,0:0:0:0:
64,192,2208,1,0,0:0:0:0:
320,192,2208,1,0,0:0:0:0:
320,192,2408,1,0,0:0:0:0:
448,192,2408,128,0,2608:0:0:0:0:
64,192,2608,1,0,0:0:0:0:
192,192,2608,1,0,0:0:0:0:
320,192,2708,1,0,0:0:0:0:
448,192,2708,1,0,0:0:0:0:
64,192,2808,128,0,3008:0:0:0:0:
192,192,2808,1,0,0:0:0:0:
192,192,3008,1,0,0:0:0:0:
448,192,3008,1,0,0:0:0:0:
320,192,3108,128,0,3308:0:0:0:0:
64,192,3308,1,0,0:0:0:0:
192,192,3308,1,0,0:0:0:0:
448,192,3408,128,0,3608:0:0:0:0:
64,192,3608,1,0,0:0:0:0:
192,192,3608,1,0,0:0:0:0:
320,192,3708,1,0,0:0:0:0:
64,192,3808,1,0,0:0:0:0:
448,192,3908,1,0,0:0:0:0:
192,192,4008,1,0,0:0:0:0:
64,192,4008,1,0,0:0:0:0:
448,192,4108,1,0,0:0:0:0:
64,192,4208,1,0,0:0:0:0:
320,192,4308,1,0,0:0:0:0:
64,192,4408,1,0,0:0:0:0:
320,192,4508,1,0,0:0:0:0:
448,192,4508,128,0,4608:0:0:0:0:
192,192,4608,1,0,0:0:0:0:
64,192,4608,128,0,4708:0:0:0:0:
320,192,4708,128,0,4808:0:0:0:0:
448,192,4708,1,0,0:0:0:0:
192,192,4808,1,0,0:0:0:0:
448,192,4908,1,0,0:0:0:0:
64,192,5008,1,0,0:0:0:0:
320,192,5108,1,0,0:0:0:0:
192,192,5208,1,0,0:0:0:0:
64,192,5208,1,0,0:0:0:0:
448,192,5308,1,0,0:0:0:0:
192,192,5408,1,0,0:0:0:0:
448,192,5508,1,0,0:0:0:0:
320,192,5608,1,0,0:0:0:0:
192,192,5608,1,0,0:0:0:0:
64,192,5708,1,0,0:0:0:0:
448,192,5808,1,0,0:0:0:0:
192,192,5908,1,0,0:0:0:0:
448,192,6008,1,0,0:0:0:0:
64,192,6008,1,0,0:0:0:0:
320,192,6108,1,0,0:0:0:0:
64,192,6208,1,0,0:0:0:0:
448,192,6308,1,0,0:0:0:0:
320,192,6408,128,0,6608:0:0:0:0:
448,192,6508,1,0,0:0:0:0:
64,192,6608,128,0,6808:0:0:0:0:
192,192,6708,1,0,0:0:0:0:
320,192,6808,1,0,0:0:0:0:
448,192,6808,1,0,0:0:0:0:
64,192,6908,1,0,0:0:0:0:
192,192,7008,1,0,0:0:0:0:
448,192,7008,1,0,0:0:0:0:
320,192,7108,1,0,0:0:0:0:
192,192,7208,1,0,0:0:0:0:
64,192,7208,1,0,0:0:0:0:
320,192,7308,1,0,0:0:0:0:
64,192,7408,1,0,0:0:0:0:
448,192,7408,1,0,0:0:0:0:
192,192,7508,1,0,0:0:0:0:
320,192,7508,1,0,0:0:0:0:
64,192,7608,1,0,0:0:0:0:
448,192,7608,1,0,0:0:0:0:
192,192,7708,1,0,0:0:0:0:
448,192,7808,1,0,0:0:0:0:
64,192,7808,1,0,0:0:0:0:
320,192,7908,1,0,0:0:0:0:
192,192,8008,1,0,0:0:0:0:
64,192,8008,1,0,0:0:0:0:
320,192,8108,1,0,0:0:0:0:
448,192,8108,1,0,0:0:0:0:
192,192,8208,1,0,0:0:0:0:
64,192,8208,1,0,0:0:0:0:
448,192,8308,1,0,0:0:0:0:
320,192,8408,1,0,0:0:0:0:
192,192,8408,1,0,0:0:0:0:
64,192,8508,1,0,0:0:0:0:
448,192,8508,1,0,0:0:0:0:
192,192,8608,1,0,0:0:0:0:
320,192,8708,1,0,0:0:0:0:
448,192,8708,1,0,0:0:0:0:
192,192,8808,1,0,0:0:0:0:
64,192,8808,1,0,0:0:0:0:
448,192,8908,1,0,0:0:0:0:
320,192,9008,1,0,0:0:0:0:
192,192,9008,1,0,0:0:0:0:
64,192,9108,1,0,0:0:0:0:
448,192,9108,1,0,0:0:0:0:
192,192,9208,1,0,0:0:0:0:
448,192,9308,1,0,0:0:0:0:
64,192,9408,1,0,0:0:0:0:
320,192,9408,1,0,0:0:0:0:
192,192,9508,1,0,0:0:0:0:
320,192,9608,1,0,0:0:0:0:
448,192,9608,1,0,0:0:0:0:
64,192,9708,1,0,0:0:0:0:
192,192,9808,1,0,0:0:0:0:
448,192,9808,1,0,0:0:0:0:
320,192,9908,1,0,0:0:0:0:
64,192,9908,1,0,0:0:0:0:
192,192,10008,1,0,0:0:0:0:
448,192,10008,1,0,0:0:0:0:
320,192,10108,1,0,0:0:0:0:
192,192,10208,1,0,0:0:0:0:
64,192,10208,1,0,0:0:0:0:
320,192,10308,1,0,0:0:0:0:
448,192,10308,1,0,0:0:0:0:
192,192,10408,1,0,0:0:0:0:
64,192,10408,1,0,0:0:0:0:
448,192,10508,1,0,0:0:0:0:
192,192,10608,1,0,0:0:0:0:
320,192,10608,1,0,0:0:0:0:
64,192,10708,1,0,0:0:0:0:
448,192,10708,1,0,0:0:0:0:
192,192,10808,1,0,0:0:0:0:
320,192,10808,1,0,0:0:0:0:
64,192,10908,1,0,0:0:0:0:
320,192,11008,1,0,0:0:0:0:
448,192,11008,1,0,0:0:0:0:
192,192,11108,1,0,0:0:0:0:
64,192,11108,1,0,0:0:0:0:
320,192,11208,1,0,0:0:0:0:
448,192,11208,1,0,0:0:0:0:
192,192,11308,1,0,0:0:0:0:
64,192,11408,1,0,0:0:0:0:
448,192,11408,1,0,0:0:0:0:
192,192,11508,1,0,0:0:0:0:
320,192,11508,1,0,0:0:0:0:
448,192,11608,1,0,0:0:0:0:
64,192,11608,128,0,12008:0:0:0:0:
320,192,11708,1,0,0:0:0:0:
320,192,11808,1,0,0:0:0:0:
320,192,11908,1,0,0:0:0:0:
192,192,12008,128,0,12408:0:0:0:0:
320,192,12008,1,0,0:0:0:0:
320,192,12408,128,0,12808:0:0:0:0:
448,192,12408,1,0,0:0:0:0:
448,192,12808,128,0,13208:0:0:0:0:
64,192,12808,128,0,13208:0:0:0:0:
192,192,13208,1,0,0:0:0:0:
320,192,13208,1,0,0:0:0:0:
448,192,13308,1,0,0:0:0:0:
64,192,13408,1,0,0:0:0:0:
192,192,13408,1,0,0:0:0:0:
448,192,13508,1,0,0:0:0:0:
320,192,13508,1,0,0:0:0:0:
64,192,13608,1,0,0:0:0:0:
192,192,13708,1,0,0:0:0:0:
320,192,13708,1,0,0:0:0:0:
448,192,13808,1,0,0:0:0:0:
64,192,13908,1,0,0:0:0:0:
320,192,13908,1,0,0:0:0:0:
192,192,14008,1,0,0:0:0:0:
320,192,14108,1,0,0:0:0:0:
448,192,14108,1,0,0:0:0:0:
192,192,14208,1,0,0:0:0:0:
64,192,14208,1,0,0:0:0:0:
320,192,14308,1,0,0:0:0:0:
448,192,14408,1,0,0:0:0:0:
64,192,14408,1,0,0:0:0:0:
192,192,14508,1,0,0:0:0:0:
320,192,14608,1,0,0:0:0:0:
64,192,14608,1,0,0:0:0:0:
448,192,14708,1,0,0:0:0:0:
192,192,14808,1,0,0:0:0:0:
64,192,14808,1,0,0:0:0:0:
448,192,14908,1,0,0:0:0:0:
320,192,15008,1,0,0:0:0:0:
192,192,15008,1,0,0:0:0:0:
64,192,15108,1,0,0:0:0:0:
448,192,15108,1,0,0:0:0:0:
320,192,15208,1,0,0:0:0:0:
192,192,15308,1,0,0:0:0:0:
64,192,15308,1,0,0:0:0:0:
320,192,15408,1,0,0:0:0:0:
64,192,15508,1,0,0:0:0:0:
448,192,15508,128,0,15608:0:0:0:0:
192,192,15608,1,0,0:0:0:0:
64,192,15708,1,0,0:0:0:0:
448,192,15708,128,0,15808:0:0:0:0:
192,192,15808,1,0,0:0:0:0:
320,192,15808,1,0,0:0:0:0:
64,192,15908,1,0,0:0:0:0:
320,192,16008,1,0,0:0:0:0:
448,192,16008,1,0,0:0:0:0:
192,192,16108,1,0,0:0:0:0:
64,192,16208,1,0,0:0:0:0:
320,192,16208,1,0,0:0:0:0:
64,192,16308,1,0,0:0:0:0:
448,192,16308,1,0,0:0:0:0:
64,192,16408,1,0,0:0:0:0:
192,192,16408,1,0,0:0:0:0:
448,192,16508,1,0,0:0:0:0:
64,192,16608,1,0,0:0:0:0:
192,192,16608,1,0,0:0:0:0:
320,192,16708,1,0,0:0:0:0:
448,192,16708,1,0,0:0:0:0:
64,192,16808,1,0,0:0:0:0:
192,192,16908,1,0,0:0:0:0:
320,192,16908,1,0,0:0:0:0:
64,192,17008,1,0,0:0:0:0:
320,192,17108,1,0,0:0:0:0:
448,192,17108,1,0,0:0:0:0:
192,192,17208,1,0,0:0:0:0:
64,192,17308,1,0,0:0:0:0:
320,192,17308,1,0,0:0:0:0:
192,192,17408,1,0,0:0:0:0:
448,192,17408,1,0,0:0:0:0:
320,192,17508,1,0,0:0:0:0:
192,192,17608,1,0,0:0:0:0:
64,192,17608,1,0,0:0:0:0:
448,192,17708,1,0,0:0:0:0:
320,192,17808,1,0,0:0:0:0:
64,192,17808,1,0,0:0:0:0:
448,192,17908,1,0,0:0:0:0:
64,192,18008,1,0,0:0:0:0:
192,192,18008,1,0,0:0:0:0:
320,192,18108,1,0,0:0:0:0:
448,192,18108,1,0,0:0:0:0:
192,192,18208,1,0,0:0:0:0:
448,192,18208,128,0,18308:0:0:0:0:
64,192,18308,1,0,0:0:0:0:
192,192,18408,1,0,0:0:0:0:
448,192,18408,128,0,18508:0:0:0:0:
320,192,18508,1,0,0:0:0:0:
192,192,18608,1,0,0:0:0:0:
64,192,18608,1,0,0:0:0:0:
320,192,18708,1,0,0:0:0:0:
448,192,18708,1,0,0:0:0:0:
64,192,18808,1,0,0:0:0:0:
192,192,18908,1,0,0:0:0:0:
448,192,18908,1,0,0:0:0:0:
320,192,19008,1,0,0:0:0:0:
192,192,19108,1,0,0:0:0:0:
64,192,19108,1,0,0:0:0:0:
320,192,19208,1,0,0:0:0:0:
448,192,19208,1,0,0:0:0:0:
64,192,19308,1,0,0:0:0:0:
448,192,19308,1,0,0:0:0:0:
192,192,19408,1,0,0:0:0:0:
320,192,19408,1,0,0:0:0:0:
64,192,19508,1,0,0:0:0:0:
448,192,19508,1,0,0:0:0:0:
64,192,19608,1,0,0:0:0:0:
192,192,19608,1,0,0:0:0:0:
320,192,19708,1,0,0:0:0:0:
192,192,19808,1,0,0:0:0:0:
448,192,19808,1,0,0:0:0:0:
320,192,19908,1,0,0:0:0:0:
64,192,19908,1,0,0:0:0:0:
448,192,20008,1,0,0:0:0:0:
192,192,20108,1,0,0:0:0:0:
320,192,20108,1,0,0:0:0:0:
64,192,20208,1,0,0:0:0:0:
320,192,20308,1,0,0:0:0:0:
448,192,20308,1,0,0:0:0:0:
192,192,20408,1,0,0:0:0:0:
64,192,20508,1,0,0:0:0:0:
448,192,20508,1,0,0:0:0:0:
192,192,20608,1,0,0:0:0:0:
320,192,20608,1,0,0:0:0:0:
448,192,20708,1,0,0:0:0:0:
64,192,20808,1,0,0:0:0:0:
192,192,20808,1,0,0:0:0:0:
320,192,20908,1,0,0:0:0:0:
448,192,21008,1,0,0:0:0:0:
192,192,21108,1,0,0:0:0:0:
320,192,21208,1,0,0:0:0:0:
448,192,21208,1,0,0:0:0:0:
64,192,21308,1,0,0:0:0:0:
192,192,21408,1,0,0:0:0:0:
320,192,21508,1,0,0:0:0:0:
448,192,21508,1,0,0:0:0:0:
448,192,21608,1,0,0:0:0:0:
192,192,21608,1,0,0:0:0:0:
64,192,21708,1,0,0:0:0:0:
192,192,21808,1,0,0:0:0:0:
320,192,21808,1,0,0:0:0:0:
64,192,21908,1,0,0:0:0:0:
448,192,21908,1,0,0:0:0:0:
320,192,22008,1,0,0:0:0:0:
192,192,22108,1,0,0:0:0:0:
64,192,22108,1,0,0:0:0:0:
448,192,22208,1,0,0:0:0:0:
320,192,22308,1,0,0:0:0:0:
192,192,22308,1,0,0:0:0:0:
64,192,22408,1,0,0:0:0:0:
192,192,22508,1,0,0:0:0:0:
448,192,22508,1,0,0:0:0:0:
320,192,22608,1,0,0:0:0:0:
192,192,22708,1,0,0:0:0:0:
320,192,22808,1,0,0:0:0:0:
64,192,22808,1,0,0:0:0:0:
448,192,22808,1,0,0:0:0:0:
192,192,22908,1,0,0:0:0:0:
320,192,23008,1,0,0:0:0:0:
448,192,23008,1,0,0:0:0:0:
64,192,23108,1,0,0:0:0:0:
192,192,23208,1,0,0:0:0:0:
320,192,23208,1,0,0:0:0:0:
448,192,23208,1,0,0:0:0:0:
64,192,23308,1,0,0:0:0:0:
192,192,23408,1,0,0:0:0:0:
448,192,23408,1,0,0:0:0:0:
320,192,23508,1,0,0:0:0:0:
64,192,23608,1,0,0:0:0:0:
192,192,23608,1,0,0:0:0:0:
320,192,23674,1,0,0:0:0:0:
448,192,23674,1,0,0:0:0:0:
192,192,23741,1,0,0:0:0:0:
64,192,23741,1,0,0:0:0:0:
320,192,23808,1,0,0:0:0:0:
448,192,23808,1,0,0:0:0:0:
192,192,23908,1,0,0:0:0:0:
64,192,23908,1,0,0:0:0:0:
320,192,24008,1,0,0:0:0:0:
448,192,24008,1,0,0:0:0:0:
64,192,24108,1,0,0:0:0:0:
192,192,24208,1,0,0:0:0:0:
320,192,24208,1,0,0:0:0:0:
448,192,24308,1,0,0:0:0:0:
64,192,24408,1,0,0:0:0:0:
320,192,24408,1,0,0:0:0:0:
448,192,24408,1,0,0:0:0:0:
192,192,24608,1,0,0:0:0:0:
320,192,24608,1,0,0:0:0:0:
64,192,24608,1,0,0:0:0:0:
64,192,24708,1,0,0:0:0:0:
320,192,24708,1,0,0:0:0:0:
448,192,24708,1,0,0:0:0:0:
448,192,24908,1,0,0:0:0:0:
64,192,24908,1,0,0:0:0:0:
192,192,24908,1,0,0:0:0:0:
192,192,25008,1,0,0:0:0:0:
448,192,25008,1,0,0:0:0:0:
320,192,25008,1,0,0:0:0:0:
448,192,25208,1,0,0:0:0:0:
320,192,25208,128,0,25308:0:0:0:0:
64,192,25308,1,0,0:0:0:0:
192,192,25308,128,0,25408:0:0:0:0:
448,192,25408,128,0,25608:0:0:0:0:
320,192,25408,128,0,25508:0:0:0:0:
320,192,25608,1,0,0:0:0:0:
192,192,25608,128,0,26008:0:0:0:0:
448,192,25808,1,0,0:0:0:0:
64,192,25808,128,0,26008:0:0:0:0:
320,192,26008,1,0,0:0:0:0:
448,192,26008,1,0,0:0:0:0:
192,192,26108,1,0,0:0:0:0:
320,192,26208,1,0,0:0:0:0:
64,192,26208,1,0,0:0:0:0:
192,192,26308,1,0,0:0:0:0:
448,192,26308,1,0,0:0:0:0:
320,192,26408,1,0,0:0:0:0:
192,192,26508,1,0,0:0:0:0:
64,192,26508,1,0,0:0:0:0:
448,192,26608,1,0,0:0:0:0:
320,192,26708,1,0,0:0:0:0:
64,192,26708,1,0,0:0:0:0:
192,192,26808,1,0,0:0:0:0:
320,192,26908,1,0,0:0:0:0:
448,192,26908,1,0,0:0:0:0:
192,192,27008,1,0,0:0:0:0:
64,192,27008,1,0,0:0:0:0:
448,192,27108,1,0,0:0:0:0:
320,192,27208,1,0,0:0:0:0:
64,192,27208,1,0,0:0:0:0:
192,192,27308,1,0,0:0:0:0:
320,192,27408,1,0,0:0:0:0:
448,192,27408,1,0,0:0:0:0:
192,192,27508,1,0,0:0:0:0:
64,192,27508,1,0,0:0:0:0:
448,192,27608,1,0,0:0:0:0:
64,192,27708,1,0,0:0:0:0:
320,192,27708,1,0,0:0:0:0:
64,192,27808,1,0,0:0:0:0:
192,192,27808,128,0,27908:0:0:0:0:
448,192,27908,1,0,0:0:0:0:
320,192,28008,1,0,0:0:0:0:
192,192,28008,128,0,28108:0:0:0:0:
64,192,28108,1,0,0:0:0:0:
192,192,28208,1,0,0:0:0:0:
448,192,28208,1,0,0:0:0:0:
320,192,28308,1,0,0:0:0:0:
64,192,28308,1,0,0:0:0:0:
192,192,28408,1,0,0:0:0:0:
320,192,28508,1,0,0:0:0:0:
448,192,28508,1,0,0:0:0:0:
64,192,28608,1,0,0:0:0:0:
192,192,28708,1,0,0:0:0:0:
320,192,28708,1,0,0:0:0:0:
64,192,28808,1,0,0:0:0:0:
448,192,28808,1,0,0:0:0:0:
64,192,28908,1,0,0:0:0:0:
192,192,28908,1,0,0:0:0:0:
448,192,29008,1,0,0:0:0:0:
320,192,29008,1,0,0:0:0:0:
192,192,29108,1,0,0:0:0:0:
64,192,29108,1,0,0:0:0:0:
448,192,29208,1,0,0:0:0:0:
192,192,29208,1,0,0:0:0:0:
320,192,29308,1,0,0:0:0:0:
64,192,29408,1,0,0:0:0:0:
448,192,29408,1,0,0:0:0:0:
192,192,29474,1,0,0:0:0:0:
64,192,29541,1,0,0:0:0:0:
192,192,29608,1,0,0:0:0:0:
448,192,29608,1,0,0:0:0:0:
64,192,29708,1,0,0:0:0:0:
320,192,29808,1,0,0:0:0:0:
448,192,29808,1,0,0:0:0:0:
192,192,29908,1,0,0:0:0:0:
64,192,29908,1,0,0:0:0:0:
448,192,30008,1,0,0:0:0:0:
320,192,30108,1,0,0:0:0:0:
64,192,30108,1,0,0:0:0:0:
192,192,30208,1,0,0:0:0:0:
320,192,30308,1,0,0:0:0:0:
448,192,30308,1,0,0:0:0:0:
64,192,30408,1,0,0:0:0:0:
192,192,30508,1,0,0:0:0:0:
320,192,30508,1,0,0:0:0:0:
64,192,30608,1,0,0:0:0:0:
448,192,30608,1,0,0:0:0:0:
192,192,30708,1,0,0:0:0:0:
320,192,30708,1,0,0:0:0:0:
192,192,30808,1,0,0:0:0:0:
448,192,30808,1,0,0:0:0:0:
64,192,30908,1,0,0:0:0:0:
320,192,31008,1,0,0:0:0:0:
448,192,31008,1,0,0:0:0:0:
192,192,31108,1,0,0:0:0:0:
64,192,31108,1,0,0:0:0:0:
448,192,31208,1,0,0:0:0:0:
320,192,31308,1,0,0:0:0:0:
192,192,31308,1,0,0:0:0:0:
448,192,31408,1,0,0:0:0:0:
64,192,31408,1,0,0:0:0:0:
192,192,31508,1,0,0:0:0:0:
320,192,31608,1,0,0:0:0:0:
448,192,31608,1,0,0:0:0:0:
64,192,31708,1,0,0:0:0:0:
448,192,31708,1,0,0:0:0:0:
192,192,31808,1,0,0:0:0:0:
448,192,31808,1,0,0:0:0:0:
320,192,31908,1,0,0:0:0:0:
192,192,32008,1,0,0:0:0:0:
64,192,32008,1,0,0:0:0:0:
448,192,32108,1,0,0:0:0:0:
320,192,32208,1,0,0:0:0:0:
64,192,32208,1,0,0:0:0:0:
192,192,32308,1,0,0:0:0:0:
320,192,32408,1,0,0:0:0:0:
448,192,32408,1,0,0:0:0:0:
64,192,32408,1,0,0:0:0:0:
192,192,32508,1,0,0:0:0:0:
448,192,32608,1,0,0:0:0:0:
64,192,32608,1,0,0:0:0:0:
192,192,32708,1,0,0:0:0:0:
320,192,32708,1,0,0:0:0:0:
64,192,32808,1,0,0:0:0:0:
448,192,32808,1,0,0:0:0:0:
64,192,32908,1,0,0:0:0:0:
320,192,32908,1,0,0:0:0:0:
320,192,33008,1,0,0:0:0:0:
448,192,33008,1,0,0:0:0:0:
192,192,33108,1,0,0:0:0:0:
64,192,33108,1,0,0:0:0:0:
320,192,33208,1,0,0:0:0:0:
448,192,33208,1,0,0:0:0:0:
64,192,33308,1,0,0:0:0:0:
192,192,33408,1,0,0:0:0:0:
320,192,33408,1,0,0:0:0:0:
64,192,33508,1,0,0:0:0:0:
448,192,33508,1,0,0:0:0:0:
192,192,33608,1,0,0:0:0:0:
320,192,33608,1,0,0:0:0:0:
320,192,33708,1,0,0:0:0:0:
448,192,33708,1,0,0:0:0:0:
64,192,33808,1,0,0:0:0:0:
192,192,33808,1,0,0:0:0:0:
320,192,33858,1,0,0:0:0:0:
448,192,33858,1,0,0:0:0:0:
192,192,33908,1,0,0:0:0:0:
64,192,33908,1,0,0:0:0:0:
320,192,33958,1,0,0:0:0:0:
448,192,33958,1,0,0:0:0:0:
192,192,34008,1,0,0:0:0:0:
64,192,34008,1,0,0:0:0:0:
448,192,34108,1,0,0:0:0:0:
192,192,34208,1,0,0:0:0:0:
320,192,34208,1,0,0:0:0:0:
64,192,34308,1,0,0:0:0:0:
448,192,34308,1,0,0:0:0:0:
192,192,34408,1,0,0:0:0:0:
320,192,34408,1,0,0:0:0:0:
192,192,34508,1,0,0:0:0:0:
448,192,34508,1,0,0:0:0:0:
64,192,34608,1,0,0:0:0:0:
448,192,34608,1,0,0:0:0:0:
320,192,34708,1,0,0:0:0:0:
192,192,34708,1,0,0:0:0:0:
64,192,34808,1,0,0:0:0:0:
448,192,34808,1,0,0:0:0:0:
448,192,34908,1,0,0:0:0:0:
192,192,34908,1,0,0:0:0:0:
448,192,35008,1,0,0:0:0:0:
320,192,35008,1,0,0:0:0:0:
448,192,35108,1,0,0:0:0:0:
192,192,35108,1,0,0:0:0:0:
64,192,35208,1,0,0:0:0:0:
320,192,35208,1,0,0:0:0:0:
64,192,35308,1,0,0:0:0:0:
448,192,35308,1,0,0:0:0:0:
64,192,35408,1,0,0:0:0:0:
192,192,35408,1,0,0:0:0:0:
64,192,35508,1,0,0:0:0:0:
448,192,35508,1,0,0:0:0:0:
192,192,35608,1,0,0:0:0:0:
320,192,35608,1,0,0:0:0:0:
192,192,35808,1,0,0:0:0:0:
64,192,35808,1,0,0:0:0:0:
448,192,35908,1,0,0:0:0:0:
64,192,36008,1,0,0:0:0:0:
192,192,36008,1,0,0:0:0:0:
320,192,36108,1,0,0:0:0:0:
448,192,36108,1,0,0:0:0:0:
64,192,36208,1,0,0:0:0:0:
192,192,36308,1,0,0:0:0:0:
320,192,36308,1,0,0:0:0:0:
448,192,36408,1,0,0:0:0:0:
192,192,36508,1,0,0:0:0:0:
64,192,36508,1,0,0:0:0:0:
320,192,36608,1,0,0:0:0:0:
192,192,36708,1,0,0:0:0:0:
64,192,36708,1,0,0:0:0:0:
448,192,36808,1,0,0:0:0:0:
64,192,36908,1,0,0:0:0:0:
320,192,36908,1,0,0:0:0:0:
192,192,37008,1,0,0:0:0:0:
320,192,37008,1,0,0:0:0:0:
192,192,37108,1,0,0:0:0:0:
448,192,37108,1,0,0:0:0:0:
64,192,37208,128,0,38408:0:0:0:0:
448,192,37208,128,0,38408:0:0:0:0:
320,192,38008,1,0,0:0:0:0:
192,192,38108,1,0,0:0:0:0:
320,192,38208,1,0,0:0:0:0:
192,192,38308,1,0,0:0:0:0:
320,192,38408,1,0,0:0:0:0:
448,192,38458,1,0,0:0:0:0:
192,192,38508,1,0,0:0:0:0:
64,192,38558,1,0,0:0:0:0:
320,192,38608,1,0,0:0:0:0:
448,192,38658,1,0,0:0:0:0:
192,192,38708,1,0,0:0:0:0:
64,192,38758,1,0,0:0:0:0:
320,192,38808,1,0,0:0:0:0:
448,192,38808,1,0,0:0:0:0:
64,192,39008,1,0,0:0:0:0:
320,192,39208,1,0,0:0:0:0:
448,192,39308,1,0,0:0:0:0:
192,192,39508,1,0,0:0:0:0:
448,192,39708,1,0,0:0:0:0:
192,192,39908,1,0,0:0:0:0:
448,192,40008,1,0,0:0:0:0:
192,192,40108,1,0,0:0:0:0:
448,192,40208,1,0,0:0:0:0:
320,192,40308,1,0,0:0:0:0:
64,192,40408,1,0,0:0:0:0:
64,192,40608,1,0,0:0:0:0:
320,192,40808,1,0,0:0:0:0:
448,192,40908,1,0,0:0:0:0:
192,192,41108,1,0,0:0:0:0:
448,192,41308,1,0,0:0:0:0:
320,192,41508,1,0,0:0:0:0:
64,192,41708,1,0,0:0:0:0:
320,192,41808,1,0,0:0:0:0:
192,192,41908,1,0,0:0:0:0:
448,192,42008,1,0,0:0:0:0:
448,192,42208,1,0,0:0:0:0:
320,192,42408,1,0,0:0:0:0:
192,192,42608,1,0,0:0:0:0:
64,192,42708,1,0,0:0:0:0:
320,192,42908,1,0,0:0:0:0:
448,192,43008,1,0,0:0:0:0:
192,192,43108,1,0,0:0:0:0:
192,192,43308,1,0,0:0:0:0:
320,192,43408,1,0,0:0:0:0:
192,192,43508,1,0,0:0:0:0:
448,192,43608,1,0,0:0:0:0:
320,192,43808,1,0,0:0:0:0:
64,192,43908,1,0,0:0:0:0:
64,192,44108,1,0,0:0:0:0:
320,192,44174,1,0,0:0:0:0:
448,192,44174,1,0,0:0:0:0:
192,192,44241,1,0,0:0:0:0:
64,192,44241,1,0,0:0:0:0:
320,192,44308,1,0,0:0:0:0:
448,192,44308,1,0,0:0:0:0:
192,192,44508,1,0,0:0:0:0:
320,192,44508,1,0,0:0:0:0:
64,192,44608,1,0,0:0:0:0:
448,192,44608,1,0,0:0:0:0:
320,192,44808,1,0,0:0:0:0:
448,192,44808,1,0,0:0:0:0:
192,192,44874,1,0,0:0:0:0:
64,192,44874,1,0,0:0:0:0:
320,192,44941,1,0,0:0:0:0:
448,192,44941,1,0,0:0:0:0:
192,192,45008,1,0,0:0:0:0:
64,192,45008,1,0,0:0:0:0:
320,192,45108,1,0,0:0:0:0:
448,192,45108,1,0,0:0:0:0:
64,192,45208,1,0,0:0:0:0:
64,192,45408,1,0,0:0:0:0:
192,192,45608,1,0,0:0:0:0:
448,192,45708,1,0,0:0:0:0:
192,192,45908,1,0,0:0:0:0:
448,192,46108,1,0,0:0:0:0:
448,192,46308,1,0,0:0:0:0:
320,192,46508,1,0,0:0:0:0:
64,192,46608,1,0,0:0:0:0:
448,192,46708,1,0,0:0:0:0:
320,192,46808,1,0,0:0:0:0:
320,192,47008,1,0,0:0:0:0:
192,192,47208,1,0,0:0:0:0:
64,192,47208,1,0,0:0:0:0:
320,192,47308,1,0,0:0:0:0:
448,192,47308,1,0,0:0:0:0:
192,192,47508,1,0,0:0:0:0:
320,192,47508,1,0,0:0:0:0:
320,192,47708,1,0,0:0:0:0:
448,192,47708,1,0,0:0:0:0:
192,192,47908,1,0,0:0:0:0:
64,192,47908,1,0,0:0:0:0:
320,192,48108,1,0,0:0:0:0:
448,192,48108,1,0,0:0:0:0:
192,192,48208,1,0,0:0:0:0:
64,192,48208,1,0,0:0:0:0:
320,192,48308,1,0,0:0:0:0:
448,192,48308,1,0,0:0:0:0:
64,192,48408,1,0,0:0:0:0:
448,192,48508,1,0,0:0:0:0:
320,192,48608,128,0,48808:0:0:0:0:
64,192,48708,1,0,0:0:0:0:
448,192,48808,128,0,49008:0:0:0:0:
192,192,48808,1,0,0:0:0:0:
192,192,49008,1,0,0:0:0:0:
320,192,49008,1,0,0:0:0:0:
64,192,49108,128,0,49308:0:0:0:0:
320,192,49208,1,0,0:0:0:0:
448,192,49208,1,0,0:0:0:0:
448,192,49408,128,0,49608:0:0:0:0:
192,192,49408,1,0,0:0:0:0:
320,192,49408,1,0,0:0:0:0:
320,192,49608,128,0,49808:0:0:0:0:
64,192,49608,1,0,0:0:0:0:
192,192,49608,1,0,0:0:0:0:
192,192,49808,128,0,50008:0:0:0:0:
448,192,49808,1,0,0:0:0:0:
64,192,49808,1,0,0:0:0:0:
320,192,50008,1,0,0:0:0:0:
448,192,50008,1,0,0:0:0:0:
64,192,50008,128,0,50408:0:0:0:0:
448,192,50308,128,0,50408:0:0:0:0:
192,192,50408,128,0,50708:0:0:0:0:
320,192,50608,128,0,50708:0:0:0:0:
448,192,50708,128,0,51008:0:0:0:0:
64,192,50908,128,0,51008:0:0:0:0:
320,192,51008,128,0,51408:0:0:0:0:
192,192,51108,128,0,51208:0:0:0:0:
448,192,51308,128,0,51408:0:0:0:0:
192,192,51408,128,0,51508:0:0:0:0:
64,192,51508,128,0,51608:0:0:0:0:
320,192,51608,1,0,0:0:0:0:
448,192,51608,1,0,0:0:0:0:
192,192,51808,1,0,0:0:0:0:
320,192,51808,1,0,0:0:0:0:
64,192,52008,1,0,0:0:0:0:
320,192,52008,1,0,0:0:0:0:
320,192,52108,1,0,0:0:0:0:
448,192,52108,1,0,0:0:0:0:
192,192,52308,1,0,0:0:0:0:
64,192,52308,1,0,0:0:0:0:
448,192,52408,1,0,0:0:0:0:
64,192,52508,1,0,0:0:0:0:
320,192,52608,1,0,0:0:0:0:
320,192,52708,1,0,0:0:0:0:
448,192,52808,1,0,0:0:0:0:
192,192,52808,1,0,0:0:0:0:
64,192,52808,1,0,0:0:0:0:
448,192,52908,1,0,0:0:0:0:
192,192,53008,1,0,0:0:0:0:
64,192,53008,1,0,0:0:0:0:
320,192,53058,1,0,0:0:0:0:
448,192,53058,1,0,0:0:0:0:
192,192,53108,1,0,0:0:0:0:
64,192,53108,1,0,0:0:0:0:
320,192,53158,1,0,0:0:0:0:
448,192,53158,1,0,0:0:0:0:
192,192,53208,1,0,0:0:0:0:
64,192,53208,1,0,0:0:0:0:
192,192,53408,1,0,0:0:0:0:
320,192,53408,1,0,0:0:0:0:
64,192,53608,1,0,0:0:0:0:
320,192,53608,1,0,0:0:0:0:
320,192,53708,1,0,0:0:0:0:
448,192,53708,1,0,0:0:0:0:
192,192,53908,1,0,0:0:0:0:
64,192,53908,1,0,0:0:0:0:
320,192,54008,1,0,0:0:0:0:
448,192,54108,1,0,0:0:0:0:
192,192,54208,1,0,0:0:0:0:
192,192,54308,1,0,0:0:0:0:
320,192,54408,1,0,0:0:0:0:
448,192,54408,1,0,0:0:0:0:
64,192,54408,1,0,0:0:0:0:
64,192,54508,1,0,0:0:0:0:
320,192,54608,1,0,0:0:0:0:
448,192,54608,1,0,0:0:0:0:
192,192,54658,1,0,0:0:0:0:
64,192,54658,1,0,0:0:0:0:
320,192,54708,1,0,0:0:0:0:
448,192,54708,1,0,0:0:0:0:
192,192,54758,1,0,0:0:0:0:
64,192,54758,1,0,0:0:0:0:
320,192,54808,1,0,0:0:0:0:
448,192,54808,1,0,0:0:0:0:
192,192,55008,1,0,0:0:0:0:
320,192,55008,1,0,0:0:0:0:
192,192,55208,1,0,0:0:0:0:
64,192,55208,1,0,0:0:0:0:
448,192,55408,1,0,0:0:0:0:
192,192,55408,1,0,0:0:0:0:
320,192,55508,1,0,0:0:0:0:
448,192,55508,1,0,0:0:0:0:
64,192,55708,1,0,0:0:0:0:
192,192,55708,1,0,0:0:0:0:
192,192,55808,1,0,0:0:0:0:
448,192,55808,1,0,0:0:0:0:
448,192,55908,1,0,0:0:0:0:
64,192,55908,128,0,56108:0:0:0:0:
320,192,55958,1,0,0:0:0:0:
192,192,56008,1,0,0:0:0:0:
448,192,56058,1,0,0:0:0:0:
320,192,56108,1,0,0:0:0:0:
192,192,56108,1,0,0:0:0:0:
192,192,56208,1,0,0:0:0:0:
448,192,56208,1,0,0:0:0:0:
320,192,56308,1,0,0:0:0:0:
448,192,56308,1,0,0:0:0:0:
192,192,56408,1,0,0:0:0:0:
64,192,56408,1,0,0:0:0:0:
320,192,56608,1,0,0:0:0:0:
448,192,56608,1,0,0:0:0:0:
64,192,56708,1,0,0:0:0:0:
320,192,56708,1,0,0:0:0:0:
192,192,56908,1,0,0:0:0:0:
448,192,56908,1,0,0:0:0:0:
320,192,57008,1,0,0:0:0:0:
64,192,57008,1,0,0:0:0:0:
192,192,57108,1,0,0:0:0:0:
448,192,57208,1,0,0:0:0:0:
448,192,57308,1,0,0:0:0:0:
64,192,57408,1,0,0:0:0:0:
64,192,57508,1,0,0:0:0:0:
448,192,57608,1,0,0:0:0:0:
64,192,57674,1,0,0:0:0:0:
448,192,57741,1,0,0:0:0:0:
192,192,57808,1,0,0:0:0:0:
320,192,57808,1,0,0:0:0:0:
448,192,57908,1,0,0:0:0:0:
192,192,58008,1,0,0:0:0:0:
64,192,58008,1,0,0:0:0:0:
320,192,58008,1,0,0:0:0:0:
448,192,58108,1,0,0:0:0:0:
64,192,58208,1,0,0:0:0:0:
192,192,58208,1,0,0:0:0:0:
320,192,58308,1,0,0:0:0:0:
448,192,58408,1,0,0:0:0:0:
192,192,58408,1,0,0:0:0:0:
64,192,58408,1,0,0:0:0:0:
320,192,58508,1,0,0:0:0:0:
64,192,58508,1,0,0:0:0:0:
192,192,58608,1,0,0:0:0:0:
320,192,58708,1,0,0:0:0:0:
448,192,58708,1,0,0:0:0:0:
192,192,58808,1,0,0:0:0:0:
448,192,58808,1,0,0:0:0:0:
64,192,58908,1,0,0:0:0:0:
192,192,59008,1,0,0:0:0:0:
320,192,59008,1,0,0:0:0:0:
448,192,59108,1,0,0:0:0:0:
320,192,59208,1,0,0:0:0:0:
192,192,59208,1,0,0:0:0:0:
320,192,59308,1,0,0:0:0:0:
64,192,59308,1,0,0:0:0:0:
192,192,59408,1,0,0:0:0:0:
320,192,59508,1,0,0:0:0:0:
448,192,59508,1,0,0:0:0:0:
448,192,59608,1,0,0:0:0:0:
64,192,59608,1,0,0:0:0:0:
192,192,59708,1,0,0:0:0:0:
320,192,59808,1,0,0:0:0:0:
448,192,59808,1,0,0:0:0:0:
64,192,59908,1,0,0:0:0:0:
320,192,60008,1,0,0:0:0:0:
448,192,60008,1,0,0:0:0:0:
192,192,60108,1,0,0:0:0:0:
448,192,60108,1,0,0:0:0:0:
64,192,60208,1,0,0:0:0:0:
192,192,60308,1,0,0:0:0:0:
320,192,60308,1,0,0:0:0:0:
192,192,60408,1,0,0:0:0:0:
448,192,60408,1,0,0:0:0:0:
320,192,60508,1,0,0:0:0:0:
192,192,60608,1,0,0:0:0:0:
64,192,60608,1,0,0:0:0:0:
320,192,60708,1,0,0:0:0:0:
192,192,60808,1,0,0:0:0:0:
64,192,60808,1,0,0:0:0:0:
448,192,60908,1,0,0:0:0:0:
64,192,60908,1,0,0:0:0:0:
320,192,61008,1,0,0:0:0:0:
192,192,61108,1,0,0:0:0:0:
64,192,61108,1,0,0:0:0:0:
64,192,61208,1,0,0:0:0:0:
448,192,61208,1,0,0:0:0:0:
192,192,61308,1,0,0:0:0:0:
448,192,61308,1,0,0:0:0:0:
64,192,61408,1,0,0:0:0:0:
320,192,61508,1,0,0:0:0:0:
448,192,61508,1,0,0:0:0:0:
448,192,61608,1,0,0:0:0:0:
64,192,61608,1,0,0:0:0:0:
64,192,61708,1,0,0:0:0:0:
320,192,61708,1,0,0:0:0:0:
448,192,61808,1,0,0:0:0:0:
320,192,61908,1,0,0:0:0:0:
64,192,61908,1,0,0:0:0:0:
192,192,62008,1,0,0:0:0:0:
320,192,62008,1,0,0:0:0:0:
192,192,62108,1,0,0:0:0:0:
448,192,62108,1,0,0:0:0:0:
64,192,62208,1,0,0:0:0:0:
192,192,62308,1,0,0:0:0:0:
320,192,62308,1,0,0:0:0:0:
320,192,62408,1,0,0:0:0:0:
448,192,62408,1,0,0:0:0:0:
192,192,62458,1,0,0:0:0:0:
64,192,62458,1,0,0:0:0:0:
320,192,62508,1,0,0:0:0:0:
448,192,62508,1,0,0:0:0:0:
192,192,62558,1,0,0:0:0:0:
64,192,62558,1,0,0:0:0:0:
320,192,62608,1,0,0:0:0:0:
448,192,62608,1,0,0:0:0:0:
192,192,62658,1,0,0:0:0:0:
64,192,62708,1,0,0:0:0:0:
448,192,62708,1,0,0:0:0:0:
320,192,62758,1,0,0:0:0:0:
192,192,62808,1,0,0:0:0:0:
64,192,62808,1,0,0:0:0:0:
448,192,62908,1,0,0:0:0:0:
448,192,63008,1,0,0:0:0:0:
448,192,63108,1,0,0:0:0:0:
448,192,63208,128,0,63408:0:0:0:0:
64,192,63208,1,0,0:0:0:0:
192,192,63208,1,0,0:0:0:0:
192,192,63408,1,0,0:0:0:0:
320,192,63408,1,0,0:0:0:0:
64,192,63558,1,0,0:0:0:0:
192,192,63558,1,0,0:0:0:0:
320,192,63608,1,0,0:0:0:0:
448,192,63608,1,0,0:0:0:0:
320,192,63808,1,0,0:0:0:0:
64,192,63808,1,0,0:0:0:0:
64,192,64008,1,0,0:0:0:0:
448,192,64008,1,0,0:0:0:0:
320,192,64058,1,0,0:0:0:0:
192,192,64108,1,0,0:0:0:0:
64,192,64158,1,0,0:0:0:0:
448,192,64158,1,0,0:0:0:0:
320,192,64208,1,0,0:0:0:0:
192,192,64258,1,0,0:0:0:0:
64,192,64308,1,0,0:0:0:0:
448,192,64308,1,0,0:0:0:0:
320,192,64358,1,0,0:0:0:0:
192,192,64408,1,0,0:0:0:0:
64,192,64408,1,0,0:0:0:0:
448,192,64508,1,0,0:0:0:0:
320,192,64608,1,0,0:0:0:0:
192,192,64608,1,0,0:0:0:0:
64,192,64708,1,0,0:0:0:0:
192,192,64808,1,0,0:0:0:0:
448,192,64808,1,0,0:0:0:0:
320,192,64908,1,0,0:0:0:0:
448,192,64908,1,0,0:0:0:0:
64,192,65008,1,0,0:0:0:0:
192,192,65108,1,0,0:0:0:0:
320,192,65108,1,0,0:0:0:0:
448,192,65208,1,0,0:0:0:0:
320,192,65308,1,0,0:0:0:0:
64,192,65308,1,0,0:0:0:0:
192,192,65408,1,0,0:0:0:0:
320,192,65508,1,0,0:0:0:0:
448,192,65508,1,0,0:0:0:0:
64,192,65608,1,0,0:0:0:0:
448,192,65608,1,0,0:0:0:0:
448,192,65708,1,0,0:0:0:0:
192,192,65708,1,0,0:0:0:0:
320,192,65808,1,0,0:0:0:0:
64,192,65808,1,0,0:0:0:0:
192,192,65908,1,0,0:0:0:0:
320,192,65908,1,0,0:0:0:0:
448,192,66008,1,0,0:0:0:0:
64,192,66008,1,0,0:0:0:0:
192,192,66108,1,0,0:0:0:0:
320,192,66208,1,0,0:0:0:0:
448,192,66208,1,0,0:0:0:0:
64,192,66308,1,0,0:0:0:0:
320,192,66408,1,0,0:0:0:0:
448,192,66408,1,0,0:0:0:0:
64,192,66508,1,0,0:0:0:0:
320,192,66508,1,0,0:0:0:0:
448,192,66608,1,0,0:0:0:0:
64,192,66708,1,0,0:0:0:0:
192,192,66708,1,0,0:0:0:0:
320,192,66808,1,0,0:0:0:0:
448,192,66808,1,0,0:0:0:0:
64,192,66908,1,0,0:0:0:0:
192,192,66908,1,0,0:0:0:0:
320,192,67008,1,0,0:0:0:0:
64,192,67108,1,0,0:0:0:0:
192,192,67108,1,0,0:0:0:0:
320,192,67208,1,0,0:0:0:0:
192,192,67308,1,0,0:0:0:0:
64,192,67308,1,0,0:0:0:0:
448,192,67308,1,0,0:0:0:0:
64,192,67408,1,0,0:0:0:0:
320,192,67408,1,0,0:0:0:0:
192,192,67508,1,0,0:0:0:0:
192,192,67608,1,0,0:0:0:0:
320,192,67608,1,0,0:0:0:0:
64,192,67708,1,0,0:0:0:0:
320,192,67808,1,0,0:0:0:0:
448,192,67808,1,0,0:0:0:0:
64,192,67908,1,0,0:0:0:0:
192,192,68008,1,0,0:0:0:0:
320,192,68008,1,0,0:0:0:0:
448,192,68108,1,0,0:0:0:0:
64,192,68208,1,0,0:0:0:0:
320,192,68208,1,0,0:0:0:0:
192,192,68308,1,0,0:0:0:0:
320,192,68308,1,0,0:0:0:0:
448,192,68408,1,0,0:0:0:0:
64,192,68508,1,0,0:0:0:0:
320,192,68508,1,0,0:0:0:0:
64,192,68608,1,0,0:0:0:0:
192,192,68608,1,0,0:0:0:0:
192,192,68708,1,0,0:0:0:0:
448,192,68708,1,0,0:0:0:0:
320,192,68808,1,0,0:0:0:0:
64,192,68908,1,0,0:0:0:0:
192,192,68908,1,0,0:0:0:0:
192,192,69008,1,0,0:0:0:0:
448,192,69008,1,0,0:0:0:0:
320,192,69108,1,0,0:0:0:0:
64,192,69108,1,0,0:0:0:0:
192,192,69208,1,0,0:0:0:0:
320,192,69208,1,0,0:0:0:0:
448,192,69308,1,0,0:0:0:0:
320,192,69408,1,0,0:0:0:0:
64,192,69408,1,0,0:0:0:0:
192,192,69508,1,0,0:0:0:0:
320,192,69508,1,0,0:0:0:0:
448,192,69608,1,0,0:0:0:0:
64,192,69708,1,0,0:0:0:0:
192,192,69708,1,0,0:0:0:0:
192,192,69808,1,0,0:0:0:0:
320,192,69808,1,0,0:0:0:0:
192,192,69908,1,0,0:0:0:0:
448,192,69908,1,0,0:0:0:0:
320,192,70008,1,0,0:0:0:0:
192,192,70108,1,0,0:0:0:0:
64,192,70108,1,0,0:0:0:0:
64,192,70208,1,0,0:0:0:0:
320,192,70208,1,0,0:0:0:0:
192,192,70308,1,0,0:0:0:0:
320,192,70308,1,0,0:0:0:0:
64,192,70408,1,0,0:0:0:0:
448,192,70408,1,0,0:0:0:0:
192,192,70474,1,0,0:0:0:0:
320,192,70474,1,0,0:0:0:0:
64,192,70541,1,0,0:0:0:0:
448,192,70541,1,0,0:0:0:0:
192,192,70608,1,0,0:0:0:0:
320,192,70608,1,0,0:0:0:0:
64,192,70708,1,0,0:0:0:0:
320,192,70708,1,0,0:0:0:0:
64,192,70808,1,0,0:0:0:0:
448,192,70808,1,0,0:0:0:0:
320,192,70908,1,0,0:0:0:0:
192,192,71008,1,0,0:0:0:0:
64,192,71008,1,0,0:0:0:0:
448,192,71108,1,0,0:0:0:0:
320,192,71208,1,0,0:0:0:0:
192,192,71208,1,0,0:0:0:0:
64,192,71308,1,0,0:0:0:0:
320,192,71308,1,0,0:0:0:0:
192,192,71408,1,0,0:0:0:0:
320,192,71508,1,0,0:0:0:0:
448,192,71508,1,0,0:0:0:0:
64,192,71608,1,0,0:0:0:0:
192,192,71708,1,0,0:0:0:0:
320,192,71708,1,0,0:0:0:0:
448,192,71808,1,0,0:0:0:0:
64,192,71808,1,0,0:0:0:0:
192,192,71908,1,0,0:0:0:0:
320,192,71908,1,0,0:0:0:0:
64,192,72008,1,0,0:0:0:0:
192,192,72108,1,0,0:0:0:0:
448,192,72108,1,0,0:0:0:0:
320,192,72208,1,0,0:0:0:0:
448,192,72208,1,0,0:0:0:0:
64,192,72308,1,0,0:0:0:0:
192,192,72308,1,0,0:0:0:0:
64,192,72408,1,0,0:0:0:0:
320,192,72408,1,0,0:0:0:0:
192,192,72508,1,0,0:0:0:0:
320,192,72608,1,0,0:0:0:0:
448,192,72608,1,0,0:0:0:0:
64,192,72708,1,0,0:0:0:0:
192,192,72708,1,0,0:0:0:0:
320,192,72808,1,0,0:0:0:0:
448,192,72808,1,0,0:0:0:0:
64,192,72908,1,0,0:0:0:0:
320,192,72908,1,0,0:0:0:0:
192,192,73008,1,0,0:0:0:0:
320,192,73108,1,0,0:0:0:0:
448,192,73108,1,0,0:0:0:0:
64,192,73208,1,0,0:0:0:0:
192,192,73308,1,0,0:0:0:0:
448,192,73308,1,0,0:0:0:0:
320,192,73408,1,0,0:0:0:0:
192,192,73508,1,0,0:0:0:0:
64,192,73508,1,0,0:0:0:0:
448,192,73608,1,0,0:0:0:0:
320,192,73708,1,0,0:0:0:0:
192,192,73708,1,0,0:0:0:0:
192,192,73808,1,0,0:0:0:0:
448,192,73808,1,0,0:0:0:0:
448,192,73908,1,0,0:0:0:0:
64,192,73908,1,0,0:0:0:0:
64,192,74008,1,0,0:0:0:0:
192,192,74008,1,0,0:0:0:0:
320,192,74008,1,0,0:0:0:0:
448,192,74108,1,0,0:0:0:0:
320,192,74208,1,0,0:0:0:0:
192,192,74208,1,0,0:0:0:0:
64,192,74308,1,0,0:0:0:0:
192,192,74408,1,0,0:0:0:0:
320,192,74408,1,0,0:0:0:0:
448,192,74408,1,0,0:0:0:0:
64,192,74508,1,0,0:0:0:0:
192,192,74608,1,0,0:0:0:0:
448,192,74608,1,0,0:0:0:0:
320,192,74708,1,0,0:0:0:0:
448,192,74708,1,0,0:0:0:0:
192,192,74808,1,0,0:0:0:0:
64,192,74808,1,0,0:0:0:0:
320,192,74908,1,0,0:0:0:0:
448,192,74908,1,0,0:0:0:0:
320,192,75008,1,0,0:0:0:0:
64,192,75008,1,0,0:0:0:0:
192,192,75108,1,0,0:0:0:0:
64,192,75208,1,0,0:0:0:0:
320,192,75208,1,0,0:0:0:0:
448,192,75208,1,0,0:0:0:0:
192,192,75308,1,0,0:0:0:0:
320,192,75408,1,0,0:0:0:0:
448,192,75408,1,0,0:0:0:0:
64,192,75508,1,0,0:0:0:0:
320,192,75608,1,0,0:0:0:0:
192,192,75608,1,0,0:0:0:0:
448,192,75608,1,0,0:0:0:0:
64,192,75708,1,0,0:0:0:0:
192,192,75808,1,0,0:0:0:0:
448,192,75808,1,0,0:0:0:0:
320,192,75908,1,0,0:0:0:0:
192,192,76008,1,0,0:0:0:0:
64,192,76008,1,0,0:0:0:0:
448,192,76008,1,0,0:0:0:0:
320,192,76108,1,0,0:0:0:0:
448,192,76208,1,0,0:0:0:0:
64,192,76208,1,0,0:0:0:0:
192,192,76308,1,0,0:0:0:0:
64,192,76408,1,0,0:0:0:0:
320,192,76408,1,0,0:0:0:0:
448,192,76408,1,0,0:0:0:0:
192,192,76508,1,0,0:0:0:0:
320,192,76608,1,0,0:0:0:0:
448,192,76608,1,0,0:0:0:0:
64,192,76708,1,0,0:0:0:0:
192,192,76808,1,0,0:0:0:0:
320,192,76808,1,0,0:0:0:0:
448,192,76808,1,0,0:0:0:0:
64,192,76908,1,0,0:0:0:0:
448,192,76908,128,0,77008:0:0:0:0:
320,192,76958,1,0,0:0:0:0:
192,192,77008,128,0,77108:0:0:0:0:
64,192,77058,1,0,0:0:0:0:
320,192,77108,128,0,77208:0:0:0:0:
192,192,77158,1,0,0:0:0:0:
64,192,77208,1,0,0:0:0:0:
448,192,77208,1,0,0:0:0:0:
320,192,77258,1,0,0:0:0:0:
192,192,77308,1,0,0:0:0:0:
64,192,77358,1,0,0:0:0:0:
320,192,77408,1,0,0:0:0:0:
448,192,77408,1,0,0:0:0:0:
192,192,77608,1,0,0:0:0:0:
320,192,77608,1,0,0:0:0:0:
192,192,77708,1,0,0:0:0:0:
448,192,77708,1,0,0:0:0:0:
64,192,77908,1,0,0:0:0:0:
192,192,77908,1,0,0:0:0:0:
320,192,78108,1,0,0:0:0:0:
448,192,78108,1,0,0:0:0:0:
192,192,78208,1,0,0:0:0:0:
64,192,78208,1,0,0:0:0:0:
320,192,78408,128,0,78808:0:0:0:0:
448,192,78608,1,0,0:0:0:0:
192,192,78708,1,0,0:0:0:0:
64,192,78808,1,0,0:0:0:0:
448,192,78808,1,0,0:0:0:0:
192,192,79008,1,0,0:0:0:0:
320,192,79008,1,0,0:0:0:0:
64,192,79208,1,0,0:0:0:0:
192,192,79208,1,0,0:0:0:0:
192,192,79308,1,0,0:0:0:0:
448,192,79308,1,0,0:0:0:0:
192,192,79508,1,0,0:0:0:0:
320,192,79508,1,0,0:0:0:0:
320,192,79708,1,0,0:0:0:0:
448,192,79708,1,0,0:0:0:0:
192,192,79808,1,0,0:0:0:0:
64,192,79808,1,0,0:0:0:0:
448,192,80008,128,0,80408:0:0:0:0:
192,192,80208,1,0,0:0:0:0:
64,192,80308,1,0,0:0:0:0:
192,192,80408,1,0,0:0:0:0:
320,192,80408,128,0,80508:0:0:0:0:
320,192,80608,1,0,0:0:0:0:
64,192,80608,128,0,80808:0:0:0:0:
192,192,80808,128,0,81108:0:0:0:0:
448,192,81008,128,0,81408:0:0:0:0:
64,192,81208,128,0,81808:0:0:0:0:
448,192,82008,1,0,0:0:0:0:
320,192,82058,1,0,0:0:0:0:
192,192,82108,1,0,0:0:0:0:
64,192,82158,1,0,0:0:0:0:
320,192,82208,1,0,0:0:0:0:
192,192,82258,1,0,0:0:0:0:
64,192,82308,1,0,0:0:0:0:
192,192,82358,1,0,0:0:0:0:
320,192,82408,1,0,0:0:0:0:
448,192,82458,1,0,0:0:0:0:
192,192,82508,1,0,0:0:0:0:
320,192,82558,1,0,0:0:0:0:
448,192,82608,1,0,0:0:0:0:
320,192,82658,1,0,0:0:0:0:
192,192,82708,1,0,0:0:0:0:
64,192,82758,1,0,0:0:0:0:
192,192,82808,1,0,0:0:0:0:
320,192,82858,1,0,0:0:0:0:
64,192,82908,1,0,0:0:0:0:
192,192,82958,1,0,0:0:0:0:
320,192,83008,1,0,0:0:0:0:
448,192,83058,1,0,0:0:0:0:
320,192,83108,1,0,0:0:0:0:
192,192,83158,1,0,0:0:0:0:
448,192,83208,1,0,0:0:0:0:
320,192,83258,1,0,0:0:0:0:
192,192,83308,1,0,0:0:0:0:
320,192,83358,1,0,0:0:0:0:
448,192,83408,1,0,0:0:0:0:
64,192,83408,1,0,0:0:0:0:
192,192,83458,1,0,0:0:0:0:
320,192,83508,1,0,0:0:0:0:
448,192,83558,1,0,0:0:0:0:
64,192,83608,1,0,0:0:0:0:
192,192,83608,1,0,0:0:0:0:
320,192,83908,1,0,0:0:0:0:
448,192,83908,1,0,0:0:0:0:
192,192,84008,1,0,0:0:0:0:
64,192,84008,1,0,0:0:0:0:
320,192,84208,1,0,0:0:0:0:
448,192,84208,1,0,0:0:0:0:
192,192,84308,1,0,0:0:0:0:
64,192,84308,1,0,0:0:0:0:
320,192,84408,1,0,0:0:0:0:
448,192,84408,1,0,0:0:0:0:
64,192,84608,128,0,84708:0:0:0:0:
448,192,84608,1,0,0:0:0:0:
320,192,84708,1,0,0:0:0:0:
192,192,84708,1,0,0:0:0:0:
448,192,84808,128,0,85008:0:0:0:0:
64,192,84808,1,0,0:0:0:0:
320,192,85008,128,0,85208:0:0:0:0:
192,192,85008,1,0,0:0:0:0:
448,192,85108,1,0,0:0:0:0:
192,192,85208,1,0,0:0:0:0:
64,192,85208,1,0,0:0:0:0:
448,192,85408,1,0,0:0:0:0:
192,192,85408,1,0,0:0:0:0:
64,192,85508,1,0,0:0:0:0:
192,192,85608,1,0,0:0:0:0:
448,192,85608,1,0,0:0:0:0:
320,192,85608,128,0,85808:0:0:0:0:
64,192,85808,1,0,0:0:0:0:
448,192,85808,1,0,0:0:0:0:
192,192,85808,128,0,86008:0:0:0:0:
320,192,86008,1,0,0:0:0:0:
448,192,86008,1,0,0:0:0:0:
64,192,86108,1,0,0:0:0:0:
448,192,86208,128,0,86408:0:0:0:0:
64,192,86308,1,0,0:0:0:0:
192,192,86308,1,0,0:0:0:0:
320,192,86408,128,0,86608:0:0:0:0:
64,192,86608,1,0,0:0:0:0:
192,192,86608,1,0,0:0:0:0:
448,192,86708,128,0,86808:0:0:0:0:
192,192,86808,1,0,0:0:0:0:
320,192,86808,1,0,0:0:0:0:
320,192,87008,1,0,0:0:0:0:
64,192,87008,128,0,87108:0:0:0:0:
192,192,87108,128,0,87208:0:0:0:0:
320,192,87208,1,0,0:0:0:0:
448,192,87208,128,0,87408:0:0:0:0:
320,192,87408,1,0,0:0:0:0:
64,192,87408,128,0,87608:0:0:0:0:
192,192,87608,1,0,0:0:0:0:
448,192,87608,1,0,0:0:0:0:
320,192,87608,128,0,87708:0:0:0:0:
64,192,87808,1,0,0:0:0:0:
192,192,87808,128,0,87908:0:0:0:0:
320,192,87908,1,0,0:0:0:0:
448,192,87908,1,0,0:0:0:0:
64,192,88008,128,0,88108:0:0:0:0:
64,192,88208,128,0,88308:0:0:0:0:
192,192,88308,128,0,88408:0:0:0:0:
320,192,88408,1,0,0:0:0:0:
448,192,88408,1,0,0:0:0:0:
64,192,88608,1,0,0:0:0:0:
320,192,88708,1,0,0:0:0:0:
448,192,88708,1,0,0:0:0:0:
64,192,88908,1,0,0:0:0:0:
192,192,88908,1,0,0:0:0:0:
320,192,89008,1,0,0:0:0:0:
448,192,89008,1,0,0:0:0:0:
448,192,89108,1,0,0:0:0:0:
448,192,89208,1,0,0:0:0:0:
64,192,89208,1,0,0:0:0:0:
192,192,89208,128,0,89408:0:0:0:0:
320,192,89408,128,0,89608:0:0:0:0:
448,192,89408,1,0,0:0:0:0:
64,192,89608,1,0,0:0:0:0:
192,192,89708,128,0,89908:0:0:0:0:
320,192,89808,1,0,0:0:0:0:
448,192,89808,1,0,0:0:0:0:
64,192,89908,1,0,0:0:0:0:
192,192,90008,1,0,0:0:0:0:
320,192,90008,1,0,0:0:0:0:
448,192,90008,1,0,0:0:0:0:
64,192,90208,1,0,0:0:0:0:
320,192,90208,1,0,0:0:0:0:
448,192,90208,128,0,90408:0:0:0:0:
192,192,90308,1,0,0:0:0:0:
320,192,90408,128,0,90508:0:0:0:0:
64,192,90408,1,0,0:0:0:0:
192,192,90608,1,0,0:0:0:0:
64,192,90608,1,0,0:0:0:0:
448,192,90708,128,0,90808:0:0:0:0:
320,192,90808,1,0,0:0:0:0:
192,192,90808,1,0,0:0:0:0:
64,192,90808,1,0,0:0:0:0:
448,192,90908,128,0,91008:0:0:0:0:
64,192,91008,1,0,0:0:0:0:
192,192,91008,1,0,0:0:0:0:
320,192,91108,1,0,0:0:0:0:
192,192,91208,1,0,0:0:0:0:
64,192,91208,128,0,91408:0:0:0:0:
448,192,91208,128,0,91408:0:0:0:0:
192,192,91408,128,0,91608:0:0:0:0:
320,192,91408,1,0,0:0:0:0:
64,192,91608,1,0,0:0:0:0:
448,192,91608,1,0,0:0:0:0:
320,192,91608,128,0,91808:0:0:0:0:
192,192,91808,1,0,0:0:0:0:
320,192,91908,1,0,0:0:0:0:
64,192,91908,1,0,0:0:0:0:
320,192,92008,1,0,0:0:0:0:
192,192,92008,1,0,0:0:0:0:
320,192,92108,1,0,0:0:0:0:
320,192,92208,1,0,0:0:0:0:
192,192,92208,1,0,0:0:0:0:
448,192,92308,128,0,92408:0:0:0:0:
64,192,92408,1,0,0:0:0:0:
192,192,92408,1,0,0:0:0:0:
320,192,92508,128,0,92608:0:0:0:0:
64,192,92708,1,0,0:0:0:0:
192,192,92708,128,0,92808:0:0:0:0:
448,192,92808,1,0,0:0:0:0:
320,192,92808,128,0,92908:0:0:0:0:
64,192,92908,128,0,93008:0:0:0:0:
192,192,93008,1,0,0:0:0:0:
320,192,93008,1,0,0:0:0:0:
448,192,93008,128,0,93108:0:0:0:0:
64,192,93208,128,0,93408:0:0:0:0:
192,192,93208,1,0,0:0:0:0:
448,192,93408,128,0,93608:0:0:0:0:
320,192,93408,1,0,0:0:0:0:
192,192,93508,1,0,0:0:0:0:
64,192,93608,1,0,0:0:0:0:
320,192,93608,1,0,0:0:0:0:
320,192,93808,1,0,0:0:0:0:
448,192,93808,1,0,0:0:0:0:
192,192,93908,1,0,0:0:0:0:
64,192,93908,1,0,0:0:0:0:
320,192,94008,1,0,0:0:0:0:
448,192,94008,1,0,0:0:0:0:
64,192,94074,1,0,0:0:0:0:
192,192,94141,1,0,0:0:0:0:
64,192,94208,128,0,94408:0:0:0:0:
320,192,94208,1,0,0:0:0:0:
448,192,94208,1,0,0:0:0:0:
192,192,94408,128,0,94608:0:0:0:0:
320,192,94408,1,0,0:0:0:0:
448,192,94408,1,0,0:0:0:0:
64,192,94608,1,0,0:0:0:0:
320,192,94608,1,0,0:0:0:0:
448,192,94608,1,0,0:0:0:0:
192,192,94708,1,0,0:0:0:0:
64,192,94808,1,0,0:0:0:0:
320,192,94808,1,0,0:0:0:0:
448,192,94808,1,0,0:0:0:0:
448,192,95108,128,0,95208:0:0:0:0:
64,192,95308,128,0,95408:0:0:0:0:
448,192,95508,128,0,95608:0:0:0:0:
192,192,95708,1,0,0:0:0:0:
320,192,95708,1,0,0:0:0:0:
64,192,95708,1,0,0:0:0:0:
448,192,95908,1,0,0:0:0:0:
320,192,95958,1,0,0:0:0:0:
192,192,96008,1,0,0:0:0:0:
64,192,96008,1,0,0:0:0:0:
448,192,96141,1,0,0:0:0:0:
320,192,96141,1,0,0:0:0:0:
192,192,96141,1,0,0:0:0:0:
320,192,96274,1,0,0:0:0:0:
64,192,96274,1,0,0:0:0:0:
192,192,96274,1,0,0:0:0:0:
320,192,96408,1,0,0:0:0:0:
448,192,96408,1,0,0:0:0:0:
64,192,96408,1,0,0:0:0:0:
448,192,96508,1,0,0:0:0:0:
448,192,96608,128,0,96808:0:0:0:0:
192,192,96808,1,0,0:0:0:0:
192,192,96908,1,0,0:0:0:0:
192,192,97008,128,0,97208:0:0:0:0:
320,192,97208,1,0,0:0:0:0:
320,192,97308,1,0,0:0:0:0:
320,192,97408,128,0,97608:0:0:0:0:
192,192,97458,1,0,0:0:0:0:
64,192,97508,1,0,0:0:0:0:
448,192,97558,1,0,0:0:0:0:
192,192,97608,1,0,0:0:0:0:
192,192,97708,1,0,0:0:0:0:
320,192,97808,1,0,0:0:0:0:
320,192,97908,1,0,0:0:0:0:
64,192,98008,128,0,98408:0:0:0:0:
192,192,98008,1,0,0:0:0:0:
320,192,98008,1,0,0:0:0:0:
192,192,98208,1,0,0:0:0:0:
448,192,98208,1,0,0:0:0:0:
320,192,98408,1,0,0:0:0:0:
448,192,98408,1,0,0:0:0:0:
64,192,98608,1,0,0:0:0:0:
448,192,98608,1,0,0:0:0:0:
320,192,98708,1,0,0:0:0:0:
64,192,98808,1,0,0:0:0:0:
448,192,98808,1,0,0:0:0:0:
64,192,99008,1,0,0:0:0:0:
320,192,99008,1,0,0:0:0:0:
192,192,99108,1,0,0:0:0:0:
448,192,99208,128,0,99408:0:0:0:0:
64,192,99608,1,0,0:0:0:0:
192,192,99608,1,0,0:0:0:0:
320,192,99608,1,0,0:0:0:0:
448,192,99708,1,0,0:0:0:0:
192,192,99808,1,0,0:0:0:0:
64,192,99808,1,0,0:0:0:0:
320,192,99908,1,0,0:0:0:0:
192,192,100008,1,0,0:0:0:0:
448,192,100008,1,0,0:0:0:0:
64,192,100108,1,0,0:0:0:0:
448,192,100108,1,0,0:0:0:0:
192,192,100208,1,0,0:0:0:0:
320,192,100308,1,0,0:0:0:0:
448,192,100308,1,0,0:0:0:0:
64,192,100408,1,0,0:0:0:0:
192,192,100508,1,0,0:0:0:0:
320,192,100508,1,0,0:0:0:0:
448,192,100608,1,0,0:0:0:0:
64,192,100708,1,0,0:0:0:0:
320,192,100708,1,0,0:0:0:0:
192,192,100808,1,0,0:0:0:0:
448,192,100808,1,0,0:0:0:0:
64,192,100908,1,0,0:0:0:0:
448,192,100908,1,0,0:0:0:0:
192,192,101008,1,0,0:0:0:0:
320,192,101008,1,0,0:0:0:0:
320,192,101108,1,0,0:0:0:0:
192,192,101208,1,0,0:0:0:0:
448,192,101208,1,0,0:0:0:0:
64,192,101208,1,0,0:0:0:0:
320,192,101308,1,0,0:0:0:0:
64,192,101408,1,0,0:0:0:0:
192,192,101408,1,0,0:0:0:0:
448,192,101508,1,0,0:0:0:0:
64,192,101608,1,0,0:0:0:0:
320,192,101608,1,0,0:0:0:0:
192,192,101708,1,0,0:0:0:0:
320,192,101708,1,0,0:0:0:0:
64,192,101808,1,0,0:0:0:0:
320,192,101908,1,0,0:0:0:0:
448,192,101908,1,0,0:0:0:0:
64,192,102008,1,0,0:0:0:0:
192,192,102108,1,0,0:0:0:0:
320,192,102108,1,0,0:0:0:0:
448,192,102208,1,0,0:0:0:0:
192,192,102308,1,0,0:0:0:0:
64,192,102308,1,0,0:0:0:0:
320,192,102408,1,0,0:0:0:0:
64,192,102508,1,0,0:0:0:0:
448,192,102508,1,0,0:0:0:0:
64,192,102608,1,0,0:0:0:0:
192,192,102608,1,0,0:0:0:0:
320,192,102708,1,0,0:0:0:0:
448,192,102708,1,0,0:0:0:0:
64,192,102808,1,0,0:0:0:0:
320,192,102808,1,0,0:0:0:0:
192,192,102808,1,0,0:0:0:0:
448,192,102908,1,0,0:0:0:0:
320,192,103008,1,0,0:0:0:0:
192,192,103008,1,0,0:0:0:0:
64,192,103108,1,0,0:0:0:0:
192,192,103208,1,0,0:0:0:0:
320,192,103208,1,0,0:0:0:0:
448,192,103308,1,0,0:0:0:0:
64,192,103408,1,0,0:0:0:0:
320,192,103408,1,0,0:0:0:0:
192,192,103508,1,0,0:0:0:0:
320,192,103508,1,0,0:0:0:0:
64,192,103608,1,0,0:0:0:0:
448,192,103708,1,0,0:0:0:0:
320,192,103708,1,0,0:0:0:0:
64,192,103808,1,0,0:0:0:0:
320,192,103808,1,0,0:0:0:0:
64,192,103908,1,0,0:0:0:0:
192,192,103908,1,0,0:0:0:0:
448,192,104008,1,0,0:0:0:0:
320,192,104108,1,0,0:0:0:0:
64,192,104108,1,0,0:0:0:0:
192,192,104208,1,0,0:0:0:0:
320,192,104208,1,0,0:0:0:0:
64,192,104308,1,0,0:0:0:0:
64,192,104408,1,0,0:0:0:0:
320,192,104408,1,0,0:0:0:0:
448,192,104408,1,0,0:0:0:0:
192,192,104508,1,0,0:0:0:0:
320,192,104608,1,0,0:0:0:0:
64,192,104608,1,0,0:0:0:0:
320,192,104708,1,0,0:0:0:0:
448,192,104708,1,0,0:0:0:0:
192,192,104808,1,0,0:0:0:0:
64,192,104908,1,0,0:0:0:0:
320,192,104908,1,0,0:0:0:0:
448,192,104908,1,0,0:0:0:0:
192,192,105008,1,0,0:0:0:0:
448,192,105008,1,0,0:0:0:0:
64,192,105108,1,0,0:0:0:0:
448,192,105108,1,0,0:0:0:0:
192,192,105208,1,0,0:0:0:0:
320,192,105308,1,0,0:0:0:0:
448,192,105308,1,0,0:0:0:0:
64,192,105408,1,0,0:0:0:0:
320,192,105408,1,0,0:0:0:0:
192,192,105508,1,0,0:0:0:0:
448,192,105508,1,0,0:0:0:0:
320,192,105608,1,0,0:0:0:0:
192,192,105674,1,0,0:0:0:0:
448,192,105674,1,0,0:0:0:0:
320,192,105741,1,0,0:0:0:0:
64,192,105741,1,0,0:0:0:0:
192,192,105808,1,0,0:0:0:0:
64,192,105908,1,0,0:0:0:0:
448,192,105908,1,0,0:0:0:0:
192,192,106008,1,0,0:0:0:0:
320,192,106008,1,0,0:0:0:0:
448,192,106008,1,0,0:0:0:0:
64,192,106108,1,0,0:0:0:0:
320,192,106208,1,0,0:0:0:0:
448,192,106208,1,0,0:0:0:0:
192,192,106308,1,0,0:0:0:0:
64,192,106408,1,0,0:0:0:0:
320,192,106408,1,0,0:0:0:0:
448,192,106408,1,0,0:0:0:0:
192,192,106508,1,0,0:0:0:0:
320,192,106508,1,0,0:0:0:0:
448,192,106608,1,0,0:0:0:0:
192,192,106708,1,0,0:0:0:0:
64,192,106708,1,0,0:0:0:0:
448,192,106808,1,0,0:0:0:0:
320,192,106808,1,0,0:0:0:0:
64,192,106908,1,0,0:0:0:0:
192,192,106908,1,0,0:0:0:0:
448,192,107008,1,0,0:0:0:0:
320,192,107108,1,0,0:0:0:0:
192,192,107108,1,0,0:0:0:0:
64,192,107208,1,0,0:0:0:0:
448,192,107208,1,0,0:0:0:0:
192,192,107308,1,0,0:0:0:0:
320,192,107308,1,0,0:0:0:0:
320,192,107408,1,0,0:0:0:0:
64,192,107408,1,0,0:0:0:0:
192,192,107508,1,0,0:0:0:0:
448,192,107508,1,0,0:0:0:0:
320,192,107608,1,0,0:0:0:0:
448,192,107608,1,0,0:0:0:0:
64,192,107608,1,0,0:0:0:0:
192,192,107708,1,0,0:0:0:0:
320,192,107808,1,0,0:0:0:0:
448,192,107808,1,0,0:0:0:0:
64,192,107908,1,0,0:0:0:0:
192,192,108008,1,0,0:0:0:0:
320,192,108008,1,0,0:0:0:0:
448,192,108008,1,0,0:0:0:0:
64,192,108108,1,0,0:0:0:0:
192,192,108108,1,0,0:0:0:0:
448,192,108208,1,0,0:0:0:0:
320,192,108308,1,0,0:0:0:0:
192,192,108308,1,0,0:0:0:0:
64,192,108408,1,0,0:0:0:0:
448,192,108408,1,0,0:0:0:0:
320,192,108508,1,0,0:0:0:0:
192,192,108508,1,0,0:0:0:0:
448,192,108608,1,0,0:0:0:0:
64,192,108708,1,0,0:0:0:0:
192,192,108708,1,0,0:0:0:0:
320,192,108808,1,0,0:0:0:0:
448,192,108808,1,0,0:0:0:0:
192,192,108908,1,0,0:0:0:0:
64,192,108908,1,0,0:0:0:0:
320,192,109008,1,0,0:0:0:0:
64,192,109008,1,0,0:0:0:0:
192,192,109108,1,0,0:0:0:0:
448,192,109108,1,0,0:0:0:0:
64,192,109208,1,0,0:0:0:0:
320,192,109208,1,0,0:0:0:0:
448,192,109208,1,0,0:0:0:0:
192,192,109408,1,0,0:0:0:0:
320,192,109408,1,0,0:0:0:0:
64,192,109608,1,0,0:0:0:0:
320,192,109608,1,0,0:0:0:0:
320,192,109808,1,0,0:0:0:0:
448,192,109808,1,0,0:0:0:0:
192,192,109908,1,0,0:0:0:0:
64,192,109908,1,0,0:0:0:0:
64,192,110108,1,0,0:0:0:0:
320,192,110108,1,0,0:0:0:0:
192,192,110208,1,0,0:0:0:0:
448,192,110208,1,0,0:0:0:0:
320,192,110408,1,0,0:0:0:0:
448,192,110408,1,0,0:0:0:0:
64,192,110608,1,0,0:0:0:0:
320,192,110608,1,0,0:0:0:0:
192,192,110808,1,0,0:0:0:0:
320,192,110808,1,0,0:0:0:0:
448,192,110808,1,0,0:0:0:0:
192,192,111008,1,0,0:0:0:0:
64,192,111108,1,0,0:0:0:0:
320,192,111108,1,0,0:0:0:0:
448,192,111108,1,0,0:0:0:0:
448,192,111308,1,0,0:0:0:0:
320,192,111408,1,0,0:0:0:0:
192,192,111408,1,0,0:0:0:0:
64,192,111408,1,0,0:0:0:0:
448,192,111608,1,0,0:0:0:0:
320,192,111658,1,0,0:0:0:0:
192,192,111708,1,0,0:0:0:0:
64,192,111708,1,0,0:0:0:0:
448,192,111708,1,0,0:0:0:0:
64,192,111908,1,0,0:0:0:0:
192,192,111908,1,0,0:0:0:0:
320,192,111908,1,0,0:0:0:0:
320,192,112108,1,0,0:0:0:0:
448,192,112108,1,0,0:0:0:0:
192,192,112208,1,0,0:0:0:0:
64,192,112308,1,0,0:0:0:0:
320,192,112308,1,0,0:0:0:0:
448,192,112308,1,0,0:0:0:0:
