osu file format v14

[General]
AudioFilename: Shoot through the Galaxy, Final Master Spark !!!.mp3
AudioLeadIn: 0
PreviewTime: 100897
Countdown: 0
SampleSet: None
StackLeniency: 0.7
Mode: 3
LetterboxInBreaks: 0
SpecialStyle: 0
WidescreenStoryboard: 1

[Editor]
Bookmarks: 54360
DistanceSpacing: 1
BeatDivisor: 4
GridSize: 8
TimelineZoom: 2.3

[Metadata]
Title:Nixo's JumpStream MiniPack 1
TitleUnicode:Nixo's JumpStream MiniPack 1
Artist:Various artists
ArtistUnicode:Various artists
Creator:Nixo
Version:Shoot Through the Galaxy, Final Master Spark !!!
Source:
Tags:NixoNS stepmania jumpstream pack
BeatmapID:869821
BeatmapSetID:399642

[Difficulty]
HPDrainRate:8
CircleSize:4
OverallDifficulty:7
ApproachRate:5
SliderMultiplier:1.4
SliderTickRate:1

[Events]
//Background and Video events
0,0,"shoot through bg.png",0,0
//Break Periods
//Storyboard Layer 0 (Background)
//Storyboard Layer 1 (Fail)
//Storyboard Layer 2 (Pass)
//Storyboard Layer 3 (Foreground)
//Storyboard Sound Samples

[TimingPoints]
126,292.682926829268,4,3,0,25,1,0

[HitObjects]
448,192,126,5,0,0:0:0:0:
320,192,272,1,8,0:0:0:0:
320,192,418,1,8,0:0:0:0:
64,192,565,1,0,0:0:0:0:
192,192,711,1,8,0:0:0:0:
192,192,857,1,8,0:0:0:0:
448,192,1004,1,0,0:0:0:0:
320,192,1150,1,0,0:0:0:0:
64,192,1296,1,0,0:0:0:0:
320,192,1443,1,8,0:0:0:0:
320,192,1589,1,8,0:0:0:0:
448,192,1735,1,0,0:0:0:0:
192,192,1882,1,8,0:0:0:0:
192,192,2028,1,8,0:0:0:0:
448,192,2174,1,0,0:0:0:0:
192,192,2321,1,0,0:0:0:0:
320,192,2467,1,0,0:0:0:0:
64,192,2613,1,8,0:0:0:0:
64,192,2760,1,8,0:0:0:0:
192,192,2906,1,0,0:0:0:0:
448,192,3052,1,8,0:0:0:0:
448,192,3199,1,8,0:0:0:0:
192,192,3345,1,0,0:0:0:0:
64,192,3491,1,0,0:0:0:0:
320,192,3638,1,0,0:0:0:0:
192,192,3784,1,8,0:0:0:0:
192,192,3930,1,8,0:0:0:0:
448,192,4077,1,0,0:0:0:0:
320,192,4223,1,8,0:0:0:0:
320,192,4369,1,8,0:0:0:0:
192,192,4516,1,0,0:0:0:0:
448,192,4662,1,0,0:0:0:0:
320,192,4808,1,0,0:0:0:0:
64,192,4955,1,8,0:0:0:0:
64,192,5101,1,8,0:0:0:0:
448,192,5247,1,0,0:0:0:0:
192,192,5394,1,8,0:0:0:0:
192,192,5540,1,8,0:0:0:0:
320,192,5686,1,0,0:0:0:0:
64,192,5833,1,0,0:0:0:0:
448,192,5979,1,0,0:0:0:0:
192,192,6125,1,8,0:0:0:0:
192,192,6272,1,8,0:0:0:0:
320,192,6418,1,0,0:0:0:0:
64,192,6565,1,8,0:0:0:0:
64,192,6711,1,8,0:0:0:0:
320,192,6857,1,0,0:0:0:0:
64,192,7004,1,0,0:0:0:0:
320,192,7150,1,0,0:0:0:0:
448,192,7296,1,8,0:0:0:0:
448,192,7443,1,8,0:0:0:0:
192,192,7589,1,0,0:0:0:0:
320,192,7735,1,8,0:0:0:0:
320,192,7882,1,8,0:0:0:0:
64,192,8028,1,0,0:0:0:0:
448,192,8174,1,0,0:0:0:0:
192,192,8321,1,0,0:0:0:0:
448,192,8467,1,8,0:0:0:0:
448,192,8613,1,8,0:0:0:0:
64,192,8760,1,0,0:0:0:0:
320,192,8906,1,8,0:0:0:0:
320,192,9052,1,8,0:0:0:0:
192,192,9199,1,0,0:0:0:0:
64,192,9345,1,0,0:0:0:0:
448,192,9491,1,0,0:0:0:0:
320,192,9638,1,8,0:0:0:0:
192,192,9784,1,8,0:0:0:0:
448,192,9930,1,0,0:0:0:0:
320,192,10077,1,8,0:0:0:0:
192,192,10223,1,8,0:0:0:0:
448,192,10369,1,0,0:0:0:0:
320,192,10516,1,0,0:0:0:0:
64,192,10662,1,0,0:0:0:0:
192,192,10808,1,8,0:0:0:0:
320,192,10955,1,8,0:0:0:0:
64,192,11101,1,0,0:0:0:0:
192,192,11247,1,8,0:0:0:0:
320,192,11394,1,8,0:0:0:0:
64,192,11540,1,0,0:0:0:0:
192,192,11686,1,0,0:0:0:0:
448,192,11833,1,0,0:0:0:0:
320,192,11979,1,8,0:0:0:0:
64,192,12125,1,8,0:0:0:0:
448,192,12272,1,0,0:0:0:0:
320,192,12418,1,8,0:0:0:0:
64,192,12565,1,8,0:0:0:0:
448,192,12711,1,0,0:0:0:0:
320,192,12857,1,0,0:0:0:0:
64,192,13004,1,0,0:0:0:0:
192,192,13150,1,8,0:0:0:0:
448,192,13296,1,8,0:0:0:0:
64,192,13443,1,0,0:0:0:0:
192,192,13589,1,8,0:0:0:0:
448,192,13735,1,8,0:0:0:0:
64,192,13882,1,0,0:0:0:0:
192,192,14028,1,0,0:0:0:0:
448,192,14174,1,0,0:0:0:0:
192,192,14321,1,8,0:0:0:0:
320,192,14467,1,8,0:0:0:0:
64,192,14613,1,0,0:0:0:0:
320,192,14760,1,8,0:0:0:0:
192,192,14906,1,8,0:0:0:0:
448,192,15052,1,0,0:0:0:0:
64,192,15199,1,0,0:0:0:0:
320,192,15345,1,0,0:0:0:0:
192,192,15491,1,8,0:0:0:0:
448,192,15638,1,8,0:0:0:0:
192,192,15784,1,0,0:0:0:0:
320,192,15930,1,8,0:0:0:0:
64,192,16077,1,8,0:0:0:0:
320,192,16223,1,0,0:0:0:0:
192,192,16369,1,0,0:0:0:0:
448,192,16516,1,0,0:0:0:0:
192,192,16662,1,8,0:0:0:0:
64,192,16808,1,8,0:0:0:0:
448,192,16955,1,0,0:0:0:0:
192,192,17101,1,8,0:0:0:0:
64,192,17247,1,8,0:0:0:0:
448,192,17394,1,0,0:0:0:0:
64,192,17540,1,0,0:0:0:0:
320,192,17686,1,0,0:0:0:0:
192,192,17833,1,8,0:0:0:0:
320,192,17979,1,8,0:0:0:0:
64,192,18125,1,0,0:0:0:0:
192,192,18272,1,8,0:0:0:0:
64,192,18418,1,8,0:0:0:0:
448,192,18565,1,0,0:0:0:0:
320,192,18711,1,8,0:0:0:0:
64,192,18857,1,8,0:0:0:0:
192,192,18857,1,4,0:0:0:0:
448,192,18857,1,4,0:0:0:0:
320,192,19004,1,8,0:0:0:0:
448,192,19077,1,8,0:0:0:0:
320,192,19150,1,0,0:0:0:0:
192,192,19150,1,0,0:0:0:0:
64,192,19150,1,8,0:0:0:0:
192,192,19296,1,0,0:0:0:0:
320,192,19296,1,0,0:0:0:0:
448,192,19296,1,8,0:0:0:0:
64,192,19443,1,0,0:0:0:0:
192,192,19443,1,0,0:0:0:0:
448,192,19443,1,8,0:0:0:0:
192,192,19589,1,0,0:0:0:0:
320,192,19589,1,0,0:0:0:0:
448,192,19589,1,8,0:0:0:0:
64,192,19735,1,0,0:0:0:0:
192,192,19735,1,0,0:0:0:0:
448,192,19735,1,8,0:0:0:0:
64,192,19882,1,0,0:0:0:0:
192,192,19882,1,0,0:0:0:0:
448,192,19882,1,8,0:0:0:0:
192,192,20028,1,0,0:0:0:0:
320,192,20028,1,8,0:0:0:0:
448,192,20028,1,8,0:0:0:0:
320,192,20174,1,8,0:0:0:0:
192,192,20247,1,8,0:0:0:0:
320,192,20321,1,0,0:0:0:0:
64,192,20321,1,8,0:0:0:0:
448,192,20321,1,0,0:0:0:0:
64,192,20467,1,8,0:0:0:0:
192,192,20467,1,0,0:0:0:0:
320,192,20467,1,0,0:0:0:0:
64,192,20613,1,8,0:0:0:0:
320,192,20613,1,0,0:0:0:0:
448,192,20613,1,0,0:0:0:0:
64,192,20760,1,8,0:0:0:0:
192,192,20760,1,0,0:0:0:0:
448,192,20760,1,0,0:0:0:0:
192,192,20906,1,0,0:0:0:0:
320,192,20906,1,0,0:0:0:0:
448,192,20906,1,8,0:0:0:0:
192,192,21052,1,0,0:0:0:0:
320,192,21052,1,0,0:0:0:0:
448,192,21052,1,8,0:0:0:0:
64,192,21199,1,0,0:0:0:0:
192,192,21199,1,8,0:0:0:0:
448,192,21199,1,8,0:0:0:0:
192,192,21345,1,8,0:0:0:0:
320,192,21418,1,8,0:0:0:0:
192,192,21491,1,0,0:0:0:0:
64,192,21491,1,0,0:0:0:0:
448,192,21491,1,8,0:0:0:0:
192,192,21638,1,0,0:0:0:0:
320,192,21638,1,0,0:0:0:0:
448,192,21638,1,8,0:0:0:0:
64,192,21784,1,0,0:0:0:0:
192,192,21784,1,0,0:0:0:0:
448,192,21784,1,8,0:0:0:0:
64,192,21930,1,0,0:0:0:0:
320,192,21930,1,0,0:0:0:0:
448,192,21930,1,8,0:0:0:0:
192,192,22077,1,0,0:0:0:0:
320,192,22077,1,0,0:0:0:0:
448,192,22077,1,8,0:0:0:0:
192,192,22223,1,0,0:0:0:0:
320,192,22223,1,0,0:0:0:0:
448,192,22223,1,8,0:0:0:0:
64,192,22369,1,0,0:0:0:0:
192,192,22369,1,8,0:0:0:0:
448,192,22369,1,8,0:0:0:0:
320,192,22516,1,8,0:0:0:0:
448,192,22589,1,8,0:0:0:0:
320,192,22662,1,8,0:0:0:0:
192,192,22662,1,0,0:0:0:0:
64,192,22662,1,0,0:0:0:0:
192,192,22808,1,0,0:0:0:0:
320,192,22808,1,0,0:0:0:0:
448,192,22808,1,8,0:0:0:0:
64,192,22955,1,0,0:0:0:0:
192,192,22955,1,0,0:0:0:0:
448,192,22955,1,8,0:0:0:0:
64,192,23101,1,0,0:0:0:0:
320,192,23101,1,0,0:0:0:0:
448,192,23101,1,8,0:0:0:0:
64,192,23247,1,8,0:0:0:0:
192,192,23247,1,0,0:0:0:0:
320,192,23247,1,0,0:0:0:0:
64,192,23394,1,8,0:0:0:0:
192,192,23394,1,0,0:0:0:0:
320,192,23394,1,0,0:0:0:0:
64,192,23540,1,8,0:0:0:0:
320,192,23540,1,8,0:0:0:0:
448,192,23540,1,0,0:0:0:0:
192,192,23686,1,8,0:0:0:0:
320,192,23760,1,8,0:0:0:0:
192,192,23833,1,0,0:0:0:0:
64,192,23833,1,0,0:0:0:0:
448,192,23833,1,8,0:0:0:0:
192,192,23979,1,0,0:0:0:0:
320,192,23979,1,0,0:0:0:0:
448,192,23979,1,8,0:0:0:0:
192,192,24125,1,0,0:0:0:0:
64,192,24125,1,0,0:0:0:0:
448,192,24125,1,8,0:0:0:0:
192,192,24272,1,0,0:0:0:0:
320,192,24272,1,0,0:0:0:0:
448,192,24272,1,8,0:0:0:0:
64,192,24418,1,8,0:0:0:0:
192,192,24418,1,0,0:0:0:0:
320,192,24418,1,0,0:0:0:0:
64,192,24565,1,8,0:0:0:0:
192,192,24565,1,0,0:0:0:0:
320,192,24565,1,0,0:0:0:0:
64,192,24711,1,8,0:0:0:0:
320,192,24711,1,8,0:0:0:0:
448,192,24711,1,0,0:0:0:0:
320,192,24857,1,8,0:0:0:0:
448,192,24930,1,8,0:0:0:0:
320,192,25004,1,8,0:0:0:0:
192,192,25004,1,0,0:0:0:0:
64,192,25004,1,0,0:0:0:0:
192,192,25150,1,0,0:0:0:0:
320,192,25150,1,0,0:0:0:0:
448,192,25150,1,8,0:0:0:0:
64,192,25296,1,0,0:0:0:0:
192,192,25296,1,0,0:0:0:0:
448,192,25296,1,8,0:0:0:0:
64,192,25443,1,0,0:0:0:0:
320,192,25443,1,0,0:0:0:0:
448,192,25443,1,8,0:0:0:0:
64,192,25589,1,0,0:0:0:0:
192,192,25589,1,0,0:0:0:0:
448,192,25589,1,8,0:0:0:0:
64,192,25735,1,0,0:0:0:0:
192,192,25735,1,0,0:0:0:0:
448,192,25735,1,8,0:0:0:0:
320,192,25882,1,8,0:0:0:0:
448,192,25882,1,8,0:0:0:0:
192,192,25882,1,0,0:0:0:0:
64,192,26028,1,8,0:0:0:0:
192,192,26101,1,8,0:0:0:0:
64,192,26174,1,8,0:0:0:0:
320,192,26174,1,0,0:0:0:0:
448,192,26174,1,0,0:0:0:0:
64,192,26321,1,8,0:0:0:0:
192,192,26321,1,0,0:0:0:0:
320,192,26321,1,0,0:0:0:0:
64,192,26467,1,8,0:0:0:0:
320,192,26467,1,0,0:0:0:0:
448,192,26467,1,0,0:0:0:0:
64,192,26613,1,8,0:0:0:0:
192,192,26613,1,0,0:0:0:0:
448,192,26613,1,0,0:0:0:0:
192,192,26760,1,0,0:0:0:0:
320,192,26760,1,0,0:0:0:0:
448,192,26760,1,8,0:0:0:0:
192,192,26906,1,0,0:0:0:0:
320,192,26906,1,0,0:0:0:0:
448,192,26906,1,8,0:0:0:0:
64,192,27052,1,0,0:0:0:0:
448,192,27052,1,8,0:0:0:0:
192,192,27052,1,8,0:0:0:0:
320,192,27199,1,8,0:0:0:0:
192,192,27272,1,8,0:0:0:0:
64,192,27345,1,8,0:0:0:0:
320,192,27345,1,0,0:0:0:0:
448,192,27345,1,0,0:0:0:0:
64,192,27491,1,8,0:0:0:0:
192,192,27491,1,0,0:0:0:0:
320,192,27491,1,0,0:0:0:0:
64,192,27638,1,8,0:0:0:0:
320,192,27638,1,0,0:0:0:0:
448,192,27638,1,0,0:0:0:0:
64,192,27784,1,8,0:0:0:0:
192,192,27784,1,0,0:0:0:0:
320,192,27784,1,0,0:0:0:0:
64,192,27930,1,8,0:0:0:0:
192,192,27930,1,0,0:0:0:0:
448,192,27930,1,0,0:0:0:0:
64,192,28077,1,8,0:0:0:0:
192,192,28077,1,0,0:0:0:0:
448,192,28077,1,0,0:0:0:0:
192,192,28223,1,0,0:0:0:0:
320,192,28223,1,0,0:0:0:0:
448,192,28223,1,0,0:0:0:0:
64,192,28223,1,8,0:0:0:0:
320,192,28369,1,8,0:0:0:0:
448,192,28369,1,0,0:0:0:0:
192,192,28443,1,8,0:0:0:0:
320,192,28516,1,8,0:0:0:0:
64,192,28516,1,0,0:0:0:0:
64,192,28662,1,0,0:0:0:0:
192,192,28662,1,0,0:0:0:0:
320,192,28662,1,0,0:0:0:0:
448,192,28662,1,0,0:0:0:0:
64,192,28808,1,8,0:0:0:0:
192,192,28808,1,0,0:0:0:0:
192,192,28955,1,8,0:0:0:0:
448,192,28955,1,0,0:0:0:0:
64,192,29101,1,0,0:0:0:0:
192,192,29101,1,0,0:0:0:0:
320,192,29101,1,0,0:0:0:0:
448,192,29101,1,0,0:0:0:0:
64,192,29247,1,8,0:0:0:0:
320,192,29247,1,0,0:0:0:0:
64,192,29394,1,0,0:0:0:0:
192,192,29394,1,0,0:0:0:0:
320,192,29394,1,0,0:0:0:0:
448,192,29394,1,0,0:0:0:0:
448,192,29540,1,0,0:0:0:0:
64,192,29540,1,8,0:0:0:0:
192,192,29613,1,8,0:0:0:0:
448,192,29686,1,0,0:0:0:0:
320,192,29686,1,8,0:0:0:0:
64,192,29833,1,0,0:0:0:0:
320,192,29833,1,0,0:0:0:0:
192,192,29833,1,0,0:0:0:0:
448,192,29833,1,0,0:0:0:0:
64,192,29979,1,8,0:0:0:0:
320,192,29979,1,0,0:0:0:0:
64,192,30125,1,8,0:0:0:0:
192,192,30125,1,0,0:0:0:0:
64,192,30272,1,0,0:0:0:0:
192,192,30272,1,0,0:0:0:0:
320,192,30272,1,0,0:0:0:0:
448,192,30272,1,0,0:0:0:0:
192,192,30418,1,8,0:0:0:0:
448,192,30418,1,0,0:0:0:0:
64,192,30565,1,0,0:0:0:0:
192,192,30565,1,0,0:0:0:0:
320,192,30565,1,0,0:0:0:0:
448,192,30565,1,0,0:0:0:0:
320,192,30711,1,0,0:0:0:0:
64,192,30711,1,8,0:0:0:0:
192,192,30784,1,8,0:0:0:0:
448,192,30857,1,0,0:0:0:0:
320,192,30857,1,8,0:0:0:0:
64,192,31004,1,0,0:0:0:0:
192,192,31004,1,0,0:0:0:0:
320,192,31004,1,0,0:0:0:0:
448,192,31004,1,0,0:0:0:0:
448,192,31150,1,8,0:0:0:0:
64,192,31150,1,0,0:0:0:0:
320,192,31296,1,0,0:0:0:0:
448,192,31296,1,8,0:0:0:0:
64,192,31443,1,0,0:0:0:0:
192,192,31443,1,0,0:0:0:0:
320,192,31443,1,0,0:0:0:0:
448,192,31443,1,0,0:0:0:0:
64,192,31589,1,8,0:0:0:0:
192,192,31589,1,0,0:0:0:0:
64,192,31735,1,0,0:0:0:0:
192,192,31735,1,0,0:0:0:0:
320,192,31735,1,0,0:0:0:0:
448,192,31735,1,0,0:0:0:0:
192,192,31882,1,8,0:0:0:0:
448,192,31882,1,0,0:0:0:0:
320,192,31955,1,8,0:0:0:0:
448,192,32028,1,8,0:0:0:0:
64,192,32028,1,0,0:0:0:0:
64,192,32174,1,0,0:0:0:0:
192,192,32174,1,0,0:0:0:0:
320,192,32174,1,0,0:0:0:0:
448,192,32174,1,0,0:0:0:0:
64,192,32321,1,8,0:0:0:0:
192,192,32321,1,0,0:0:0:0:
192,192,32467,1,8,0:0:0:0:
448,192,32467,1,0,0:0:0:0:
64,192,32613,1,0,0:0:0:0:
192,192,32613,1,0,0:0:0:0:
320,192,32613,1,0,0:0:0:0:
448,192,32613,1,0,0:0:0:0:
320,192,32760,1,0,0:0:0:0:
64,192,32760,1,8,0:0:0:0:
64,192,32906,1,0,0:0:0:0:
192,192,32906,1,0,0:0:0:0:
320,192,32906,1,0,0:0:0:0:
448,192,32906,1,0,0:0:0:0:
64,192,33052,1,0,0:0:0:0:
192,192,33052,1,8,0:0:0:0:
320,192,33125,1,8,0:0:0:0:
192,192,33199,1,8,0:0:0:0:
448,192,33199,1,0,0:0:0:0:
64,192,33345,1,0,0:0:0:0:
192,192,33345,1,0,0:0:0:0:
320,192,33345,1,0,0:0:0:0:
448,192,33345,1,0,0:0:0:0:
448,192,33491,1,0,0:0:0:0:
192,192,33491,1,8,0:0:0:0:
320,192,33638,1,8,0:0:0:0:
448,192,33638,1,0,0:0:0:0:
64,192,33784,1,0,0:0:0:0:
192,192,33784,1,0,0:0:0:0:
320,192,33784,1,0,0:0:0:0:
448,192,33784,1,0,0:0:0:0:
192,192,33930,1,8,0:0:0:0:
320,192,33930,1,0,0:0:0:0:
64,192,34077,1,0,0:0:0:0:
192,192,34077,1,0,0:0:0:0:
320,192,34077,1,0,0:0:0:0:
448,192,34077,1,0,0:0:0:0:
64,192,34223,1,8,0:0:0:0:
448,192,34223,1,0,0:0:0:0:
192,192,34296,1,8,0:0:0:0:
64,192,34369,1,8,0:0:0:0:
320,192,34369,1,0,0:0:0:0:
64,192,34516,1,0,0:0:0:0:
192,192,34516,1,0,0:0:0:0:
320,192,34516,1,0,0:0:0:0:
448,192,34516,1,0,0:0:0:0:
192,192,34662,1,8,0:0:0:0:
320,192,34662,1,0,0:0:0:0:
320,192,34808,1,0,0:0:0:0:
64,192,34808,1,8,0:0:0:0:
192,192,34955,1,0,0:0:0:0:
64,192,34955,1,0,0:0:0:0:
320,192,34955,1,0,0:0:0:0:
448,192,34955,1,0,0:0:0:0:
192,192,35101,1,8,0:0:0:0:
448,192,35101,1,0,0:0:0:0:
64,192,35247,1,0,0:0:0:0:
192,192,35247,1,0,0:0:0:0:
320,192,35247,1,0,0:0:0:0:
448,192,35247,1,0,0:0:0:0:
320,192,35394,1,8,0:0:0:0:
448,192,35394,1,0,0:0:0:0:
192,192,35467,1,8,0:0:0:0:
64,192,35540,1,8,0:0:0:0:
320,192,35540,1,0,0:0:0:0:
64,192,35686,1,0,0:0:0:0:
192,192,35686,1,0,0:0:0:0:
320,192,35686,1,0,0:0:0:0:
448,192,35686,1,0,0:0:0:0:
192,192,35833,1,8,0:0:0:0:
448,192,35833,1,0,0:0:0:0:
64,192,35979,1,8,0:0:0:0:
192,192,35979,1,0,0:0:0:0:
64,192,36125,1,0,0:0:0:0:
192,192,36125,1,0,0:0:0:0:
320,192,36125,1,0,0:0:0:0:
448,192,36125,1,0,0:0:0:0:
320,192,36272,1,8,0:0:0:0:
448,192,36272,1,0,0:0:0:0:
64,192,36418,1,0,0:0:0:0:
192,192,36418,1,0,0:0:0:0:
320,192,36418,1,0,0:0:0:0:
448,192,36418,1,0,0:0:0:0:
64,192,36565,1,0,0:0:0:0:
320,192,36565,1,8,0:0:0:0:
448,192,36638,1,8,0:0:0:0:
320,192,36711,1,8,0:0:0:0:
192,192,36711,1,0,0:0:0:0:
64,192,36857,1,0,0:0:0:0:
192,192,36857,1,0,0:0:0:0:
320,192,36857,1,0,0:0:0:0:
448,192,36857,1,0,0:0:0:0:
320,192,37004,1,0,0:0:0:0:
448,192,37004,1,8,0:0:0:0:
64,192,37150,1,0,0:0:0:0:
448,192,37150,1,8,0:0:0:0:
64,192,37296,1,0,0:0:0:0:
192,192,37296,1,0,0:0:0:0:
320,192,37296,1,0,0:0:0:0:
448,192,37296,1,0,0:0:0:0:
192,192,37443,1,0,0:0:0:0:
320,192,37443,1,8,0:0:0:0:
320,192,37589,1,8,0:0:0:0:
448,192,37589,1,8,0:0:0:0:
64,192,37589,1,8,0:0:0:0:
192,192,37662,1,8,0:0:0:0:
64,192,37735,1,8,0:0:0:0:
448,192,37735,1,8,0:0:0:0:
320,192,37808,1,8,0:0:0:0:
192,192,37882,1,8,0:0:0:0:
64,192,37882,1,8,0:0:0:0:
320,192,37955,1,8,0:0:0:0:
448,192,38028,1,8,0:0:0:0:
192,192,38028,1,8,0:0:0:0:
320,192,38101,1,8,0:0:0:0:
448,192,38174,1,8,0:0:0:0:
64,192,38174,1,8,0:0:0:0:
192,192,38247,1,8,0:0:0:0:
320,192,38321,1,8,0:0:0:0:
448,192,38321,1,8,0:0:0:0:
64,192,38394,1,8,0:0:0:0:
192,192,38467,1,8,0:0:0:0:
448,192,38467,1,8,0:0:0:0:
320,192,38540,1,8,0:0:0:0:
448,192,38613,1,8,0:0:0:0:
64,192,38613,1,8,0:0:0:0:
192,192,38686,1,8,0:0:0:0:
320,192,38760,1,8,0:0:0:0:
448,192,38760,1,8,0:0:0:0:
64,192,39052,1,0,0:0:0:0:
192,192,39052,1,0,0:0:0:0:
320,192,39052,1,0,0:0:0:0:
64,192,39345,1,0,0:0:0:0:
320,192,39345,1,0,0:0:0:0:
448,192,39345,1,0,0:0:0:0:
64,192,39638,1,0,0:0:0:0:
192,192,39638,1,0,0:0:0:0:
320,192,39638,1,0,0:0:0:0:
448,192,39638,1,0,0:0:0:0:
64,192,39930,1,0,0:0:0:0:
192,192,39930,1,0,0:0:0:0:
448,192,39930,1,8,0:0:0:0:
320,192,40004,1,8,0:0:0:0:
448,192,40077,1,8,0:0:0:0:
64,192,40077,1,8,0:0:0:0:
192,192,40150,1,8,0:0:0:0:
320,192,40223,1,8,0:0:0:0:
448,192,40223,1,8,0:0:0:0:
64,192,40296,1,8,0:0:0:0:
192,192,40369,1,8,0:0:0:0:
448,192,40369,1,8,0:0:0:0:
320,192,40443,1,8,0:0:0:0:
192,192,40516,1,8,0:0:0:0:
64,192,40516,1,8,0:0:0:0:
320,192,40589,1,8,0:0:0:0:
448,192,40662,1,8,0:0:0:0:
192,192,40662,1,8,0:0:0:0:
64,192,40735,1,8,0:0:0:0:
192,192,40808,1,8,0:0:0:0:
320,192,40808,1,8,0:0:0:0:
448,192,40882,1,8,0:0:0:0:
320,192,40955,1,8,0:0:0:0:
64,192,40955,1,8,0:0:0:0:
192,192,41028,1,8,0:0:0:0:
320,192,41101,1,8,0:0:0:0:
448,192,41101,1,8,0:0:0:0:
64,192,41174,1,8,0:0:0:0:
192,192,41247,1,8,0:0:0:0:
448,192,41247,1,8,0:0:0:0:
64,192,41321,1,8,0:0:0:0:
192,192,41394,1,8,0:0:0:0:
320,192,41394,1,8,0:0:0:0:
448,192,41467,1,8,0:0:0:0:
320,192,41540,1,8,0:0:0:0:
64,192,41540,1,8,0:0:0:0:
448,192,41613,1,8,0:0:0:0:
192,192,41686,1,8,0:0:0:0:
64,192,41686,1,8,0:0:0:0:
320,192,41760,1,8,0:0:0:0:
448,192,41833,1,8,0:0:0:0:
64,192,41833,1,8,0:0:0:0:
192,192,41906,1,8,0:0:0:0:
320,192,41979,1,8,0:0:0:0:
448,192,41979,1,8,0:0:0:0:
64,192,42052,1,8,0:0:0:0:
192,192,42125,1,8,0:0:0:0:
448,192,42125,1,8,0:0:0:0:
320,192,42199,1,8,0:0:0:0:
448,192,42272,1,8,0:0:0:0:
64,192,42272,1,0,0:0:0:0:
192,192,42272,1,0,0:0:0:0:
320,192,42345,1,8,0:0:0:0:
448,192,42418,1,8,0:0:0:0:
64,192,42418,1,8,0:0:0:0:
192,192,42491,1,8,0:0:0:0:
320,192,42565,1,8,0:0:0:0:
448,192,42565,1,8,0:0:0:0:
192,192,42638,1,8,0:0:0:0:
64,192,42711,1,8,0:0:0:0:
320,192,42711,1,8,0:0:0:0:
448,192,42784,1,8,0:0:0:0:
320,192,42857,1,8,0:0:0:0:
192,192,42857,1,8,0:0:0:0:
64,192,42930,1,8,0:0:0:0:
448,192,43004,1,8,0:0:0:0:
192,192,43004,1,8,0:0:0:0:
320,192,43077,1,8,0:0:0:0:
192,192,43150,1,8,0:0:0:0:
64,192,43150,1,8,0:0:0:0:
320,192,43223,1,8,0:0:0:0:
448,192,43296,1,8,0:0:0:0:
192,192,43296,1,8,0:0:0:0:
64,192,43369,1,8,0:0:0:0:
320,192,43443,1,8,0:0:0:0:
448,192,43443,1,8,0:0:0:0:
192,192,43516,1,8,0:0:0:0:
64,192,43589,1,8,0:0:0:0:
320,192,43589,1,8,0:0:0:0:
192,192,43662,1,8,0:0:0:0:
320,192,43735,1,8,0:0:0:0:
448,192,43735,1,8,0:0:0:0:
64,192,43808,1,8,0:0:0:0:
192,192,43882,1,8,0:0:0:0:
448,192,43882,1,8,0:0:0:0:
320,192,43955,1,8,0:0:0:0:
192,192,44028,1,8,0:0:0:0:
64,192,44028,1,8,0:0:0:0:
320,192,44101,1,8,0:0:0:0:
448,192,44174,1,8,0:0:0:0:
192,192,44174,1,8,0:0:0:0:
64,192,44247,1,8,0:0:0:0:
320,192,44321,1,8,0:0:0:0:
448,192,44321,1,8,0:0:0:0:
192,192,44394,1,8,0:0:0:0:
64,192,44394,1,8,0:0:0:0:
320,192,44467,1,8,0:0:0:0:
448,192,44467,1,8,0:0:0:0:
192,192,44540,1,8,0:0:0:0:
64,192,44540,1,8,0:0:0:0:
320,192,44613,1,8,0:0:0:0:
448,192,44613,1,8,0:0:0:0:
64,192,44686,1,8,0:0:0:0:
192,192,44760,1,8,0:0:0:0:
448,192,44760,1,8,0:0:0:0:
320,192,44833,1,8,0:0:0:0:
64,192,44906,1,8,0:0:0:0:
448,192,44906,1,8,0:0:0:0:
192,192,44979,1,8,0:0:0:0:
320,192,45052,1,8,0:0:0:0:
448,192,45052,1,8,0:0:0:0:
64,192,45052,1,8,0:0:0:0:
192,192,45125,1,8,0:0:0:0:
320,192,45199,1,8,0:0:0:0:
192,192,45272,1,8,0:0:0:0:
448,192,45345,1,8,0:0:0:0:
64,192,45345,1,8,0:0:0:0:
320,192,45418,1,8,0:0:0:0:
192,192,45491,1,8,0:0:0:0:
448,192,45491,1,8,0:0:0:0:
64,192,45491,1,8,0:0:0:0:
320,192,45565,1,8,0:0:0:0:
448,192,45638,1,8,0:0:0:0:
192,192,45711,1,8,0:0:0:0:
320,192,45784,1,8,0:0:0:0:
64,192,45784,1,8,0:0:0:0:
448,192,45784,1,8,0:0:0:0:
192,192,45857,1,8,0:0:0:0:
320,192,45930,1,8,0:0:0:0:
448,192,46004,1,8,0:0:0:0:
320,192,46077,1,8,0:0:0:0:
64,192,46077,1,8,0:0:0:0:
192,192,46150,1,8,0:0:0:0:
320,192,46223,1,8,0:0:0:0:
64,192,46223,1,8,0:0:0:0:
448,192,46223,1,8,0:0:0:0:
192,192,46296,1,8,0:0:0:0:
64,192,46369,1,8,0:0:0:0:
320,192,46443,1,8,0:0:0:0:
192,192,46516,1,8,0:0:0:0:
448,192,46516,1,8,0:0:0:0:
320,192,46589,1,8,0:0:0:0:
64,192,46662,1,8,0:0:0:0:
192,192,46662,1,8,0:0:0:0:
448,192,46662,1,8,0:0:0:0:
320,192,46735,1,8,0:0:0:0:
64,192,46808,1,8,0:0:0:0:
192,192,46882,1,8,0:0:0:0:
64,192,46955,1,8,0:0:0:0:
320,192,46955,1,2,0:0:0:0:
448,192,46955,1,2,0:0:0:0:
192,192,47028,1,8,0:0:0:0:
320,192,47101,1,8,0:0:0:0:
192,192,47174,1,8,0:0:0:0:
64,192,47247,1,8,0:0:0:0:
448,192,47247,1,8,0:0:0:0:
320,192,47321,1,8,0:0:0:0:
192,192,47394,1,8,0:0:0:0:
320,192,47467,1,8,0:0:0:0:
448,192,47540,1,8,0:0:0:0:
64,192,47540,1,8,0:0:0:0:
192,192,47613,1,8,0:0:0:0:
320,192,47686,1,8,0:0:0:0:
192,192,47760,1,8,0:0:0:0:
64,192,47833,1,8,0:0:0:0:
448,192,47833,1,8,0:0:0:0:
192,192,47906,1,8,0:0:0:0:
64,192,47979,1,8,0:0:0:0:
448,192,47979,1,8,0:0:0:0:
320,192,48052,1,8,0:0:0:0:
448,192,48125,1,8,0:0:0:0:
64,192,48125,1,8,0:0:0:0:
192,192,48199,1,8,0:0:0:0:
320,192,48199,1,8,0:0:0:0:
64,192,48272,1,8,0:0:0:0:
448,192,48272,1,8,0:0:0:0:
192,192,48345,1,8,0:0:0:0:
320,192,48418,1,8,0:0:0:0:
448,192,48418,1,8,0:0:0:0:
192,192,48491,1,8,0:0:0:0:
64,192,48491,1,8,0:0:0:0:
320,192,48565,1,8,0:0:0:0:
448,192,48565,1,8,0:0:0:0:
64,192,48638,1,8,0:0:0:0:
192,192,48711,1,8,0:0:0:0:
320,192,48711,1,8,0:0:0:0:
64,192,48784,1,8,0:0:0:0:
448,192,48784,1,8,0:0:0:0:
192,192,48857,1,8,0:0:0:0:
320,192,48857,1,8,0:0:0:0:
448,192,48930,1,8,0:0:0:0:
64,192,49004,1,8,0:0:0:0:
192,192,49004,1,8,0:0:0:0:
320,192,49077,1,8,0:0:0:0:
448,192,49077,1,8,0:0:0:0:
64,192,49150,1,8,0:0:0:0:
192,192,49150,1,8,0:0:0:0:
320,192,49223,1,8,0:0:0:0:
192,192,49296,1,0,0:0:0:0:
64,192,49296,1,0,0:0:0:0:
448,192,49296,1,8,0:0:0:0:
320,192,49369,1,8,0:0:0:0:
448,192,49443,1,8,0:0:0:0:
64,192,49443,1,8,0:0:0:0:
192,192,49516,1,8,0:0:0:0:
448,192,49589,1,8,0:0:0:0:
320,192,49589,1,8,0:0:0:0:
64,192,49662,1,8,0:0:0:0:
192,192,49735,1,8,0:0:0:0:
448,192,49735,1,8,0:0:0:0:
320,192,49808,1,8,0:0:0:0:
192,192,49882,1,8,0:0:0:0:
64,192,49882,1,8,0:0:0:0:
448,192,49955,1,8,0:0:0:0:
320,192,50028,1,8,0:0:0:0:
64,192,50028,1,8,0:0:0:0:
192,192,50101,1,8,0:0:0:0:
320,192,50174,1,8,0:0:0:0:
448,192,50174,1,8,0:0:0:0:
192,192,50247,1,8,0:0:0:0:
64,192,50321,1,8,0:0:0:0:
320,192,50321,1,8,0:0:0:0:
448,192,50394,1,8,0:0:0:0:
320,192,50467,1,8,0:0:0:0:
192,192,50467,1,8,0:0:0:0:
448,192,50540,1,8,0:0:0:0:
64,192,50613,1,8,0:0:0:0:
320,192,50613,1,8,0:0:0:0:
192,192,50686,1,8,0:0:0:0:
320,192,50760,1,8,0:0:0:0:
448,192,50760,1,8,0:0:0:0:
64,192,50833,1,8,0:0:0:0:
192,192,50906,1,8,0:0:0:0:
448,192,50906,1,8,0:0:0:0:
320,192,50979,1,8,0:0:0:0:
192,192,51052,1,8,0:0:0:0:
64,192,51052,1,8,0:0:0:0:
320,192,51125,1,8,0:0:0:0:
448,192,51199,1,8,0:0:0:0:
64,192,51199,1,8,0:0:0:0:
320,192,51272,1,8,0:0:0:0:
192,192,51345,1,8,0:0:0:0:
64,192,51345,1,8,0:0:0:0:
320,192,51418,1,8,0:0:0:0:
64,192,51491,1,8,0:0:0:0:
448,192,51491,1,8,0:0:0:0:
192,192,51565,1,8,0:0:0:0:
64,192,51638,1,8,0:0:0:0:
320,192,51638,1,0,0:0:0:0:
448,192,51638,1,0,0:0:0:0:
192,192,51711,1,8,0:0:0:0:
64,192,51784,1,8,0:0:0:0:
320,192,51784,1,8,0:0:0:0:
448,192,51857,1,8,0:0:0:0:
192,192,51930,1,8,0:0:0:0:
64,192,51930,1,8,0:0:0:0:
320,192,52004,1,8,0:0:0:0:
192,192,52077,1,8,0:0:0:0:
448,192,52077,1,8,0:0:0:0:
320,192,52150,1,8,0:0:0:0:
192,192,52223,1,8,0:0:0:0:
64,192,52223,1,8,0:0:0:0:
320,192,52296,1,8,0:0:0:0:
448,192,52369,1,8,0:0:0:0:
64,192,52369,1,8,0:0:0:0:
192,192,52443,1,8,0:0:0:0:
320,192,52516,1,8,0:0:0:0:
448,192,52516,1,8,0:0:0:0:
192,192,52589,1,8,0:0:0:0:
64,192,52662,1,8,0:0:0:0:
320,192,52662,1,8,0:0:0:0:
448,192,52735,1,8,0:0:0:0:
320,192,52808,1,8,0:0:0:0:
192,192,52808,1,8,0:0:0:0:
64,192,52882,1,8,0:0:0:0:
448,192,52955,1,8,0:0:0:0:
192,192,52955,1,8,0:0:0:0:
320,192,53028,1,8,0:0:0:0:
192,192,53101,1,8,0:0:0:0:
64,192,53101,1,8,0:0:0:0:
448,192,53174,1,8,0:0:0:0:
320,192,53247,1,8,0:0:0:0:
64,192,53247,1,8,0:0:0:0:
192,192,53321,1,8,0:0:0:0:
320,192,53394,1,8,0:0:0:0:
448,192,53394,1,8,0:0:0:0:
64,192,53467,1,8,0:0:0:0:
192,192,53540,1,8,0:0:0:0:
448,192,53540,1,8,0:0:0:0:
64,192,53613,1,8,0:0:0:0:
320,192,53686,1,8,0:0:0:0:
192,192,53686,1,8,0:0:0:0:
448,192,53760,1,8,0:0:0:0:
320,192,53833,1,8,0:0:0:0:
64,192,53833,1,8,0:0:0:0:
192,192,53906,1,8,0:0:0:0:
320,192,53979,1,0,0:0:0:0:
448,192,53979,1,0,0:0:0:0:
64,192,53979,1,8,0:0:0:0:
192,192,54052,1,8,0:0:0:0:
320,192,54125,1,8,0:0:0:0:
192,192,54199,1,8,0:0:0:0:
64,192,54272,1,8,0:0:0:0:
448,192,54272,1,8,0:0:0:0:
320,192,54345,1,8,0:0:0:0:
192,192,54418,1,8,0:0:0:0:
448,192,54418,1,8,0:0:0:0:
64,192,54418,1,8,0:0:0:0:
320,192,54491,1,8,0:0:0:0:
192,192,54565,1,8,0:0:0:0:
64,192,54638,1,8,0:0:0:0:
192,192,54711,1,8,0:0:0:0:
448,192,54711,1,8,0:0:0:0:
320,192,54784,1,8,0:0:0:0:
448,192,54857,1,8,0:0:0:0:
64,192,54857,1,8,0:0:0:0:
192,192,54857,1,8,0:0:0:0:
320,192,54930,1,8,0:0:0:0:
448,192,55004,1,8,0:0:0:0:
192,192,55077,1,8,0:0:0:0:
64,192,55150,1,8,0:0:0:0:
320,192,55150,1,8,0:0:0:0:
448,192,55150,1,8,0:0:0:0:
192,192,55223,1,8,0:0:0:0:
64,192,55296,1,8,0:0:0:0:
448,192,55296,1,8,0:0:0:0:
320,192,55369,1,8,0:0:0:0:
192,192,55443,1,8,0:0:0:0:
320,192,55516,1,8,0:0:0:0:
192,192,55589,1,8,0:0:0:0:
64,192,55589,1,8,0:0:0:0:
448,192,55589,1,8,0:0:0:0:
320,192,55662,1,8,0:0:0:0:
448,192,55735,1,8,0:0:0:0:
64,192,55735,1,8,0:0:0:0:
192,192,55808,1,8,0:0:0:0:
320,192,55882,1,8,0:0:0:0:
192,192,55955,1,8,0:0:0:0:
64,192,56028,1,8,0:0:0:0:
448,192,56028,1,8,0:0:0:0:
320,192,56028,1,8,0:0:0:0:
192,192,56101,1,8,0:0:0:0:
448,192,56174,1,8,0:0:0:0:
320,192,56247,1,8,0:0:0:0:
192,192,56321,1,0,0:0:0:0:
64,192,56321,1,8,0:0:0:0:
448,192,56321,1,8,0:0:0:0:
320,192,56394,1,8,0:0:0:0:
192,192,56467,1,8,0:0:0:0:
320,192,56540,1,8,0:0:0:0:
448,192,56613,1,8,0:0:0:0:
64,192,56613,1,8,0:0:0:0:
192,192,56686,1,8,0:0:0:0:
320,192,56760,1,8,0:0:0:0:
192,192,56833,1,8,0:0:0:0:
64,192,56906,1,8,0:0:0:0:
448,192,56906,1,8,0:0:0:0:
320,192,56979,1,8,0:0:0:0:
192,192,57052,1,8,0:0:0:0:
320,192,57125,1,8,0:0:0:0:
448,192,57199,1,8,0:0:0:0:
64,192,57199,1,8,0:0:0:0:
192,192,57272,1,8,0:0:0:0:
320,192,57345,1,8,0:0:0:0:
192,192,57418,1,8,0:0:0:0:
64,192,57491,1,8,0:0:0:0:
448,192,57491,1,8,0:0:0:0:
320,192,57565,1,8,0:0:0:0:
192,192,57565,1,8,0:0:0:0:
64,192,57638,1,8,0:0:0:0:
448,192,57638,1,8,0:0:0:0:
192,192,57711,1,8,0:0:0:0:
320,192,57784,1,8,0:0:0:0:
448,192,57784,1,8,0:0:0:0:
64,192,57857,1,8,0:0:0:0:
192,192,57857,1,8,0:0:0:0:
320,192,57930,1,8,0:0:0:0:
448,192,57930,1,8,0:0:0:0:
64,192,58004,1,8,0:0:0:0:
192,192,58077,1,8,0:0:0:0:
320,192,58077,1,8,0:0:0:0:
64,192,58150,1,8,0:0:0:0:
448,192,58150,1,8,0:0:0:0:
192,192,58223,1,8,0:0:0:0:
320,192,58223,1,8,0:0:0:0:
448,192,58296,1,8,0:0:0:0:
192,192,58369,1,8,0:0:0:0:
64,192,58369,1,8,0:0:0:0:
320,192,58443,1,8,0:0:0:0:
448,192,58443,1,8,0:0:0:0:
192,192,58516,1,8,0:0:0:0:
64,192,58516,1,8,0:0:0:0:
448,192,58589,1,8,0:0:0:0:
320,192,58662,1,8,0:0:0:0:
64,192,58662,1,8,0:0:0:0:
192,192,58662,1,8,0:0:0:0:
448,192,59540,128,0,59833:0:0:0:0:
64,192,59833,1,0,0:0:0:0:
192,192,59833,1,0,0:0:0:0:
320,192,59833,1,8,0:0:0:0:
448,192,59906,1,8,0:0:0:0:
320,192,59979,1,8,0:0:0:0:
64,192,59979,1,0,0:0:0:0:
192,192,60052,1,8,0:0:0:0:
320,192,60125,1,8,0:0:0:0:
448,192,60125,1,0,0:0:0:0:
192,192,60199,1,8,0:0:0:0:
64,192,60272,1,8,0:0:0:0:
192,192,60345,1,8,0:0:0:0:
320,192,60418,1,8,0:0:0:0:
448,192,60418,1,0,0:0:0:0:
64,192,60418,1,0,0:0:0:0:
192,192,60491,1,8,0:0:0:0:
320,192,60565,1,8,0:0:0:0:
448,192,60565,1,0,0:0:0:0:
64,192,60638,1,8,0:0:0:0:
192,192,60711,1,8,0:0:0:0:
320,192,60711,1,0,0:0:0:0:
64,192,60784,1,8,0:0:0:0:
320,192,60857,1,8,0:0:0:0:
192,192,60930,1,8,0:0:0:0:
64,192,61004,1,0,0:0:0:0:
320,192,61004,1,8,0:0:0:0:
448,192,61004,1,0,0:0:0:0:
192,192,61077,1,8,0:0:0:0:
320,192,61150,1,8,0:0:0:0:
448,192,61150,1,0,0:0:0:0:
64,192,61223,1,8,0:0:0:0:
192,192,61296,1,8,0:0:0:0:
320,192,61296,1,0,0:0:0:0:
64,192,61369,1,8,0:0:0:0:
192,192,61443,1,8,0:0:0:0:
320,192,61443,1,0,0:0:0:0:
448,192,61516,1,8,0:0:0:0:
192,192,61589,1,8,0:0:0:0:
64,192,61589,1,0,0:0:0:0:
448,192,61662,1,8,0:0:0:0:
64,192,61735,1,0,0:0:0:0:
320,192,61735,1,8,0:0:0:0:
192,192,61808,1,0,0:0:0:0:
448,192,61808,1,8,0:0:0:0:
64,192,61882,1,0,0:0:0:0:
320,192,61882,1,8,0:0:0:0:
192,192,61955,1,8,0:0:0:0:
64,192,62028,1,8,0:0:0:0:
448,192,62028,1,0,0:0:0:0:
320,192,62101,1,8,0:0:0:0:
192,192,62174,1,8,0:0:0:0:
64,192,62174,1,0,0:0:0:0:
448,192,62174,1,0,0:0:0:0:
320,192,62247,1,8,0:0:0:0:
192,192,62321,1,8,0:0:0:0:
64,192,62321,1,0,0:0:0:0:
448,192,62394,1,8,0:0:0:0:
320,192,62467,1,8,0:0:0:0:
192,192,62467,1,0,0:0:0:0:
448,192,62540,1,8,0:0:0:0:
192,192,62613,1,8,0:0:0:0:
64,192,62686,1,8,0:0:0:0:
448,192,62760,1,0,0:0:0:0:
320,192,62760,1,0,0:0:0:0:
192,192,62760,1,8,0:0:0:0:
64,192,62833,1,8,0:0:0:0:
320,192,62906,1,8,0:0:0:0:
448,192,62906,1,0,0:0:0:0:
192,192,62979,1,8,0:0:0:0:
64,192,63052,1,0,0:0:0:0:
320,192,63052,1,8,0:0:0:0:
192,192,63125,1,8,0:0:0:0:
64,192,63199,1,8,0:0:0:0:
320,192,63272,1,8,0:0:0:0:
192,192,63345,1,8,0:0:0:0:
64,192,63345,1,0,0:0:0:0:
448,192,63345,1,0,0:0:0:0:
320,192,63418,1,8,0:0:0:0:
192,192,63491,1,8,0:0:0:0:
64,192,63491,1,0,0:0:0:0:
448,192,63565,1,8,0:0:0:0:
320,192,63638,1,8,0:0:0:0:
192,192,63638,1,0,0:0:0:0:
448,192,63711,1,8,0:0:0:0:
320,192,63784,1,8,0:0:0:0:
192,192,63784,1,0,0:0:0:0:
64,192,63857,1,8,0:0:0:0:
320,192,63930,1,8,0:0:0:0:
448,192,63930,1,0,0:0:0:0:
64,192,64004,1,8,0:0:0:0:
192,192,64077,1,8,0:0:0:0:
448,192,64077,1,0,0:0:0:0:
320,192,64150,1,8,0:0:0:0:
64,192,64150,1,0,0:0:0:0:
192,192,64223,1,8,0:0:0:0:
448,192,64223,1,0,0:0:0:0:
320,192,64296,1,8,0:0:0:0:
192,192,64369,1,8,0:0:0:0:
64,192,64369,1,0,0:0:0:0:
448,192,64443,1,8,0:0:0:0:
320,192,64516,1,8,0:0:0:0:
192,192,64516,1,0,0:0:0:0:
64,192,64516,1,0,0:0:0:0:
448,192,64589,1,8,0:0:0:0:
320,192,64662,1,8,0:0:0:0:
192,192,64662,1,0,0:0:0:0:
64,192,64735,1,8,0:0:0:0:
320,192,64808,1,8,0:0:0:0:
448,192,64808,1,0,0:0:0:0:
64,192,64882,1,8,0:0:0:0:
320,192,64955,1,8,0:0:0:0:
192,192,65028,1,8,0:0:0:0:
64,192,65101,1,0,0:0:0:0:
320,192,65101,1,8,0:0:0:0:
448,192,65101,1,0,0:0:0:0:
192,192,65174,1,8,0:0:0:0:
320,192,65247,1,8,0:0:0:0:
448,192,65247,1,0,0:0:0:0:
64,192,65321,1,8,0:0:0:0:
192,192,65394,1,8,0:0:0:0:
320,192,65394,1,0,0:0:0:0:
64,192,65467,1,8,0:0:0:0:
192,192,65540,1,8,0:0:0:0:
320,192,65613,1,8,0:0:0:0:
448,192,65686,1,0,0:0:0:0:
192,192,65686,1,8,0:0:0:0:
64,192,65686,1,0,0:0:0:0:
320,192,65760,1,8,0:0:0:0:
64,192,65833,1,0,0:0:0:0:
192,192,65833,1,8,0:0:0:0:
448,192,65906,1,8,0:0:0:0:
320,192,65979,1,8,0:0:0:0:
192,192,65979,1,0,0:0:0:0:
448,192,66052,1,8,0:0:0:0:
320,192,66125,1,8,0:0:0:0:
192,192,66125,1,0,0:0:0:0:
64,192,66199,1,8,0:0:0:0:
320,192,66272,1,8,0:0:0:0:
448,192,66272,1,0,0:0:0:0:
64,192,66345,1,8,0:0:0:0:
192,192,66418,1,8,0:0:0:0:
448,192,66418,1,0,0:0:0:0:
320,192,66491,1,8,0:0:0:0:
64,192,66491,1,0,0:0:0:0:
192,192,66565,1,8,0:0:0:0:
448,192,66565,1,0,0:0:0:0:
320,192,66638,1,8,0:0:0:0:
192,192,66711,1,8,0:0:0:0:
64,192,66711,1,0,0:0:0:0:
448,192,66784,1,8,0:0:0:0:
320,192,66857,1,8,0:0:0:0:
192,192,66857,1,0,0:0:0:0:
64,192,66930,1,8,0:0:0:0:
192,192,67004,1,0,0:0:0:0:
320,192,67004,1,8,0:0:0:0:
448,192,67077,1,8,0:0:0:0:
192,192,67150,1,0,0:0:0:0:
64,192,67150,1,8,0:0:0:0:
320,192,67223,1,8,0:0:0:0:
192,192,67296,1,0,0:0:0:0:
64,192,67296,1,8,0:0:0:0:
448,192,67369,1,8,0:0:0:0:
320,192,67443,1,0,0:0:0:0:
192,192,67443,1,8,0:0:0:0:
448,192,67516,1,8,0:0:0:0:
320,192,67589,1,0,0:0:0:0:
192,192,67589,1,8,0:0:0:0:
64,192,67662,1,8,0:0:0:0:
320,192,67735,1,0,0:0:0:0:
448,192,67735,1,8,0:0:0:0:
64,192,67808,1,8,0:0:0:0:
320,192,67882,1,0,0:0:0:0:
448,192,67882,1,8,0:0:0:0:
64,192,67955,1,8,0:0:0:0:
192,192,68028,1,8,0:0:0:0:
320,192,68028,1,0,0:0:0:0:
448,192,68101,1,8,0:0:0:0:
320,192,68174,1,8,0:0:0:0:
64,192,68174,1,0,0:0:0:0:
192,192,68247,1,8,0:0:0:0:
320,192,68321,1,8,0:0:0:0:
448,192,68321,1,0,0:0:0:0:
64,192,68394,1,8,0:0:0:0:
192,192,68467,1,8,0:0:0:0:
448,192,68467,1,0,0:0:0:0:
320,192,68540,1,8,0:0:0:0:
192,192,68613,1,8,0:0:0:0:
64,192,68613,1,0,0:0:0:0:
448,192,68686,1,8,0:0:0:0:
320,192,68760,1,8,0:0:0:0:
192,192,68833,1,8,0:0:0:0:
64,192,68906,1,0,0:0:0:0:
448,192,68906,1,8,0:0:0:0:
320,192,68979,1,8,0:0:0:0:
192,192,69052,1,8,0:0:0:0:
320,192,69125,1,8,0:0:0:0:
448,192,69199,1,0,0:0:0:0:
64,192,69199,1,0,0:0:0:0:
192,192,69199,1,0,0:0:0:0:
320,192,69272,1,0,0:0:0:0:
192,192,69345,1,0,0:0:0:0:
64,192,69345,1,0,0:0:0:0:
448,192,69418,1,0,0:0:0:0:
320,192,69491,1,0,0:0:0:0:
192,192,69491,1,0,0:0:0:0:
64,192,69491,1,0,0:0:0:0:
448,192,69638,1,0,0:0:0:0:
192,192,69638,1,0,0:0:0:0:
64,192,69784,1,0,0:0:0:0:
320,192,69784,1,0,0:0:0:0:
448,192,69784,1,0,0:0:0:0:
192,192,69857,1,0,0:0:0:0:
320,192,69930,1,0,0:0:0:0:
448,192,69930,1,0,0:0:0:0:
64,192,70004,1,0,0:0:0:0:
192,192,70077,1,0,0:0:0:0:
320,192,70077,1,0,0:0:0:0:
448,192,70077,1,0,0:0:0:0:
64,192,70223,1,0,0:0:0:0:
320,192,70223,1,0,0:0:0:0:
192,192,70369,1,0,0:0:0:0:
64,192,70369,1,0,0:0:0:0:
320,192,70443,1,0,0:0:0:0:
192,192,70516,1,0,0:0:0:0:
448,192,70516,1,0,0:0:0:0:
64,192,70589,1,0,0:0:0:0:
192,192,70662,1,0,0:0:0:0:
320,192,70662,1,0,0:0:0:0:
448,192,70735,1,0,0:0:0:0:
64,192,70808,1,0,0:0:0:0:
320,192,70808,1,0,0:0:0:0:
192,192,70882,1,0,0:0:0:0:
320,192,70955,1,0,0:0:0:0:
448,192,70955,1,0,0:0:0:0:
64,192,71028,1,0,0:0:0:0:
320,192,71101,1,0,0:0:0:0:
448,192,71101,1,0,0:0:0:0:
192,192,71174,1,0,0:0:0:0:
64,192,71174,1,0,0:0:0:0:
320,192,71247,1,0,0:0:0:0:
448,192,71247,1,0,0:0:0:0:
64,192,71321,1,0,0:0:0:0:
192,192,71394,1,0,0:0:0:0:
320,192,71394,1,0,0:0:0:0:
64,192,71540,1,0,0:0:0:0:
320,192,71540,1,0,0:0:0:0:
448,192,71540,1,0,0:0:0:0:
192,192,71613,1,0,0:0:0:0:
320,192,71686,1,0,0:0:0:0:
64,192,71686,1,0,0:0:0:0:
448,192,71760,1,0,0:0:0:0:
320,192,71833,1,0,0:0:0:0:
192,192,71833,1,0,0:0:0:0:
64,192,71833,1,0,0:0:0:0:
192,192,71979,1,0,0:0:0:0:
448,192,71979,1,0,0:0:0:0:
64,192,72125,1,0,0:0:0:0:
192,192,72125,1,0,0:0:0:0:
320,192,72125,1,0,0:0:0:0:
448,192,72199,1,0,0:0:0:0:
320,192,72272,1,0,0:0:0:0:
64,192,72272,1,0,0:0:0:0:
192,192,72345,1,0,0:0:0:0:
64,192,72418,1,0,0:0:0:0:
320,192,72418,1,0,0:0:0:0:
448,192,72418,1,0,0:0:0:0:
192,192,72565,1,0,0:0:0:0:
320,192,72565,1,0,0:0:0:0:
320,192,72711,1,0,0:0:0:0:
448,192,72711,1,0,0:0:0:0:
64,192,72784,1,0,0:0:0:0:
192,192,72857,1,0,0:0:0:0:
448,192,72857,1,0,0:0:0:0:
320,192,72930,1,0,0:0:0:0:
192,192,73004,1,0,0:0:0:0:
64,192,73004,1,0,0:0:0:0:
448,192,73077,1,0,0:0:0:0:
320,192,73150,1,0,0:0:0:0:
64,192,73150,1,0,0:0:0:0:
192,192,73223,1,0,0:0:0:0:
320,192,73296,1,0,0:0:0:0:
448,192,73296,1,0,0:0:0:0:
192,192,73369,1,0,0:0:0:0:
320,192,73443,1,0,0:0:0:0:
448,192,73443,1,0,0:0:0:0:
192,192,73516,1,0,0:0:0:0:
64,192,73516,1,0,0:0:0:0:
320,192,73589,1,0,0:0:0:0:
448,192,73589,1,0,0:0:0:0:
64,192,73662,1,0,0:0:0:0:
192,192,73735,1,0,0:0:0:0:
320,192,73735,1,0,0:0:0:0:
64,192,73882,1,0,0:0:0:0:
320,192,73882,1,0,0:0:0:0:
448,192,73882,1,0,0:0:0:0:
192,192,73955,1,0,0:0:0:0:
64,192,74028,1,0,0:0:0:0:
320,192,74028,1,0,0:0:0:0:
192,192,74101,1,0,0:0:0:0:
320,192,74174,1,0,0:0:0:0:
448,192,74174,1,0,0:0:0:0:
64,192,74247,1,0,0:0:0:0:
192,192,74321,1,0,0:0:0:0:
320,192,74394,1,0,0:0:0:0:
192,192,74467,1,0,0:0:0:0:
64,192,74467,1,0,0:0:0:0:
448,192,74467,1,0,0:0:0:0:
320,192,74540,1,0,0:0:0:0:
192,192,74613,1,0,0:0:0:0:
64,192,74613,1,0,0:0:0:0:
448,192,74686,1,0,0:0:0:0:
320,192,74760,1,0,0:0:0:0:
192,192,74760,1,0,0:0:0:0:
64,192,74833,1,0,0:0:0:0:
320,192,74906,1,0,0:0:0:0:
192,192,74979,1,0,0:0:0:0:
320,192,75052,1,0,0:0:0:0:
448,192,75052,1,0,0:0:0:0:
64,192,75052,1,0,0:0:0:0:
192,192,75125,1,0,0:0:0:0:
320,192,75199,1,0,0:0:0:0:
448,192,75199,1,0,0:0:0:0:
64,192,75272,1,0,0:0:0:0:
320,192,75345,1,0,0:0:0:0:
192,192,75345,1,0,0:0:0:0:
448,192,75418,1,0,0:0:0:0:
64,192,75491,1,0,0:0:0:0:
192,192,75491,1,0,0:0:0:0:
448,192,75565,1,0,0:0:0:0:
192,192,75638,1,0,0:0:0:0:
64,192,75638,1,0,0:0:0:0:
320,192,75711,1,0,0:0:0:0:
192,192,75784,1,0,0:0:0:0:
448,192,75784,1,0,0:0:0:0:
320,192,75857,1,0,0:0:0:0:
64,192,75857,1,0,0:0:0:0:
192,192,75930,1,0,0:0:0:0:
448,192,75930,1,0,0:0:0:0:
64,192,76004,1,0,0:0:0:0:
320,192,76077,1,0,0:0:0:0:
448,192,76077,1,0,0:0:0:0:
64,192,76150,1,0,0:0:0:0:
192,192,76223,1,0,0:0:0:0:
320,192,76223,1,0,0:0:0:0:
448,192,76223,1,0,0:0:0:0:
64,192,76296,1,0,0:0:0:0:
192,192,76369,1,0,0:0:0:0:
320,192,76369,1,0,0:0:0:0:
448,192,76443,1,0,0:0:0:0:
192,192,76516,1,0,0:0:0:0:
64,192,76516,1,0,0:0:0:0:
448,192,76589,1,0,0:0:0:0:
192,192,76662,1,0,0:0:0:0:
64,192,76662,1,0,0:0:0:0:
448,192,76735,1,0,0:0:0:0:
320,192,76808,1,0,0:0:0:0:
192,192,76808,1,0,0:0:0:0:
64,192,76882,1,0,0:0:0:0:
192,192,76955,1,0,0:0:0:0:
320,192,76955,1,0,0:0:0:0:
64,192,77028,1,0,0:0:0:0:
320,192,77101,1,0,0:0:0:0:
448,192,77101,1,0,0:0:0:0:
192,192,77174,1,0,0:0:0:0:
320,192,77247,1,0,0:0:0:0:
448,192,77247,1,0,0:0:0:0:
64,192,77321,1,0,0:0:0:0:
192,192,77394,1,0,0:0:0:0:
320,192,77394,1,0,0:0:0:0:
448,192,77467,1,0,0:0:0:0:
320,192,77540,1,0,0:0:0:0:
64,192,77540,1,0,0:0:0:0:
192,192,77613,1,0,0:0:0:0:
448,192,77686,1,0,0:0:0:0:
64,192,77686,1,0,0:0:0:0:
320,192,77760,1,0,0:0:0:0:
64,192,77833,1,0,0:0:0:0:
448,192,77906,1,0,0:0:0:0:
192,192,77979,1,8,0:0:0:0:
64,192,77979,1,8,0:0:0:0:
320,192,78052,1,8,0:0:0:0:
448,192,78052,1,8,0:0:0:0:
192,192,78125,1,8,0:0:0:0:
64,192,78125,1,8,0:0:0:0:
320,192,78199,1,8,0:0:0:0:
448,192,78199,1,8,0:0:0:0:
192,192,78272,1,8,0:0:0:0:
64,192,78272,1,8,0:0:0:0:
320,192,78345,1,8,0:0:0:0:
448,192,78345,1,8,0:0:0:0:
192,192,78418,1,8,0:0:0:0:
64,192,78418,1,8,0:0:0:0:
320,192,78491,1,8,0:0:0:0:
448,192,78491,1,8,0:0:0:0:
192,192,78565,1,8,0:0:0:0:
64,192,78565,1,8,0:0:0:0:
320,192,78711,1,0,0:0:0:0:
448,192,78711,1,0,0:0:0:0:
192,192,78784,1,0,0:0:0:0:
64,192,78784,1,0,0:0:0:0:
448,192,78857,1,0,0:0:0:0:
320,192,78857,1,0,0:0:0:0:
448,192,79004,1,0,0:0:0:0:
320,192,79004,1,0,0:0:0:0:
448,192,79150,1,0,0:0:0:0:
320,192,79150,1,0,0:0:0:0:
448,192,79296,1,0,0:0:0:0:
320,192,79296,1,0,0:0:0:0:
448,192,79443,1,0,0:0:0:0:
320,192,79443,1,0,0:0:0:0:
64,192,79443,1,0,0:0:0:0:
448,192,79589,1,0,0:0:0:0:
320,192,79589,1,0,0:0:0:0:
192,192,79735,1,0,0:0:0:0:
64,192,79735,1,0,0:0:0:0:
192,192,79882,1,0,0:0:0:0:
64,192,79882,1,0,0:0:0:0:
320,192,79955,1,0,0:0:0:0:
448,192,79955,1,0,0:0:0:0:
192,192,80028,1,0,0:0:0:0:
64,192,80028,1,0,0:0:0:0:
192,192,80174,1,0,0:0:0:0:
64,192,80174,1,0,0:0:0:0:
192,192,80321,1,0,0:0:0:0:
64,192,80321,1,0,0:0:0:0:
192,192,80467,1,0,0:0:0:0:
64,192,80467,1,0,0:0:0:0:
192,192,80613,1,0,0:0:0:0:
64,192,80613,1,0,0:0:0:0:
448,192,80613,1,0,0:0:0:0:
192,192,80760,1,0,0:0:0:0:
64,192,80760,1,0,0:0:0:0:
320,192,80906,1,0,0:0:0:0:
448,192,80906,1,0,0:0:0:0:
320,192,81052,1,0,0:0:0:0:
448,192,81052,1,0,0:0:0:0:
192,192,81125,1,0,0:0:0:0:
64,192,81125,1,0,0:0:0:0:
448,192,81199,1,0,0:0:0:0:
320,192,81199,1,0,0:0:0:0:
448,192,81345,1,0,0:0:0:0:
320,192,81345,1,0,0:0:0:0:
448,192,81491,1,0,0:0:0:0:
320,192,81491,1,0,0:0:0:0:
448,192,81638,1,0,0:0:0:0:
320,192,81638,1,0,0:0:0:0:
448,192,81784,1,0,0:0:0:0:
320,192,81784,1,0,0:0:0:0:
64,192,81784,1,0,0:0:0:0:
448,192,81930,1,0,0:0:0:0:
320,192,81930,1,0,0:0:0:0:
192,192,82077,1,0,0:0:0:0:
64,192,82077,1,0,0:0:0:0:
192,192,82223,1,0,0:0:0:0:
64,192,82223,1,0,0:0:0:0:
320,192,82296,1,0,0:0:0:0:
448,192,82296,1,0,0:0:0:0:
192,192,82369,1,0,0:0:0:0:
64,192,82369,1,0,0:0:0:0:
192,192,82516,1,0,0:0:0:0:
64,192,82516,1,0,0:0:0:0:
192,192,82662,1,0,0:0:0:0:
64,192,82662,1,0,0:0:0:0:
192,192,82808,1,0,0:0:0:0:
64,192,82808,1,0,0:0:0:0:
192,192,82955,1,0,0:0:0:0:
64,192,82955,1,0,0:0:0:0:
448,192,82955,1,0,0:0:0:0:
192,192,83101,1,0,0:0:0:0:
320,192,83101,1,0,0:0:0:0:
448,192,83101,1,0,0:0:0:0:
64,192,83247,1,0,0:0:0:0:
192,192,83247,1,0,0:0:0:0:
320,192,83247,1,0,0:0:0:0:
448,192,83247,1,0,0:0:0:0:
448,192,83394,1,0,0:0:0:0:
192,192,83394,1,0,0:0:0:0:
64,192,83394,1,0,0:0:0:0:
320,192,83467,1,0,0:0:0:0:
192,192,83540,1,0,0:0:0:0:
64,192,83540,1,0,0:0:0:0:
64,192,83686,1,0,0:0:0:0:
192,192,83686,1,0,0:0:0:0:
320,192,83686,1,0,0:0:0:0:
448,192,83686,1,0,0:0:0:0:
64,192,83833,1,0,0:0:0:0:
192,192,83833,1,0,0:0:0:0:
192,192,83979,1,0,0:0:0:0:
448,192,83979,1,0,0:0:0:0:
64,192,84125,1,0,0:0:0:0:
192,192,84125,1,0,0:0:0:0:
320,192,84125,1,0,0:0:0:0:
448,192,84125,1,0,0:0:0:0:
320,192,84272,1,0,0:0:0:0:
448,192,84272,1,0,0:0:0:0:
64,192,84418,1,0,0:0:0:0:
192,192,84418,1,0,0:0:0:0:
320,192,84418,1,0,0:0:0:0:
448,192,84418,1,0,0:0:0:0:
64,192,84565,1,0,0:0:0:0:
192,192,84565,1,0,0:0:0:0:
448,192,84565,1,0,0:0:0:0:
320,192,84638,1,0,0:0:0:0:
192,192,84711,1,0,0:0:0:0:
64,192,84711,1,0,0:0:0:0:
64,192,84857,1,0,0:0:0:0:
192,192,84857,1,0,0:0:0:0:
320,192,84857,1,0,0:0:0:0:
448,192,84857,1,0,0:0:0:0:
320,192,85004,1,0,0:0:0:0:
448,192,85004,1,0,0:0:0:0:
64,192,85150,1,0,0:0:0:0:
320,192,85150,1,0,0:0:0:0:
64,192,85296,1,0,0:0:0:0:
192,192,85296,1,0,0:0:0:0:
320,192,85296,1,0,0:0:0:0:
448,192,85296,1,0,0:0:0:0:
64,192,85443,1,0,0:0:0:0:
192,192,85443,1,0,0:0:0:0:
64,192,85589,1,0,0:0:0:0:
192,192,85589,1,0,0:0:0:0:
320,192,85589,1,0,0:0:0:0:
448,192,85589,1,0,0:0:0:0:
64,192,85735,1,0,0:0:0:0:
320,192,85735,1,0,0:0:0:0:
448,192,85735,1,0,0:0:0:0:
192,192,85808,1,0,0:0:0:0:
320,192,85882,1,0,0:0:0:0:
64,192,85882,1,0,0:0:0:0:
64,192,86028,1,0,0:0:0:0:
192,192,86028,1,0,0:0:0:0:
320,192,86028,1,0,0:0:0:0:
448,192,86028,1,0,0:0:0:0:
64,192,86174,1,0,0:0:0:0:
192,192,86174,1,0,0:0:0:0:
192,192,86321,1,0,0:0:0:0:
448,192,86321,1,0,0:0:0:0:
64,192,86467,1,0,0:0:0:0:
192,192,86467,1,0,0:0:0:0:
320,192,86467,1,0,0:0:0:0:
448,192,86467,1,0,0:0:0:0:
320,192,86613,1,0,0:0:0:0:
64,192,86613,1,0,0:0:0:0:
320,192,86760,1,8,0:0:0:0:
448,192,86760,1,8,0:0:0:0:
192,192,86833,1,8,0:0:0:0:
64,192,86833,1,8,0:0:0:0:
320,192,86906,1,8,0:0:0:0:
448,192,86906,1,8,0:0:0:0:
192,192,86979,1,8,0:0:0:0:
64,192,86979,1,8,0:0:0:0:
320,192,87052,1,8,0:0:0:0:
448,192,87052,1,8,0:0:0:0:
192,192,87125,1,8,0:0:0:0:
64,192,87125,1,8,0:0:0:0:
320,192,87199,1,8,0:0:0:0:
448,192,87199,1,8,0:0:0:0:
192,192,87272,1,8,0:0:0:0:
64,192,87272,1,8,0:0:0:0:
320,192,87345,1,8,0:0:0:0:
448,192,87345,1,8,0:0:0:0:
64,192,87418,1,0,0:0:0:0:
192,192,87491,1,0,0:0:0:0:
320,192,87491,1,0,0:0:0:0:
448,192,87565,1,0,0:0:0:0:
192,192,87638,1,0,0:0:0:0:
64,192,87638,1,0,0:0:0:0:
448,192,87711,1,0,0:0:0:0:
320,192,87784,1,0,0:0:0:0:
192,192,87784,1,0,0:0:0:0:
64,192,87857,1,0,0:0:0:0:
320,192,87930,1,2,0:0:0:0:
448,192,87930,1,2,0:0:0:0:
192,192,87930,1,2,0:0:0:0:
64,192,88004,1,0,0:0:0:0:
320,192,88077,1,0,0:0:0:0:
448,192,88077,1,0,0:0:0:0:
192,192,88150,1,0,0:0:0:0:
320,192,88223,1,0,0:0:0:0:
448,192,88223,1,0,0:0:0:0:
192,192,88296,1,0,0:0:0:0:
64,192,88369,1,0,0:0:0:0:
448,192,88369,1,0,0:0:0:0:
192,192,88443,1,0,0:0:0:0:
320,192,88516,1,0,0:0:0:0:
448,192,88516,1,0,0:0:0:0:
64,192,88589,1,0,0:0:0:0:
192,192,88662,1,0,0:0:0:0:
320,192,88662,1,0,0:0:0:0:
448,192,88735,1,0,0:0:0:0:
192,192,88808,1,0,0:0:0:0:
64,192,88808,1,0,0:0:0:0:
320,192,88882,1,0,0:0:0:0:
192,192,88955,1,0,0:0:0:0:
64,192,88955,1,0,0:0:0:0:
448,192,89028,1,0,0:0:0:0:
320,192,89101,1,0,0:0:0:0:
64,192,89101,1,0,0:0:0:0:
192,192,89174,1,0,0:0:0:0:
448,192,89247,1,0,0:0:0:0:
64,192,89247,1,0,0:0:0:0:
320,192,89321,1,0,0:0:0:0:
192,192,89394,1,0,0:0:0:0:
64,192,89394,1,0,0:0:0:0:
320,192,89467,1,0,0:0:0:0:
448,192,89540,1,0,0:0:0:0:
64,192,89540,1,0,0:0:0:0:
192,192,89613,1,0,0:0:0:0:
320,192,89686,1,0,0:0:0:0:
448,192,89686,1,0,0:0:0:0:
64,192,89760,1,0,0:0:0:0:
192,192,89833,1,0,0:0:0:0:
448,192,89833,1,0,0:0:0:0:
320,192,89906,1,0,0:0:0:0:
192,192,89979,1,0,0:0:0:0:
64,192,89979,1,0,0:0:0:0:
320,192,90052,1,0,0:0:0:0:
192,192,90125,1,0,0:0:0:0:
64,192,90125,1,0,0:0:0:0:
448,192,90199,1,0,0:0:0:0:
320,192,90272,1,2,0:0:0:0:
192,192,90272,1,2,0:0:0:0:
64,192,90272,1,2,0:0:0:0:
448,192,90345,1,0,0:0:0:0:
320,192,90418,1,0,0:0:0:0:
192,192,90418,1,0,0:0:0:0:
64,192,90491,1,0,0:0:0:0:
320,192,90565,1,0,0:0:0:0:
448,192,90565,1,0,0:0:0:0:
192,192,90638,1,0,0:0:0:0:
64,192,90711,1,0,0:0:0:0:
448,192,90711,1,0,0:0:0:0:
320,192,90784,1,0,0:0:0:0:
192,192,90857,1,0,0:0:0:0:
64,192,90857,1,0,0:0:0:0:
448,192,90930,1,0,0:0:0:0:
320,192,91004,1,0,0:0:0:0:
192,192,91004,1,0,0:0:0:0:
64,192,91077,1,0,0:0:0:0:
320,192,91150,1,0,0:0:0:0:
448,192,91150,1,0,0:0:0:0:
192,192,91223,1,0,0:0:0:0:
320,192,91296,1,0,0:0:0:0:
448,192,91296,1,0,0:0:0:0:
64,192,91369,1,0,0:0:0:0:
192,192,91443,1,0,0:0:0:0:
448,192,91443,1,0,0:0:0:0:
320,192,91516,1,0,0:0:0:0:
448,192,91589,1,0,0:0:0:0:
64,192,91589,1,0,0:0:0:0:
192,192,91662,1,0,0:0:0:0:
320,192,91735,1,0,0:0:0:0:
448,192,91735,1,0,0:0:0:0:
64,192,91808,1,0,0:0:0:0:
192,192,91882,1,0,0:0:0:0:
320,192,91955,1,0,0:0:0:0:
64,192,92028,1,0,0:0:0:0:
448,192,92028,1,0,0:0:0:0:
192,192,92101,1,0,0:0:0:0:
320,192,92174,1,0,0:0:0:0:
448,192,92174,1,0,0:0:0:0:
64,192,92247,1,0,0:0:0:0:
192,192,92321,1,0,0:0:0:0:
320,192,92321,1,0,0:0:0:0:
448,192,92394,1,0,0:0:0:0:
192,192,92467,1,0,0:0:0:0:
64,192,92467,1,0,0:0:0:0:
448,192,92540,1,0,0:0:0:0:
192,192,92613,1,2,0:0:0:0:
64,192,92613,1,2,0:0:0:0:
320,192,92613,1,2,0:0:0:0:
448,192,92686,1,0,0:0:0:0:
320,192,92760,1,0,0:0:0:0:
192,192,92760,1,0,0:0:0:0:
64,192,92833,1,0,0:0:0:0:
320,192,92906,1,0,0:0:0:0:
448,192,92906,1,0,0:0:0:0:
64,192,92979,1,0,0:0:0:0:
192,192,93052,1,0,0:0:0:0:
320,192,93125,1,0,0:0:0:0:
192,192,93199,1,0,0:0:0:0:
64,192,93199,1,0,0:0:0:0:
448,192,93272,1,0,0:0:0:0:
320,192,93345,1,0,0:0:0:0:
192,192,93345,1,0,0:0:0:0:
64,192,93418,1,0,0:0:0:0:
320,192,93491,1,0,0:0:0:0:
448,192,93491,1,0,0:0:0:0:
192,192,93565,1,0,0:0:0:0:
320,192,93638,1,0,0:0:0:0:
448,192,93638,1,0,0:0:0:0:
64,192,93784,1,2,0:0:0:0:
192,192,93784,1,2,0:0:0:0:
320,192,93784,1,2,0:0:0:0:
448,192,93784,1,2,0:0:0:0:
192,192,93930,1,0,0:0:0:0:
64,192,93930,1,0,0:0:0:0:
448,192,94004,1,0,0:0:0:0:
320,192,94077,1,0,0:0:0:0:
192,192,94077,1,0,0:0:0:0:
64,192,94150,1,0,0:0:0:0:
192,192,94223,1,0,0:0:0:0:
320,192,94223,1,0,0:0:0:0:
64,192,94296,1,0,0:0:0:0:
320,192,94369,1,0,0:0:0:0:
448,192,94369,1,0,0:0:0:0:
192,192,94443,1,0,0:0:0:0:
64,192,94443,1,0,0:0:0:0:
320,192,94516,1,0,0:0:0:0:
448,192,94516,1,0,0:0:0:0:
192,192,94589,1,0,0:0:0:0:
64,192,94589,1,0,0:0:0:0:
320,192,94662,1,0,0:0:0:0:
448,192,94662,1,0,0:0:0:0:
192,192,94735,1,0,0:0:0:0:
64,192,94735,1,0,0:0:0:0:
320,192,94808,1,0,0:0:0:0:
448,192,94808,1,0,0:0:0:0:
192,192,94882,1,0,0:0:0:0:
64,192,94882,1,0,0:0:0:0:
320,192,94955,1,2,0:0:0:0:
448,192,94955,1,2,0:0:0:0:
64,192,95028,1,0,0:0:0:0:
192,192,95101,1,0,0:0:0:0:
320,192,95101,1,0,0:0:0:0:
448,192,95174,1,0,0:0:0:0:
64,192,95247,1,0,0:0:0:0:
192,192,95247,1,0,0:0:0:0:
320,192,95321,1,0,0:0:0:0:
448,192,95394,1,0,0:0:0:0:
64,192,95394,1,0,0:0:0:0:
192,192,95467,1,0,0:0:0:0:
320,192,95540,1,0,0:0:0:0:
448,192,95540,1,0,0:0:0:0:
64,192,95613,1,0,0:0:0:0:
192,192,95686,1,0,0:0:0:0:
320,192,95686,1,0,0:0:0:0:
448,192,95760,1,0,0:0:0:0:
192,192,95833,1,0,0:0:0:0:
64,192,95833,1,0,0:0:0:0:
320,192,95906,1,0,0:0:0:0:
192,192,95979,1,0,0:0:0:0:
64,192,95979,1,0,0:0:0:0:
448,192,96052,1,0,0:0:0:0:
320,192,96125,1,0,0:0:0:0:
64,192,96125,1,0,0:0:0:0:
192,192,96199,1,0,0:0:0:0:
64,192,96272,1,0,0:0:0:0:
448,192,96272,1,0,0:0:0:0:
320,192,96345,1,0,0:0:0:0:
192,192,96418,1,0,0:0:0:0:
64,192,96418,1,0,0:0:0:0:
448,192,96491,1,0,0:0:0:0:
320,192,96565,1,0,0:0:0:0:
64,192,96565,1,0,0:0:0:0:
192,192,96638,1,0,0:0:0:0:
320,192,96711,1,0,0:0:0:0:
448,192,96784,1,0,0:0:0:0:
192,192,96857,1,0,0:0:0:0:
64,192,96857,1,0,0:0:0:0:
448,192,96930,1,0,0:0:0:0:
320,192,97004,1,0,0:0:0:0:
192,192,97004,1,0,0:0:0:0:
64,192,97077,1,0,0:0:0:0:
320,192,97150,1,0,0:0:0:0:
448,192,97150,1,0,0:0:0:0:
64,192,97223,1,0,0:0:0:0:
192,192,97296,1,8,0:0:0:0:
320,192,97296,1,8,0:0:0:0:
448,192,97296,1,8,0:0:0:0:
64,192,97369,1,0,0:0:0:0:
192,192,97443,1,0,0:0:0:0:
320,192,97443,1,0,0:0:0:0:
448,192,97516,1,0,0:0:0:0:
192,192,97589,1,0,0:0:0:0:
64,192,97589,1,0,0:0:0:0:
320,192,97662,1,0,0:0:0:0:
192,192,97735,1,0,0:0:0:0:
448,192,97735,1,0,0:0:0:0:
320,192,97808,1,0,0:0:0:0:
192,192,97882,1,0,0:0:0:0:
64,192,97882,1,0,0:0:0:0:
448,192,97955,1,0,0:0:0:0:
320,192,98028,1,0,0:0:0:0:
192,192,98028,1,0,0:0:0:0:
64,192,98101,1,0,0:0:0:0:
320,192,98174,1,0,0:0:0:0:
448,192,98174,1,0,0:0:0:0:
192,192,98247,1,0,0:0:0:0:
320,192,98321,1,0,0:0:0:0:
448,192,98321,1,0,0:0:0:0:
64,192,98394,1,0,0:0:0:0:
192,192,98467,1,0,0:0:0:0:
448,192,98467,1,0,0:0:0:0:
320,192,98540,1,0,0:0:0:0:
448,192,98613,1,0,0:0:0:0:
64,192,98613,1,0,0:0:0:0:
192,192,98686,1,0,0:0:0:0:
320,192,98760,1,0,0:0:0:0:
448,192,98760,1,0,0:0:0:0:
64,192,98833,1,0,0:0:0:0:
192,192,98906,1,0,0:0:0:0:
448,192,98906,1,0,0:0:0:0:
320,192,98979,1,0,0:0:0:0:
64,192,99052,1,0,0:0:0:0:
448,192,99052,1,0,0:0:0:0:
320,192,99125,1,0,0:0:0:0:
192,192,99199,1,0,0:0:0:0:
64,192,99199,1,0,0:0:0:0:
448,192,99272,1,0,0:0:0:0:
320,192,99345,1,0,0:0:0:0:
192,192,99345,1,0,0:0:0:0:
64,192,99418,1,0,0:0:0:0:
320,192,99491,1,0,0:0:0:0:
448,192,99491,1,0,0:0:0:0:
64,192,99565,1,0,0:0:0:0:
320,192,99638,1,2,0:0:0:0:
448,192,99638,1,2,0:0:0:0:
192,192,99638,1,2,0:0:0:0:
64,192,99711,1,0,0:0:0:0:
192,192,99784,1,0,0:0:0:0:
320,192,99784,1,0,0:0:0:0:
448,192,99857,1,0,0:0:0:0:
192,192,99930,1,0,0:0:0:0:
64,192,99930,1,0,0:0:0:0:
320,192,100004,1,0,0:0:0:0:
448,192,100077,1,0,0:0:0:0:
64,192,100077,1,0,0:0:0:0:
192,192,100150,1,0,0:0:0:0:
320,192,100223,1,0,0:0:0:0:
448,192,100223,1,0,0:0:0:0:
64,192,100296,1,0,0:0:0:0:
192,192,100369,1,0,0:0:0:0:
320,192,100369,1,0,0:0:0:0:
448,192,100443,1,0,0:0:0:0:
192,192,100516,1,0,0:0:0:0:
64,192,100516,1,0,0:0:0:0:
320,192,100589,1,0,0:0:0:0:
192,192,100662,1,0,0:0:0:0:
64,192,100662,1,0,0:0:0:0:
64,192,100808,1,2,0:0:0:0:
192,192,100808,1,2,0:0:0:0:
320,192,100808,1,2,0:0:0:0:
448,192,100808,1,2,0:0:0:0:
320,192,100955,1,0,0:0:0:0:
448,192,100955,1,0,0:0:0:0:
64,192,101028,1,0,0:0:0:0:
192,192,101101,1,0,0:0:0:0:
320,192,101101,1,0,0:0:0:0:
448,192,101174,1,0,0:0:0:0:
192,192,101247,1,0,0:0:0:0:
64,192,101247,1,0,0:0:0:0:
448,192,101321,1,0,0:0:0:0:
320,192,101394,1,0,0:0:0:0:
192,192,101394,1,0,0:0:0:0:
64,192,101467,1,0,0:0:0:0:
320,192,101540,1,0,0:0:0:0:
448,192,101540,1,0,0:0:0:0:
64,192,101613,1,0,0:0:0:0:
192,192,101686,1,0,0:0:0:0:
320,192,101686,1,0,0:0:0:0:
448,192,101760,1,0,0:0:0:0:
64,192,101833,1,0,0:0:0:0:
192,192,101833,1,0,0:0:0:0:
192,192,101979,1,8,0:0:0:0:
320,192,101979,1,8,0:0:0:0:
448,192,101979,1,8,0:0:0:0:
64,192,102052,1,0,0:0:0:0:
192,192,102125,1,0,0:0:0:0:
320,192,102125,1,0,0:0:0:0:
448,192,102125,1,0,0:0:0:0:
64,192,102199,1,0,0:0:0:0:
192,192,102272,1,0,0:0:0:0:
320,192,102272,1,0,0:0:0:0:
448,192,102272,1,0,0:0:0:0:
64,192,102345,1,0,0:0:0:0:
192,192,102418,1,0,0:0:0:0:
448,192,102418,1,0,0:0:0:0:
320,192,102491,1,0,0:0:0:0:
448,192,102565,1,0,0:0:0:0:
192,192,102565,1,0,0:0:0:0:
64,192,102565,1,0,0:0:0:0:
320,192,102638,1,0,0:0:0:0:
192,192,102711,1,0,0:0:0:0:
448,192,102711,1,0,0:0:0:0:
64,192,102784,1,0,0:0:0:0:
192,192,102857,1,0,0:0:0:0:
320,192,102857,1,0,0:0:0:0:
448,192,102857,1,0,0:0:0:0:
64,192,102930,1,0,0:0:0:0:
320,192,103004,1,0,0:0:0:0:
448,192,103004,1,0,0:0:0:0:
192,192,103077,1,0,0:0:0:0:
64,192,103150,1,0,0:0:0:0:
320,192,103150,1,0,0:0:0:0:
192,192,103223,1,0,0:0:0:0:
64,192,103296,1,0,0:0:0:0:
448,192,103296,1,0,0:0:0:0:
320,192,103369,1,0,0:0:0:0:
192,192,103369,1,0,0:0:0:0:
64,192,103443,1,0,0:0:0:0:
448,192,103443,1,0,0:0:0:0:
192,192,103516,1,0,0:0:0:0:
320,192,103589,1,0,0:0:0:0:
448,192,103589,1,0,0:0:0:0:
192,192,103662,1,0,0:0:0:0:
64,192,103662,1,0,0:0:0:0:
320,192,103735,1,0,0:0:0:0:
448,192,103735,1,0,0:0:0:0:
64,192,103808,1,0,0:0:0:0:
192,192,103882,1,0,0:0:0:0:
320,192,103882,1,0,0:0:0:0:
448,192,103955,1,0,0:0:0:0:
64,192,104028,1,0,0:0:0:0:
320,192,104028,1,0,0:0:0:0:
192,192,104101,1,0,0:0:0:0:
448,192,104174,1,0,0:0:0:0:
320,192,104174,1,0,0:0:0:0:
64,192,104247,1,0,0:0:0:0:
192,192,104321,1,8,0:0:0:0:
320,192,104321,1,8,0:0:0:0:
448,192,104321,1,8,0:0:0:0:
64,192,104394,1,0,0:0:0:0:
192,192,104467,1,0,0:0:0:0:
448,192,104467,1,0,0:0:0:0:
320,192,104467,1,0,0:0:0:0:
64,192,104540,1,0,0:0:0:0:
192,192,104613,1,0,0:0:0:0:
320,192,104613,1,0,0:0:0:0:
448,192,104613,1,0,0:0:0:0:
64,192,104686,1,0,0:0:0:0:
320,192,104760,1,0,0:0:0:0:
192,192,104833,1,0,0:0:0:0:
64,192,104906,1,0,0:0:0:0:
320,192,104906,1,0,0:0:0:0:
448,192,104906,1,0,0:0:0:0:
192,192,104979,1,0,0:0:0:0:
320,192,105052,1,0,0:0:0:0:
448,192,105052,1,0,0:0:0:0:
64,192,105125,1,0,0:0:0:0:
192,192,105199,1,0,0:0:0:0:
320,192,105199,1,0,0:0:0:0:
448,192,105199,1,0,0:0:0:0:
64,192,105272,1,0,0:0:0:0:
192,192,105345,1,0,0:0:0:0:
320,192,105345,1,0,0:0:0:0:
448,192,105418,1,0,0:0:0:0:
320,192,105491,1,0,0:0:0:0:
64,192,105491,1,0,0:0:0:0:
192,192,105565,1,0,0:0:0:0:
320,192,105638,1,0,0:0:0:0:
448,192,105638,1,0,0:0:0:0:
192,192,105711,1,0,0:0:0:0:
64,192,105711,1,0,0:0:0:0:
320,192,105784,1,0,0:0:0:0:
448,192,105784,1,0,0:0:0:0:
64,192,105857,1,0,0:0:0:0:
192,192,105930,1,0,0:0:0:0:
320,192,105930,1,0,0:0:0:0:
64,192,106004,1,0,0:0:0:0:
448,192,106004,1,0,0:0:0:0:
192,192,106077,1,0,0:0:0:0:
320,192,106077,1,0,0:0:0:0:
448,192,106150,1,0,0:0:0:0:
192,192,106223,1,0,0:0:0:0:
64,192,106223,1,0,0:0:0:0:
320,192,106296,1,0,0:0:0:0:
192,192,106369,1,0,0:0:0:0:
448,192,106369,1,0,0:0:0:0:
64,192,106443,1,0,0:0:0:0:
192,192,106516,1,0,0:0:0:0:
320,192,106516,1,0,0:0:0:0:
448,192,106589,1,0,0:0:0:0:
320,192,106662,1,8,0:0:0:0:
192,192,106662,1,8,0:0:0:0:
64,192,106662,1,8,0:0:0:0:
448,192,106735,1,0,0:0:0:0:
320,192,106808,1,0,0:0:0:0:
192,192,106808,1,0,0:0:0:0:
64,192,106808,1,0,0:0:0:0:
448,192,106882,1,0,0:0:0:0:
64,192,106955,1,0,0:0:0:0:
192,192,106955,1,0,0:0:0:0:
320,192,106955,1,0,0:0:0:0:
448,192,107028,1,0,0:0:0:0:
320,192,107101,1,0,0:0:0:0:
64,192,107101,1,0,0:0:0:0:
192,192,107174,1,0,0:0:0:0:
64,192,107247,1,0,0:0:0:0:
320,192,107247,1,0,0:0:0:0:
448,192,107247,1,0,0:0:0:0:
192,192,107321,1,0,0:0:0:0:
64,192,107394,1,0,0:0:0:0:
448,192,107394,1,0,0:0:0:0:
320,192,107467,1,0,0:0:0:0:
64,192,107540,1,0,0:0:0:0:
192,192,107540,1,0,0:0:0:0:
448,192,107540,1,0,0:0:0:0:
320,192,107613,1,0,0:0:0:0:
192,192,107686,1,0,0:0:0:0:
64,192,107686,1,0,0:0:0:0:
64,192,107833,1,8,0:0:0:0:
192,192,107833,1,8,0:0:0:0:
320,192,107833,1,8,0:0:0:0:
448,192,107833,1,8,0:0:0:0:
320,192,107979,1,0,0:0:0:0:
448,192,107979,1,0,0:0:0:0:
192,192,107979,1,0,0:0:0:0:
64,192,108052,1,0,0:0:0:0:
192,192,108125,1,0,0:0:0:0:
448,192,108125,1,0,0:0:0:0:
320,192,108199,1,0,0:0:0:0:
192,192,108272,1,0,0:0:0:0:
64,192,108272,1,0,0:0:0:0:
448,192,108272,1,0,0:0:0:0:
320,192,108345,1,0,0:0:0:0:
64,192,108418,1,8,0:0:0:0:
192,192,108418,1,8,0:0:0:0:
320,192,108491,1,0,0:0:0:0:
448,192,108491,1,0,0:0:0:0:
192,192,108565,1,0,0:0:0:0:
64,192,108565,1,0,0:0:0:0:
320,192,108638,1,0,0:0:0:0:
448,192,108638,1,0,0:0:0:0:
192,192,108711,1,0,0:0:0:0:
64,192,108711,1,0,0:0:0:0:
320,192,108784,1,0,0:0:0:0:
448,192,108784,1,0,0:0:0:0:
64,192,108857,1,0,0:0:0:0:
192,192,108857,1,0,0:0:0:0:
320,192,108930,1,0,0:0:0:0:
448,192,108930,1,0,0:0:0:0:
192,192,109004,1,8,0:0:0:0:
64,192,109004,1,8,0:0:0:0:
448,192,109077,1,0,0:0:0:0:
320,192,109150,1,0,0:0:0:0:
192,192,109150,1,0,0:0:0:0:
64,192,109223,1,0,0:0:0:0:
320,192,109296,1,0,0:0:0:0:
448,192,109296,1,0,0:0:0:0:
64,192,109369,1,0,0:0:0:0:
192,192,109443,1,0,0:0:0:0:
320,192,109516,1,0,0:0:0:0:
192,192,109589,1,8,0:0:0:0:
64,192,109589,1,8,0:0:0:0:
448,192,109662,1,0,0:0:0:0:
320,192,109735,1,0,0:0:0:0:
192,192,109735,1,0,0:0:0:0:
64,192,109808,1,0,0:0:0:0:
320,192,109882,1,0,0:0:0:0:
448,192,109882,1,0,0:0:0:0:
192,192,109955,1,0,0:0:0:0:
320,192,110028,1,0,0:0:0:0:
448,192,110028,1,0,0:0:0:0:
192,192,110101,1,0,0:0:0:0:
64,192,110101,1,0,0:0:0:0:
320,192,110174,1,8,0:0:0:0:
448,192,110174,1,8,0:0:0:0:
192,192,110247,1,0,0:0:0:0:
64,192,110247,1,0,0:0:0:0:
320,192,110321,1,0,0:0:0:0:
448,192,110321,1,0,0:0:0:0:
192,192,110394,1,0,0:0:0:0:
64,192,110394,1,0,0:0:0:0:
320,192,110467,1,0,0:0:0:0:
448,192,110467,1,0,0:0:0:0:
192,192,110540,1,0,0:0:0:0:
64,192,110540,1,0,0:0:0:0:
320,192,110613,1,0,0:0:0:0:
448,192,110613,1,0,0:0:0:0:
192,192,110686,1,0,0:0:0:0:
64,192,110686,1,0,0:0:0:0:
320,192,110760,1,0,0:0:0:0:
448,192,110760,1,0,0:0:0:0:
192,192,110833,1,0,0:0:0:0:
64,192,110833,1,0,0:0:0:0:
320,192,110906,1,0,0:0:0:0:
448,192,110906,1,0,0:0:0:0:
192,192,110979,1,0,0:0:0:0:
64,192,110979,1,0,0:0:0:0:
320,192,111052,1,0,0:0:0:0:
448,192,111052,1,0,0:0:0:0:
192,192,111125,1,0,0:0:0:0:
64,192,111125,1,0,0:0:0:0:
320,192,111199,1,0,0:0:0:0:
448,192,111199,1,0,0:0:0:0:
192,192,111272,1,0,0:0:0:0:
64,192,111272,1,0,0:0:0:0:
320,192,111345,1,0,0:0:0:0:
448,192,111345,1,0,0:0:0:0:
192,192,111491,1,0,0:0:0:0:
320,192,111491,1,0,0:0:0:0:
64,192,111638,1,0,0:0:0:0:
192,192,111638,1,0,0:0:0:0:
448,192,111638,128,0,111930:0:0:0:0:
64,192,111930,1,0,0:0:0:0:
192,192,111930,1,0,0:0:0:0:
192,192,112077,1,0,0:0:0:0:
320,192,112077,1,0,0:0:0:0:
320,192,112223,1,0,0:0:0:0:
448,192,112223,1,0,0:0:0:0:
64,192,112369,128,0,112662:0:0:0:0:
192,192,112369,1,0,0:0:0:0:
448,192,112369,1,0,0:0:0:0:
320,192,112516,1,0,0:0:0:0:
192,192,112516,1,0,0:0:0:0:
320,192,112662,1,0,0:0:0:0:
448,192,112662,1,0,0:0:0:0:
448,192,112808,1,0,0:0:0:0:
192,192,112808,1,0,0:0:0:0:
192,192,112955,1,0,0:0:0:0:
320,192,112955,1,0,0:0:0:0:
320,192,113101,1,0,0:0:0:0:
64,192,113101,1,0,0:0:0:0:
448,192,113174,1,0,0:0:0:0:
64,192,113247,1,0,0:0:0:0:
192,192,113247,1,0,0:0:0:0:
448,192,113321,1,0,0:0:0:0:
192,192,113394,1,0,0:0:0:0:
320,192,113394,1,0,0:0:0:0:
64,192,113467,1,0,0:0:0:0:
320,192,113540,1,0,0:0:0:0:
448,192,113540,1,0,0:0:0:0:
64,192,113686,1,2,0:0:0:0:
192,192,113686,1,2,0:0:0:0:
320,192,113686,1,2,0:0:0:0:
448,192,113760,1,0,0:0:0:0:
320,192,113833,1,2,0:0:0:0:
192,192,113833,1,2,0:0:0:0:
64,192,113833,1,2,0:0:0:0:
448,192,113906,1,0,0:0:0:0:
320,192,113979,1,2,0:0:0:0:
192,192,113979,1,2,0:0:0:0:
64,192,113979,1,2,0:0:0:0:
192,192,114272,1,2,0:0:0:0:
320,192,114272,1,2,0:0:0:0:
448,192,114272,1,2,0:0:0:0:
64,192,114345,1,0,0:0:0:0:
192,192,114418,1,2,0:0:0:0:
448,192,114418,1,2,0:0:0:0:
320,192,114491,1,0,0:0:0:0:
64,192,114565,1,2,0:0:0:0:
192,192,114565,1,2,0:0:0:0:
448,192,114565,1,2,0:0:0:0:
320,192,114638,1,0,0:0:0:0:
192,192,114711,1,2,0:0:0:0:
64,192,114711,1,2,0:0:0:0:
320,192,114784,1,0,0:0:0:0:
448,192,114784,1,0,0:0:0:0:
192,192,114857,1,10,0:0:0:0:
64,192,114857,1,10,0:0:0:0:
320,192,114930,1,8,0:0:0:0:
448,192,114930,1,8,0:0:0:0:
192,192,115004,1,8,0:0:0:0:
64,192,115004,1,8,0:0:0:0:
320,192,115077,1,8,0:0:0:0:
448,192,115077,1,8,0:0:0:0:
192,192,115150,1,8,0:0:0:0:
64,192,115150,1,8,0:0:0:0:
320,192,115223,1,8,0:0:0:0:
448,192,115223,1,8,0:0:0:0:
192,192,115296,1,8,0:0:0:0:
64,192,115296,1,8,0:0:0:0:
320,192,115369,1,8,0:0:0:0:
448,192,115369,1,8,0:0:0:0:
192,192,115443,1,8,0:0:0:0:
64,192,115443,1,8,0:0:0:0:
