osu file format v14

[General]
AudioFilename: Iro wa Jou e to Sasou.mp3
AudioLeadIn: 0
PreviewTime: 108675
Countdown: 0
SampleSet: Soft
StackLeniency: 0.7
Mode: 3
LetterboxInBreaks: 0
SpecialStyle: 0
WidescreenStoryboard: 1

[Editor]
DistanceSpacing: 1.5
BeatDivisor: 4
GridSize: 8
TimelineZoom: 2.4

[Metadata]
Title:Nixo's JumpStream MiniPack 1
TitleUnicode:Nixo's JumpStream MiniPack 1
Artist:Various artists
ArtistUnicode:Various artists
Creator:Nixo
Version:Iro wa Jou e to Sasou
Source:
Tags:NixoNS stepmania jumpstream pack
BeatmapID:870207
BeatmapSetID:399642

[Difficulty]
HPDrainRate:8
CircleSize:4
OverallDifficulty:7
ApproachRate:9
SliderMultiplier:1.8
SliderTickRate:1

[Events]
//Background and Video events
0,0,"Iro wa bg.jpg",0,0
//Break Periods
//Storyboard Layer 0 (Background)
//Storyboard Layer 1 (Fail)
//Storyboard Layer 2 (Pass)
//Storyboard Layer 3 (Foreground)
//Storyboard Sound Samples

[TimingPoints]
675,300,4,1,0,30,1,0
10275,-100,4,2,2,15,0,0
28275,-100,4,1,1,20,0,0
28875,-100,4,1,1,20,0,0
29475,-100,4,1,1,20,0,0
39075,-100,4,2,1,25,0,1
48675,-100,4,1,1,60,0,1
49875,-100,4,3,1,25,0,0
87075,-100,4,1,1,30,0,0
88275,-100,4,2,1,25,0,0
96675,-100,4,2,1,25,0,0
100275,-100,4,2,1,25,0,0
108675,-100,4,1,1,30,0,1
126675,-100,4,1,1,30,0,1
127275,-100,4,1,1,30,0,1
127875,-100,4,1,1,25,0,0
166275,-100,4,1,1,30,0,0
167175,-133.333333333333,4,1,1,10,0,0
167475,-100,4,1,1,30,0,0
169575,-133.333333333333,4,1,1,30,0,0
169875,-100,4,1,1,30,0,0
171975,-133.333333333333,4,1,1,30,0,0
172275,-100,4,1,1,30,0,0
176775,-133.333333333333,4,1,1,30,0,0
177075,-100,4,1,1,30,0,0
179175,-133.333333333333,4,1,1,30,0,0
179475,-100,4,1,1,30,0,0
181575,-133.333333333333,4,1,1,30,0,0
181875,-100,4,1,1,30,0,0
183075,-105.263157894737,4,1,1,30,0,0
185475,-100,4,1,1,30,0,0
186675,-100,4,1,1,40,0,1
204675,-100,4,1,1,40,0,1
204750,-100,4,1,1,43,0,1
204825,-100,4,1,1,46,0,1
204900,-100,4,1,1,49,0,1
204975,-100,4,1,1,52,0,1
205050,-100,4,1,1,55,0,1
205125,-100,4,1,1,58,0,1
205200,-100,4,1,1,61,0,1
205275,-100,4,1,1,64,0,1
205350,-100,4,1,1,67,0,1
205425,-100,4,1,1,70,0,1
205500,-100,4,1,1,73,0,1
205575,-100,4,1,1,76,0,1
205650,-100,4,1,1,79,0,1
205725,-100,4,1,1,82,0,1
205800,-100,4,1,1,85,0,1
205875,-100,4,2,1,30,0,0
205875,-100,4,2,1,100,0,0
205950,-100,4,2,1,30,0,0
223875,-100,4,2,1,40,0,0
223950,-100,4,2,1,43,0,0
224025,-100,4,2,1,46,0,0
224100,-100,4,2,1,49,0,0
224175,-100,4,2,1,52,0,0
224250,-100,4,2,1,55,0,0
224325,-100,4,2,1,58,0,0
224400,-100,4,2,1,61,0,0
224475,-100,4,2,1,64,0,0
224550,-100,4,2,1,67,0,0
224625,-100,4,2,1,70,0,0
224700,-100,4,2,1,73,0,0
224775,-100,4,2,1,76,0,0
224850,-100,4,2,1,79,0,0
224925,-100,4,2,1,82,0,0
225000,-100,4,2,1,85,0,0
225075,-100,4,2,1,100,0,0

[HitObjects]
448,192,675,5,2,3:3:0:0:
192,192,675,1,2,3:3:0:0:
64,192,825,1,2,3:3:0:0:
320,192,975,1,2,3:3:0:0:
192,192,1125,1,2,3:3:0:0:
448,192,1275,1,2,3:3:0:0:
64,192,1425,1,2,3:3:0:0:
320,192,1575,1,2,3:3:0:0:
64,192,1725,1,2,3:3:0:0:
448,192,1875,1,2,3:3:0:0:
192,192,2025,1,2,3:3:0:0:
448,192,2175,1,2,3:3:0:0:
64,192,2325,1,2,3:3:0:0:
448,192,2475,1,2,3:3:0:0:
192,192,2625,1,2,3:3:0:0:
448,192,2775,1,2,3:3:0:0:
64,192,2925,1,2,3:3:0:0:
320,192,3075,1,2,3:3:0:0:
448,192,3075,1,2,3:3:0:0:
192,192,3225,1,2,3:3:0:0:
448,192,3375,1,2,3:3:0:0:
192,192,3525,1,2,3:3:0:0:
320,192,3675,1,2,3:3:0:0:
64,192,3825,1,2,3:3:0:0:
448,192,3975,1,2,3:3:0:0:
192,192,4125,1,2,3:3:0:0:
320,192,4275,1,2,3:3:0:0:
64,192,4425,1,2,3:3:0:0:
192,192,4575,1,2,3:3:0:0:
64,192,4725,1,2,3:3:0:0:
448,192,4875,1,2,3:3:0:0:
192,192,5025,1,2,3:3:0:0:
448,192,5175,1,2,3:3:0:0:
64,192,5325,1,2,3:3:0:0:
192,192,5475,1,2,3:3:0:0:
448,192,5475,1,2,3:3:0:0:
320,192,5625,1,2,3:3:0:0:
64,192,5775,1,2,3:3:0:0:
320,192,5925,1,2,3:3:0:0:
192,192,6075,1,2,3:3:0:0:
448,192,6225,1,2,3:3:0:0:
64,192,6375,1,2,3:3:0:0:
320,192,6525,1,2,3:3:0:0:
64,192,6675,1,2,3:3:0:0:
448,192,6825,1,2,3:3:0:0:
192,192,6975,1,2,3:3:0:0:
448,192,7125,1,2,3:3:0:0:
64,192,7275,1,2,3:3:0:0:
320,192,7425,1,2,3:3:0:0:
64,192,7575,1,2,3:3:0:0:
448,192,7725,1,2,3:3:0:0:
320,192,7875,1,2,3:3:0:0:
64,192,7875,1,2,3:3:0:0:
448,192,8025,1,2,3:3:0:0:
192,192,8175,1,2,3:3:0:0:
320,192,8325,1,2,3:3:0:0:
64,192,8475,1,2,3:3:0:0:
320,192,8625,1,2,3:3:0:0:
64,192,8775,1,2,3:3:0:0:
320,192,8925,1,2,3:3:0:0:
192,192,9075,1,2,3:3:0:0:
448,192,9225,1,2,3:3:0:0:
64,192,9375,1,2,3:3:0:0:
448,192,9525,1,2,3:3:0:0:
192,192,9675,1,2,3:3:0:0:
320,192,9825,1,2,3:3:0:0:
64,192,9975,1,2,3:3:0:0:
192,192,10125,1,2,3:3:0:0:
320,192,10275,1,2,3:3:0:0:
448,192,10275,1,2,3:3:0:0:
64,192,10275,1,2,3:3:0:0:
192,192,10425,1,2,3:3:0:0:
448,192,10425,1,2,3:3:0:0:
192,192,10575,1,2,3:3:0:0:
64,192,10575,1,2,3:3:0:0:
64,192,10725,1,2,3:3:0:0:
320,192,10725,1,2,3:3:0:0:
448,192,10725,1,2,3:3:0:0:
192,192,10875,1,2,3:3:0:0:
448,192,10875,1,2,3:3:0:0:
64,192,11025,1,2,3:3:0:0:
192,192,11025,1,2,3:3:0:0:
64,192,11175,128,2,11475:3:3:0:0:
448,192,11175,128,2,11475:3:3:0:0:
320,192,11475,1,2,3:3:0:0:
192,192,11475,1,2,3:3:0:0:
64,192,11700,1,2,3:3:0:0:
320,192,11700,1,2,3:3:0:0:
64,192,11925,1,2,3:3:0:0:
192,192,11925,1,2,3:3:0:0:
320,192,12075,1,2,3:3:0:0:
448,192,12075,1,2,3:3:0:0:
448,192,12300,1,2,3:3:0:0:
192,192,12300,1,2,3:3:0:0:
64,192,12525,1,2,3:3:0:0:
192,192,12525,1,2,3:3:0:0:
64,192,12675,1,2,3:3:0:0:
320,192,12675,1,2,3:3:0:0:
448,192,12675,1,2,3:3:0:0:
192,192,12825,1,2,3:3:0:0:
448,192,12825,1,2,3:3:0:0:
64,192,12975,1,2,3:3:0:0:
192,192,12975,1,2,3:3:0:0:
64,192,13125,1,2,3:3:0:0:
320,192,13125,1,2,3:3:0:0:
448,192,13125,1,2,3:3:0:0:
192,192,13275,1,2,3:3:0:0:
448,192,13275,1,2,3:3:0:0:
64,192,13425,1,2,3:3:0:0:
192,192,13425,1,2,3:3:0:0:
64,192,13575,128,2,13875:3:3:0:0:
448,192,13575,128,2,13875:3:3:0:0:
192,192,13875,1,2,3:3:0:0:
320,192,13875,1,2,3:3:0:0:
192,192,14100,1,2,3:3:0:0:
448,192,14100,1,2,3:3:0:0:
64,192,14325,1,2,3:3:0:0:
192,192,14325,1,2,3:3:0:0:
64,192,14475,1,2,3:3:0:0:
448,192,14475,128,2,14775:3:3:0:0:
64,192,15075,1,2,3:3:0:0:
320,192,15075,1,2,3:3:0:0:
448,192,15075,1,2,3:3:0:0:
64,192,15225,1,2,3:3:0:0:
192,192,15225,1,2,3:3:0:0:
192,192,15375,1,2,3:3:0:0:
448,192,15375,1,2,3:3:0:0:
64,192,15525,1,2,3:3:0:0:
320,192,15525,1,2,3:3:0:0:
448,192,15525,1,2,3:3:0:0:
64,192,15675,1,2,3:3:0:0:
192,192,15675,1,2,3:3:0:0:
192,192,15825,1,2,3:3:0:0:
448,192,15825,1,2,3:3:0:0:
64,192,15975,128,2,16275:3:3:0:0:
448,192,15975,128,2,16275:3:3:0:0:
320,192,16275,1,2,3:3:0:0:
192,192,16275,1,2,3:3:0:0:
64,192,16500,1,2,3:3:0:0:
320,192,16500,1,2,3:3:0:0:
64,192,16725,1,2,3:3:0:0:
192,192,16725,1,2,3:3:0:0:
320,192,16875,1,2,3:3:0:0:
448,192,16875,1,2,3:3:0:0:
64,192,17100,1,2,3:3:0:0:
320,192,17100,1,2,3:3:0:0:
64,192,17325,1,2,3:3:0:0:
192,192,17325,1,2,3:3:0:0:
64,192,17475,1,2,3:3:0:0:
320,192,17475,1,2,3:3:0:0:
448,192,17475,1,2,3:3:0:0:
192,192,17625,1,2,3:3:0:0:
448,192,17625,1,2,3:3:0:0:
64,192,17775,1,2,3:3:0:0:
192,192,17775,1,2,3:3:0:0:
64,192,17925,1,2,3:3:0:0:
320,192,17925,1,2,3:3:0:0:
448,192,17925,1,2,3:3:0:0:
192,192,18075,1,2,3:3:0:0:
448,192,18075,1,2,3:3:0:0:
64,192,18225,1,2,3:3:0:0:
192,192,18225,1,2,3:3:0:0:
448,192,18375,128,2,19725:3:3:0:0:
320,192,18675,128,2,19725:3:3:0:0:
192,192,18975,1,2,3:3:0:0:
64,192,19125,128,2,19725:3:3:0:0:
192,192,19275,128,2,19725:3:3:0:0:
64,192,19875,1,2,3:3:0:0:
192,192,19875,1,2,3:3:0:0:
320,192,19875,1,0,3:3:0:0:
448,192,20025,1,0,3:3:0:0:
320,192,20175,1,0,3:3:0:0:
64,192,20325,1,0,3:3:0:0:
192,192,20475,1,2,3:3:0:0:
320,192,20475,1,2,3:3:0:0:
448,192,20475,1,0,3:3:0:0:
64,192,20625,1,0,3:3:0:0:
448,192,20775,128,0,21075:3:3:0:0:
64,192,20925,1,2,3:3:0:0:
192,192,20925,1,2,3:3:0:0:
64,192,21075,1,2,3:3:0:0:
192,192,21075,1,2,3:3:0:0:
320,192,21075,1,0,3:3:0:0:
448,192,21300,1,0,3:3:0:0:
64,192,21375,1,2,3:3:0:0:
192,192,21375,1,2,3:3:0:0:
320,192,21525,1,0,3:3:0:0:
448,192,21675,1,0,3:3:0:0:
192,192,21675,1,2,3:3:0:0:
64,192,21675,1,2,3:3:0:0:
64,192,21900,1,0,3:3:0:0:
320,192,22125,1,0,3:3:0:0:
64,192,22275,1,0,3:3:0:0:
448,192,22275,1,0,3:3:0:0:
320,192,22425,1,0,3:3:0:0:
64,192,22575,1,0,3:3:0:0:
448,192,22725,1,0,3:3:0:0:
64,192,22875,1,2,3:3:0:0:
192,192,22875,1,2,3:3:0:0:
320,192,22875,1,0,3:3:0:0:
448,192,23025,1,0,3:3:0:0:
64,192,23175,128,0,23475:3:3:0:0:
320,192,23325,1,2,3:3:0:0:
448,192,23325,1,2,3:3:0:0:
192,192,23475,1,0,3:3:0:0:
320,192,23475,1,2,3:3:0:0:
448,192,23475,1,2,3:3:0:0:
192,192,23700,1,0,3:3:0:0:
320,192,23775,1,2,3:3:0:0:
448,192,23775,1,2,3:3:0:0:
64,192,23925,1,0,3:3:0:0:
320,192,24075,1,2,3:3:0:0:
448,192,24075,1,2,3:3:0:0:
192,192,24075,128,0,24375:3:3:0:0:
64,192,24675,1,2,3:3:0:0:
320,192,24675,1,2,3:3:0:0:
448,192,24675,1,0,3:3:0:0:
192,192,24825,1,0,3:3:0:0:
64,192,24975,1,0,3:3:0:0:
448,192,25125,1,0,3:3:0:0:
320,192,25275,1,0,3:3:0:0:
192,192,25275,1,2,3:3:0:0:
64,192,25275,1,2,3:3:0:0:
448,192,25425,1,0,3:3:0:0:
192,192,25575,128,0,25875:3:3:0:0:
320,192,25725,1,2,3:3:0:0:
448,192,25725,1,2,3:3:0:0:
320,192,25875,1,2,3:3:0:0:
448,192,25875,1,2,3:3:0:0:
64,192,25875,1,0,3:3:0:0:
192,192,26100,1,0,3:3:0:0:
320,192,26175,1,2,3:3:0:0:
448,192,26175,1,2,3:3:0:0:
64,192,26325,1,0,3:3:0:0:
320,192,26475,1,2,3:3:0:0:
448,192,26475,1,2,3:3:0:0:
192,192,26475,1,0,3:3:0:0:
64,192,26700,1,0,3:3:0:0:
192,192,26925,1,0,3:3:0:0:
320,192,27075,1,2,3:3:0:0:
64,192,27075,1,0,3:3:0:0:
448,192,27075,1,2,3:3:0:0:
192,192,27225,1,0,3:3:0:0:
64,192,27375,1,0,3:3:0:0:
320,192,27525,1,0,3:3:0:0:
448,192,27675,1,0,3:3:0:0:
192,192,27675,1,2,3:3:0:0:
64,192,27675,1,2,3:3:0:0:
320,192,27825,1,0,3:3:0:0:
64,192,27975,128,8,28275:2:2:0:0:
448,192,28275,1,8,2:2:0:0:
64,192,28350,1,8,2:2:0:0:
192,192,28350,1,8,2:2:0:0:
448,192,28425,1,8,2:2:0:0:
320,192,28425,1,8,2:2:0:0:
64,192,28500,1,8,2:2:0:0:
320,192,28575,1,8,2:2:0:0:
448,192,28575,1,8,2:2:0:0:
64,192,28650,1,8,2:2:0:0:
192,192,28650,1,8,2:2:0:0:
448,192,28725,1,8,2:2:0:0:
64,192,28800,1,8,2:2:0:0:
192,192,28800,1,8,2:2:0:0:
448,192,28875,1,8,2:2:0:0:
320,192,28875,1,8,2:2:0:0:
64,192,28950,1,8,2:2:0:0:
320,192,29025,1,8,2:2:0:0:
448,192,29025,1,8,2:2:0:0:
64,192,29100,1,8,2:2:0:0:
192,192,29100,1,8,2:2:0:0:
448,192,29175,1,8,2:2:0:0:
64,192,29250,1,8,2:2:0:0:
192,192,29250,1,8,2:2:0:0:
320,192,29325,1,8,2:2:0:0:
448,192,29325,1,8,2:2:0:0:
64,192,29400,1,8,2:2:0:0:
320,192,29475,1,0,0:0:0:0:
448,192,29475,1,0,0:0:0:0:
192,192,29475,1,0,0:0:0:0:
64,192,29550,1,0,3:3:0:0:
192,192,29625,1,0,3:3:0:0:
320,192,29700,1,0,3:3:0:0:
192,192,29775,1,0,0:0:0:0:
64,192,29775,1,0,0:0:0:0:
448,192,29775,1,0,0:0:0:0:
320,192,29850,1,0,3:3:0:0:
192,192,29925,1,0,3:3:0:0:
448,192,30000,1,0,3:3:0:0:
320,192,30075,1,0,0:0:0:0:
192,192,30075,1,0,0:0:0:0:
64,192,30075,1,0,0:0:0:0:
448,192,30150,1,0,3:3:0:0:
320,192,30225,1,0,3:3:0:0:
64,192,30300,1,0,3:3:0:0:
192,192,30375,1,0,0:0:0:0:
320,192,30375,1,0,0:0:0:0:
448,192,30375,1,0,0:0:0:0:
64,192,30450,1,0,3:3:0:0:
320,192,30525,1,0,3:3:0:0:
192,192,30600,1,0,3:3:0:0:
64,192,30675,1,0,0:0:0:0:
320,192,30675,1,0,0:0:0:0:
448,192,30675,1,0,0:0:0:0:
192,192,30750,1,0,3:3:0:0:
320,192,30825,1,0,3:3:0:0:
64,192,30900,1,0,3:3:0:0:
192,192,30975,1,0,0:0:0:0:
320,192,30975,1,0,0:0:0:0:
448,192,30975,1,0,0:0:0:0:
64,192,31050,1,0,3:3:0:0:
192,192,31125,1,0,3:3:0:0:
448,192,31200,1,0,3:3:0:0:
320,192,31275,1,0,0:0:0:0:
192,192,31275,1,0,0:0:0:0:
64,192,31275,1,0,0:0:0:0:
448,192,31350,1,0,3:3:0:0:
192,192,31425,1,0,3:3:0:0:
320,192,31500,1,0,3:3:0:0:
192,192,31575,1,0,0:0:0:0:
64,192,31575,1,0,0:0:0:0:
448,192,31575,1,0,0:0:0:0:
320,192,31650,1,0,3:3:0:0:
448,192,31725,1,0,3:3:0:0:
64,192,31800,1,0,3:3:0:0:
192,192,31875,1,0,0:0:0:0:
320,192,31875,1,0,0:0:0:0:
448,192,31875,1,0,0:0:0:0:
64,192,31950,1,0,3:3:0:0:
192,192,32025,1,0,3:3:0:0:
320,192,32100,1,0,3:3:0:0:
192,192,32175,1,0,0:0:0:0:
64,192,32175,1,0,0:0:0:0:
448,192,32175,1,0,0:0:0:0:
320,192,32250,1,0,3:3:0:0:
192,192,32325,1,0,3:3:0:0:
448,192,32400,1,0,3:3:0:0:
320,192,32475,1,0,0:0:0:0:
192,192,32475,1,0,0:0:0:0:
64,192,32475,1,0,0:0:0:0:
448,192,32550,1,0,3:3:0:0:
320,192,32625,1,0,3:3:0:0:
192,192,32700,1,0,3:3:0:0:
64,192,32775,1,0,0:0:0:0:
320,192,32775,1,0,0:0:0:0:
448,192,32775,1,0,0:0:0:0:
192,192,32850,1,0,3:3:0:0:
64,192,32925,1,0,3:3:0:0:
320,192,33000,1,0,3:3:0:0:
192,192,33075,1,0,0:0:0:0:
64,192,33075,1,0,0:0:0:0:
448,192,33075,1,0,0:0:0:0:
320,192,33150,1,0,3:3:0:0:
448,192,33225,1,0,3:3:0:0:
64,192,33300,1,0,3:3:0:0:
192,192,33375,1,0,0:0:0:0:
320,192,33375,1,0,0:0:0:0:
448,192,33375,1,0,0:0:0:0:
64,192,33450,1,0,3:3:0:0:
192,192,33525,1,0,3:3:0:0:
448,192,33600,1,0,3:3:0:0:
320,192,33675,1,0,0:0:0:0:
192,192,33675,1,0,0:0:0:0:
64,192,33675,1,0,0:0:0:0:
448,192,33750,1,0,3:3:0:0:
320,192,33825,1,0,3:3:0:0:
192,192,33900,1,0,3:3:0:0:
64,192,33975,1,0,0:0:0:0:
320,192,33975,1,0,0:0:0:0:
448,192,33975,1,0,0:0:0:0:
192,192,34050,1,0,3:3:0:0:
448,192,34125,1,0,3:3:0:0:
64,192,34200,1,0,3:3:0:0:
192,192,34275,1,0,0:0:0:0:
320,192,34275,1,0,0:0:0:0:
448,192,34275,1,0,0:0:0:0:
64,192,34350,1,0,3:3:0:0:
320,192,34425,1,0,3:3:0:0:
192,192,34500,1,0,3:3:0:0:
320,192,34575,1,0,0:0:0:0:
448,192,34575,1,0,0:0:0:0:
64,192,34575,1,0,0:0:0:0:
192,192,34650,1,0,3:3:0:0:
320,192,34725,1,0,3:3:0:0:
448,192,34800,1,0,3:3:0:0:
320,192,34875,1,0,0:0:0:0:
192,192,34875,1,0,0:0:0:0:
64,192,34875,1,0,0:0:0:0:
448,192,34950,1,0,3:3:0:0:
320,192,35025,1,0,3:3:0:0:
64,192,35100,1,0,3:3:0:0:
192,192,35175,1,0,0:0:0:0:
320,192,35175,1,0,0:0:0:0:
448,192,35175,1,0,0:0:0:0:
64,192,35250,1,0,3:3:0:0:
320,192,35325,1,0,3:3:0:0:
192,192,35400,1,0,3:3:0:0:
64,192,35475,1,0,0:0:0:0:
320,192,35475,1,0,0:0:0:0:
448,192,35475,1,0,0:0:0:0:
192,192,35550,1,0,3:3:0:0:
64,192,35625,1,0,3:3:0:0:
320,192,35700,1,0,3:3:0:0:
192,192,35775,1,0,0:0:0:0:
64,192,35775,1,0,0:0:0:0:
448,192,35775,1,0,0:0:0:0:
320,192,35850,1,0,3:3:0:0:
448,192,35925,1,0,3:3:0:0:
64,192,36000,1,0,3:3:0:0:
192,192,36075,1,0,0:0:0:0:
320,192,36075,1,0,0:0:0:0:
448,192,36075,1,0,0:0:0:0:
64,192,36150,1,0,3:3:0:0:
192,192,36225,1,0,3:3:0:0:
320,192,36300,1,0,3:3:0:0:
192,192,36375,1,0,0:0:0:0:
64,192,36375,1,0,0:0:0:0:
448,192,36375,1,0,0:0:0:0:
320,192,36450,1,0,3:3:0:0:
192,192,36525,1,0,3:3:0:0:
448,192,36600,1,0,3:3:0:0:
320,192,36675,1,0,0:0:0:0:
192,192,36675,1,0,0:0:0:0:
64,192,36675,1,0,0:0:0:0:
448,192,36750,1,0,3:3:0:0:
192,192,36825,1,0,3:3:0:0:
64,192,36900,1,0,3:3:0:0:
192,192,36975,1,0,0:0:0:0:
320,192,36975,1,0,0:0:0:0:
448,192,36975,1,0,0:0:0:0:
64,192,37050,1,0,3:3:0:0:
320,192,37125,1,0,3:3:0:0:
192,192,37200,1,0,3:3:0:0:
320,192,37275,1,0,0:0:0:0:
448,192,37275,1,0,0:0:0:0:
64,192,37275,1,0,0:0:0:0:
192,192,37350,1,0,3:3:0:0:
320,192,37425,1,0,3:3:0:0:
64,192,37500,1,0,3:3:0:0:
192,192,37575,1,0,0:0:0:0:
320,192,37575,1,0,0:0:0:0:
448,192,37575,1,0,0:0:0:0:
64,192,37650,1,0,3:3:0:0:
192,192,37725,1,0,3:3:0:0:
448,192,37800,1,0,3:3:0:0:
320,192,37875,1,0,0:0:0:0:
192,192,37875,1,0,0:0:0:0:
64,192,37875,1,0,0:0:0:0:
448,192,37950,1,0,3:3:0:0:
320,192,38025,1,0,3:3:0:0:
192,192,38100,1,0,3:3:0:0:
64,192,38175,1,0,0:0:0:0:
320,192,38175,1,0,0:0:0:0:
448,192,38175,1,0,0:0:0:0:
192,192,38250,1,0,3:3:0:0:
64,192,38325,1,0,3:3:0:0:
320,192,38400,1,0,3:3:0:0:
192,192,38475,1,0,0:0:0:0:
64,192,38475,1,0,0:0:0:0:
448,192,38475,1,0,0:0:0:0:
320,192,38550,1,0,3:3:0:0:
192,192,38625,1,0,3:3:0:0:
320,192,38700,1,0,3:3:0:0:
192,192,38775,1,0,0:0:0:0:
64,192,38775,1,0,0:0:0:0:
448,192,38775,1,0,0:0:0:0:
320,192,38850,1,0,3:3:0:0:
192,192,38925,1,0,3:3:0:0:
64,192,39000,1,0,3:3:0:0:
192,192,39075,1,2,2:2:0:0:
320,192,39075,1,2,2:2:0:0:
448,192,39075,1,2,2:2:0:0:
64,192,39150,1,2,2:2:0:0:
192,192,39225,1,2,2:2:0:0:
448,192,39300,1,2,2:2:0:0:
192,192,39375,1,2,2:2:0:0:
64,192,39375,1,2,2:2:0:0:
320,192,39450,1,2,2:2:0:0:
192,192,39525,1,2,2:2:0:0:
448,192,39525,1,2,2:2:0:0:
64,192,39600,1,2,2:2:0:0:
192,192,39675,1,2,2:2:0:0:
320,192,39675,1,2,2:2:0:0:
448,192,39750,1,2,2:2:0:0:
64,192,39825,1,2,2:2:0:0:
320,192,39825,1,2,2:2:0:0:
192,192,39900,1,2,2:2:0:0:
320,192,39975,1,2,2:2:0:0:
448,192,39975,1,2,2:2:0:0:
192,192,40050,1,2,2:2:0:0:
64,192,40125,1,2,2:2:0:0:
192,192,40200,1,2,2:2:0:0:
64,192,40275,1,2,2:2:0:0:
320,192,40275,1,2,2:2:0:0:
192,192,40350,1,2,2:2:0:0:
320,192,40425,1,2,2:2:0:0:
448,192,40500,1,2,2:2:0:0:
192,192,40500,1,2,2:2:0:0:
64,192,40575,1,2,2:2:0:0:
192,192,40650,1,2,2:2:0:0:
320,192,40725,1,2,2:2:0:0:
64,192,40725,1,2,2:2:0:0:
192,192,40800,1,2,2:2:0:0:
320,192,40875,1,2,2:2:0:0:
448,192,40875,1,2,2:2:0:0:
192,192,40950,1,2,2:2:0:0:
64,192,41025,1,2,2:2:0:0:
192,192,41100,1,2,2:2:0:0:
448,192,41100,1,2,2:2:0:0:
320,192,41175,1,2,2:2:0:0:
192,192,41250,1,2,2:2:0:0:
448,192,41325,1,2,2:2:0:0:
320,192,41325,1,2,2:2:0:0:
64,192,41400,1,2,2:2:0:0:
192,192,41475,1,2,2:2:0:0:
320,192,41475,1,2,2:2:0:0:
448,192,41550,1,2,2:2:0:0:
320,192,41625,1,2,2:2:0:0:
64,192,41625,1,2,2:2:0:0:
192,192,41700,1,2,2:2:0:0:
320,192,41775,1,2,2:2:0:0:
448,192,41775,1,2,2:2:0:0:
64,192,41850,1,2,2:2:0:0:
192,192,41925,1,2,2:2:0:0:
448,192,41925,1,2,2:2:0:0:
320,192,42000,1,2,2:2:0:0:
192,192,42075,1,2,2:2:0:0:
64,192,42075,1,2,2:2:0:0:
320,192,42150,1,2,2:2:0:0:
192,192,42225,1,2,2:2:0:0:
448,192,42225,1,2,2:2:0:0:
64,192,42300,1,2,2:2:0:0:
192,192,42375,1,2,2:2:0:0:
320,192,42375,1,2,2:2:0:0:
448,192,42450,1,2,2:2:0:0:
320,192,42525,1,2,2:2:0:0:
192,192,42600,1,2,2:2:0:0:
64,192,42675,1,2,2:2:0:0:
320,192,42675,1,2,2:2:0:0:
448,192,42750,1,2,2:2:0:0:
320,192,42825,1,2,2:2:0:0:
192,192,42900,1,2,2:2:0:0:
448,192,42900,1,2,2:2:0:0:
320,192,42975,1,2,2:2:0:0:
192,192,43050,1,2,2:2:0:0:
64,192,43125,1,2,2:2:0:0:
320,192,43125,1,2,2:2:0:0:
448,192,43200,1,2,2:2:0:0:
192,192,43275,1,2,2:2:0:0:
64,192,43275,1,2,2:2:0:0:
320,192,43350,1,2,2:2:0:0:
192,192,43425,1,2,2:2:0:0:
64,192,43500,1,2,2:2:0:0:
448,192,43575,1,2,2:2:0:0:
320,192,43650,1,2,2:2:0:0:
192,192,43725,1,2,2:2:0:0:
320,192,43800,1,2,2:2:0:0:
192,192,43875,1,2,2:2:0:0:
64,192,43875,1,2,2:2:0:0:
448,192,43950,1,2,2:2:0:0:
320,192,44025,1,2,2:2:0:0:
64,192,44025,1,2,2:2:0:0:
192,192,44100,1,2,2:2:0:0:
320,192,44175,1,2,2:2:0:0:
448,192,44175,1,2,2:2:0:0:
64,192,44250,1,2,2:2:0:0:
192,192,44325,1,2,2:2:0:0:
448,192,44325,1,2,2:2:0:0:
320,192,44400,1,2,2:2:0:0:
192,192,44475,1,2,2:2:0:0:
64,192,44475,1,2,2:2:0:0:
320,192,44550,1,2,2:2:0:0:
448,192,44625,1,2,2:2:0:0:
192,192,44625,1,2,2:2:0:0:
320,192,44700,1,2,2:2:0:0:
192,192,44775,1,2,0:0:0:0:
64,192,44775,1,2,0:0:0:0:
448,192,44850,1,2,2:2:0:0:
320,192,44925,1,2,2:2:0:0:
192,192,45000,1,2,2:2:0:0:
64,192,45075,1,2,2:2:0:0:
320,192,45075,1,2,2:2:0:0:
448,192,45150,1,2,2:2:0:0:
320,192,45225,1,2,2:2:0:0:
192,192,45300,1,2,2:2:0:0:
448,192,45300,1,2,2:2:0:0:
320,192,45375,1,2,2:2:0:0:
192,192,45450,1,2,2:2:0:0:
320,192,45525,1,2,2:2:0:0:
448,192,45525,1,2,2:2:0:0:
192,192,45600,1,2,2:2:0:0:
64,192,45675,1,2,2:2:0:0:
320,192,45675,1,2,2:2:0:0:
192,192,45750,1,2,2:2:0:0:
64,192,45825,1,2,2:2:0:0:
192,192,45900,1,2,2:2:0:0:
448,192,45900,1,2,2:2:0:0:
320,192,45975,1,2,2:2:0:0:
192,192,46050,1,2,2:2:0:0:
448,192,46125,1,2,2:2:0:0:
64,192,46125,1,2,2:2:0:0:
320,192,46200,1,2,2:2:0:0:
192,192,46275,1,2,2:2:0:0:
64,192,46275,1,2,2:2:0:0:
320,192,46350,1,2,2:2:0:0:
192,192,46425,1,2,2:2:0:0:
448,192,46425,1,2,2:2:0:0:
64,192,46500,1,2,2:2:0:0:
192,192,46575,1,2,2:2:0:0:
320,192,46575,1,2,2:2:0:0:
448,192,46650,1,2,2:2:0:0:
320,192,46725,1,2,2:2:0:0:
64,192,46725,1,2,2:2:0:0:
192,192,46800,1,2,2:2:0:0:
320,192,46875,1,2,2:2:0:0:
448,192,46875,1,2,2:2:0:0:
192,192,46950,1,2,2:2:0:0:
448,192,47025,1,2,2:2:0:0:
64,192,47025,1,2,2:2:0:0:
320,192,47100,1,2,2:2:0:0:
192,192,47175,1,2,2:2:0:0:
64,192,47175,1,2,2:2:0:0:
448,192,47250,1,2,2:2:0:0:
320,192,47325,1,2,2:2:0:0:
192,192,47400,1,2,2:2:0:0:
64,192,47475,1,2,2:2:0:0:
320,192,47475,1,2,2:2:0:0:
448,192,47550,1,2,2:2:0:0:
320,192,47625,1,2,2:2:0:0:
192,192,47700,1,2,2:2:0:0:
64,192,47775,1,2,2:2:0:0:
320,192,47775,1,2,2:2:0:0:
192,192,47850,1,2,2:2:0:0:
320,192,47925,1,2,2:2:0:0:
448,192,47925,1,2,2:2:0:0:
192,192,48000,1,2,2:2:0:0:
64,192,48075,1,2,2:2:0:0:
320,192,48075,1,2,2:2:0:0:
192,192,48150,1,2,2:2:0:0:
320,192,48225,1,2,2:2:0:0:
448,192,48300,1,2,2:2:0:0:
192,192,48375,1,2,2:2:0:0:
320,192,48450,1,2,2:2:0:0:
448,192,48525,1,2,2:2:0:0:
320,192,48600,1,2,2:2:0:0:
192,192,48675,1,0,3:3:0:0:
64,192,48675,1,2,2:2:0:0:
320,192,48750,1,0,3:3:0:0:
448,192,48750,1,2,2:2:0:0:
192,192,48825,1,0,3:3:0:0:
64,192,48825,1,2,2:2:0:0:
320,192,48900,1,0,3:3:0:0:
448,192,48900,1,2,2:2:0:0:
64,192,48975,1,2,2:2:0:0:
192,192,48975,128,0,49275:3:3:0:0:
448,192,49050,1,2,2:2:0:0:
320,192,49125,128,0,49275:3:3:0:0:
64,192,49275,1,0,3:3:0:0:
448,192,49275,1,2,2:2:0:0:
192,192,49350,1,0,3:3:0:0:
320,192,49350,1,2,2:2:0:0:
64,192,49425,1,0,3:3:0:0:
448,192,49425,1,2,2:2:0:0:
320,192,49500,1,0,3:3:0:0:
192,192,49575,1,0,3:3:0:0:
64,192,49575,128,2,49875:2:2:0:0:
320,192,49650,1,2,2:2:0:0:
448,192,49725,128,0,49875:3:3:0:0:
320,192,49875,1,0,0:0:0:0:
192,192,49875,128,0,50025:0:0:0:0:
320,192,50175,128,0,50325:0:0:0:0:
448,192,50175,1,0,0:0:0:0:
192,192,50475,1,0,0:0:0:0:
64,192,50475,128,0,50625:0:0:0:0:
448,192,50475,1,0,0:0:0:0:
448,192,50775,128,0,51375:0:0:0:0:
192,192,50925,1,0,0:0:0:0:
64,192,51075,1,0,0:0:0:0:
192,192,51075,1,0,0:0:0:0:
192,192,51375,1,0,0:0:0:0:
64,192,51375,1,0,0:0:0:0:
320,192,51525,1,0,0:0:0:0:
192,192,51675,1,0,0:0:0:0:
64,192,51675,1,0,0:0:0:0:
448,192,51675,1,0,0:0:0:0:
320,192,51825,1,0,0:0:0:0:
64,192,51975,128,0,52275:0:0:0:0:
192,192,52275,1,0,0:0:0:0:
320,192,52275,128,0,52425:0:0:0:0:
448,192,52575,128,0,52725:0:0:0:0:
320,192,52575,1,0,0:0:0:0:
64,192,52875,1,0,0:0:0:0:
192,192,52875,128,0,53025:0:0:0:0:
320,192,52875,1,0,0:0:0:0:
64,192,53175,128,0,53775:0:0:0:0:
448,192,53175,128,0,53775:0:0:0:0:
192,192,53325,1,0,0:0:0:0:
320,192,53325,1,0,0:0:0:0:
192,192,53475,1,0,0:0:0:0:
320,192,53475,1,0,0:0:0:0:
192,192,53775,1,0,0:0:0:0:
320,192,53775,1,0,0:0:0:0:
448,192,53925,1,0,0:0:0:0:
64,192,54075,1,0,0:0:0:0:
192,192,54075,1,0,0:0:0:0:
320,192,54075,1,0,0:0:0:0:
448,192,54225,1,0,0:0:0:0:
192,192,54375,128,0,54675:0:0:0:0:
320,192,54675,1,0,0:0:0:0:
448,192,54675,1,0,0:0:0:0:
64,192,54675,128,0,54825:0:0:0:0:
320,192,54975,128,0,55125:0:0:0:0:
192,192,54975,1,0,0:0:0:0:
64,192,55275,1,0,0:0:0:0:
192,192,55275,128,0,55425:0:0:0:0:
448,192,55275,1,0,0:0:0:0:
448,192,55575,128,0,56175:0:0:0:0:
320,192,55725,1,0,0:0:0:0:
64,192,55875,1,0,0:0:0:0:
192,192,55875,1,0,0:0:0:0:
192,192,56175,1,0,0:0:0:0:
64,192,56175,1,0,0:0:0:0:
320,192,56325,1,0,0:0:0:0:
64,192,56475,1,0,0:0:0:0:
192,192,56475,1,0,0:0:0:0:
448,192,56475,1,0,0:0:0:0:
320,192,56625,1,0,0:0:0:0:
64,192,56775,128,0,57075:0:0:0:0:
448,192,57075,1,0,0:0:0:0:
320,192,57075,128,0,57225:0:0:0:0:
192,192,57075,1,0,0:0:0:0:
320,192,57375,128,0,57525:0:0:0:0:
448,192,57375,1,0,0:0:0:0:
64,192,57675,1,0,0:0:0:0:
448,192,57675,1,0,0:0:0:0:
320,192,57675,128,0,57825:0:0:0:0:
64,192,57975,1,0,0:0:0:0:
320,192,58125,128,0,58425:0:0:0:0:
192,192,58275,1,0,0:0:0:0:
448,192,58275,1,0,0:0:0:0:
64,192,58425,1,0,0:0:0:0:
192,192,58575,128,0,58875:0:0:0:0:
448,192,58575,1,0,0:0:0:0:
320,192,58875,128,0,59175:0:0:0:0:
448,192,58875,1,0,0:0:0:0:
64,192,58875,1,0,0:0:0:0:
192,192,59175,128,0,59475:0:0:0:0:
320,192,59475,1,0,0:0:0:0:
448,192,59475,1,0,0:0:0:0:
64,192,59475,128,0,59625:0:0:0:0:
192,192,59775,128,0,59925:0:0:0:0:
320,192,59775,1,0,0:0:0:0:
320,192,60075,128,0,60225:0:0:0:0:
448,192,60075,1,0,0:0:0:0:
64,192,60075,1,0,0:0:0:0:
448,192,60375,128,0,60975:0:0:0:0:
64,192,60525,1,0,0:0:0:0:
192,192,60525,1,0,0:0:0:0:
64,192,60675,1,0,0:0:0:0:
192,192,60675,1,0,0:0:0:0:
192,192,60975,1,0,0:0:0:0:
64,192,60975,1,0,0:0:0:0:
320,192,61125,1,0,0:0:0:0:
192,192,61275,1,0,0:0:0:0:
64,192,61275,1,0,0:0:0:0:
448,192,61275,1,0,0:0:0:0:
320,192,61425,1,0,0:0:0:0:
64,192,61575,128,0,61875:0:0:0:0:
448,192,61575,1,0,0:0:0:0:
320,192,61875,128,0,62025:0:0:0:0:
448,192,61875,1,0,0:0:0:0:
192,192,62175,128,0,62325:0:0:0:0:
64,192,62175,1,0,0:0:0:0:
320,192,62475,128,0,62625:0:0:0:0:
448,192,62475,1,0,0:0:0:0:
64,192,62475,1,0,0:0:0:0:
64,192,62775,128,0,63375:0:0:0:0:
448,192,62775,128,0,63375:0:0:0:0:
192,192,62925,1,0,0:0:0:0:
320,192,62925,1,0,0:0:0:0:
192,192,63075,1,0,0:0:0:0:
320,192,63075,1,0,0:0:0:0:
192,192,63375,1,0,0:0:0:0:
320,192,63375,1,0,0:0:0:0:
448,192,63525,1,0,0:0:0:0:
192,192,63675,1,0,0:0:0:0:
320,192,63675,1,0,0:0:0:0:
64,192,63675,1,0,0:0:0:0:
448,192,63825,1,0,0:0:0:0:
320,192,63975,128,0,64275:0:0:0:0:
64,192,64275,128,0,64425:0:0:0:0:
192,192,64275,1,0,0:0:0:0:
192,192,64575,128,0,64725:0:0:0:0:
320,192,64575,1,0,0:0:0:0:
448,192,64875,128,0,65025:0:0:0:0:
320,192,64875,1,0,0:0:0:0:
64,192,64875,1,0,0:0:0:0:
320,192,65175,128,0,65775:0:0:0:0:
64,192,65325,1,0,0:0:0:0:
192,192,65325,1,0,0:0:0:0:
192,192,65475,1,0,0:0:0:0:
64,192,65475,1,0,0:0:0:0:
64,192,65775,1,0,0:0:0:0:
192,192,65775,1,0,0:0:0:0:
448,192,65925,1,0,0:0:0:0:
64,192,66075,1,0,0:0:0:0:
320,192,66075,1,0,0:0:0:0:
192,192,66075,1,0,0:0:0:0:
448,192,66225,1,0,0:0:0:0:
64,192,66375,128,0,66675:0:0:0:0:
192,192,66675,128,0,66825:0:0:0:0:
320,192,66675,1,0,0:0:0:0:
320,192,66975,128,0,67125:0:0:0:0:
192,192,66975,1,0,0:0:0:0:
192,192,67275,128,0,67425:0:0:0:0:
320,192,67275,1,0,0:0:0:0:
448,192,67275,1,0,0:0:0:0:
64,192,67575,1,0,0:0:0:0:
320,192,67725,128,0,67875:0:0:0:0:
192,192,67725,1,0,0:0:0:0:
448,192,67875,1,0,0:0:0:0:
64,192,67875,1,0,0:0:0:0:
192,192,68025,1,0,0:0:0:0:
320,192,68175,128,0,68325:0:0:0:0:
448,192,68175,1,0,0:0:0:0:
448,192,68475,128,0,68775:0:0:0:0:
192,192,68475,1,0,0:0:0:0:
64,192,68475,1,0,0:0:0:0:
320,192,68775,128,0,69075:0:0:0:0:
192,192,69075,1,0,0:0:0:0:
64,192,69075,128,0,69375:0:0:0:0:
448,192,69075,128,0,69375:0:0:0:0:
192,192,69675,1,0,0:0:0:0:
448,192,69675,1,0,0:0:0:0:
320,192,69675,1,0,0:0:0:0:
64,192,69825,1,0,0:0:0:0:
192,192,69825,1,0,0:0:0:0:
192,192,69975,1,0,0:0:0:0:
320,192,69975,1,0,0:0:0:0:
448,192,70125,1,0,0:0:0:0:
192,192,70125,128,0,70575:0:0:0:0:
320,192,70425,1,0,0:0:0:0:
448,192,70575,128,0,70875:0:0:0:0:
64,192,70575,1,0,0:0:0:0:
64,192,70875,128,0,71175:0:0:0:0:
192,192,70875,1,0,0:0:0:0:
320,192,70875,1,0,0:0:0:0:
192,192,71175,128,0,71475:0:0:0:0:
448,192,71175,1,0,0:0:0:0:
64,192,71475,1,0,0:0:0:0:
320,192,71475,1,0,0:0:0:0:
448,192,71475,128,0,71775:0:0:0:0:
64,192,72075,1,0,0:0:0:0:
192,192,72075,1,0,0:0:0:0:
448,192,72075,128,0,72525:0:0:0:0:
320,192,72075,1,0,0:0:0:0:
192,192,72375,1,0,0:0:0:0:
64,192,72375,1,0,0:0:0:0:
320,192,72525,128,0,72825:0:0:0:0:
192,192,72525,1,0,0:0:0:0:
64,192,72825,1,0,0:0:0:0:
448,192,72825,1,0,0:0:0:0:
64,192,72975,1,0,0:0:0:0:
320,192,72975,1,0,0:0:0:0:
192,192,72975,1,0,0:0:0:0:
192,192,73275,1,0,0:0:0:0:
320,192,73275,1,0,0:0:0:0:
448,192,73275,1,0,0:0:0:0:
64,192,73575,1,0,0:0:0:0:
192,192,73575,1,0,0:0:0:0:
448,192,73575,1,0,0:0:0:0:
320,192,73875,1,0,0:0:0:0:
448,192,73875,1,0,0:0:0:0:
64,192,73875,128,0,74175:0:0:0:0:
64,192,74475,1,0,0:0:0:0:
320,192,74475,1,0,0:0:0:0:
448,192,74475,1,0,0:0:0:0:
192,192,74625,1,0,0:0:0:0:
320,192,74625,1,0,0:0:0:0:
192,192,74775,1,0,0:0:0:0:
448,192,74775,1,0,0:0:0:0:
320,192,74925,1,0,0:0:0:0:
448,192,74925,128,0,75375:0:0:0:0:
64,192,75225,1,0,0:0:0:0:
192,192,75225,1,0,0:0:0:0:
192,192,75375,128,0,75675:0:0:0:0:
320,192,75375,1,0,0:0:0:0:
64,192,75675,128,0,75975:0:0:0:0:
448,192,75675,1,0,0:0:0:0:
320,192,75675,1,0,0:0:0:0:
448,192,76125,128,0,76575:0:0:0:0:
192,192,76125,1,0,0:0:0:0:
192,192,76425,1,0,0:0:0:0:
64,192,76425,1,0,0:0:0:0:
192,192,76575,128,0,76875:0:0:0:0:
320,192,76575,1,0,0:0:0:0:
64,192,76875,128,0,77175:0:0:0:0:
320,192,76875,1,0,0:0:0:0:
448,192,76875,1,0,0:0:0:0:
448,192,77325,128,0,77775:0:0:0:0:
192,192,77325,1,0,0:0:0:0:
64,192,77325,1,0,0:0:0:0:
192,192,77475,1,0,0:0:0:0:
320,192,77475,1,0,0:0:0:0:
64,192,77625,1,0,0:0:0:0:
192,192,77775,128,0,78075:0:0:0:0:
320,192,77775,1,0,0:0:0:0:
64,192,78075,128,0,78375:0:0:0:0:
320,192,78075,1,0,0:0:0:0:
448,192,78075,1,0,0:0:0:0:
320,192,78375,128,0,78675:0:0:0:0:
192,192,78375,1,0,0:0:0:0:
192,192,78675,1,0,0:0:0:0:
64,192,78675,128,0,78975:0:0:0:0:
448,192,78675,128,0,78975:0:0:0:0:
64,192,79275,1,0,0:0:0:0:
320,192,79275,1,0,0:0:0:0:
192,192,79275,1,0,0:0:0:0:
320,192,79425,1,0,0:0:0:0:
448,192,79425,1,0,0:0:0:0:
192,192,79575,1,0,0:0:0:0:
320,192,79575,1,0,0:0:0:0:
320,192,79725,1,0,0:0:0:0:
64,192,79725,128,0,80175:0:0:0:0:
320,192,80025,1,0,0:0:0:0:
448,192,80025,1,0,0:0:0:0:
320,192,80175,128,0,80475:0:0:0:0:
192,192,80175,1,0,0:0:0:0:
192,192,80475,128,0,80775:0:0:0:0:
64,192,80475,1,0,0:0:0:0:
448,192,80475,1,0,0:0:0:0:
448,192,80775,128,0,81075:0:0:0:0:
64,192,80775,1,0,0:0:0:0:
192,192,81075,1,0,0:0:0:0:
64,192,81075,128,0,81375:0:0:0:0:
320,192,81075,128,0,81375:0:0:0:0:
192,192,81675,1,0,0:0:0:0:
64,192,81675,1,0,0:0:0:0:
448,192,81675,1,0,0:0:0:0:
64,192,81975,1,0,0:0:0:0:
320,192,81975,1,0,0:0:0:0:
192,192,82125,1,0,0:0:0:0:
320,192,82125,1,0,0:0:0:0:
64,192,82425,1,0,0:0:0:0:
320,192,82425,1,0,0:0:0:0:
320,192,82575,1,0,0:0:0:0:
448,192,82575,128,0,82875:0:0:0:0:
192,192,82875,128,0,83175:0:0:0:0:
64,192,82875,1,0,0:0:0:0:
320,192,82875,1,0,0:0:0:0:
320,192,83175,1,0,0:0:0:0:
448,192,83175,128,0,83475:0:0:0:0:
64,192,83475,128,0,83775:0:0:0:0:
192,192,83475,1,0,0:0:0:0:
320,192,83475,128,0,83775:0:0:0:0:
192,192,84075,1,0,0:0:0:0:
320,192,84075,1,0,0:0:0:0:
448,192,84075,1,0,0:0:0:0:
64,192,84225,1,0,0:0:0:0:
320,192,84225,1,0,0:0:0:0:
448,192,84375,1,0,0:0:0:0:
192,192,84375,1,0,0:0:0:0:
64,192,84525,1,0,0:0:0:0:
320,192,84525,1,0,0:0:0:0:
448,192,84525,128,0,84975:0:0:0:0:
192,192,84825,1,0,0:0:0:0:
320,192,84825,1,0,0:0:0:0:
320,192,84975,128,0,85275:0:0:0:0:
64,192,84975,1,0,0:0:0:0:
192,192,85275,128,0,85575:0:0:0:0:
64,192,85275,1,0,0:0:0:0:
448,192,85275,1,0,0:0:0:0:
448,192,85725,128,0,86175:0:0:0:0:
192,192,86025,1,0,0:0:0:0:
320,192,86175,128,0,86475:0:0:0:0:
64,192,86475,128,0,86775:0:0:0:0:
192,192,86475,1,0,0:0:0:0:
448,192,86475,1,0,0:0:0:0:
320,192,86925,1,0,0:0:0:0:
64,192,86925,1,0,0:0:0:0:
320,192,87075,1,8,2:2:0:0:
448,192,87075,1,4,3:3:0:0:
192,192,87150,1,8,2:2:0:0:
64,192,87150,1,4,3:3:0:0:
320,192,87225,1,8,2:2:0:0:
448,192,87225,1,4,3:3:0:0:
192,192,87300,1,8,2:2:0:0:
64,192,87300,1,4,3:3:0:0:
320,192,87375,1,8,2:2:0:0:
448,192,87375,1,4,3:3:0:0:
192,192,87450,1,8,2:2:0:0:
64,192,87450,1,4,3:3:0:0:
320,192,87525,1,8,2:2:0:0:
448,192,87525,1,4,3:3:0:0:
192,192,87600,1,8,2:2:0:0:
64,192,87600,1,4,3:3:0:0:
320,192,87675,1,8,2:2:0:0:
448,192,87675,1,4,3:3:0:0:
192,192,87750,1,8,2:2:0:0:
64,192,87750,1,4,3:3:0:0:
320,192,87825,1,8,2:2:0:0:
448,192,87825,1,4,3:3:0:0:
192,192,87900,1,8,2:2:0:0:
64,192,87900,1,4,3:3:0:0:
320,192,87975,1,8,2:2:0:0:
448,192,87975,1,4,3:3:0:0:
192,192,88050,1,8,2:2:0:0:
64,192,88050,1,4,3:3:0:0:
320,192,88125,1,8,2:2:0:0:
448,192,88125,1,4,3:3:0:0:
192,192,88200,1,8,2:2:0:0:
64,192,88200,1,4,3:3:0:0:
320,192,88275,1,10,2:2:0:0:
448,192,88275,1,6,2:2:0:0:
320,192,88425,1,2,2:2:0:0:
192,192,88575,1,2,2:2:0:0:
320,192,88575,1,2,2:2:0:0:
64,192,88575,1,0,0:0:0:0:
192,192,88725,1,2,2:2:0:0:
192,192,88875,1,2,2:2:0:0:
320,192,88875,1,2,2:2:0:0:
448,192,88875,1,2,2:2:0:0:
320,192,89025,1,2,2:2:0:0:
192,192,89175,1,2,2:2:0:0:
320,192,89175,1,2,2:2:0:0:
64,192,89175,1,0,0:0:0:0:
192,192,89325,1,2,2:2:0:0:
64,192,89475,1,2,2:2:0:0:
192,192,89475,1,2,2:2:0:0:
320,192,89475,1,2,2:2:0:0:
320,192,89625,1,2,2:2:0:0:
320,192,89775,1,2,2:2:0:0:
448,192,89775,1,2,2:2:0:0:
192,192,89775,1,0,0:0:0:0:
448,192,89925,1,2,2:2:0:0:
448,192,90075,1,2,2:2:0:0:
192,192,90075,1,2,2:2:0:0:
64,192,90075,1,2,2:2:0:0:
192,192,90225,1,2,2:2:0:0:
192,192,90375,1,2,2:2:0:0:
320,192,90375,1,2,2:2:0:0:
448,192,90375,1,0,0:0:0:0:
320,192,90525,1,2,2:2:0:0:
64,192,90675,1,2,2:2:0:0:
320,192,90675,1,2,2:2:0:0:
448,192,90675,1,2,2:2:0:0:
64,192,90825,1,2,2:2:0:0:
320,192,90825,1,2,2:2:0:0:
192,192,90975,1,2,2:2:0:0:
320,192,90975,1,2,2:2:0:0:
320,192,91125,1,2,2:2:0:0:
448,192,91125,1,2,2:2:0:0:
192,192,91275,1,2,2:2:0:0:
320,192,91275,1,2,2:2:0:0:
448,192,91275,1,2,2:2:0:0:
192,192,91425,1,2,2:2:0:0:
64,192,91425,1,2,2:2:0:0:
192,192,91575,1,2,2:2:0:0:
192,192,91725,1,2,2:2:0:0:
320,192,91725,1,2,2:2:0:0:
64,192,91875,1,2,2:2:0:0:
192,192,91875,1,2,2:2:0:0:
448,192,91875,1,2,2:2:0:0:
448,192,92025,1,2,2:2:0:0:
320,192,92025,1,2,2:2:0:0:
320,192,92175,1,2,2:2:0:0:
192,192,92175,1,2,2:2:0:0:
192,192,92325,1,2,2:2:0:0:
448,192,92325,1,2,2:2:0:0:
320,192,92475,1,2,2:2:0:0:
448,192,92475,1,2,2:2:0:0:
64,192,92475,1,2,2:2:0:0:
192,192,92625,1,2,2:2:0:0:
64,192,92625,1,2,2:2:0:0:
192,192,92775,1,2,2:2:0:0:
448,192,92775,1,2,2:2:0:0:
64,192,92925,1,2,2:2:0:0:
192,192,92925,1,2,2:2:0:0:
64,192,93075,1,2,2:2:0:0:
320,192,93075,1,2,2:2:0:0:
448,192,93075,1,2,2:2:0:0:
320,192,93225,1,2,2:2:0:0:
64,192,93375,1,2,2:2:0:0:
320,192,93375,1,2,2:2:0:0:
448,192,93375,1,0,0:0:0:0:
64,192,93525,1,2,2:2:0:0:
64,192,93675,1,2,2:2:0:0:
192,192,93675,1,2,2:2:0:0:
448,192,93675,1,2,2:2:0:0:
192,192,93825,1,2,2:2:0:0:
192,192,93975,1,2,2:2:0:0:
320,192,93975,1,2,2:2:0:0:
448,192,93975,1,0,0:0:0:0:
320,192,94125,1,2,2:2:0:0:
192,192,94275,1,2,2:2:0:0:
320,192,94275,1,2,2:2:0:0:
448,192,94275,1,2,2:2:0:0:
192,192,94425,1,2,2:2:0:0:
192,192,94575,1,2,2:2:0:0:
64,192,94575,1,2,2:2:0:0:
320,192,94575,1,0,0:0:0:0:
64,192,94725,1,2,2:2:0:0:
64,192,94875,1,2,2:2:0:0:
192,192,94875,1,2,2:2:0:0:
448,192,94875,1,2,2:2:0:0:
448,192,95025,1,2,2:2:0:0:
192,192,95175,1,2,2:2:0:0:
448,192,95175,1,2,2:2:0:0:
320,192,95175,1,0,0:0:0:0:
192,192,95325,1,2,2:2:0:0:
64,192,95475,1,2,2:2:0:0:
192,192,95475,1,2,2:2:0:0:
320,192,95475,1,2,2:2:0:0:
320,192,95625,1,2,2:2:0:0:
192,192,95625,1,2,2:2:0:0:
320,192,95775,1,2,2:2:0:0:
448,192,95775,1,2,2:2:0:0:
320,192,95925,1,2,2:2:0:0:
64,192,95925,1,2,2:2:0:0:
448,192,96075,1,2,2:2:0:0:
320,192,96075,1,2,2:2:0:0:
64,192,96075,1,2,2:2:0:0:
192,192,96225,1,2,2:2:0:0:
64,192,96225,1,2,2:2:0:0:
192,192,96375,1,2,2:2:0:0:
320,192,96375,1,2,2:2:0:0:
64,192,96525,1,2,2:2:0:0:
448,192,96525,1,0,0:0:0:0:
320,192,96675,1,2,2:2:0:0:
448,192,96675,1,2,2:2:0:0:
192,192,96675,1,2,2:2:0:0:
448,192,96825,1,0,0:0:0:0:
64,192,96825,1,0,0:0:0:0:
64,192,96975,1,2,2:2:0:0:
192,192,96975,1,2,2:2:0:0:
320,192,96975,1,2,2:2:0:0:
192,192,97125,1,0,0:0:0:0:
448,192,97125,1,0,0:0:0:0:
64,192,97275,1,2,2:2:0:0:
320,192,97275,1,2,2:2:0:0:
448,192,97275,1,2,2:2:0:0:
64,192,97425,1,0,0:0:0:0:
448,192,97425,1,0,0:0:0:0:
192,192,97500,1,0,0:0:0:0:
64,192,97575,1,2,2:2:0:0:
320,192,97575,1,2,2:2:0:0:
192,192,97650,1,2,2:2:0:0:
448,192,97650,1,2,2:2:0:0:
320,192,97725,1,2,2:2:0:0:
448,192,97800,1,2,2:2:0:0:
192,192,97875,1,2,2:2:0:0:
320,192,97875,1,2,2:2:0:0:
64,192,97875,1,2,2:2:0:0:
448,192,97950,1,2,2:2:0:0:
320,192,98025,1,2,2:2:0:0:
192,192,98100,1,2,2:2:0:0:
64,192,98175,1,2,2:2:0:0:
320,192,98175,1,2,2:2:0:0:
448,192,98175,1,2,2:2:0:0:
192,192,98250,1,2,2:2:0:0:
320,192,98325,1,2,2:2:0:0:
64,192,98400,1,2,2:2:0:0:
192,192,98475,1,2,2:2:0:0:
320,192,98475,1,2,2:2:0:0:
448,192,98475,1,2,2:2:0:0:
64,192,98550,1,2,2:2:0:0:
192,192,98625,1,2,2:2:0:0:
320,192,98700,1,2,2:2:0:0:
192,192,98775,1,2,2:2:0:0:
64,192,98775,1,2,2:2:0:0:
448,192,98775,1,2,2:2:0:0:
320,192,98850,1,2,2:2:0:0:
64,192,98925,1,2,2:2:0:0:
192,192,99000,1,2,2:2:0:0:
64,192,99075,1,2,2:2:0:0:
320,192,99075,1,2,2:2:0:0:
448,192,99075,1,2,2:2:0:0:
192,192,99150,1,2,2:2:0:0:
64,192,99225,1,2,2:2:0:0:
448,192,99300,1,2,2:2:0:0:
320,192,99375,1,2,2:2:0:0:
192,192,99375,1,2,2:2:0:0:
64,192,99375,1,2,2:2:0:0:
448,192,99450,1,2,2:2:0:0:
320,192,99525,1,2,2:2:0:0:
64,192,99600,1,2,2:2:0:0:
192,192,99675,1,2,2:2:0:0:
448,192,99675,1,2,2:2:0:0:
320,192,99675,1,2,2:2:0:0:
64,192,99750,1,2,2:2:0:0:
192,192,99825,1,2,2:2:0:0:
320,192,99900,1,2,2:2:0:0:
192,192,99975,1,2,2:2:0:0:
64,192,99975,1,2,2:2:0:0:
448,192,99975,1,2,2:2:0:0:
320,192,100050,1,2,2:2:0:0:
448,192,100125,1,2,2:2:0:0:
192,192,100200,1,2,2:2:0:0:
64,192,100275,1,2,2:2:0:0:
320,192,100275,1,2,2:2:0:0:
448,192,100275,1,2,2:2:0:0:
192,192,100350,1,2,2:2:0:0:
64,192,100425,1,2,2:2:0:0:
448,192,100500,1,2,2:2:0:0:
320,192,100575,1,2,2:2:0:0:
192,192,100575,1,2,2:2:0:0:
64,192,100575,1,2,2:2:0:0:
448,192,100650,1,2,2:2:0:0:
320,192,100725,1,2,2:2:0:0:
64,192,100800,1,2,2:2:0:0:
192,192,100875,1,2,2:2:0:0:
320,192,100875,1,2,2:2:0:0:
448,192,100875,1,2,2:2:0:0:
64,192,100950,1,2,2:2:0:0:
192,192,101025,1,2,2:2:0:0:
320,192,101100,1,2,2:2:0:0:
192,192,101175,1,2,2:2:0:0:
64,192,101175,1,2,2:2:0:0:
448,192,101175,1,2,2:2:0:0:
320,192,101250,1,2,2:2:0:0:
192,192,101325,1,2,2:2:0:0:
64,192,101400,1,2,2:2:0:0:
192,192,101475,1,2,2:2:0:0:
320,192,101475,1,2,2:2:0:0:
448,192,101475,1,2,2:2:0:0:
64,192,101550,1,2,2:2:0:0:
192,192,101625,1,2,2:2:0:0:
448,192,101625,1,2,2:2:0:0:
320,192,101700,1,2,2:2:0:0:
192,192,101775,1,2,2:2:0:0:
64,192,101775,1,2,2:2:0:0:
448,192,101775,1,2,2:2:0:0:
320,192,101850,1,2,2:2:0:0:
192,192,101925,1,2,2:2:0:0:
448,192,102000,1,2,2:2:0:0:
320,192,102075,1,2,2:2:0:0:
192,192,102075,1,2,2:2:0:0:
64,192,102075,1,2,2:2:0:0:
448,192,102150,1,2,2:2:0:0:
320,192,102225,1,2,2:2:0:0:
64,192,102225,1,2,2:2:0:0:
192,192,102300,1,2,2:2:0:0:
64,192,102375,1,2,2:2:0:0:
320,192,102375,1,2,2:2:0:0:
448,192,102375,1,2,2:2:0:0:
192,192,102450,1,2,2:2:0:0:
320,192,102525,1,2,2:2:0:0:
64,192,102600,1,2,2:2:0:0:
192,192,102675,1,2,2:2:0:0:
320,192,102675,1,2,2:2:0:0:
448,192,102675,1,2,2:2:0:0:
64,192,102750,1,2,2:2:0:0:
192,192,102825,1,2,2:2:0:0:
448,192,102825,1,2,2:2:0:0:
320,192,102900,1,2,2:2:0:0:
192,192,102975,1,2,2:2:0:0:
64,192,102975,1,2,2:2:0:0:
448,192,102975,1,2,2:2:0:0:
320,192,103050,1,2,2:2:0:0:
448,192,103125,1,2,2:2:0:0:
192,192,103200,1,2,2:2:0:0:
320,192,103275,1,2,2:2:0:0:
448,192,103275,1,2,2:2:0:0:
64,192,103275,1,2,2:2:0:0:
192,192,103350,1,2,2:2:0:0:
320,192,103425,1,2,2:2:0:0:
64,192,103425,1,2,2:2:0:0:
448,192,103500,1,2,2:2:0:0:
320,192,103575,1,2,2:2:0:0:
192,192,103575,1,2,2:2:0:0:
64,192,103575,1,2,2:2:0:0:
448,192,103650,1,2,2:2:0:0:
320,192,103725,1,2,2:2:0:0:
64,192,103800,1,2,2:2:0:0:
192,192,103875,1,2,2:2:0:0:
320,192,103875,1,2,2:2:0:0:
448,192,103875,1,2,2:2:0:0:
64,192,103950,1,2,2:2:0:0:
192,192,104025,1,2,2:2:0:0:
448,192,104025,1,2,2:2:0:0:
320,192,104100,1,2,2:2:0:0:
192,192,104175,1,2,2:2:0:0:
64,192,104175,1,2,2:2:0:0:
448,192,104175,1,2,2:2:0:0:
320,192,104250,1,2,2:2:0:0:
192,192,104325,1,2,2:2:0:0:
448,192,104400,1,2,2:2:0:0:
320,192,104475,1,2,2:2:0:0:
192,192,104475,1,2,2:2:0:0:
64,192,104475,1,2,2:2:0:0:
448,192,104550,1,2,2:2:0:0:
320,192,104625,1,2,2:2:0:0:
64,192,104625,1,2,2:2:0:0:
192,192,104700,1,2,2:2:0:0:
64,192,104775,1,2,2:2:0:0:
320,192,104775,1,2,2:2:0:0:
448,192,104775,1,2,2:2:0:0:
192,192,104850,1,2,2:2:0:0:
64,192,104925,1,2,2:2:0:0:
320,192,105000,1,2,2:2:0:0:
192,192,105075,1,2,2:2:0:0:
64,192,105075,1,2,2:2:0:0:
448,192,105075,1,2,2:2:0:0:
320,192,105150,1,2,2:2:0:0:
192,192,105225,1,2,2:2:0:0:
448,192,105225,1,2,2:2:0:0:
64,192,105300,1,2,2:2:0:0:
192,192,105375,1,2,2:2:0:0:
448,192,105375,1,2,2:2:0:0:
320,192,105375,1,2,2:2:0:0:
64,192,105450,1,2,2:2:0:0:
192,192,105525,1,2,2:2:0:0:
448,192,105525,1,2,2:2:0:0:
320,192,105600,1,2,2:2:0:0:
192,192,105675,1,2,2:2:0:0:
64,192,105675,1,2,2:2:0:0:
448,192,105675,1,2,2:2:0:0:
320,192,105750,1,2,2:2:0:0:
64,192,105825,1,2,2:2:0:0:
448,192,105825,1,2,2:2:0:0:
192,192,105900,1,2,2:2:0:0:
64,192,105975,1,2,2:2:0:0:
320,192,105975,1,2,2:2:0:0:
448,192,105975,1,2,2:2:0:0:
192,192,106050,1,2,2:2:0:0:
64,192,106125,1,2,2:2:0:0:
320,192,106125,1,2,2:2:0:0:
448,192,106200,1,2,2:2:0:0:
64,192,106275,1,2,2:2:0:0:
320,192,106275,1,2,2:2:0:0:
192,192,106275,1,2,2:2:0:0:
448,192,106350,1,2,2:2:0:0:
320,192,106425,1,2,2:2:0:0:
64,192,106425,1,2,2:2:0:0:
192,192,106425,1,2,2:2:0:0:
448,192,106500,1,2,2:2:0:0:
320,192,106575,1,2,2:2:0:0:
64,192,106575,1,2,2:2:0:0:
192,192,106650,1,2,2:2:0:0:
64,192,106725,1,2,2:2:0:0:
320,192,106725,1,2,2:2:0:0:
448,192,106725,1,2,2:2:0:0:
192,192,106800,1,2,2:2:0:0:
64,192,106875,1,2,2:2:0:0:
320,192,106875,1,2,2:2:0:0:
448,192,106875,1,2,2:2:0:0:
192,192,106950,1,2,2:2:0:0:
64,192,107025,1,2,2:2:0:0:
448,192,107025,1,2,2:2:0:0:
320,192,107100,1,2,2:2:0:0:
64,192,107175,1,2,2:2:0:0:
192,192,107175,1,2,2:2:0:0:
448,192,107175,1,2,2:2:0:0:
320,192,107250,1,2,2:2:0:0:
192,192,107325,1,2,2:2:0:0:
64,192,107325,1,2,2:2:0:0:
448,192,107325,1,2,2:2:0:0:
320,192,107400,1,2,2:2:0:0:
192,192,107475,1,2,2:2:0:0:
448,192,107475,1,2,2:2:0:0:
320,192,107550,1,2,2:2:0:0:
64,192,107550,1,2,2:2:0:0:
192,192,107625,1,2,2:2:0:0:
448,192,107625,1,2,2:2:0:0:
320,192,107700,1,2,2:2:0:0:
64,192,107700,1,2,2:2:0:0:
192,192,107775,1,2,2:2:0:0:
448,192,107775,128,2,108075:2:2:0:0:
320,192,107850,1,2,2:2:0:0:
192,192,107925,128,2,108075:2:2:0:0:
64,192,108075,1,2,2:2:0:0:
320,192,108075,1,2,2:2:0:0:
192,192,108150,1,2,2:2:0:0:
448,192,108150,1,2,2:2:0:0:
64,192,108225,1,2,2:2:0:0:
320,192,108225,1,2,2:2:0:0:
192,192,108300,1,2,2:2:0:0:
448,192,108300,1,2,2:2:0:0:
64,192,108375,128,2,108675:2:2:0:0:
320,192,108375,128,2,108525:2:2:0:0:
192,192,108675,1,2,2:2:0:0:
320,192,108675,1,2,2:2:0:0:
448,192,108675,1,2,2:2:0:0:
64,192,108750,1,2,2:2:0:0:
192,192,108825,1,2,2:2:0:0:
320,192,108825,1,2,2:2:0:0:
448,192,108900,1,2,2:2:0:0:
320,192,108975,1,2,2:2:0:0:
192,192,108975,1,2,2:2:0:0:
64,192,108975,1,2,2:2:0:0:
448,192,109050,1,2,2:2:0:0:
192,192,109125,1,2,2:2:0:0:
64,192,109125,1,2,2:2:0:0:
320,192,109200,1,2,2:2:0:0:
192,192,109275,1,2,2:2:0:0:
64,192,109275,1,2,2:2:0:0:
448,192,109275,1,2,2:2:0:0:
320,192,109350,1,2,2:2:0:0:
192,192,109425,1,2,2:2:0:0:
64,192,109425,1,2,2:2:0:0:
448,192,109500,1,2,2:2:0:0:
192,192,109575,1,2,2:2:0:0:
320,192,109575,1,2,2:2:0:0:
64,192,109650,1,2,2:2:0:0:
448,192,109725,1,2,2:2:0:0:
320,192,109800,1,2,2:2:0:0:
192,192,109875,1,2,2:2:0:0:
64,192,109875,1,2,2:2:0:0:
448,192,109875,1,2,2:2:0:0:
320,192,109950,1,2,2:2:0:0:
192,192,110025,1,2,2:2:0:0:
320,192,110100,1,2,2:2:0:0:
448,192,110100,1,2,2:2:0:0:
64,192,110175,1,2,2:2:0:0:
192,192,110250,1,2,2:2:0:0:
64,192,110325,1,2,2:2:0:0:
448,192,110325,1,2,2:2:0:0:
320,192,110400,1,2,2:2:0:0:
192,192,110475,1,2,2:2:0:0:
64,192,110475,1,2,2:2:0:0:
448,192,110475,1,2,2:2:0:0:
320,192,110550,1,2,2:2:0:0:
192,192,110625,1,2,2:2:0:0:
320,192,110700,1,2,2:2:0:0:
448,192,110700,1,2,2:2:0:0:
64,192,110775,1,2,2:2:0:0:
192,192,110850,1,2,2:2:0:0:
320,192,110925,1,2,2:2:0:0:
64,192,110925,1,2,2:2:0:0:
192,192,111000,1,2,2:2:0:0:
64,192,111075,1,2,2:2:0:0:
320,192,111075,1,2,2:2:0:0:
448,192,111075,1,2,2:2:0:0:
192,192,111150,1,2,2:2:0:0:
320,192,111225,1,2,2:2:0:0:
448,192,111225,1,2,2:2:0:0:
64,192,111300,1,2,2:2:0:0:
192,192,111375,1,2,2:2:0:0:
320,192,111375,1,2,2:2:0:0:
448,192,111375,1,2,2:2:0:0:
64,192,111450,1,2,2:2:0:0:
192,192,111525,1,2,2:2:0:0:
320,192,111525,1,2,2:2:0:0:
448,192,111600,1,2,2:2:0:0:
64,192,111675,1,2,2:2:0:0:
192,192,111675,1,2,2:2:0:0:
320,192,111675,1,2,2:2:0:0:
448,192,111750,1,2,2:2:0:0:
192,192,111825,1,2,2:2:0:0:
64,192,111825,1,2,2:2:0:0:
320,192,111900,1,2,2:2:0:0:
64,192,111975,1,2,2:2:0:0:
192,192,111975,1,2,2:2:0:0:
448,192,111975,1,2,2:2:0:0:
320,192,112050,1,2,2:2:0:0:
64,192,112125,1,2,2:2:0:0:
192,192,112200,1,2,2:2:0:0:
320,192,112275,1,2,2:2:0:0:
448,192,112275,1,2,2:2:0:0:
64,192,112275,1,2,2:2:0:0:
192,192,112350,1,2,2:2:0:0:
64,192,112425,1,2,2:2:0:0:
192,192,112500,1,2,2:2:0:0:
320,192,112500,1,2,2:2:0:0:
448,192,112575,1,2,2:2:0:0:
64,192,112650,1,2,2:2:0:0:
192,192,112725,1,2,2:2:0:0:
448,192,112725,1,2,2:2:0:0:
320,192,112800,1,2,2:2:0:0:
192,192,112875,1,2,2:2:0:0:
64,192,112875,1,2,2:2:0:0:
448,192,112875,1,2,2:2:0:0:
320,192,112950,1,2,2:2:0:0:
192,192,113025,1,2,2:2:0:0:
64,192,113100,1,2,2:2:0:0:
320,192,113175,1,2,2:2:0:0:
192,192,113250,1,2,2:2:0:0:
64,192,113325,1,2,2:2:0:0:
192,192,113400,1,2,2:2:0:0:
64,192,113475,1,2,2:2:0:0:
320,192,113475,1,2,2:2:0:0:
448,192,113475,1,2,2:2:0:0:
192,192,113550,1,2,2:2:0:0:
320,192,113625,1,2,2:2:0:0:
448,192,113625,1,2,2:2:0:0:
64,192,113700,1,2,2:2:0:0:
192,192,113775,1,2,2:2:0:0:
320,192,113775,1,2,2:2:0:0:
448,192,113775,1,2,2:2:0:0:
64,192,113850,1,2,2:2:0:0:
192,192,113925,1,2,2:2:0:0:
320,192,113925,1,2,2:2:0:0:
448,192,114000,1,2,2:2:0:0:
320,192,114075,1,2,2:2:0:0:
192,192,114075,1,2,2:2:0:0:
64,192,114075,1,2,2:2:0:0:
448,192,114150,1,2,2:2:0:0:
64,192,114225,1,2,2:2:0:0:
192,192,114225,1,2,2:2:0:0:
320,192,114300,1,2,2:2:0:0:
192,192,114375,1,2,2:2:0:0:
64,192,114375,1,2,2:2:0:0:
448,192,114375,1,2,2:2:0:0:
320,192,114450,1,2,2:2:0:0:
448,192,114525,1,2,2:2:0:0:
64,192,114600,1,2,2:2:0:0:
192,192,114675,1,2,2:2:0:0:
320,192,114675,1,2,2:2:0:0:
448,192,114675,1,2,2:2:0:0:
64,192,114750,1,2,2:2:0:0:
192,192,114825,1,2,2:2:0:0:
320,192,114900,1,2,2:2:0:0:
448,192,114900,1,2,2:2:0:0:
64,192,114975,1,2,2:2:0:0:
448,192,115050,1,2,2:2:0:0:
64,192,115125,1,2,2:2:0:0:
320,192,115125,1,2,2:2:0:0:
192,192,115200,1,2,2:2:0:0:
320,192,115275,1,2,2:2:0:0:
448,192,115275,1,2,2:2:0:0:
64,192,115275,1,2,2:2:0:0:
192,192,115350,1,2,2:2:0:0:
64,192,115425,1,2,2:2:0:0:
192,192,115500,1,2,2:2:0:0:
320,192,115500,1,2,2:2:0:0:
64,192,115575,1,2,2:2:0:0:
448,192,115650,1,2,2:2:0:0:
64,192,115725,1,2,2:2:0:0:
320,192,115725,1,2,2:2:0:0:
192,192,115800,1,2,2:2:0:0:
64,192,115875,1,2,2:2:0:0:
320,192,115875,1,2,2:2:0:0:
448,192,115875,1,2,2:2:0:0:
192,192,115950,1,2,2:2:0:0:
320,192,116025,1,2,2:2:0:0:
448,192,116025,1,2,2:2:0:0:
64,192,116100,1,2,2:2:0:0:
192,192,116175,1,2,2:2:0:0:
320,192,116175,1,2,2:2:0:0:
448,192,116175,1,2,2:2:0:0:
64,192,116250,1,2,2:2:0:0:
192,192,116325,1,2,2:2:0:0:
320,192,116325,1,2,2:2:0:0:
448,192,116400,1,2,2:2:0:0:
320,192,116475,1,2,2:2:0:0:
192,192,116475,1,2,2:2:0:0:
64,192,116475,1,2,2:2:0:0:
448,192,116550,1,2,2:2:0:0:
192,192,116625,1,2,2:2:0:0:
64,192,116625,1,2,2:2:0:0:
320,192,116700,1,2,2:2:0:0:
192,192,116775,1,2,2:2:0:0:
64,192,116775,1,2,2:2:0:0:
448,192,116775,1,2,2:2:0:0:
320,192,116850,1,2,2:2:0:0:
192,192,116925,1,2,2:2:0:0:
64,192,117000,1,2,2:2:0:0:
192,192,117075,1,2,2:2:0:0:
320,192,117075,1,2,2:2:0:0:
448,192,117075,1,2,2:2:0:0:
64,192,117150,1,2,2:2:0:0:
192,192,117225,1,2,2:2:0:0:
320,192,117300,1,2,2:2:0:0:
448,192,117300,1,2,2:2:0:0:
64,192,117300,1,2,2:2:0:0:
192,192,117375,1,2,2:2:0:0:
320,192,117450,1,2,2:2:0:0:
64,192,117525,1,2,2:2:0:0:
448,192,117525,1,2,2:2:0:0:
192,192,117600,1,2,2:2:0:0:
64,192,117675,1,2,2:2:0:0:
320,192,117675,1,2,2:2:0:0:
448,192,117675,1,2,2:2:0:0:
192,192,117750,1,2,2:2:0:0:
320,192,117825,1,2,2:2:0:0:
448,192,117900,1,2,2:2:0:0:
192,192,117975,1,2,2:2:0:0:
320,192,118050,1,2,2:2:0:0:
448,192,118125,1,2,2:2:0:0:
320,192,118200,1,2,2:2:0:0:
448,192,118275,1,2,2:2:0:0:
192,192,118275,1,2,2:2:0:0:
64,192,118275,1,2,2:2:0:0:
320,192,118350,1,2,2:2:0:0:
192,192,118425,1,2,2:2:0:0:
64,192,118425,1,2,2:2:0:0:
448,192,118500,1,2,2:2:0:0:
320,192,118575,1,2,2:2:0:0:
192,192,118575,1,2,2:2:0:0:
64,192,118575,1,2,2:2:0:0:
448,192,118650,1,2,2:2:0:0:
320,192,118725,1,2,2:2:0:0:
192,192,118725,1,2,2:2:0:0:
64,192,118800,1,2,2:2:0:0:
192,192,118875,1,2,2:2:0:0:
320,192,118875,1,2,2:2:0:0:
448,192,118875,1,2,2:2:0:0:
64,192,118950,1,2,2:2:0:0:
320,192,119025,1,2,2:2:0:0:
448,192,119025,1,2,2:2:0:0:
192,192,119100,1,2,2:2:0:0:
64,192,119175,1,2,2:2:0:0:
320,192,119175,1,2,2:2:0:0:
448,192,119175,1,2,2:2:0:0:
192,192,119250,1,2,2:2:0:0:
64,192,119325,1,2,2:2:0:0:
320,192,119400,1,2,2:2:0:0:
192,192,119475,1,2,2:2:0:0:
64,192,119475,1,2,2:2:0:0:
448,192,119475,1,2,2:2:0:0:
320,192,119550,1,2,2:2:0:0:
64,192,119625,1,2,2:2:0:0:
192,192,119700,1,2,2:2:0:0:
320,192,119700,1,2,2:2:0:0:
448,192,119775,1,2,2:2:0:0:
64,192,119850,1,2,2:2:0:0:
448,192,119925,1,2,2:2:0:0:
192,192,119925,1,2,2:2:0:0:
320,192,120000,1,2,2:2:0:0:
192,192,120075,1,2,2:2:0:0:
64,192,120075,1,2,2:2:0:0:
448,192,120075,1,2,2:2:0:0:
320,192,120150,1,2,2:2:0:0:
64,192,120225,1,2,2:2:0:0:
192,192,120300,1,2,2:2:0:0:
320,192,120300,1,2,2:2:0:0:
448,192,120375,1,2,2:2:0:0:
192,192,120450,1,2,2:2:0:0:
64,192,120525,1,2,2:2:0:0:
448,192,120525,1,2,2:2:0:0:
320,192,120600,1,2,2:2:0:0:
192,192,120675,1,2,2:2:0:0:
64,192,120675,1,2,2:2:0:0:
448,192,120675,1,2,2:2:0:0:
320,192,120750,1,2,2:2:0:0:
192,192,120825,1,2,2:2:0:0:
64,192,120825,1,2,2:2:0:0:
448,192,120900,1,2,2:2:0:0:
320,192,120975,1,2,2:2:0:0:
192,192,120975,1,2,2:2:0:0:
64,192,120975,1,2,2:2:0:0:
448,192,121050,1,2,2:2:0:0:
320,192,121125,1,2,2:2:0:0:
192,192,121125,1,2,2:2:0:0:
64,192,121200,1,2,2:2:0:0:
192,192,121275,1,2,2:2:0:0:
320,192,121275,1,2,2:2:0:0:
448,192,121275,1,2,2:2:0:0:
64,192,121350,1,2,2:2:0:0:
320,192,121425,1,2,2:2:0:0:
448,192,121425,1,2,2:2:0:0:
192,192,121500,1,2,2:2:0:0:
64,192,121575,1,2,2:2:0:0:
320,192,121575,1,2,2:2:0:0:
448,192,121575,1,2,2:2:0:0:
192,192,121650,1,2,2:2:0:0:
64,192,121725,1,2,2:2:0:0:
320,192,121800,1,2,2:2:0:0:
192,192,121875,1,2,2:2:0:0:
64,192,121875,1,2,2:2:0:0:
448,192,121875,1,2,2:2:0:0:
320,192,121950,1,2,2:2:0:0:
192,192,122025,1,2,2:2:0:0:
320,192,122100,1,2,2:2:0:0:
448,192,122100,1,2,2:2:0:0:
64,192,122175,1,2,2:2:0:0:
448,192,122250,1,2,2:2:0:0:
320,192,122325,1,2,2:2:0:0:
192,192,122325,1,2,2:2:0:0:
64,192,122400,1,2,2:2:0:0:
192,192,122475,1,2,2:2:0:0:
320,192,122475,1,2,2:2:0:0:
448,192,122475,1,2,2:2:0:0:
64,192,122550,1,2,2:2:0:0:
320,192,122625,1,2,2:2:0:0:
448,192,122700,1,2,2:2:0:0:
192,192,122775,1,2,2:2:0:0:
320,192,122850,1,2,2:2:0:0:
448,192,122925,1,2,2:2:0:0:
320,192,123000,1,2,2:2:0:0:
64,192,123075,1,2,2:2:0:0:
448,192,123075,1,2,2:2:0:0:
192,192,123075,1,2,2:2:0:0:
320,192,123150,1,2,2:2:0:0:
64,192,123225,1,2,2:2:0:0:
192,192,123225,1,2,2:2:0:0:
448,192,123300,1,2,2:2:0:0:
192,192,123375,1,2,2:2:0:0:
64,192,123375,1,2,2:2:0:0:
320,192,123375,1,2,2:2:0:0:
448,192,123450,1,2,2:2:0:0:
192,192,123525,1,2,2:2:0:0:
320,192,123525,1,2,2:2:0:0:
64,192,123600,1,2,2:2:0:0:
192,192,123675,1,2,2:2:0:0:
320,192,123675,1,2,2:2:0:0:
448,192,123675,1,2,2:2:0:0:
64,192,123750,1,2,2:2:0:0:
320,192,123825,1,2,2:2:0:0:
448,192,123825,1,2,2:2:0:0:
192,192,123900,1,2,2:2:0:0:
64,192,123975,1,2,2:2:0:0:
320,192,123975,1,2,2:2:0:0:
448,192,123975,1,2,2:2:0:0:
192,192,124050,1,2,2:2:0:0:
64,192,124125,1,2,2:2:0:0:
448,192,124200,1,2,2:2:0:0:
320,192,124275,1,2,2:2:0:0:
192,192,124275,1,2,2:2:0:0:
64,192,124275,1,2,2:2:0:0:
448,192,124350,1,2,2:2:0:0:
64,192,124425,1,2,2:2:0:0:
192,192,124500,1,2,2:2:0:0:
320,192,124500,1,2,2:2:0:0:
448,192,124575,1,2,2:2:0:0:
64,192,124650,1,2,2:2:0:0:
192,192,124725,1,2,2:2:0:0:
448,192,124725,1,2,2:2:0:0:
320,192,124800,1,2,2:2:0:0:
192,192,124875,1,2,2:2:0:0:
64,192,124875,1,2,2:2:0:0:
448,192,124875,1,2,2:2:0:0:
320,192,124950,1,2,2:2:0:0:
192,192,125025,1,2,2:2:0:0:
320,192,125100,1,2,2:2:0:0:
448,192,125100,1,2,2:2:0:0:
64,192,125175,1,2,2:2:0:0:
448,192,125250,1,2,2:2:0:0:
320,192,125325,1,2,2:2:0:0:
64,192,125325,1,2,2:2:0:0:
192,192,125400,1,2,2:2:0:0:
64,192,125475,1,2,2:2:0:0:
320,192,125475,1,2,2:2:0:0:
448,192,125475,1,2,2:2:0:0:
192,192,125550,1,2,2:2:0:0:
320,192,125625,1,2,2:2:0:0:
448,192,125625,1,2,2:2:0:0:
64,192,125700,1,2,2:2:0:0:
192,192,125775,1,2,2:2:0:0:
320,192,125775,1,2,2:2:0:0:
448,192,125775,1,2,2:2:0:0:
64,192,125850,1,2,2:2:0:0:
192,192,125925,1,2,2:2:0:0:
320,192,125925,1,2,2:2:0:0:
448,192,126000,1,2,2:2:0:0:
64,192,126075,1,2,2:2:0:0:
192,192,126075,1,2,2:2:0:0:
320,192,126075,1,2,2:2:0:0:
448,192,126150,1,2,2:2:0:0:
192,192,126225,1,2,2:2:0:0:
64,192,126225,1,2,2:2:0:0:
320,192,126300,1,2,2:2:0:0:
192,192,126375,1,2,2:2:0:0:
64,192,126375,1,2,2:2:0:0:
448,192,126375,1,2,2:2:0:0:
320,192,126450,1,2,2:2:0:0:
192,192,126525,1,2,2:2:0:0:
64,192,126600,1,2,2:2:0:0:
192,192,126675,1,2,2:2:0:0:
320,192,126675,1,2,2:2:0:0:
448,192,126675,1,2,2:2:0:0:
64,192,126750,1,2,2:2:0:0:
192,192,126825,1,2,2:2:0:0:
320,192,126900,1,2,2:2:0:0:
448,192,126900,1,2,2:2:0:0:
64,192,126975,1,2,2:2:0:0:
192,192,127050,1,2,2:2:0:0:
320,192,127125,1,2,2:2:0:0:
64,192,127125,1,2,2:2:0:0:
448,192,127200,1,2,2:2:0:0:
192,192,127275,1,2,2:2:0:0:
64,192,127275,1,2,2:2:0:0:
448,192,127350,1,2,2:2:0:0:
192,192,127425,1,2,2:2:0:0:
64,192,127425,1,2,2:2:0:0:
320,192,127500,1,2,2:2:0:0:
448,192,127500,1,2,2:2:0:0:
64,192,127575,1,2,2:2:0:0:
320,192,127650,1,2,2:2:0:0:
448,192,127650,1,2,2:2:0:0:
192,192,127725,1,2,2:2:0:0:
64,192,127725,1,2,2:2:0:0:
448,192,127800,1,2,2:2:0:0:
320,192,127875,1,0,3:3:0:0:
64,192,127875,128,0,128025:3:3:0:0:
192,192,127875,1,0,3:3:0:0:
320,192,128175,1,0,3:3:0:0:
192,192,128175,128,0,128325:3:3:0:0:
448,192,128475,1,0,3:3:0:0:
64,192,128475,1,0,3:3:0:0:
320,192,128475,128,0,128625:3:3:0:0:
448,192,128775,128,0,129375:3:3:0:0:
320,192,128775,1,0,3:3:0:0:
64,192,128925,1,0,3:3:0:0:
192,192,128925,1,0,3:3:0:0:
64,192,129075,1,0,3:3:0:0:
192,192,129075,1,0,3:3:0:0:
64,192,129375,1,0,3:3:0:0:
192,192,129375,1,0,3:3:0:0:
320,192,129525,1,0,3:3:0:0:
192,192,129525,1,0,3:3:0:0:
192,192,129675,1,0,3:3:0:0:
64,192,129675,1,0,3:3:0:0:
448,192,129675,1,0,3:3:0:0:
320,192,129825,1,0,3:3:0:0:
448,192,129825,1,0,3:3:0:0:
64,192,129975,128,0,130275:3:3:0:0:
448,192,129975,1,0,3:3:0:0:
320,192,130275,128,0,130425:3:3:0:0:
448,192,130275,1,0,3:3:0:0:
192,192,130575,128,0,130725:3:3:0:0:
64,192,130575,1,0,3:3:0:0:
320,192,130875,128,0,131025:3:3:0:0:
448,192,130875,1,0,3:3:0:0:
64,192,130875,1,0,3:3:0:0:
448,192,131175,128,0,131775:3:3:0:0:
64,192,131175,128,0,131775:3:3:0:0:
192,192,131325,1,0,3:3:0:0:
320,192,131325,1,0,3:3:0:0:
192,192,131475,1,0,3:3:0:0:
320,192,131475,1,0,3:3:0:0:
192,192,131775,1,0,3:3:0:0:
320,192,131775,1,0,3:3:0:0:
192,192,131925,1,0,3:3:0:0:
448,192,131925,1,0,3:3:0:0:
64,192,132075,1,0,3:3:0:0:
192,192,132075,1,0,3:3:0:0:
448,192,132075,1,0,3:3:0:0:
64,192,132225,1,0,3:3:0:0:
320,192,132225,1,0,3:3:0:0:
320,192,132375,1,0,3:3:0:0:
448,192,132375,128,0,132675:3:3:0:0:
64,192,132675,128,0,132825:3:3:0:0:
192,192,132675,1,0,3:3:0:0:
192,192,132975,128,0,133125:3:3:0:0:
320,192,132975,1,0,3:3:0:0:
320,192,133275,128,0,133425:3:3:0:0:
448,192,133275,1,0,3:3:0:0:
64,192,133275,1,0,3:3:0:0:
448,192,133575,128,0,134175:3:3:0:0:
64,192,133725,1,0,3:3:0:0:
192,192,133725,1,0,3:3:0:0:
64,192,133875,1,0,3:3:0:0:
192,192,133875,1,0,3:3:0:0:
64,192,134175,1,0,3:3:0:0:
192,192,134175,1,0,3:3:0:0:
192,192,134325,1,0,3:3:0:0:
448,192,134325,1,0,3:3:0:0:
320,192,134475,1,0,3:3:0:0:
448,192,134475,1,0,3:3:0:0:
64,192,134475,1,0,3:3:0:0:
320,192,134625,1,0,3:3:0:0:
192,192,134625,1,0,3:3:0:0:
320,192,134775,1,0,3:3:0:0:
64,192,134775,128,0,135075:3:3:0:0:
448,192,135075,1,0,3:3:0:0:
320,192,135075,128,0,135225:3:3:0:0:
320,192,135375,128,0,135525:3:3:0:0:
448,192,135375,1,0,3:3:0:0:
448,192,135675,1,0,3:3:0:0:
64,192,135675,1,0,3:3:0:0:
320,192,135675,128,0,135825:3:3:0:0:
64,192,135975,1,0,3:3:0:0:
320,192,136125,128,0,136275:3:3:0:0:
64,192,136275,1,4,3:3:0:0:
192,192,136275,1,0,3:3:0:0:
320,192,136350,1,0,3:3:0:0:
448,192,136350,1,4,3:3:0:0:
192,192,136425,1,0,3:3:0:0:
64,192,136425,1,4,3:3:0:0:
320,192,136500,1,0,3:3:0:0:
448,192,136500,1,4,3:3:0:0:
192,192,136575,1,0,3:3:0:0:
64,192,136575,1,4,3:3:0:0:
320,192,136650,1,0,3:3:0:0:
448,192,136650,1,4,3:3:0:0:
192,192,136725,1,0,3:3:0:0:
64,192,136725,1,4,3:3:0:0:
320,192,136800,1,0,3:3:0:0:
448,192,136800,1,4,3:3:0:0:
64,192,136875,128,0,137475:3:3:0:0:
448,192,137175,128,0,137475:3:3:0:0:
192,192,137475,128,4,137775:0:0:0:0:
320,192,137475,128,0,137775:3:3:0:0:
192,192,138075,1,0,3:3:0:0:
320,192,138075,1,0,3:3:0:0:
448,192,138075,1,0,3:3:0:0:
64,192,138225,1,0,3:3:0:0:
192,192,138225,1,0,3:3:0:0:
64,192,138375,1,0,3:3:0:0:
320,192,138375,1,0,3:3:0:0:
320,192,138525,1,0,3:3:0:0:
448,192,138525,128,0,138975:3:3:0:0:
64,192,138825,1,0,3:3:0:0:
192,192,138975,128,0,139275:3:3:0:0:
320,192,138975,1,0,3:3:0:0:
64,192,138975,1,0,3:3:0:0:
64,192,139275,128,0,139575:3:3:0:0:
448,192,139275,1,0,3:3:0:0:
320,192,139275,1,0,3:3:0:0:
320,192,139575,128,0,139875:3:3:0:0:
192,192,139575,1,0,3:3:0:0:
64,192,139875,128,4,140175:3:3:0:0:
448,192,139875,128,0,140175:3:3:0:0:
64,192,140475,1,0,3:3:0:0:
320,192,140475,1,0,3:3:0:0:
448,192,140475,1,0,3:3:0:0:
192,192,140625,1,0,3:3:0:0:
320,192,140625,1,0,3:3:0:0:
192,192,140775,1,0,3:3:0:0:
448,192,140775,1,0,3:3:0:0:
448,192,140925,1,0,3:3:0:0:
64,192,140925,128,0,141375:3:3:0:0:
320,192,141225,1,0,3:3:0:0:
448,192,141375,128,0,141675:3:3:0:0:
320,192,141375,1,0,3:3:0:0:
192,192,141675,128,0,141975:3:3:0:0:
64,192,141675,1,0,3:3:0:0:
320,192,141675,1,0,3:3:0:0:
320,192,141975,128,0,142275:3:3:0:0:
64,192,141975,1,0,3:3:0:0:
64,192,142275,1,0,3:3:0:0:
448,192,142275,128,4,142575:3:3:0:0:
64,192,142875,1,0,3:3:0:0:
320,192,142875,1,0,3:3:0:0:
448,192,142875,1,0,3:3:0:0:
192,192,143025,1,0,3:3:0:0:
448,192,143025,1,0,3:3:0:0:
64,192,143175,1,0,3:3:0:0:
192,192,143175,1,0,3:3:0:0:
320,192,143325,1,0,3:3:0:0:
64,192,143325,128,0,143775:3:3:0:0:
320,192,143625,1,0,3:3:0:0:
448,192,143775,128,0,144075:3:3:0:0:
320,192,143775,1,0,3:3:0:0:
64,192,144075,128,0,144375:3:3:0:0:
192,192,144075,1,0,3:3:0:0:
320,192,144075,1,0,3:3:0:0:
320,192,144375,1,0,3:3:0:0:
448,192,144375,1,0,3:3:0:0:
192,192,144525,1,0,3:3:0:0:
320,192,144525,1,0,3:3:0:0:
64,192,144675,1,0,3:3:0:0:
320,192,144675,1,0,3:3:0:0:
64,192,144825,1,0,3:3:0:0:
192,192,144825,1,0,3:3:0:0:
320,192,144975,1,0,3:3:0:0:
448,192,144975,128,0,145275:3:3:0:0:
64,192,145275,128,0,145575:3:3:0:0:
192,192,145275,1,0,3:3:0:0:
320,192,145275,1,0,3:3:0:0:
64,192,145725,1,0,3:3:0:0:
320,192,145725,1,0,3:3:0:0:
320,192,145875,1,0,3:3:0:0:
448,192,145875,1,4,3:3:0:0:
64,192,145950,1,4,3:3:0:0:
192,192,145950,1,0,3:3:0:0:
320,192,146025,1,0,3:3:0:0:
448,192,146025,1,4,3:3:0:0:
192,192,146100,1,0,3:3:0:0:
64,192,146100,1,4,3:3:0:0:
320,192,146175,1,0,3:3:0:0:
448,192,146175,1,4,3:3:0:0:
192,192,146250,1,0,3:3:0:0:
64,192,146250,1,4,3:3:0:0:
320,192,146325,1,0,3:3:0:0:
448,192,146325,1,4,3:3:0:0:
192,192,146400,1,0,3:3:0:0:
64,192,146400,1,4,3:3:0:0:
320,192,146475,1,0,3:3:0:0:
448,192,146475,1,4,3:3:0:0:
192,192,146550,1,0,3:3:0:0:
64,192,146550,1,4,3:3:0:0:
320,192,146625,1,0,3:3:0:0:
448,192,146625,1,4,3:3:0:0:
192,192,146700,1,0,3:3:0:0:
64,192,146700,1,4,3:3:0:0:
320,192,146775,1,0,3:3:0:0:
448,192,146775,1,4,3:3:0:0:
192,192,146850,1,0,3:3:0:0:
64,192,146850,1,4,3:3:0:0:
320,192,146925,1,0,3:3:0:0:
448,192,146925,1,4,3:3:0:0:
192,192,147000,1,0,3:3:0:0:
64,192,147000,1,4,3:3:0:0:
320,192,147075,1,0,0:0:0:0:
448,192,147075,1,4,0:0:0:0:
320,192,147225,1,0,0:0:0:0:
64,192,147375,1,0,0:0:0:0:
192,192,147375,1,0,0:0:0:0:
320,192,147375,1,0,0:0:0:0:
64,192,147525,1,0,0:0:0:0:
64,192,147675,1,0,0:0:0:0:
192,192,147675,1,0,0:0:0:0:
448,192,147675,1,0,0:0:0:0:
192,192,147825,1,0,0:0:0:0:
192,192,147975,1,0,0:0:0:0:
320,192,147975,1,0,0:0:0:0:
448,192,147975,1,0,0:0:0:0:
448,192,148125,1,0,0:0:0:0:
320,192,148275,1,0,0:0:0:0:
448,192,148275,1,0,0:0:0:0:
192,192,148275,1,0,0:0:0:0:
320,192,148425,1,0,0:0:0:0:
64,192,148575,1,0,0:0:0:0:
320,192,148575,1,0,0:0:0:0:
448,192,148575,1,0,0:0:0:0:
64,192,148725,1,0,0:0:0:0:
64,192,148875,1,0,0:0:0:0:
192,192,148875,1,0,0:0:0:0:
320,192,148875,1,0,0:0:0:0:
192,192,149025,1,0,0:0:0:0:
192,192,149175,1,0,0:0:0:0:
320,192,149175,1,0,0:0:0:0:
448,192,149175,1,0,0:0:0:0:
320,192,149325,1,0,0:0:0:0:
320,192,149475,1,0,0:0:0:0:
448,192,149475,1,0,0:0:0:0:
64,192,149475,1,0,0:0:0:0:
64,192,149625,1,0,0:0:0:0:
192,192,149625,1,0,0:0:0:0:
192,192,149775,1,0,0:0:0:0:
320,192,149775,1,0,0:0:0:0:
64,192,149925,1,0,0:0:0:0:
320,192,149925,1,0,0:0:0:0:
64,192,150075,1,0,0:0:0:0:
192,192,150075,1,0,0:0:0:0:
192,192,150225,1,0,0:0:0:0:
448,192,150225,1,0,0:0:0:0:
320,192,150225,1,0,0:0:0:0:
64,192,150375,1,0,0:0:0:0:
192,192,150375,1,0,0:0:0:0:
192,192,150525,1,0,0:0:0:0:
320,192,150525,1,0,0:0:0:0:
448,192,150525,1,0,0:0:0:0:
320,192,150675,1,0,0:0:0:0:
320,192,150825,1,0,0:0:0:0:
448,192,150825,1,0,0:0:0:0:
192,192,150975,1,0,0:0:0:0:
448,192,150975,1,0,0:0:0:0:
64,192,151125,1,0,0:0:0:0:
192,192,151125,1,0,0:0:0:0:
192,192,151275,1,0,0:0:0:0:
320,192,151275,1,0,0:0:0:0:
64,192,151425,1,0,0:0:0:0:
320,192,151425,1,0,0:0:0:0:
192,192,151425,1,0,0:0:0:0:
320,192,151575,1,0,0:0:0:0:
448,192,151575,1,0,0:0:0:0:
64,192,151725,1,0,0:0:0:0:
320,192,151725,1,0,0:0:0:0:
192,192,151725,1,0,0:0:0:0:
320,192,151875,1,0,0:0:0:0:
448,192,151875,1,0,0:0:0:0:
192,192,151875,1,0,0:0:0:0:
320,192,152025,1,0,0:0:0:0:
64,192,152175,1,0,0:0:0:0:
320,192,152175,1,0,0:0:0:0:
192,192,152175,1,0,0:0:0:0:
64,192,152325,1,0,0:0:0:0:
64,192,152475,1,0,0:0:0:0:
320,192,152475,1,0,0:0:0:0:
448,192,152475,1,0,0:0:0:0:
320,192,152625,1,0,0:0:0:0:
192,192,152775,1,0,0:0:0:0:
320,192,152775,1,0,0:0:0:0:
448,192,152775,1,0,0:0:0:0:
192,192,152925,1,0,0:0:0:0:
64,192,153075,1,0,0:0:0:0:
192,192,153075,1,0,0:0:0:0:
320,192,153075,1,0,0:0:0:0:
320,192,153225,1,0,0:0:0:0:
64,192,153375,1,0,0:0:0:0:
320,192,153375,1,0,0:0:0:0:
448,192,153375,1,0,0:0:0:0:
64,192,153525,1,0,0:0:0:0:
64,192,153675,1,0,0:0:0:0:
320,192,153675,1,0,0:0:0:0:
448,192,153675,1,0,0:0:0:0:
448,192,153825,1,0,0:0:0:0:
448,192,153975,1,0,0:0:0:0:
192,192,153975,1,0,0:0:0:0:
320,192,153975,1,0,0:0:0:0:
192,192,154125,1,0,0:0:0:0:
64,192,154275,1,0,0:0:0:0:
192,192,154275,1,0,0:0:0:0:
448,192,154275,1,0,0:0:0:0:
320,192,154425,1,0,0:0:0:0:
448,192,154425,1,0,0:0:0:0:
192,192,154575,1,0,0:0:0:0:
320,192,154575,1,0,0:0:0:0:
192,192,154725,1,0,0:0:0:0:
448,192,154725,1,0,0:0:0:0:
64,192,154875,1,0,0:0:0:0:
320,192,154875,1,0,0:0:0:0:
448,192,154875,1,0,0:0:0:0:
192,192,155025,1,0,0:0:0:0:
320,192,155025,1,0,0:0:0:0:
192,192,155175,1,0,0:0:0:0:
64,192,155325,1,0,0:0:0:0:
192,192,155325,1,0,0:0:0:0:
448,192,155325,1,0,0:0:0:0:
64,192,155475,1,0,0:0:0:0:
64,192,155625,1,0,0:0:0:0:
192,192,155625,1,0,0:0:0:0:
320,192,155625,1,0,0:0:0:0:
320,192,155775,1,0,0:0:0:0:
192,192,155925,1,0,0:0:0:0:
320,192,155925,1,0,0:0:0:0:
448,192,155925,1,0,0:0:0:0:
192,192,156075,1,0,0:0:0:0:
320,192,156075,1,0,0:0:0:0:
64,192,156225,1,0,0:0:0:0:
192,192,156225,1,0,0:0:0:0:
448,192,156225,1,0,0:0:0:0:
320,192,156300,1,0,0:0:0:0:
192,192,156375,1,0,0:0:0:0:
448,192,156375,1,0,0:0:0:0:
320,192,156450,1,0,0:0:0:0:
64,192,156450,1,0,0:0:0:0:
192,192,156525,1,0,0:0:0:0:
320,192,156600,1,0,0:0:0:0:
448,192,156675,1,2,2:2:0:0:
192,192,156675,1,2,2:2:0:0:
64,192,156675,1,2,2:2:0:0:
320,192,156750,1,2,2:2:0:0:
192,192,156825,1,2,2:2:0:0:
448,192,156900,1,2,2:2:0:0:
320,192,156975,1,2,2:2:0:0:
192,192,156975,1,2,2:2:0:0:
64,192,156975,1,2,2:2:0:0:
448,192,157050,1,2,2:2:0:0:
320,192,157125,1,2,2:2:0:0:
192,192,157200,1,2,2:2:0:0:
64,192,157275,1,2,2:2:0:0:
320,192,157275,1,2,2:2:0:0:
448,192,157275,1,2,2:2:0:0:
192,192,157350,1,2,2:2:0:0:
64,192,157425,1,2,2:2:0:0:
320,192,157500,1,2,2:2:0:0:
192,192,157575,1,2,2:2:0:0:
64,192,157575,1,2,2:2:0:0:
448,192,157575,1,2,2:2:0:0:
320,192,157650,1,2,2:2:0:0:
448,192,157725,1,2,2:2:0:0:
64,192,157800,1,2,2:2:0:0:
192,192,157875,1,2,2:2:0:0:
320,192,157875,1,2,2:2:0:0:
448,192,157875,1,2,2:2:0:0:
64,192,157950,1,2,2:2:0:0:
192,192,158025,1,2,2:2:0:0:
448,192,158100,1,2,2:2:0:0:
320,192,158175,1,2,2:2:0:0:
192,192,158175,1,2,2:2:0:0:
64,192,158175,1,2,2:2:0:0:
448,192,158250,1,2,2:2:0:0:
64,192,158400,1,2,2:2:0:0:
192,192,158475,1,2,2:2:0:0:
320,192,158475,1,2,2:2:0:0:
448,192,158475,1,2,2:2:0:0:
64,192,158550,1,2,2:2:0:0:
320,192,158625,1,2,2:2:0:0:
192,192,158700,1,2,2:2:0:0:
64,192,158775,1,2,2:2:0:0:
320,192,158775,1,2,2:2:0:0:
448,192,158775,1,2,2:2:0:0:
192,192,158850,1,2,2:2:0:0:
320,192,158925,1,2,2:2:0:0:
64,192,159000,1,2,2:2:0:0:
320,192,159075,1,2,2:2:0:0:
448,192,159075,1,2,2:2:0:0:
192,192,159075,1,2,2:2:0:0:
64,192,159150,1,2,2:2:0:0:
192,192,159225,1,2,2:2:0:0:
448,192,159225,1,2,2:2:0:0:
320,192,159300,1,2,2:2:0:0:
64,192,159375,1,2,2:2:0:0:
192,192,159375,1,2,2:2:0:0:
448,192,159375,1,2,2:2:0:0:
320,192,159450,1,2,2:2:0:0:
192,192,159525,1,2,2:2:0:0:
448,192,159600,1,2,2:2:0:0:
320,192,159675,1,2,2:2:0:0:
192,192,159675,1,2,2:2:0:0:
64,192,159675,1,2,2:2:0:0:
448,192,159750,1,2,2:2:0:0:
320,192,159825,1,2,2:2:0:0:
64,192,159825,1,2,2:2:0:0:
192,192,159900,1,2,2:2:0:0:
320,192,159975,1,2,2:2:0:0:
448,192,159975,1,2,2:2:0:0:
64,192,159975,1,2,2:2:0:0:
192,192,160050,1,2,2:2:0:0:
64,192,160125,1,2,2:2:0:0:
320,192,160200,1,2,2:2:0:0:
192,192,160275,1,2,2:2:0:0:
64,192,160275,1,2,2:2:0:0:
448,192,160275,1,2,2:2:0:0:
320,192,160350,1,2,2:2:0:0:
192,192,160425,1,2,2:2:0:0:
448,192,160500,1,2,2:2:0:0:
320,192,160575,1,2,2:2:0:0:
192,192,160575,1,2,2:2:0:0:
64,192,160575,1,2,2:2:0:0:
448,192,160650,1,2,2:2:0:0:
320,192,160725,1,2,2:2:0:0:
64,192,160725,1,2,2:2:0:0:
192,192,160800,1,2,2:2:0:0:
320,192,160875,1,2,2:2:0:0:
448,192,160875,1,2,2:2:0:0:
64,192,160875,1,2,2:2:0:0:
192,192,160950,1,2,2:2:0:0:
64,192,161025,1,2,2:2:0:0:
320,192,161100,1,2,2:2:0:0:
192,192,161175,1,2,2:2:0:0:
64,192,161175,1,2,2:2:0:0:
448,192,161175,1,2,2:2:0:0:
320,192,161250,1,2,2:2:0:0:
192,192,161325,1,2,2:2:0:0:
448,192,161400,1,2,2:2:0:0:
320,192,161475,1,2,2:2:0:0:
192,192,161475,1,2,2:2:0:0:
64,192,161475,1,2,2:2:0:0:
448,192,161550,1,2,2:2:0:0:
320,192,161625,1,2,2:2:0:0:
64,192,161625,1,2,2:2:0:0:
192,192,161700,1,2,2:2:0:0:
64,192,161775,1,2,2:2:0:0:
320,192,161775,1,2,2:2:0:0:
448,192,161775,1,2,2:2:0:0:
192,192,161850,1,2,2:2:0:0:
320,192,161925,1,2,2:2:0:0:
64,192,161925,1,2,2:2:0:0:
448,192,162000,1,2,2:2:0:0:
192,192,162075,1,2,2:2:0:0:
320,192,162075,1,2,2:2:0:0:
64,192,162075,1,2,2:2:0:0:
448,192,162150,1,2,2:2:0:0:
320,192,162225,1,2,2:2:0:0:
64,192,162225,1,2,2:2:0:0:
192,192,162300,1,2,2:2:0:0:
64,192,162375,1,2,2:2:0:0:
448,192,162375,1,2,2:2:0:0:
320,192,162375,1,2,2:2:0:0:
192,192,162450,1,2,2:2:0:0:
64,192,162525,1,2,2:2:0:0:
448,192,162525,1,2,2:2:0:0:
320,192,162600,1,2,2:2:0:0:
192,192,162675,1,2,2:2:0:0:
64,192,162675,1,2,2:2:0:0:
448,192,162675,1,2,2:2:0:0:
320,192,162750,1,2,2:2:0:0:
448,192,162825,1,2,2:2:0:0:
192,192,162825,1,2,2:2:0:0:
64,192,162900,1,2,2:2:0:0:
320,192,162975,1,2,2:2:0:0:
448,192,162975,1,2,2:2:0:0:
192,192,162975,1,2,2:2:0:0:
64,192,163050,1,2,2:2:0:0:
192,192,163125,1,2,2:2:0:0:
448,192,163125,1,2,2:2:0:0:
320,192,163200,1,2,2:2:0:0:
192,192,163275,1,2,2:2:0:0:
64,192,163275,1,2,2:2:0:0:
448,192,163275,1,2,2:2:0:0:
320,192,163350,1,2,2:2:0:0:
448,192,163425,1,2,2:2:0:0:
64,192,163425,1,2,2:2:0:0:
192,192,163500,1,2,2:2:0:0:
320,192,163575,1,2,2:2:0:0:
448,192,163575,1,2,2:2:0:0:
64,192,163575,1,2,2:2:0:0:
192,192,163650,1,2,2:2:0:0:
320,192,163725,1,2,2:2:0:0:
64,192,163725,1,2,2:2:0:0:
448,192,163800,1,2,2:2:0:0:
64,192,163875,1,2,2:2:0:0:
192,192,163875,1,2,2:2:0:0:
320,192,163875,1,2,2:2:0:0:
448,192,163950,1,2,2:2:0:0:
320,192,164025,1,2,2:2:0:0:
64,192,164025,1,2,2:2:0:0:
192,192,164025,1,2,2:2:0:0:
448,192,164100,1,2,2:2:0:0:
64,192,164175,1,2,2:2:0:0:
320,192,164175,1,2,2:2:0:0:
192,192,164250,1,2,2:2:0:0:
64,192,164325,1,2,2:2:0:0:
320,192,164325,1,2,2:2:0:0:
448,192,164325,1,2,2:2:0:0:
192,192,164400,1,2,2:2:0:0:
320,192,164475,1,2,2:2:0:0:
64,192,164475,1,2,2:2:0:0:
448,192,164475,1,2,2:2:0:0:
192,192,164550,1,2,2:2:0:0:
64,192,164625,1,2,2:2:0:0:
448,192,164625,1,2,2:2:0:0:
320,192,164700,1,2,2:2:0:0:
64,192,164775,1,2,2:2:0:0:
448,192,164775,1,2,2:2:0:0:
192,192,164775,1,2,2:2:0:0:
320,192,164850,1,2,2:2:0:0:
64,192,164925,1,2,2:2:0:0:
448,192,164925,1,2,2:2:0:0:
192,192,164925,1,2,2:2:0:0:
320,192,165000,1,2,2:2:0:0:
64,192,165075,1,0,3:3:0:0:
192,192,165075,1,2,2:2:0:0:
448,192,165150,1,0,3:3:0:0:
320,192,165150,1,2,2:2:0:0:
64,192,165225,1,0,3:3:0:0:
192,192,165225,1,2,2:2:0:0:
448,192,165300,1,0,3:3:0:0:
320,192,165300,1,2,2:2:0:0:
64,192,165375,1,0,3:3:0:0:
192,192,165375,1,2,2:2:0:0:
448,192,165450,1,0,3:3:0:0:
320,192,165450,1,2,2:2:0:0:
64,192,165525,1,0,3:3:0:0:
192,192,165525,1,2,2:2:0:0:
448,192,165600,1,0,3:3:0:0:
320,192,165600,1,2,2:2:0:0:
64,192,165675,1,0,3:3:0:0:
192,192,165675,1,2,2:2:0:0:
448,192,165750,1,0,3:3:0:0:
320,192,165750,1,2,2:2:0:0:
64,192,165825,1,0,3:3:0:0:
192,192,165825,1,2,2:2:0:0:
448,192,165900,1,0,3:3:0:0:
320,192,165900,1,2,2:2:0:0:
64,192,165975,1,0,3:3:0:0:
192,192,165975,1,2,2:2:0:0:
448,192,166050,1,0,3:3:0:0:
320,192,166050,1,2,2:2:0:0:
64,192,166125,1,0,3:3:0:0:
192,192,166125,1,2,2:2:0:0:
448,192,166200,1,0,3:3:0:0:
320,192,166200,1,2,2:2:0:0:
64,192,166275,1,2,3:3:0:0:
192,192,166275,1,2,3:3:0:0:
320,192,166425,1,2,3:3:0:0:
448,192,166575,1,2,3:3:0:0:
64,192,166575,1,2,3:3:0:0:
320,192,166725,1,2,3:3:0:0:
192,192,166875,1,2,3:3:0:0:
64,192,166875,1,2,3:3:0:0:
320,192,167025,1,2,3:3:0:0:
448,192,167025,1,2,3:3:0:0:
64,192,167175,128,2,167475:3:3:0:0:
448,192,167475,1,2,3:3:0:0:
320,192,167700,1,2,3:3:0:0:
64,192,167925,1,2,3:3:0:0:
320,192,168075,1,2,3:3:0:0:
192,192,168300,1,2,3:3:0:0:
64,192,168525,1,2,3:3:0:0:
320,192,168675,1,2,3:3:0:0:
448,192,168675,1,2,3:3:0:0:
192,192,168825,1,2,3:3:0:0:
64,192,168975,1,2,3:3:0:0:
320,192,168975,1,2,3:3:0:0:
448,192,169125,1,2,3:3:0:0:
64,192,169275,1,2,3:3:0:0:
192,192,169275,1,2,3:3:0:0:
320,192,169425,1,2,3:3:0:0:
448,192,169425,1,2,3:3:0:0:
64,192,169575,128,2,169875:3:3:0:0:
192,192,169875,1,2,3:3:0:0:
320,192,170100,1,2,3:3:0:0:
448,192,170325,1,2,3:3:0:0:
192,192,170475,128,2,170775:3:3:0:0:
320,192,171075,1,2,3:3:0:0:
64,192,171075,1,2,3:3:0:0:
192,192,171225,1,2,3:3:0:0:
320,192,171375,1,2,3:3:0:0:
448,192,171375,1,2,3:3:0:0:
64,192,171525,1,2,3:3:0:0:
192,192,171675,1,2,3:3:0:0:
448,192,171675,1,2,3:3:0:0:
320,192,171825,1,2,3:3:0:0:
64,192,171825,1,2,3:3:0:0:
448,192,171975,128,2,172275:3:3:0:0:
192,192,172275,1,2,3:3:0:0:
64,192,172500,1,2,3:3:0:0:
192,192,172725,1,2,3:3:0:0:
448,192,172875,1,2,3:3:0:0:
320,192,173100,1,2,3:3:0:0:
448,192,173325,1,2,3:3:0:0:
64,192,173475,1,2,3:3:0:0:
192,192,173475,1,2,3:3:0:0:
320,192,173625,1,2,3:3:0:0:
192,192,173775,1,2,3:3:0:0:
448,192,173775,1,2,3:3:0:0:
64,192,173925,1,2,3:3:0:0:
320,192,174075,1,2,3:3:0:0:
448,192,174075,1,2,3:3:0:0:
64,192,174225,1,2,3:3:0:0:
192,192,174225,1,2,3:3:0:0:
448,192,174375,128,2,174675:3:3:0:0:
192,192,174675,128,2,174900:3:3:0:0:
64,192,174675,1,2,3:3:0:0:
320,192,174900,128,2,175125:3:3:0:0:
448,192,174900,1,2,3:3:0:0:
64,192,175125,1,2,3:3:0:0:
192,192,175125,1,2,3:3:0:0:
448,192,175275,128,2,175875:3:3:0:0:
64,192,175875,1,2,3:3:0:0:
320,192,175875,1,2,3:3:0:0:
192,192,176025,1,2,3:3:0:0:
64,192,176175,1,2,3:3:0:0:
448,192,176175,1,2,3:3:0:0:
320,192,176325,1,2,3:3:0:0:
64,192,176475,1,2,3:3:0:0:
192,192,176475,1,2,3:3:0:0:
320,192,176625,1,2,3:3:0:0:
448,192,176625,1,2,3:3:0:0:
64,192,176775,128,2,177075:3:3:0:0:
448,192,177075,1,2,3:3:0:0:
320,192,177300,1,2,3:3:0:0:
64,192,177525,1,2,3:3:0:0:
320,192,177675,1,2,3:3:0:0:
192,192,177900,1,2,3:3:0:0:
64,192,178125,1,2,3:3:0:0:
320,192,178275,1,2,3:3:0:0:
448,192,178275,1,2,3:3:0:0:
192,192,178425,1,2,3:3:0:0:
64,192,178575,1,2,3:3:0:0:
320,192,178575,1,2,3:3:0:0:
192,192,178725,1,2,3:3:0:0:
64,192,178875,1,2,3:3:0:0:
448,192,178875,1,2,3:3:0:0:
192,192,179025,1,2,3:3:0:0:
320,192,179025,1,2,3:3:0:0:
448,192,179175,128,2,179475:3:3:0:0:
64,192,179475,1,2,3:3:0:0:
192,192,179700,1,2,3:3:0:0:
448,192,179925,1,2,3:3:0:0:
320,192,180075,128,2,180375:3:3:0:0:
192,192,180675,1,2,3:3:0:0:
448,192,180675,1,2,3:3:0:0:
64,192,180825,1,2,3:3:0:0:
192,192,180975,1,2,3:3:0:0:
448,192,180975,1,2,3:3:0:0:
320,192,181125,1,2,3:3:0:0:
192,192,181275,1,2,3:3:0:0:
64,192,181275,1,2,3:3:0:0:
320,192,181425,1,2,3:3:0:0:
448,192,181425,1,2,3:3:0:0:
64,192,181575,128,2,181875:3:3:0:0:
320,192,181875,1,2,3:3:0:0:
192,192,182100,1,2,3:3:0:0:
64,192,182325,1,2,3:3:0:0:
320,192,182475,1,2,3:3:0:0:
192,192,182700,1,2,3:3:0:0:
64,192,182925,1,2,3:3:0:0:
320,192,183075,128,2,183675:3:3:0:0:
192,192,183225,128,2,183525:3:3:0:0:
64,192,183375,128,2,183825:3:3:0:0:
448,192,183525,128,2,183975:3:3:0:0:
192,192,183675,128,2,184275:3:3:0:0:
320,192,183825,128,2,184275:3:3:0:0:
64,192,183975,128,2,184575:3:3:0:0:
448,192,184275,128,2,184725:3:3:0:0:
320,192,184500,128,2,184875:3:3:0:0:
192,192,184725,1,2,3:3:0:0:
64,192,184875,128,2,185475:3:3:0:0:
448,192,184875,128,2,185475:3:3:0:0:
192,192,185475,1,0,0:0:0:0:
320,192,185475,1,0,0:0:0:0:
64,192,185550,1,0,0:0:0:0:
448,192,185550,1,0,0:0:0:0:
192,192,185625,1,0,0:0:0:0:
320,192,185625,1,0,0:0:0:0:
64,192,185700,1,0,0:0:0:0:
448,192,185700,1,0,0:0:0:0:
320,192,185775,128,0,186075:0:0:0:0:
64,192,185850,1,0,0:0:0:0:
192,192,185925,128,0,186075:0:0:0:0:
64,192,186075,1,0,0:0:0:0:
448,192,186075,1,0,0:0:0:0:
192,192,186150,1,0,0:0:0:0:
320,192,186150,1,0,0:0:0:0:
64,192,186225,1,0,0:0:0:0:
448,192,186225,1,0,0:0:0:0:
192,192,186300,1,0,0:0:0:0:
320,192,186300,1,0,0:0:0:0:
64,192,186375,128,2,186675:2:2:0:0:
448,192,186375,1,0,0:0:0:0:
192,192,186450,1,0,0:0:0:0:
448,192,186525,128,2,186675:2:2:0:0:
320,192,186525,1,0,0:0:0:0:
192,192,186675,1,2,2:2:0:0:
320,192,186675,1,2,2:2:0:0:
448,192,186750,1,2,2:2:0:0:
192,192,186825,1,2,2:2:0:0:
64,192,186825,1,2,2:2:0:0:
320,192,186900,1,2,2:2:0:0:
192,192,186975,1,2,2:2:0:0:
64,192,186975,1,2,2:2:0:0:
448,192,186975,1,2,2:2:0:0:
320,192,187050,1,2,2:2:0:0:
192,192,187125,1,2,2:2:0:0:
64,192,187125,1,2,2:2:0:0:
448,192,187200,1,2,2:2:0:0:
192,192,187275,1,2,2:2:0:0:
320,192,187275,1,2,2:2:0:0:
64,192,187275,1,2,2:2:0:0:
448,192,187350,1,2,2:2:0:0:
320,192,187425,1,2,2:2:0:0:
192,192,187425,1,2,2:2:0:0:
64,192,187500,1,2,2:2:0:0:
192,192,187575,1,2,2:2:0:0:
320,192,187575,1,2,2:2:0:0:
448,192,187575,1,2,2:2:0:0:
64,192,187650,1,2,2:2:0:0:
192,192,187725,1,2,2:2:0:0:
320,192,187800,1,2,2:2:0:0:
192,192,187875,1,2,2:2:0:0:
64,192,187875,1,2,2:2:0:0:
448,192,187875,1,2,2:2:0:0:
320,192,187950,1,2,2:2:0:0:
192,192,188025,1,2,2:2:0:0:
320,192,188100,1,2,2:2:0:0:
448,192,188100,1,2,2:2:0:0:
64,192,188175,1,2,2:2:0:0:
192,192,188250,1,2,2:2:0:0:
64,192,188325,1,2,2:2:0:0:
320,192,188325,1,2,2:2:0:0:
192,192,188400,1,2,2:2:0:0:
320,192,188475,1,2,2:2:0:0:
448,192,188475,1,2,2:2:0:0:
64,192,188475,1,2,2:2:0:0:
192,192,188550,1,2,2:2:0:0:
64,192,188625,1,2,2:2:0:0:
320,192,188700,1,2,2:2:0:0:
448,192,188700,1,2,2:2:0:0:
192,192,188775,1,2,2:2:0:0:
320,192,188850,1,2,2:2:0:0:
64,192,188925,1,2,2:2:0:0:
448,192,188925,1,2,2:2:0:0:
192,192,189000,1,2,2:2:0:0:
64,192,189075,1,2,2:2:0:0:
320,192,189075,1,2,2:2:0:0:
448,192,189075,1,2,2:2:0:0:
192,192,189150,1,2,2:2:0:0:
320,192,189225,1,2,2:2:0:0:
448,192,189225,1,2,2:2:0:0:
64,192,189300,1,2,2:2:0:0:
192,192,189375,1,2,2:2:0:0:
320,192,189375,1,2,2:2:0:0:
448,192,189375,1,2,2:2:0:0:
64,192,189450,1,2,2:2:0:0:
192,192,189525,1,2,2:2:0:0:
320,192,189525,1,2,2:2:0:0:
448,192,189600,1,2,2:2:0:0:
320,192,189675,1,2,2:2:0:0:
192,192,189675,1,2,2:2:0:0:
64,192,189675,1,2,2:2:0:0:
448,192,189750,1,2,2:2:0:0:
192,192,189825,1,2,2:2:0:0:
64,192,189825,1,2,2:2:0:0:
320,192,189900,1,2,2:2:0:0:
192,192,189975,1,2,2:2:0:0:
64,192,189975,1,2,2:2:0:0:
448,192,189975,1,2,2:2:0:0:
320,192,190050,1,2,2:2:0:0:
64,192,190125,1,2,2:2:0:0:
192,192,190200,1,2,2:2:0:0:
320,192,190275,1,2,2:2:0:0:
448,192,190275,1,2,2:2:0:0:
64,192,190275,1,2,2:2:0:0:
192,192,190350,1,2,2:2:0:0:
320,192,190425,1,2,2:2:0:0:
192,192,190500,1,2,2:2:0:0:
64,192,190500,1,2,2:2:0:0:
448,192,190575,1,2,2:2:0:0:
320,192,190650,1,2,2:2:0:0:
192,192,190725,1,2,2:2:0:0:
448,192,190725,1,2,2:2:0:0:
320,192,190800,1,2,2:2:0:0:
192,192,190875,1,2,2:2:0:0:
64,192,190875,1,2,2:2:0:0:
448,192,190875,1,2,2:2:0:0:
320,192,190950,1,2,2:2:0:0:
192,192,191025,1,2,2:2:0:0:
64,192,191100,1,2,2:2:0:0:
320,192,191175,1,2,2:2:0:0:
192,192,191250,1,2,2:2:0:0:
64,192,191325,1,2,2:2:0:0:
192,192,191400,1,2,2:2:0:0:
64,192,191475,1,2,2:2:0:0:
320,192,191475,1,2,2:2:0:0:
448,192,191475,1,2,2:2:0:0:
192,192,191550,1,2,2:2:0:0:
320,192,191625,1,2,2:2:0:0:
448,192,191625,1,2,2:2:0:0:
64,192,191700,1,2,2:2:0:0:
192,192,191775,1,2,2:2:0:0:
320,192,191775,1,2,2:2:0:0:
448,192,191775,1,2,2:2:0:0:
64,192,191850,1,2,2:2:0:0:
192,192,191925,1,2,2:2:0:0:
320,192,191925,1,2,2:2:0:0:
448,192,192000,1,2,2:2:0:0:
320,192,192075,1,2,2:2:0:0:
192,192,192075,1,2,2:2:0:0:
64,192,192075,1,2,2:2:0:0:
448,192,192150,1,2,2:2:0:0:
192,192,192225,1,2,2:2:0:0:
64,192,192225,1,2,2:2:0:0:
320,192,192300,1,2,2:2:0:0:
192,192,192375,1,2,2:2:0:0:
64,192,192375,1,2,2:2:0:0:
448,192,192375,1,2,2:2:0:0:
320,192,192450,1,2,2:2:0:0:
448,192,192525,1,2,2:2:0:0:
192,192,192600,1,2,2:2:0:0:
64,192,192675,1,2,2:2:0:0:
320,192,192675,1,2,2:2:0:0:
448,192,192675,1,2,2:2:0:0:
192,192,192750,1,2,2:2:0:0:
320,192,192825,1,2,2:2:0:0:
192,192,192900,1,2,2:2:0:0:
64,192,192900,1,2,2:2:0:0:
320,192,192975,1,2,2:2:0:0:
192,192,193050,1,2,2:2:0:0:
320,192,193125,1,2,2:2:0:0:
64,192,193125,1,2,2:2:0:0:
448,192,193200,1,2,2:2:0:0:
320,192,193275,1,2,2:2:0:0:
192,192,193275,1,2,2:2:0:0:
64,192,193275,1,2,2:2:0:0:
448,192,193350,1,2,2:2:0:0:
320,192,193425,1,2,2:2:0:0:
192,192,193500,1,2,2:2:0:0:
64,192,193500,1,2,2:2:0:0:
320,192,193575,1,2,2:2:0:0:
192,192,193650,1,2,2:2:0:0:
64,192,193725,1,2,2:2:0:0:
448,192,193725,1,2,2:2:0:0:
320,192,193800,1,2,2:2:0:0:
192,192,193875,1,2,2:2:0:0:
64,192,193875,1,2,2:2:0:0:
448,192,193875,1,2,2:2:0:0:
320,192,193950,1,2,2:2:0:0:
192,192,194025,1,2,2:2:0:0:
64,192,194025,1,2,2:2:0:0:
448,192,194100,1,2,2:2:0:0:
320,192,194175,1,2,2:2:0:0:
192,192,194175,1,2,2:2:0:0:
64,192,194175,1,2,2:2:0:0:
448,192,194250,1,2,2:2:0:0:
192,192,194325,1,2,2:2:0:0:
320,192,194325,1,2,2:2:0:0:
64,192,194400,1,2,2:2:0:0:
192,192,194475,1,2,2:2:0:0:
320,192,194475,1,2,2:2:0:0:
448,192,194475,1,2,2:2:0:0:
64,192,194550,1,2,2:2:0:0:
320,192,194625,1,2,2:2:0:0:
448,192,194625,1,2,2:2:0:0:
192,192,194700,1,2,2:2:0:0:
64,192,194775,1,2,2:2:0:0:
448,192,194775,1,2,2:2:0:0:
320,192,194775,1,2,2:2:0:0:
192,192,194850,1,2,2:2:0:0:
320,192,194925,1,2,2:2:0:0:
64,192,195000,1,2,2:2:0:0:
192,192,195075,1,2,2:2:0:0:
320,192,195075,1,2,2:2:0:0:
448,192,195075,1,2,2:2:0:0:
64,192,195150,1,2,2:2:0:0:
192,192,195225,1,2,2:2:0:0:
320,192,195300,1,2,2:2:0:0:
448,192,195300,1,2,2:2:0:0:
192,192,195375,1,2,2:2:0:0:
64,192,195450,1,2,2:2:0:0:
192,192,195525,1,2,2:2:0:0:
448,192,195525,1,2,2:2:0:0:
320,192,195600,1,2,2:2:0:0:
192,192,195675,1,2,2:2:0:0:
64,192,195675,1,2,2:2:0:0:
448,192,195675,1,2,2:2:0:0:
320,192,195750,1,2,2:2:0:0:
192,192,195825,1,2,2:2:0:0:
64,192,195900,1,2,2:2:0:0:
320,192,195975,1,2,2:2:0:0:
192,192,196050,1,2,2:2:0:0:
64,192,196125,1,2,2:2:0:0:
192,192,196200,1,2,2:2:0:0:
64,192,196275,1,2,2:2:0:0:
448,192,196275,1,2,2:2:0:0:
320,192,196275,1,2,2:2:0:0:
192,192,196350,1,2,2:2:0:0:
320,192,196425,1,2,2:2:0:0:
448,192,196425,1,2,2:2:0:0:
64,192,196500,1,2,2:2:0:0:
192,192,196575,1,2,2:2:0:0:
320,192,196575,1,2,2:2:0:0:
448,192,196575,1,2,2:2:0:0:
64,192,196650,1,2,2:2:0:0:
192,192,196725,1,2,2:2:0:0:
320,192,196725,1,2,2:2:0:0:
448,192,196800,1,2,2:2:0:0:
320,192,196875,1,2,2:2:0:0:
192,192,196875,1,2,2:2:0:0:
64,192,196875,1,2,2:2:0:0:
448,192,196950,1,2,2:2:0:0:
192,192,197025,1,2,2:2:0:0:
64,192,197025,1,2,2:2:0:0:
320,192,197100,1,2,2:2:0:0:
192,192,197175,1,2,2:2:0:0:
64,192,197175,1,2,2:2:0:0:
448,192,197175,1,2,2:2:0:0:
320,192,197250,1,2,2:2:0:0:
192,192,197325,1,2,2:2:0:0:
64,192,197400,1,2,2:2:0:0:
192,192,197475,1,2,2:2:0:0:
320,192,197475,1,2,2:2:0:0:
448,192,197475,1,2,2:2:0:0:
64,192,197550,1,2,2:2:0:0:
192,192,197625,1,2,2:2:0:0:
320,192,197700,1,2,2:2:0:0:
448,192,197700,1,2,2:2:0:0:
192,192,197775,1,2,2:2:0:0:
64,192,197850,1,2,2:2:0:0:
192,192,197925,1,2,2:2:0:0:
448,192,197925,1,2,2:2:0:0:
320,192,198000,1,2,2:2:0:0:
192,192,198075,1,2,2:2:0:0:
64,192,198075,1,2,2:2:0:0:
448,192,198075,1,2,2:2:0:0:
320,192,198150,1,2,2:2:0:0:
64,192,198225,1,2,2:2:0:0:
320,192,198300,1,2,2:2:0:0:
192,192,198300,1,2,2:2:0:0:
448,192,198375,1,2,2:2:0:0:
320,192,198450,1,2,2:2:0:0:
64,192,198525,1,2,2:2:0:0:
448,192,198525,1,2,2:2:0:0:
192,192,198600,1,2,2:2:0:0:
64,192,198675,1,2,2:2:0:0:
320,192,198675,1,2,2:2:0:0:
448,192,198675,1,2,2:2:0:0:
192,192,198750,1,2,2:2:0:0:
320,192,198825,1,2,2:2:0:0:
448,192,198825,1,2,2:2:0:0:
64,192,198900,1,2,2:2:0:0:
192,192,198975,1,2,2:2:0:0:
320,192,198975,1,2,2:2:0:0:
448,192,198975,1,2,2:2:0:0:
64,192,199050,1,2,2:2:0:0:
192,192,199125,1,2,2:2:0:0:
320,192,199125,1,2,2:2:0:0:
448,192,199200,1,2,2:2:0:0:
320,192,199275,1,2,2:2:0:0:
192,192,199275,1,2,2:2:0:0:
64,192,199275,1,2,2:2:0:0:
448,192,199350,1,2,2:2:0:0:
192,192,199425,1,2,2:2:0:0:
64,192,199425,1,2,2:2:0:0:
320,192,199500,1,2,2:2:0:0:
192,192,199575,1,2,2:2:0:0:
64,192,199575,1,2,2:2:0:0:
448,192,199575,1,2,2:2:0:0:
320,192,199650,1,2,2:2:0:0:
448,192,199725,1,2,2:2:0:0:
320,192,199800,1,2,2:2:0:0:
192,192,199875,1,2,2:2:0:0:
64,192,199875,1,2,2:2:0:0:
448,192,199875,1,2,2:2:0:0:
320,192,199950,1,2,2:2:0:0:
64,192,200025,1,2,2:2:0:0:
192,192,200100,1,2,2:2:0:0:
320,192,200100,1,2,2:2:0:0:
448,192,200175,1,2,2:2:0:0:
320,192,200250,1,2,2:2:0:0:
192,192,200325,1,2,2:2:0:0:
448,192,200325,1,2,2:2:0:0:
64,192,200400,1,2,2:2:0:0:
192,192,200475,1,2,2:2:0:0:
320,192,200475,1,2,2:2:0:0:
448,192,200475,1,2,2:2:0:0:
64,192,200550,1,2,2:2:0:0:
192,192,200625,1,2,2:2:0:0:
448,192,200700,1,2,2:2:0:0:
192,192,200775,1,2,2:2:0:0:
320,192,200850,1,2,2:2:0:0:
448,192,200925,1,2,2:2:0:0:
320,192,201000,1,2,2:2:0:0:
192,192,201075,1,2,2:2:0:0:
64,192,201075,1,2,2:2:0:0:
448,192,201075,1,2,2:2:0:0:
320,192,201150,1,2,2:2:0:0:
64,192,201225,1,2,2:2:0:0:
192,192,201225,1,2,2:2:0:0:
448,192,201300,1,2,2:2:0:0:
320,192,201375,1,2,2:2:0:0:
192,192,201375,1,2,2:2:0:0:
64,192,201375,1,2,2:2:0:0:
448,192,201450,1,2,2:2:0:0:
320,192,201525,1,2,2:2:0:0:
192,192,201525,1,2,2:2:0:0:
64,192,201600,1,2,2:2:0:0:
192,192,201675,1,2,2:2:0:0:
320,192,201675,1,2,2:2:0:0:
448,192,201675,1,2,2:2:0:0:
64,192,201750,1,2,2:2:0:0:
320,192,201825,1,2,2:2:0:0:
448,192,201825,1,2,2:2:0:0:
192,192,201900,1,2,2:2:0:0:
64,192,201975,1,2,2:2:0:0:
320,192,201975,1,2,2:2:0:0:
448,192,201975,1,2,2:2:0:0:
192,192,202050,1,2,2:2:0:0:
320,192,202125,1,2,2:2:0:0:
192,192,202200,1,2,2:2:0:0:
64,192,202275,1,2,2:2:0:0:
320,192,202275,1,2,2:2:0:0:
448,192,202275,1,2,2:2:0:0:
192,192,202350,1,2,2:2:0:0:
320,192,202425,1,2,2:2:0:0:
192,192,202500,1,2,2:2:0:0:
64,192,202500,1,2,2:2:0:0:
320,192,202575,1,2,2:2:0:0:
448,192,202650,1,2,2:2:0:0:
320,192,202725,1,2,2:2:0:0:
64,192,202725,1,2,2:2:0:0:
192,192,202800,1,2,2:2:0:0:
64,192,202875,1,2,2:2:0:0:
320,192,202875,1,2,2:2:0:0:
448,192,202875,1,2,2:2:0:0:
192,192,202950,1,2,2:2:0:0:
64,192,203025,1,2,2:2:0:0:
320,192,203100,1,2,2:2:0:0:
448,192,203100,1,2,2:2:0:0:
192,192,203175,1,2,2:2:0:0:
64,192,203250,1,2,2:2:0:0:
192,192,203325,1,2,2:2:0:0:
448,192,203325,1,2,2:2:0:0:
320,192,203400,1,2,2:2:0:0:
192,192,203475,1,2,2:2:0:0:
448,192,203475,1,2,2:2:0:0:
64,192,203475,1,2,2:2:0:0:
320,192,203550,1,2,2:2:0:0:
192,192,203625,1,2,2:2:0:0:
64,192,203625,1,2,2:2:0:0:
448,192,203700,1,2,2:2:0:0:
320,192,203775,1,2,2:2:0:0:
192,192,203775,1,2,2:2:0:0:
64,192,203775,1,2,2:2:0:0:
448,192,203850,1,2,2:2:0:0:
320,192,203925,1,2,2:2:0:0:
192,192,203925,1,2,2:2:0:0:
64,192,204000,1,2,2:2:0:0:
192,192,204075,1,2,2:2:0:0:
320,192,204075,1,2,2:2:0:0:
448,192,204075,1,2,2:2:0:0:
64,192,204150,1,2,2:2:0:0:
320,192,204225,1,2,2:2:0:0:
448,192,204225,1,2,2:2:0:0:
192,192,204300,1,2,2:2:0:0:
64,192,204375,1,2,2:2:0:0:
320,192,204375,1,2,2:2:0:0:
448,192,204375,1,2,2:2:0:0:
192,192,204450,1,2,2:2:0:0:
320,192,204525,1,2,2:2:0:0:
192,192,204600,1,2,2:2:0:0:
448,192,204675,1,2,2:2:0:0:
320,192,204675,1,2,2:2:0:0:
64,192,204750,1,2,2:2:0:0:
192,192,204750,1,2,2:2:0:0:
320,192,204825,1,2,2:2:0:0:
448,192,204825,1,2,2:2:0:0:
64,192,204900,1,2,2:2:0:0:
192,192,204975,1,2,2:2:0:0:
320,192,204975,1,2,2:2:0:0:
64,192,205050,1,2,2:2:0:0:
448,192,205050,1,2,2:2:0:0:
192,192,205125,1,2,2:2:0:0:
320,192,205125,1,2,2:2:0:0:
448,192,205200,1,2,2:2:0:0:
64,192,205275,1,2,2:2:0:0:
192,192,205275,1,2,2:2:0:0:
320,192,205350,1,2,2:2:0:0:
448,192,205350,1,2,2:2:0:0:
192,192,205425,1,2,2:2:0:0:
64,192,205425,1,2,2:2:0:0:
448,192,205500,1,2,2:2:0:0:
320,192,205575,1,2,2:2:0:0:
192,192,205575,1,2,2:2:0:0:
64,192,205650,1,2,2:2:0:0:
448,192,205650,1,2,2:2:0:0:
320,192,205725,1,2,2:2:0:0:
192,192,205725,1,2,2:2:0:0:
448,192,205800,1,2,2:2:0:0:
192,192,205875,1,2,2:2:0:0:
64,192,205875,1,2,2:2:0:0:
320,192,205875,1,2,2:2:0:0:
448,192,205950,1,2,2:2:0:0:
192,192,206025,1,2,2:2:0:0:
320,192,206100,1,2,2:2:0:0:
192,192,206175,1,2,2:2:0:0:
64,192,206175,1,2,2:2:0:0:
448,192,206175,1,2,2:2:0:0:
320,192,206250,1,2,2:2:0:0:
448,192,206325,1,2,2:2:0:0:
64,192,206400,1,2,2:2:0:0:
192,192,206475,1,2,2:2:0:0:
320,192,206475,1,2,2:2:0:0:
448,192,206475,1,2,2:2:0:0:
64,192,206550,1,2,2:2:0:0:
192,192,206625,1,2,2:2:0:0:
320,192,206700,1,2,2:2:0:0:
192,192,206775,1,2,2:2:0:0:
64,192,206775,1,2,2:2:0:0:
448,192,206775,1,2,2:2:0:0:
320,192,206850,1,2,2:2:0:0:
448,192,206925,1,2,2:2:0:0:
192,192,207000,1,2,2:2:0:0:
64,192,207075,1,2,2:2:0:0:
320,192,207075,1,2,2:2:0:0:
448,192,207075,1,2,2:2:0:0:
192,192,207150,1,2,2:2:0:0:
64,192,207225,1,2,2:2:0:0:
320,192,207300,1,2,2:2:0:0:
192,192,207375,1,2,2:2:0:0:
64,192,207375,1,2,2:2:0:0:
448,192,207375,1,2,2:2:0:0:
320,192,207450,1,2,2:2:0:0:
192,192,207525,1,2,2:2:0:0:
64,192,207600,1,2,2:2:0:0:
192,192,207675,1,2,2:2:0:0:
320,192,207675,1,2,2:2:0:0:
448,192,207675,1,2,2:2:0:0:
64,192,207750,1,2,2:2:0:0:
192,192,207825,1,2,2:2:0:0:
448,192,207900,1,2,2:2:0:0:
320,192,207975,1,2,2:2:0:0:
192,192,207975,1,2,2:2:0:0:
64,192,207975,1,2,2:2:0:0:
448,192,208050,1,2,2:2:0:0:
320,192,208125,1,2,2:2:0:0:
192,192,208200,1,2,2:2:0:0:
64,192,208275,1,2,2:2:0:0:
320,192,208275,1,2,2:2:0:0:
448,192,208275,1,2,2:2:0:0:
192,192,208350,1,2,2:2:0:0:
320,192,208425,1,2,2:2:0:0:
64,192,208500,1,2,2:2:0:0:
192,192,208575,1,2,2:2:0:0:
320,192,208575,1,2,2:2:0:0:
448,192,208575,1,2,2:2:0:0:
64,192,208650,1,2,2:2:0:0:
192,192,208725,1,2,2:2:0:0:
448,192,208800,1,2,2:2:0:0:
320,192,208875,1,2,2:2:0:0:
192,192,208875,1,2,2:2:0:0:
64,192,208875,1,2,2:2:0:0:
448,192,208950,1,2,2:2:0:0:
320,192,209025,1,2,2:2:0:0:
192,192,209100,1,2,2:2:0:0:
64,192,209175,1,2,2:2:0:0:
320,192,209175,1,2,2:2:0:0:
448,192,209175,1,2,2:2:0:0:
192,192,209250,1,2,2:2:0:0:
64,192,209325,1,2,2:2:0:0:
320,192,209400,1,2,2:2:0:0:
192,192,209475,1,2,2:2:0:0:
64,192,209475,1,2,2:2:0:0:
448,192,209475,1,2,2:2:0:0:
320,192,209550,1,2,2:2:0:0:
448,192,209625,1,2,2:2:0:0:
64,192,209700,1,2,2:2:0:0:
192,192,209775,1,2,2:2:0:0:
320,192,209775,1,2,2:2:0:0:
448,192,209775,1,2,2:2:0:0:
64,192,209850,1,2,2:2:0:0:
192,192,209925,1,2,2:2:0:0:
448,192,210000,1,2,2:2:0:0:
320,192,210075,1,2,2:2:0:0:
192,192,210075,1,2,2:2:0:0:
64,192,210075,1,2,2:2:0:0:
448,192,210150,1,2,2:2:0:0:
320,192,210225,1,2,2:2:0:0:
192,192,210300,1,2,2:2:0:0:
64,192,210375,1,2,2:2:0:0:
320,192,210375,1,2,2:2:0:0:
448,192,210375,1,2,2:2:0:0:
192,192,210450,1,2,2:2:0:0:
320,192,210525,1,2,2:2:0:0:
448,192,210600,1,2,2:2:0:0:
320,192,210675,1,2,2:2:0:0:
192,192,210675,1,2,2:2:0:0:
64,192,210675,1,2,2:2:0:0:
448,192,210750,1,2,2:2:0:0:
320,192,210825,1,2,2:2:0:0:
192,192,210900,1,2,2:2:0:0:
64,192,210975,1,2,2:2:0:0:
320,192,210975,1,2,2:2:0:0:
448,192,210975,1,2,2:2:0:0:
192,192,211050,1,2,2:2:0:0:
64,192,211125,1,2,2:2:0:0:
448,192,211200,1,2,2:2:0:0:
320,192,211275,1,2,2:2:0:0:
192,192,211275,1,2,2:2:0:0:
64,192,211275,1,2,2:2:0:0:
448,192,211350,1,2,2:2:0:0:
320,192,211425,1,2,2:2:0:0:
192,192,211500,1,2,2:2:0:0:
64,192,211575,1,2,2:2:0:0:
320,192,211575,1,2,2:2:0:0:
448,192,211575,1,2,2:2:0:0:
192,192,211650,1,2,2:2:0:0:
64,192,211725,1,2,2:2:0:0:
320,192,211800,1,2,2:2:0:0:
192,192,211875,1,2,2:2:0:0:
64,192,211875,1,2,2:2:0:0:
448,192,211875,1,2,2:2:0:0:
320,192,211950,1,2,2:2:0:0:
448,192,212025,1,2,2:2:0:0:
64,192,212100,1,2,2:2:0:0:
192,192,212175,1,2,2:2:0:0:
320,192,212175,1,2,2:2:0:0:
448,192,212175,1,2,2:2:0:0:
64,192,212250,1,2,2:2:0:0:
192,192,212325,1,2,2:2:0:0:
320,192,212400,1,2,2:2:0:0:
192,192,212475,1,2,2:2:0:0:
64,192,212475,1,2,2:2:0:0:
448,192,212475,1,2,2:2:0:0:
320,192,212550,1,2,2:2:0:0:
192,192,212625,1,2,2:2:0:0:
64,192,212700,1,2,2:2:0:0:
192,192,212775,1,2,2:2:0:0:
320,192,212775,1,2,2:2:0:0:
448,192,212775,1,2,2:2:0:0:
64,192,212850,1,2,2:2:0:0:
192,192,212925,1,2,2:2:0:0:
320,192,213000,1,2,2:2:0:0:
192,192,213075,1,2,2:2:0:0:
64,192,213075,1,2,2:2:0:0:
448,192,213075,1,2,2:2:0:0:
320,192,213150,1,2,2:2:0:0:
192,192,213225,1,2,2:2:0:0:
448,192,213300,1,2,2:2:0:0:
320,192,213375,1,2,2:2:0:0:
192,192,213375,1,2,2:2:0:0:
64,192,213375,1,2,2:2:0:0:
448,192,213450,1,2,2:2:0:0:
320,192,213525,1,2,2:2:0:0:
64,192,213600,1,2,2:2:0:0:
192,192,213675,1,2,2:2:0:0:
320,192,213675,1,2,2:2:0:0:
448,192,213675,1,2,2:2:0:0:
64,192,213750,1,2,2:2:0:0:
192,192,213825,1,2,2:2:0:0:
320,192,213900,1,2,2:2:0:0:
192,192,213975,1,2,2:2:0:0:
64,192,213975,1,2,2:2:0:0:
448,192,213975,1,2,2:2:0:0:
320,192,214050,1,2,2:2:0:0:
448,192,214125,1,2,2:2:0:0:
192,192,214200,1,2,2:2:0:0:
64,192,214275,1,2,2:2:0:0:
320,192,214275,1,2,2:2:0:0:
448,192,214275,1,2,2:2:0:0:
192,192,214350,1,2,2:2:0:0:
320,192,214425,1,2,2:2:0:0:
64,192,214500,1,2,2:2:0:0:
192,192,214575,1,2,2:2:0:0:
320,192,214575,1,2,2:2:0:0:
448,192,214575,1,2,2:2:0:0:
64,192,214650,1,2,2:2:0:0:
192,192,214725,1,2,2:2:0:0:
320,192,214800,1,2,2:2:0:0:
192,192,214875,1,2,2:2:0:0:
64,192,214875,1,2,2:2:0:0:
448,192,214875,1,2,2:2:0:0:
320,192,214950,1,2,2:2:0:0:
192,192,215025,1,2,2:2:0:0:
64,192,215100,1,2,2:2:0:0:
320,192,215175,1,2,2:2:0:0:
448,192,215175,1,2,2:2:0:0:
192,192,215175,1,2,2:2:0:0:
64,192,215250,1,2,2:2:0:0:
192,192,215325,1,2,2:2:0:0:
320,192,215400,1,2,2:2:0:0:
192,192,215475,1,2,2:2:0:0:
64,192,215475,1,2,2:2:0:0:
448,192,215475,1,2,2:2:0:0:
320,192,215550,1,2,2:2:0:0:
64,192,215625,1,2,2:2:0:0:
448,192,215625,1,2,2:2:0:0:
320,192,215700,1,2,2:2:0:0:
192,192,215775,1,2,2:2:0:0:
64,192,215775,1,2,2:2:0:0:
448,192,215775,1,2,2:2:0:0:
320,192,215850,1,2,2:2:0:0:
192,192,215925,1,2,2:2:0:0:
64,192,215925,1,2,2:2:0:0:
448,192,216000,1,2,2:2:0:0:
192,192,216075,1,2,2:2:0:0:
320,192,216075,1,2,2:2:0:0:
64,192,216075,1,2,2:2:0:0:
448,192,216150,1,2,2:2:0:0:
320,192,216225,1,2,2:2:0:0:
192,192,216225,1,2,2:2:0:0:
64,192,216225,1,2,2:2:0:0:
448,192,216300,1,2,2:2:0:0:
320,192,216375,1,2,2:2:0:0:
192,192,216375,1,2,2:2:0:0:
64,192,216375,1,2,2:2:0:0:
448,192,216450,1,2,2:2:0:0:
320,192,216525,1,2,2:2:0:0:
64,192,216525,1,2,2:2:0:0:
192,192,216600,1,2,2:2:0:0:
320,192,216675,1,2,2:2:0:0:
448,192,216675,1,2,2:2:0:0:
64,192,216675,1,2,2:2:0:0:
192,192,216750,1,2,2:2:0:0:
320,192,216825,1,2,2:2:0:0:
192,192,216900,1,2,2:2:0:0:
64,192,216900,1,2,2:2:0:0:
448,192,216900,1,2,2:2:0:0:
320,192,216975,1,2,2:2:0:0:
64,192,217050,1,2,2:2:0:0:
192,192,217125,1,2,2:2:0:0:
320,192,217125,1,2,2:2:0:0:
448,192,217125,1,2,2:2:0:0:
64,192,217200,1,2,2:2:0:0:
192,192,217275,1,2,2:2:0:0:
320,192,217275,1,2,2:2:0:0:
448,192,217275,1,2,2:2:0:0:
64,192,217350,1,2,2:2:0:0:
192,192,217425,1,2,2:2:0:0:
320,192,217500,1,2,2:2:0:0:
64,192,217500,1,2,2:2:0:0:
448,192,217500,1,2,2:2:0:0:
192,192,217575,1,2,2:2:0:0:
320,192,217650,1,2,2:2:0:0:
448,192,217725,1,2,2:2:0:0:
64,192,217725,1,2,2:2:0:0:
192,192,217800,1,2,2:2:0:0:
320,192,217875,1,2,2:2:0:0:
448,192,217875,1,2,2:2:0:0:
64,192,217875,1,2,2:2:0:0:
192,192,217950,1,2,2:2:0:0:
64,192,218025,1,2,2:2:0:0:
320,192,218025,1,2,2:2:0:0:
448,192,218025,1,2,2:2:0:0:
192,192,218100,1,2,2:2:0:0:
64,192,218175,1,2,2:2:0:0:
320,192,218175,1,2,2:2:0:0:
448,192,218175,1,2,2:2:0:0:
192,192,218250,1,2,2:2:0:0:
448,192,218325,1,2,2:2:0:0:
320,192,218325,1,2,2:2:0:0:
64,192,218400,1,2,2:2:0:0:
192,192,218475,1,2,2:2:0:0:
320,192,218475,1,2,2:2:0:0:
448,192,218475,1,2,2:2:0:0:
64,192,218550,1,2,2:2:0:0:
192,192,218625,1,2,2:2:0:0:
320,192,218625,1,2,2:2:0:0:
448,192,218625,1,2,2:2:0:0:
64,192,218700,1,2,2:2:0:0:
192,192,218775,1,2,2:2:0:0:
320,192,218775,1,2,2:2:0:0:
448,192,218775,1,2,2:2:0:0:
64,192,218850,1,2,2:2:0:0:
192,192,218925,1,2,2:2:0:0:
448,192,218925,1,2,2:2:0:0:
320,192,219000,1,2,2:2:0:0:
192,192,219075,1,2,2:2:0:0:
64,192,219075,1,2,2:2:0:0:
448,192,219075,1,2,2:2:0:0:
320,192,219150,1,2,2:2:0:0:
192,192,219225,1,2,2:2:0:0:
64,192,219300,1,2,2:2:0:0:
320,192,219300,1,2,2:2:0:0:
448,192,219300,1,2,2:2:0:0:
192,192,219375,1,2,2:2:0:0:
64,192,219450,1,2,2:2:0:0:
192,192,219525,1,2,2:2:0:0:
320,192,219525,1,2,2:2:0:0:
448,192,219525,1,2,2:2:0:0:
64,192,219600,1,2,2:2:0:0:
192,192,219675,1,2,2:2:0:0:
320,192,219675,1,2,2:2:0:0:
448,192,219675,1,2,2:2:0:0:
64,192,219750,1,2,2:2:0:0:
448,192,219825,1,2,2:2:0:0:
192,192,219825,1,2,2:2:0:0:
320,192,219900,1,2,2:2:0:0:
192,192,219975,1,2,2:2:0:0:
64,192,219975,1,2,2:2:0:0:
448,192,220050,1,2,2:2:0:0:
320,192,220125,1,2,2:2:0:0:
64,192,220125,1,2,2:2:0:0:
448,192,220200,1,2,2:2:0:0:
320,192,220275,1,2,2:2:0:0:
192,192,220275,1,2,2:2:0:0:
64,192,220275,1,2,2:2:0:0:
448,192,220350,1,2,2:2:0:0:
320,192,220425,1,2,2:2:0:0:
192,192,220425,1,2,2:2:0:0:
64,192,220425,1,2,2:2:0:0:
448,192,220500,1,2,2:2:0:0:
320,192,220575,1,2,2:2:0:0:
192,192,220575,1,2,2:2:0:0:
64,192,220575,1,2,2:2:0:0:
448,192,220650,1,2,2:2:0:0:
192,192,220725,1,2,2:2:0:0:
64,192,220725,1,2,2:2:0:0:
320,192,220800,1,2,2:2:0:0:
192,192,220875,1,2,2:2:0:0:
64,192,220875,1,2,2:2:0:0:
448,192,220875,1,2,2:2:0:0:
320,192,220950,1,2,2:2:0:0:
192,192,221025,1,2,2:2:0:0:
64,192,221025,1,2,2:2:0:0:
448,192,221025,1,2,2:2:0:0:
320,192,221100,1,2,2:2:0:0:
192,192,221175,1,2,2:2:0:0:
64,192,221175,1,2,2:2:0:0:
448,192,221175,1,2,2:2:0:0:
320,192,221250,1,2,2:2:0:0:
64,192,221325,1,2,2:2:0:0:
448,192,221325,1,2,2:2:0:0:
192,192,221400,1,2,2:2:0:0:
64,192,221475,1,2,2:2:0:0:
320,192,221475,1,2,2:2:0:0:
448,192,221475,1,2,2:2:0:0:
192,192,221550,1,2,2:2:0:0:
320,192,221625,1,2,2:2:0:0:
64,192,221700,1,2,2:2:0:0:
192,192,221700,1,2,2:2:0:0:
448,192,221700,1,2,2:2:0:0:
320,192,221775,1,2,2:2:0:0:
448,192,221850,1,2,2:2:0:0:
320,192,221925,1,2,2:2:0:0:
192,192,221925,1,2,2:2:0:0:
64,192,221925,1,2,2:2:0:0:
448,192,222000,1,2,2:2:0:0:
320,192,222075,1,2,2:2:0:0:
192,192,222075,1,2,2:2:0:0:
64,192,222075,1,2,2:2:0:0:
448,192,222150,1,2,2:2:0:0:
320,192,222225,1,2,2:2:0:0:
192,192,222300,1,2,2:2:0:0:
64,192,222300,1,2,2:2:0:0:
448,192,222300,1,2,2:2:0:0:
320,192,222375,1,2,2:2:0:0:
192,192,222450,1,2,2:2:0:0:
64,192,222525,1,2,2:2:0:0:
320,192,222525,1,2,2:2:0:0:
192,192,222600,1,2,2:2:0:0:
64,192,222675,1,2,2:2:0:0:
320,192,222675,1,2,2:2:0:0:
448,192,222675,1,2,2:2:0:0:
192,192,222750,1,2,2:2:0:0:
320,192,222825,1,2,2:2:0:0:
448,192,222825,1,2,2:2:0:0:
64,192,222900,1,2,2:2:0:0:
192,192,222975,1,2,2:2:0:0:
320,192,222975,1,2,2:2:0:0:
64,192,223050,1,2,2:2:0:0:
192,192,223125,1,2,2:2:0:0:
320,192,223125,1,2,2:2:0:0:
448,192,223200,1,2,2:2:0:0:
192,192,223275,1,2,2:2:0:0:
64,192,223275,1,2,2:2:0:0:
448,192,223350,1,2,2:2:0:0:
192,192,223425,1,2,2:2:0:0:
64,192,223425,1,2,2:2:0:0:
320,192,223500,1,2,2:2:0:0:
64,192,223575,1,2,2:2:0:0:
448,192,223575,1,2,2:2:0:0:
320,192,223650,1,2,2:2:0:0:
64,192,223725,1,2,2:2:0:0:
448,192,223725,1,2,2:2:0:0:
320,192,223800,1,2,2:2:0:0:
192,192,223875,1,0,3:3:0:0:
64,192,223875,1,0,0:0:0:0:
320,192,223950,1,0,3:3:0:0:
448,192,223950,1,0,0:0:0:0:
192,192,224025,1,0,3:3:0:0:
64,192,224025,1,0,0:0:0:0:
320,192,224100,1,0,3:3:0:0:
448,192,224100,1,0,0:0:0:0:
192,192,224175,1,0,3:3:0:0:
64,192,224175,1,0,0:0:0:0:
320,192,224250,1,0,3:3:0:0:
448,192,224250,1,0,0:0:0:0:
192,192,224325,1,0,3:3:0:0:
64,192,224325,1,0,0:0:0:0:
320,192,224400,1,0,3:3:0:0:
448,192,224400,1,0,0:0:0:0:
192,192,224475,1,0,3:3:0:0:
64,192,224475,1,0,0:0:0:0:
320,192,224550,1,0,3:3:0:0:
448,192,224550,1,0,0:0:0:0:
192,192,224625,1,0,3:3:0:0:
64,192,224625,1,0,0:0:0:0:
320,192,224700,1,0,3:3:0:0:
448,192,224700,1,0,0:0:0:0:
192,192,224775,1,0,3:3:0:0:
64,192,224775,1,0,0:0:0:0:
320,192,224850,1,0,3:3:0:0:
448,192,224850,1,0,0:0:0:0:
192,192,224925,1,0,3:3:0:0:
64,192,224925,1,0,0:0:0:0:
320,192,225000,1,0,3:3:0:0:
448,192,225000,1,0,0:0:0:0:
192,192,225075,1,0,3:3:0:0:
64,192,225075,1,4,0:0:0:0:
