osu file format v14

[General]
AudioFilename: calamity fortune.mp3
AudioLeadIn: 0
PreviewTime: -1
Countdown: 1
SampleSet: Soft
StackLeniency: 0.7
Mode: 3
LetterboxInBreaks: 0
SpecialStyle: 0
WidescreenStoryboard: 1

[Editor]
DistanceSpacing: 1.5
BeatDivisor: 8
GridSize: 8
TimelineZoom: 2.5

[Metadata]
Title:Nixo's JumpStream MiniPack 1
TitleUnicode:Nixo's JumpStream MiniPack 1
Artist:Various artists
ArtistUnicode:Various artists
Creator:Nixo
Version:Calamity Fortune
Source:
Tags:NixoNS stepmania jumpstream pack
BeatmapID:869819
BeatmapSetID:399642

[Difficulty]
HPDrainRate:8
CircleSize:4
OverallDifficulty:7
ApproachRate:5
SliderMultiplier:1.4
SliderTickRate:1

[Events]
//Background and Video events
0,0,"Calamity Fortune bg.jpg",0,0
//Break Periods
//Storyboard Layer 0 (Background)
//Storyboard Layer 1 (Fail)
//Storyboard Layer 2 (Pass)
//Storyboard Layer 3 (Foreground)
//Storyboard Sound Samples

[TimingPoints]
2544,300,4,2,0,0,1,0
43283,-133.333333333333,4,2,0,0,0,0
43433,-66.6666666666667,4,2,0,0,0,0
43583,-133.333333333333,4,2,0,0,0,0
43733,-66.6666666666667,4,2,0,0,0,0
43883,-133.333333333333,4,2,0,0,0,0
44033,-66.6666666666667,4,2,0,0,0,0
44183,-100,4,2,0,0,0,0
75533,-133.333333333333,4,2,0,0,0,0
75683,-66.6666666666667,4,2,0,0,0,0
75833,-133.333333333333,4,2,0,0,0,0
75983,-66.6666666666667,4,2,0,0,0,0
76133,-100,4,2,0,0,0,0

[HitObjects]
64,192,2544,5,0,0:0:0:0:
320,192,2544,1,0,0:0:0:0:
448,192,2544,1,0,0:0:0:0:
192,192,2619,1,0,0:0:0:0:
320,192,2694,1,0,0:0:0:0:
448,192,2694,1,0,0:0:0:0:
192,192,2769,1,0,0:0:0:0:
64,192,2769,1,0,0:0:0:0:
448,192,2844,1,0,0:0:0:0:
320,192,2844,1,0,0:0:0:0:
64,192,2919,1,0,0:0:0:0:
192,192,2994,1,0,0:0:0:0:
448,192,2994,1,0,0:0:0:0:
320,192,3069,1,0,0:0:0:0:
64,192,3069,1,0,0:0:0:0:
192,192,3144,1,0,0:0:0:0:
448,192,3144,1,0,0:0:0:0:
320,192,3219,1,0,0:0:0:0:
64,192,3294,1,0,0:0:0:0:
192,192,3294,1,0,0:0:0:0:
320,192,3369,1,0,0:0:0:0:
448,192,3369,1,0,0:0:0:0:
192,192,3444,1,0,0:0:0:0:
64,192,3444,1,0,0:0:0:0:
320,192,3519,1,0,0:0:0:0:
192,192,3594,1,0,0:0:0:0:
448,192,3594,1,0,0:0:0:0:
64,192,3669,1,0,0:0:0:0:
320,192,3669,1,0,0:0:0:0:
192,192,3744,1,0,0:0:0:0:
64,192,3894,1,0,0:0:0:0:
320,192,4044,1,0,0:0:0:0:
448,192,4044,1,0,0:0:0:0:
448,192,4194,1,0,0:0:0:0:
64,192,4269,1,0,0:0:0:0:
192,192,4269,1,0,0:0:0:0:
320,192,4344,1,0,0:0:0:0:
448,192,4344,1,0,0:0:0:0:
192,192,4419,1,0,0:0:0:0:
64,192,4419,1,0,0:0:0:0:
320,192,4494,1,0,0:0:0:0:
448,192,4494,1,0,0:0:0:0:
64,192,4644,128,0,4794:0:0:0:0:
192,192,4944,1,0,0:0:0:0:
320,192,4944,1,0,0:0:0:0:
448,192,4944,1,0,0:0:0:0:
64,192,5019,1,0,0:0:0:0:
192,192,5094,1,0,0:0:0:0:
320,192,5094,1,0,0:0:0:0:
64,192,5169,1,0,0:0:0:0:
448,192,5169,1,0,0:0:0:0:
192,192,5244,1,0,0:0:0:0:
320,192,5244,1,0,0:0:0:0:
448,192,5319,1,0,0:0:0:0:
64,192,5394,1,0,0:0:0:0:
192,192,5394,1,0,0:0:0:0:
320,192,5469,1,0,0:0:0:0:
448,192,5469,1,0,0:0:0:0:
192,192,5544,1,0,0:0:0:0:
64,192,5544,1,0,0:0:0:0:
320,192,5619,1,0,0:0:0:0:
192,192,5694,1,0,0:0:0:0:
448,192,5694,1,0,0:0:0:0:
320,192,5769,1,0,0:0:0:0:
64,192,5769,1,0,0:0:0:0:
192,192,5844,1,0,0:0:0:0:
448,192,5844,1,0,0:0:0:0:
320,192,5919,1,0,0:0:0:0:
192,192,5994,1,0,0:0:0:0:
64,192,5994,1,0,0:0:0:0:
64,192,6144,1,0,0:0:0:0:
192,192,6144,1,0,0:0:0:0:
448,192,6144,1,0,0:0:0:0:
64,192,6294,1,0,0:0:0:0:
320,192,6294,1,0,0:0:0:0:
64,192,6444,1,0,0:0:0:0:
320,192,6444,1,0,0:0:0:0:
448,192,6444,1,0,0:0:0:0:
192,192,6594,1,0,0:0:0:0:
448,192,6594,1,0,0:0:0:0:
192,192,6744,1,0,0:0:0:0:
320,192,6744,1,0,0:0:0:0:
64,192,6744,128,0,7194:0:0:0:0:
320,192,7194,1,0,0:0:0:0:
448,192,7194,1,0,0:0:0:0:
192,192,7269,1,0,0:0:0:0:
64,192,7269,1,0,0:0:0:0:
320,192,7344,1,0,0:0:0:0:
448,192,7344,1,0,0:0:0:0:
320,192,7494,1,0,0:0:0:0:
64,192,7494,1,0,0:0:0:0:
192,192,7644,1,0,0:0:0:0:
320,192,7644,1,0,0:0:0:0:
448,192,7644,1,0,0:0:0:0:
192,192,7794,1,0,0:0:0:0:
64,192,7944,1,0,0:0:0:0:
192,192,7944,1,0,0:0:0:0:
64,192,8094,1,0,0:0:0:0:
64,192,8244,1,0,0:0:0:0:
320,192,8244,1,0,0:0:0:0:
192,192,8244,1,0,0:0:0:0:
320,192,8394,1,0,0:0:0:0:
64,192,8544,1,0,0:0:0:0:
320,192,8544,1,0,0:0:0:0:
64,192,8694,1,0,0:0:0:0:
448,192,8844,1,0,0:0:0:0:
64,192,8844,1,0,0:0:0:0:
320,192,8844,1,0,0:0:0:0:
448,192,8994,1,0,0:0:0:0:
192,192,9144,1,0,0:0:0:0:
448,192,9144,1,0,0:0:0:0:
192,192,9294,1,0,0:0:0:0:
64,192,9444,1,0,0:0:0:0:
192,192,9444,1,0,0:0:0:0:
320,192,9444,1,0,0:0:0:0:
64,192,9744,1,0,0:0:0:0:
192,192,9744,1,0,0:0:0:0:
448,192,9744,1,0,0:0:0:0:
320,192,9744,1,0,0:0:0:0:
320,192,9969,1,0,0:0:0:0:
448,192,9969,1,0,0:0:0:0:
192,192,10044,1,0,0:0:0:0:
64,192,10044,1,0,0:0:0:0:
192,192,10194,1,0,0:0:0:0:
320,192,10194,1,0,0:0:0:0:
448,192,10194,1,0,0:0:0:0:
64,192,10344,1,0,0:0:0:0:
192,192,10344,1,0,0:0:0:0:
448,192,10344,1,0,0:0:0:0:
64,192,10644,1,0,0:0:0:0:
192,192,10644,1,0,0:0:0:0:
448,192,10644,1,0,0:0:0:0:
64,192,10794,1,0,0:0:0:0:
320,192,10794,1,0,0:0:0:0:
192,192,10944,1,0,0:0:0:0:
64,192,10944,128,0,11019:0:0:0:0:
448,192,10944,128,0,11019:0:0:0:0:
64,192,11094,128,0,11169:0:0:0:0:
448,192,11094,128,0,11169:0:0:0:0:
320,192,11094,1,0,0:0:0:0:
192,192,11244,1,0,0:0:0:0:
64,192,11244,128,0,11319:0:0:0:0:
448,192,11244,128,0,11319:0:0:0:0:
192,192,11544,1,0,0:0:0:0:
320,192,11544,1,0,0:0:0:0:
64,192,11544,128,0,11619:0:0:0:0:
448,192,11544,128,0,11619:0:0:0:0:
192,192,11844,1,0,0:0:0:0:
448,192,11844,1,0,0:0:0:0:
320,192,11919,1,0,0:0:0:0:
64,192,11919,1,0,0:0:0:0:
192,192,11994,1,0,0:0:0:0:
448,192,11994,1,0,0:0:0:0:
320,192,12069,1,0,0:0:0:0:
192,192,12144,1,0,0:0:0:0:
64,192,12144,1,0,0:0:0:0:
448,192,12144,1,0,0:0:0:0:
320,192,12219,1,0,0:0:0:0:
64,192,12294,1,0,0:0:0:0:
192,192,12369,1,0,0:0:0:0:
448,192,12369,1,0,0:0:0:0:
320,192,12444,1,0,0:0:0:0:
64,192,12444,1,0,0:0:0:0:
192,192,12519,1,0,0:0:0:0:
320,192,12594,1,0,0:0:0:0:
448,192,12594,1,0,0:0:0:0:
64,192,12669,1,0,0:0:0:0:
192,192,12744,1,0,0:0:0:0:
448,192,12744,1,0,0:0:0:0:
320,192,12819,1,0,0:0:0:0:
192,192,12894,1,0,0:0:0:0:
64,192,12894,1,0,0:0:0:0:
320,192,12969,1,0,0:0:0:0:
448,192,13044,1,0,0:0:0:0:
192,192,13044,1,0,0:0:0:0:
64,192,13119,1,0,0:0:0:0:
320,192,13119,1,0,0:0:0:0:
192,192,13194,1,0,0:0:0:0:
64,192,13269,1,0,0:0:0:0:
320,192,13269,1,0,0:0:0:0:
192,192,13344,1,0,0:0:0:0:
448,192,13344,1,0,0:0:0:0:
64,192,13419,1,0,0:0:0:0:
320,192,13494,1,0,0:0:0:0:
64,192,13569,1,0,0:0:0:0:
192,192,13569,1,0,0:0:0:0:
320,192,13644,1,0,0:0:0:0:
448,192,13644,1,0,0:0:0:0:
64,192,13719,1,0,0:0:0:0:
192,192,13794,1,0,0:0:0:0:
320,192,13794,1,0,0:0:0:0:
448,192,13869,1,0,0:0:0:0:
320,192,13944,1,0,0:0:0:0:
64,192,13944,1,0,0:0:0:0:
192,192,14019,1,0,0:0:0:0:
320,192,14094,1,0,0:0:0:0:
448,192,14094,1,0,0:0:0:0:
192,192,14169,1,0,0:0:0:0:
64,192,14244,1,0,0:0:0:0:
320,192,14244,1,0,0:0:0:0:
192,192,14319,1,0,0:0:0:0:
448,192,14319,1,0,0:0:0:0:
320,192,14394,1,0,0:0:0:0:
448,192,14469,1,0,0:0:0:0:
192,192,14469,1,0,0:0:0:0:
320,192,14544,1,0,0:0:0:0:
64,192,14544,1,0,0:0:0:0:
448,192,14619,1,0,0:0:0:0:
192,192,14694,1,0,0:0:0:0:
320,192,14769,1,0,0:0:0:0:
448,192,14769,1,0,0:0:0:0:
192,192,14844,1,0,0:0:0:0:
64,192,14844,1,0,0:0:0:0:
448,192,14919,1,0,0:0:0:0:
320,192,14994,1,0,0:0:0:0:
64,192,14994,1,0,0:0:0:0:
192,192,15069,1,0,0:0:0:0:
320,192,15144,1,0,0:0:0:0:
448,192,15144,1,0,0:0:0:0:
64,192,15219,1,0,0:0:0:0:
192,192,15294,1,0,0:0:0:0:
320,192,15294,1,0,0:0:0:0:
448,192,15369,1,0,0:0:0:0:
320,192,15444,1,0,0:0:0:0:
64,192,15444,1,0,0:0:0:0:
192,192,15519,1,0,0:0:0:0:
448,192,15519,1,0,0:0:0:0:
320,192,15594,1,0,0:0:0:0:
64,192,15594,1,0,0:0:0:0:
192,192,15669,1,0,0:0:0:0:
320,192,15744,1,0,0:0:0:0:
448,192,15744,1,0,0:0:0:0:
64,192,15819,1,0,0:0:0:0:
192,192,15894,1,0,0:0:0:0:
448,192,15894,1,0,0:0:0:0:
320,192,15969,1,0,0:0:0:0:
192,192,16044,1,0,0:0:0:0:
64,192,16044,1,0,0:0:0:0:
448,192,16119,1,0,0:0:0:0:
320,192,16194,1,0,0:0:0:0:
64,192,16194,1,0,0:0:0:0:
192,192,16269,1,0,0:0:0:0:
320,192,16344,1,0,0:0:0:0:
448,192,16344,1,0,0:0:0:0:
192,192,16419,1,0,0:0:0:0:
64,192,16494,1,0,0:0:0:0:
448,192,16494,1,0,0:0:0:0:
320,192,16569,1,0,0:0:0:0:
192,192,16644,1,0,0:0:0:0:
448,192,16644,1,0,0:0:0:0:
320,192,16719,1,0,0:0:0:0:
64,192,16719,1,0,0:0:0:0:
192,192,16794,1,0,0:0:0:0:
64,192,16869,1,0,0:0:0:0:
320,192,16869,1,0,0:0:0:0:
192,192,16944,1,0,0:0:0:0:
448,192,16944,1,0,0:0:0:0:
320,192,17019,1,0,0:0:0:0:
64,192,17094,1,0,0:0:0:0:
320,192,17169,1,0,0:0:0:0:
448,192,17169,1,0,0:0:0:0:
192,192,17244,1,0,0:0:0:0:
64,192,17244,1,0,0:0:0:0:
448,192,17319,1,0,0:0:0:0:
320,192,17394,1,0,0:0:0:0:
64,192,17394,1,0,0:0:0:0:
192,192,17469,1,0,0:0:0:0:
320,192,17544,1,0,0:0:0:0:
448,192,17544,1,0,0:0:0:0:
64,192,17619,1,0,0:0:0:0:
192,192,17694,1,0,0:0:0:0:
448,192,17694,1,0,0:0:0:0:
320,192,17769,1,0,0:0:0:0:
192,192,17844,1,0,0:0:0:0:
64,192,17844,1,0,0:0:0:0:
320,192,17919,1,0,0:0:0:0:
448,192,17919,1,0,0:0:0:0:
64,192,17994,1,0,0:0:0:0:
320,192,18069,1,0,0:0:0:0:
448,192,18069,1,0,0:0:0:0:
192,192,18144,1,0,0:0:0:0:
64,192,18144,1,0,0:0:0:0:
320,192,18219,1,0,0:0:0:0:
448,192,18294,1,0,0:0:0:0:
64,192,18369,1,0,0:0:0:0:
320,192,18369,1,0,0:0:0:0:
192,192,18444,1,0,0:0:0:0:
448,192,18444,1,0,0:0:0:0:
320,192,18519,1,0,0:0:0:0:
192,192,18594,1,0,0:0:0:0:
64,192,18594,1,0,0:0:0:0:
320,192,18669,1,0,0:0:0:0:
64,192,18744,1,0,0:0:0:0:
448,192,18744,1,0,0:0:0:0:
192,192,18819,1,0,0:0:0:0:
448,192,18894,1,0,0:0:0:0:
320,192,18894,1,0,0:0:0:0:
64,192,18969,1,0,0:0:0:0:
192,192,19044,1,0,0:0:0:0:
448,192,19044,1,0,0:0:0:0:
320,192,19119,1,0,0:0:0:0:
64,192,19119,1,0,0:0:0:0:
192,192,19194,1,0,0:0:0:0:
64,192,19269,1,0,0:0:0:0:
320,192,19269,1,0,0:0:0:0:
192,192,19344,1,0,0:0:0:0:
448,192,19344,1,0,0:0:0:0:
320,192,19419,1,0,0:0:0:0:
64,192,19494,1,0,0:0:0:0:
192,192,19569,1,0,0:0:0:0:
320,192,19569,1,0,0:0:0:0:
64,192,19644,1,0,0:0:0:0:
448,192,19644,1,0,0:0:0:0:
320,192,19719,1,0,0:0:0:0:
192,192,19794,1,0,0:0:0:0:
448,192,19794,1,0,0:0:0:0:
64,192,19869,1,0,0:0:0:0:
192,192,19944,1,0,0:0:0:0:
320,192,19944,1,0,0:0:0:0:
448,192,20019,1,0,0:0:0:0:
320,192,20094,1,0,0:0:0:0:
64,192,20094,1,0,0:0:0:0:
192,192,20169,1,0,0:0:0:0:
320,192,20244,1,0,0:0:0:0:
448,192,20244,1,0,0:0:0:0:
192,192,20319,1,0,0:0:0:0:
64,192,20319,1,0,0:0:0:0:
320,192,20394,1,0,0:0:0:0:
448,192,20394,1,0,0:0:0:0:
64,192,20469,1,0,0:0:0:0:
192,192,20544,1,0,0:0:0:0:
320,192,20544,1,0,0:0:0:0:
448,192,20619,1,0,0:0:0:0:
320,192,20694,1,0,0:0:0:0:
64,192,20694,1,0,0:0:0:0:
192,192,20769,1,0,0:0:0:0:
320,192,20844,1,0,0:0:0:0:
448,192,20844,1,0,0:0:0:0:
64,192,20919,1,0,0:0:0:0:
192,192,20994,1,0,0:0:0:0:
448,192,20994,1,0,0:0:0:0:
64,192,21069,1,0,0:0:0:0:
192,192,21144,1,0,0:0:0:0:
320,192,21144,1,0,0:0:0:0:
448,192,21219,1,0,0:0:0:0:
64,192,21294,1,0,0:0:0:0:
192,192,21294,1,0,0:0:0:0:
320,192,21369,1,0,0:0:0:0:
64,192,21444,1,0,0:0:0:0:
448,192,21444,1,0,0:0:0:0:
320,192,21519,1,0,0:0:0:0:
192,192,21594,1,0,0:0:0:0:
64,192,21669,1,0,0:0:0:0:
320,192,21744,1,0,0:0:0:0:
448,192,21744,1,0,0:0:0:0:
320,192,21894,1,0,0:0:0:0:
448,192,21894,1,0,0:0:0:0:
448,192,22044,1,0,0:0:0:0:
192,192,22044,1,0,0:0:0:0:
192,192,22194,1,0,0:0:0:0:
64,192,22344,1,0,0:0:0:0:
320,192,22344,1,0,0:0:0:0:
192,192,22494,1,0,0:0:0:0:
64,192,22494,1,0,0:0:0:0:
320,192,22569,1,0,0:0:0:0:
448,192,22569,1,0,0:0:0:0:
192,192,22644,1,0,0:0:0:0:
64,192,22644,1,0,0:0:0:0:
192,192,22794,1,0,0:0:0:0:
64,192,22794,1,0,0:0:0:0:
192,192,22944,1,0,0:0:0:0:
448,192,22944,1,0,0:0:0:0:
320,192,23094,1,0,0:0:0:0:
448,192,23094,1,0,0:0:0:0:
192,192,23244,1,0,0:0:0:0:
320,192,23244,1,0,0:0:0:0:
448,192,23319,1,0,0:0:0:0:
64,192,23394,1,0,0:0:0:0:
320,192,23394,1,0,0:0:0:0:
448,192,23469,1,0,0:0:0:0:
192,192,23544,1,0,0:0:0:0:
64,192,23544,1,0,0:0:0:0:
448,192,23619,1,0,0:0:0:0:
320,192,23694,1,0,0:0:0:0:
192,192,23694,1,0,0:0:0:0:
448,192,24144,1,0,0:0:0:0:
320,192,24144,1,0,0:0:0:0:
320,192,24294,1,0,0:0:0:0:
448,192,24294,1,0,0:0:0:0:
320,192,24444,1,0,0:0:0:0:
64,192,24444,1,0,0:0:0:0:
192,192,24594,1,0,0:0:0:0:
320,192,24744,1,0,0:0:0:0:
448,192,24744,1,0,0:0:0:0:
320,192,24894,1,0,0:0:0:0:
448,192,24894,1,0,0:0:0:0:
192,192,24969,1,0,0:0:0:0:
64,192,24969,1,0,0:0:0:0:
320,192,25044,1,0,0:0:0:0:
448,192,25044,1,0,0:0:0:0:
192,192,25194,1,0,0:0:0:0:
320,192,25194,1,0,0:0:0:0:
192,192,25344,1,0,0:0:0:0:
448,192,25344,1,0,0:0:0:0:
64,192,25494,1,0,0:0:0:0:
192,192,25494,1,0,0:0:0:0:
64,192,25644,1,0,0:0:0:0:
448,192,25644,1,0,0:0:0:0:
320,192,25719,1,0,0:0:0:0:
448,192,25794,1,0,0:0:0:0:
64,192,25794,1,0,0:0:0:0:
192,192,25869,1,0,0:0:0:0:
320,192,25944,1,0,0:0:0:0:
448,192,25944,1,0,0:0:0:0:
192,192,26019,1,0,0:0:0:0:
64,192,26019,1,0,0:0:0:0:
320,192,26094,1,0,0:0:0:0:
448,192,26094,1,0,0:0:0:0:
192,192,26169,1,0,0:0:0:0:
64,192,26169,1,0,0:0:0:0:
448,192,26244,128,0,26544:0:0:0:0:
64,192,26544,1,0,0:0:0:0:
320,192,26544,1,0,0:0:0:0:
192,192,26619,1,0,0:0:0:0:
320,192,26694,1,0,0:0:0:0:
448,192,26769,1,0,0:0:0:0:
64,192,26844,1,0,0:0:0:0:
320,192,26844,1,0,0:0:0:0:
192,192,26919,1,0,0:0:0:0:
448,192,26919,1,0,0:0:0:0:
320,192,26994,1,0,0:0:0:0:
448,192,27069,1,0,0:0:0:0:
64,192,27144,1,0,0:0:0:0:
320,192,27144,1,0,0:0:0:0:
192,192,27219,1,0,0:0:0:0:
64,192,27294,1,0,0:0:0:0:
448,192,27294,1,0,0:0:0:0:
320,192,27369,1,0,0:0:0:0:
192,192,27444,1,0,0:0:0:0:
448,192,27444,1,0,0:0:0:0:
320,192,27519,1,0,0:0:0:0:
64,192,27519,1,0,0:0:0:0:
192,192,27594,1,0,0:0:0:0:
64,192,27669,1,0,0:0:0:0:
320,192,27744,1,0,0:0:0:0:
448,192,27744,1,0,0:0:0:0:
192,192,27819,1,0,0:0:0:0:
64,192,27894,1,0,0:0:0:0:
320,192,27969,1,0,0:0:0:0:
448,192,27969,1,0,0:0:0:0:
192,192,28044,1,0,0:0:0:0:
64,192,28119,1,0,0:0:0:0:
192,192,28194,1,0,0:0:0:0:
320,192,28194,1,0,0:0:0:0:
448,192,28269,1,0,0:0:0:0:
64,192,28344,1,0,0:0:0:0:
192,192,28419,1,0,0:0:0:0:
320,192,28419,1,0,0:0:0:0:
448,192,28494,1,0,0:0:0:0:
64,192,28569,1,0,0:0:0:0:
192,192,28644,1,0,0:0:0:0:
448,192,28644,1,0,0:0:0:0:
320,192,28719,1,0,0:0:0:0:
192,192,28794,1,0,0:0:0:0:
64,192,28794,1,0,0:0:0:0:
448,192,28869,1,0,0:0:0:0:
320,192,28944,1,0,0:0:0:0:
192,192,28944,1,0,0:0:0:0:
448,192,29019,1,0,0:0:0:0:
192,192,29094,1,0,0:0:0:0:
320,192,29169,1,0,0:0:0:0:
64,192,29169,1,0,0:0:0:0:
448,192,29244,1,0,0:0:0:0:
192,192,29319,1,0,0:0:0:0:
320,192,29394,1,0,0:0:0:0:
448,192,29394,1,0,0:0:0:0:
64,192,29469,1,0,0:0:0:0:
192,192,29544,1,0,0:0:0:0:
320,192,29619,1,0,0:0:0:0:
64,192,29619,1,0,0:0:0:0:
448,192,29694,1,0,0:0:0:0:
192,192,29769,1,0,0:0:0:0:
320,192,29844,1,0,0:0:0:0:
448,192,29844,1,0,0:0:0:0:
64,192,29919,1,0,0:0:0:0:
192,192,29994,1,0,0:0:0:0:
448,192,29994,1,0,0:0:0:0:
320,192,30069,1,0,0:0:0:0:
192,192,30144,1,0,0:0:0:0:
64,192,30144,1,0,0:0:0:0:
448,192,30219,1,0,0:0:0:0:
320,192,30294,1,0,0:0:0:0:
192,192,30369,1,0,0:0:0:0:
64,192,30369,1,0,0:0:0:0:
448,192,30444,1,0,0:0:0:0:
64,192,30519,1,0,0:0:0:0:
192,192,30594,1,0,0:0:0:0:
320,192,30594,1,0,0:0:0:0:
448,192,30669,1,0,0:0:0:0:
64,192,30744,1,0,0:0:0:0:
192,192,30819,1,0,0:0:0:0:
320,192,30819,1,0,0:0:0:0:
448,192,30894,1,0,0:0:0:0:
64,192,30969,1,0,0:0:0:0:
192,192,31044,1,0,0:0:0:0:
448,192,31044,1,0,0:0:0:0:
320,192,31119,1,0,0:0:0:0:
192,192,31194,1,0,0:0:0:0:
64,192,31194,1,0,0:0:0:0:
448,192,31269,1,0,0:0:0:0:
320,192,31344,1,0,0:0:0:0:
192,192,31344,1,0,0:0:0:0:
64,192,31419,1,0,0:0:0:0:
192,192,31494,1,0,0:0:0:0:
448,192,31494,1,0,0:0:0:0:
320,192,31569,1,0,0:0:0:0:
192,192,31644,1,0,0:0:0:0:
64,192,31644,1,0,0:0:0:0:
448,192,31719,1,0,0:0:0:0:
320,192,31794,1,0,0:0:0:0:
64,192,31794,1,0,0:0:0:0:
192,192,31869,1,0,0:0:0:0:
320,192,31944,1,0,0:0:0:0:
448,192,31944,1,0,0:0:0:0:
192,192,32019,1,0,0:0:0:0:
64,192,32019,1,0,0:0:0:0:
320,192,32094,1,0,0:0:0:0:
448,192,32094,1,0,0:0:0:0:
64,192,32169,1,0,0:0:0:0:
192,192,32244,1,0,0:0:0:0:
448,192,32244,1,0,0:0:0:0:
320,192,32319,1,0,0:0:0:0:
192,192,32394,1,0,0:0:0:0:
64,192,32394,1,0,0:0:0:0:
320,192,32469,1,0,0:0:0:0:
192,192,32544,1,0,0:0:0:0:
64,192,32544,1,0,0:0:0:0:
448,192,32619,1,0,0:0:0:0:
320,192,32694,1,0,0:0:0:0:
192,192,32769,1,0,0:0:0:0:
64,192,32769,1,0,0:0:0:0:
320,192,32844,1,0,0:0:0:0:
448,192,32919,1,0,0:0:0:0:
192,192,32994,1,0,0:0:0:0:
320,192,32994,1,0,0:0:0:0:
64,192,33069,1,0,0:0:0:0:
448,192,33144,1,0,0:0:0:0:
64,192,33219,1,0,0:0:0:0:
192,192,33219,1,0,0:0:0:0:
320,192,33294,1,0,0:0:0:0:
448,192,33369,1,0,0:0:0:0:
320,192,33444,1,0,0:0:0:0:
192,192,33444,1,0,0:0:0:0:
64,192,33519,1,0,0:0:0:0:
192,192,33594,1,0,0:0:0:0:
448,192,33594,1,0,0:0:0:0:
320,192,33669,1,0,0:0:0:0:
192,192,33744,1,0,0:0:0:0:
64,192,33744,1,0,0:0:0:0:
448,192,33819,1,0,0:0:0:0:
320,192,33894,1,0,0:0:0:0:
64,192,33894,1,0,0:0:0:0:
192,192,33969,1,0,0:0:0:0:
320,192,34044,1,0,0:0:0:0:
448,192,34044,1,0,0:0:0:0:
192,192,34119,1,0,0:0:0:0:
64,192,34119,1,0,0:0:0:0:
320,192,34194,1,0,0:0:0:0:
448,192,34194,1,0,0:0:0:0:
192,192,34269,1,0,0:0:0:0:
64,192,34269,1,0,0:0:0:0:
320,192,34344,1,0,0:0:0:0:
448,192,34344,1,0,0:0:0:0:
64,192,34419,1,0,0:0:0:0:
192,192,34494,1,0,0:0:0:0:
448,192,34494,1,0,0:0:0:0:
64,192,34569,1,0,0:0:0:0:
192,192,34644,1,0,0:0:0:0:
320,192,34644,1,0,0:0:0:0:
448,192,34719,1,0,0:0:0:0:
320,192,34794,1,0,0:0:0:0:
64,192,34794,1,0,0:0:0:0:
192,192,34869,1,0,0:0:0:0:
64,192,34944,1,0,0:0:0:0:
448,192,34944,1,0,0:0:0:0:
320,192,34944,1,0,0:0:0:0:
320,192,35169,1,0,0:0:0:0:
448,192,35169,1,0,0:0:0:0:
192,192,35244,1,0,0:0:0:0:
64,192,35244,1,0,0:0:0:0:
64,192,35394,1,0,0:0:0:0:
192,192,35394,1,0,0:0:0:0:
320,192,35394,1,0,0:0:0:0:
64,192,35544,1,0,0:0:0:0:
320,192,35544,1,0,0:0:0:0:
448,192,35544,1,0,0:0:0:0:
64,192,35844,1,0,0:0:0:0:
320,192,35844,1,0,0:0:0:0:
192,192,35994,1,0,0:0:0:0:
320,192,35994,1,0,0:0:0:0:
320,192,36144,1,0,0:0:0:0:
64,192,36144,128,0,36219:0:0:0:0:
448,192,36144,128,0,36219:0:0:0:0:
448,192,36294,128,0,36369:0:0:0:0:
64,192,36294,128,0,36369:0:0:0:0:
192,192,36294,1,0,0:0:0:0:
64,192,36444,128,0,36669:0:0:0:0:
448,192,36444,128,0,36669:0:0:0:0:
320,192,36444,1,0,0:0:0:0:
64,192,36744,128,0,36894:0:0:0:0:
448,192,36744,128,0,36894:0:0:0:0:
192,192,36744,1,0,0:0:0:0:
320,192,37044,1,0,0:0:0:0:
448,192,37044,1,0,0:0:0:0:
192,192,37119,1,0,0:0:0:0:
64,192,37119,1,0,0:0:0:0:
448,192,37194,1,0,0:0:0:0:
320,192,37194,1,0,0:0:0:0:
192,192,37269,1,0,0:0:0:0:
64,192,37269,1,0,0:0:0:0:
320,192,37344,1,0,0:0:0:0:
448,192,37344,1,0,0:0:0:0:
64,192,37419,1,0,0:0:0:0:
192,192,37494,1,0,0:0:0:0:
448,192,37494,1,0,0:0:0:0:
320,192,37569,1,0,0:0:0:0:
192,192,37644,1,0,0:0:0:0:
64,192,37644,1,0,0:0:0:0:
448,192,37719,1,0,0:0:0:0:
320,192,37794,1,0,0:0:0:0:
64,192,37794,1,0,0:0:0:0:
192,192,37869,1,0,0:0:0:0:
320,192,37944,1,0,0:0:0:0:
448,192,37944,1,0,0:0:0:0:
64,192,38019,1,0,0:0:0:0:
192,192,38094,1,0,0:0:0:0:
448,192,38094,1,0,0:0:0:0:
64,192,38169,1,0,0:0:0:0:
192,192,38244,1,0,0:0:0:0:
320,192,38244,1,0,0:0:0:0:
448,192,38319,1,0,0:0:0:0:
320,192,38394,1,0,0:0:0:0:
64,192,38394,1,0,0:0:0:0:
192,192,38469,1,0,0:0:0:0:
320,192,38544,1,0,0:0:0:0:
448,192,38544,1,0,0:0:0:0:
64,192,38544,1,0,0:0:0:0:
64,192,38694,1,0,0:0:0:0:
192,192,38694,1,0,0:0:0:0:
320,192,38769,1,0,0:0:0:0:
448,192,38769,1,0,0:0:0:0:
192,192,38844,1,0,0:0:0:0:
64,192,38844,1,0,0:0:0:0:
192,192,38994,1,0,0:0:0:0:
320,192,38994,1,0,0:0:0:0:
320,192,39144,1,0,0:0:0:0:
448,192,39144,1,0,0:0:0:0:
64,192,39144,1,0,0:0:0:0:
64,192,39444,128,0,39744:0:0:0:0:
320,192,39744,1,0,0:0:0:0:
448,192,39744,1,0,0:0:0:0:
192,192,39819,1,0,0:0:0:0:
64,192,39894,1,0,0:0:0:0:
320,192,39894,1,0,0:0:0:0:
448,192,39969,1,0,0:0:0:0:
320,192,40044,1,0,0:0:0:0:
192,192,40044,1,0,0:0:0:0:
64,192,40119,1,0,0:0:0:0:
192,192,40194,1,0,0:0:0:0:
448,192,40194,1,0,0:0:0:0:
64,192,40269,1,0,0:0:0:0:
320,192,40344,1,0,0:0:0:0:
448,192,40344,1,0,0:0:0:0:
192,192,40419,1,0,0:0:0:0:
64,192,40494,1,0,0:0:0:0:
448,192,40494,1,0,0:0:0:0:
192,192,40569,1,0,0:0:0:0:
320,192,40644,1,0,0:0:0:0:
448,192,40644,1,0,0:0:0:0:
64,192,40719,1,0,0:0:0:0:
192,192,40794,1,0,0:0:0:0:
448,192,40794,1,0,0:0:0:0:
320,192,40869,1,0,0:0:0:0:
192,192,40944,128,0,41019:0:0:0:0:
64,192,40944,128,0,41019:0:0:0:0:
320,192,41019,128,0,41094:0:0:0:0:
448,192,41019,128,0,41094:0:0:0:0:
192,192,41169,1,0,0:0:0:0:
64,192,41169,1,0,0:0:0:0:
320,192,41244,128,0,41394:0:0:0:0:
448,192,41394,128,0,41544:0:0:0:0:
64,192,41544,1,0,0:0:0:0:
192,192,41544,128,0,41694:0:0:0:0:
320,192,41694,1,0,0:0:0:0:
448,192,41694,1,0,0:0:0:0:
64,192,41769,1,0,0:0:0:0:
448,192,41844,1,0,0:0:0:0:
320,192,41844,1,0,0:0:0:0:
64,192,41919,1,0,0:0:0:0:
192,192,41919,1,0,0:0:0:0:
448,192,41994,1,0,0:0:0:0:
192,192,42069,1,0,0:0:0:0:
64,192,42069,1,0,0:0:0:0:
320,192,42144,1,0,0:0:0:0:
448,192,42144,1,0,0:0:0:0:
192,192,42219,1,0,0:0:0:0:
64,192,42294,1,0,0:0:0:0:
320,192,42369,1,0,0:0:0:0:
192,192,42444,1,0,0:0:0:0:
64,192,42444,1,0,0:0:0:0:
448,192,42444,1,0,0:0:0:0:
320,192,42519,1,0,0:0:0:0:
192,192,42594,1,0,0:0:0:0:
448,192,42669,1,0,0:0:0:0:
192,192,42744,1,0,0:0:0:0:
64,192,42744,1,0,0:0:0:0:
448,192,42819,1,0,0:0:0:0:
320,192,42894,1,0,0:0:0:0:
192,192,42969,1,0,0:0:0:0:
64,192,43044,1,0,0:0:0:0:
320,192,43044,1,0,0:0:0:0:
448,192,43044,1,0,0:0:0:0:
64,192,43194,1,0,0:0:0:0:
192,192,43194,1,0,0:0:0:0:
320,192,43269,1,0,0:0:0:0:
448,192,43269,1,0,0:0:0:0:
192,192,43344,1,0,0:0:0:0:
64,192,43344,1,0,0:0:0:0:
192,192,43644,1,0,0:0:0:0:
320,192,43644,1,0,0:0:0:0:
448,192,43644,1,0,0:0:0:0:
64,192,43944,1,0,0:0:0:0:
192,192,43944,1,0,0:0:0:0:
448,192,43944,1,0,0:0:0:0:
192,192,44244,1,0,0:0:0:0:
320,192,44244,1,0,0:0:0:0:
448,192,44244,1,0,0:0:0:0:
64,192,44544,1,0,0:0:0:0:
320,192,44544,1,0,0:0:0:0:
448,192,44544,1,0,0:0:0:0:
192,192,44619,1,0,0:0:0:0:
64,192,44694,1,0,0:0:0:0:
320,192,44769,1,0,0:0:0:0:
192,192,44844,1,0,0:0:0:0:
64,192,44844,1,0,0:0:0:0:
448,192,44919,1,0,0:0:0:0:
320,192,44994,1,0,0:0:0:0:
64,192,45069,1,0,0:0:0:0:
192,192,45144,1,0,0:0:0:0:
320,192,45144,1,0,0:0:0:0:
448,192,45144,1,0,0:0:0:0:
64,192,45219,1,0,0:0:0:0:
320,192,45294,1,0,0:0:0:0:
192,192,45369,1,0,0:0:0:0:
320,192,45444,1,0,0:0:0:0:
448,192,45444,1,0,0:0:0:0:
64,192,45519,1,0,0:0:0:0:
192,192,45594,1,0,0:0:0:0:
320,192,45669,1,0,0:0:0:0:
192,192,45744,1,0,0:0:0:0:
64,192,45744,1,0,0:0:0:0:
320,192,45894,1,0,0:0:0:0:
448,192,45894,1,0,0:0:0:0:
192,192,45969,1,0,0:0:0:0:
64,192,46044,1,0,0:0:0:0:
320,192,46044,1,0,0:0:0:0:
320,192,46194,1,0,0:0:0:0:
448,192,46194,1,0,0:0:0:0:
192,192,46269,1,0,0:0:0:0:
64,192,46269,1,0,0:0:0:0:
192,192,46419,1,0,0:0:0:0:
320,192,46419,1,0,0:0:0:0:
320,192,46569,1,0,0:0:0:0:
448,192,46569,1,0,0:0:0:0:
192,192,46644,1,0,0:0:0:0:
64,192,46644,1,0,0:0:0:0:
64,192,46794,1,0,0:0:0:0:
320,192,46794,1,0,0:0:0:0:
192,192,46944,1,0,0:0:0:0:
320,192,46944,1,0,0:0:0:0:
448,192,46944,128,0,48144:0:0:0:0:
192,192,47544,1,0,0:0:0:0:
320,192,47769,1,0,0:0:0:0:
64,192,47994,1,0,0:0:0:0:
320,192,48144,128,0,49344:0:0:0:0:
192,192,48144,1,0,0:0:0:0:
192,192,48744,1,0,0:0:0:0:
448,192,48969,1,0,0:0:0:0:
64,192,49194,1,0,0:0:0:0:
192,192,49344,128,0,50544:0:0:0:0:
448,192,49344,1,0,0:0:0:0:
320,192,49644,1,0,0:0:0:0:
64,192,49644,1,0,0:0:0:0:
320,192,49944,1,0,0:0:0:0:
448,192,49944,1,0,0:0:0:0:
64,192,50244,1,0,0:0:0:0:
448,192,50244,1,0,0:0:0:0:
64,192,50544,128,0,51744:0:0:0:0:
320,192,50544,1,0,0:0:0:0:
320,192,51744,1,0,0:0:0:0:
448,192,51744,1,0,0:0:0:0:
192,192,51819,1,0,0:0:0:0:
64,192,51894,1,0,0:0:0:0:
320,192,51894,1,0,0:0:0:0:
192,192,51969,1,0,0:0:0:0:
448,192,51969,1,0,0:0:0:0:
320,192,52044,1,0,0:0:0:0:
448,192,52119,1,0,0:0:0:0:
64,192,52119,1,0,0:0:0:0:
192,192,52194,1,0,0:0:0:0:
320,192,52269,1,0,0:0:0:0:
64,192,52344,1,0,0:0:0:0:
192,192,52344,1,0,0:0:0:0:
320,192,52419,1,0,0:0:0:0:
448,192,52494,1,0,0:0:0:0:
64,192,52494,1,0,0:0:0:0:
192,192,52569,1,0,0:0:0:0:
320,192,52569,1,0,0:0:0:0:
64,192,52644,1,0,0:0:0:0:
192,192,52719,1,0,0:0:0:0:
320,192,52794,1,0,0:0:0:0:
448,192,52794,1,0,0:0:0:0:
64,192,52869,1,0,0:0:0:0:
320,192,52944,1,0,0:0:0:0:
448,192,52944,1,0,0:0:0:0:
192,192,53019,1,0,0:0:0:0:
64,192,53094,1,0,0:0:0:0:
320,192,53094,1,0,0:0:0:0:
192,192,53169,1,0,0:0:0:0:
448,192,53169,1,0,0:0:0:0:
320,192,53244,1,0,0:0:0:0:
448,192,53319,1,0,0:0:0:0:
64,192,53319,1,0,0:0:0:0:
192,192,53394,1,0,0:0:0:0:
320,192,53469,1,0,0:0:0:0:
192,192,53544,1,0,0:0:0:0:
64,192,53544,1,0,0:0:0:0:
448,192,53619,1,0,0:0:0:0:
320,192,53694,1,0,0:0:0:0:
192,192,53769,1,0,0:0:0:0:
64,192,53769,1,0,0:0:0:0:
320,192,53844,1,0,0:0:0:0:
448,192,53919,1,0,0:0:0:0:
320,192,53994,1,0,0:0:0:0:
192,192,53994,1,0,0:0:0:0:
64,192,54069,1,0,0:0:0:0:
320,192,54144,1,0,0:0:0:0:
448,192,54144,1,0,0:0:0:0:
192,192,54219,1,0,0:0:0:0:
64,192,54294,1,0,0:0:0:0:
448,192,54294,1,0,0:0:0:0:
320,192,54369,1,0,0:0:0:0:
192,192,54444,1,0,0:0:0:0:
64,192,54444,1,0,0:0:0:0:
320,192,54519,1,0,0:0:0:0:
448,192,54594,1,0,0:0:0:0:
192,192,54594,1,0,0:0:0:0:
64,192,54669,1,0,0:0:0:0:
192,192,54744,1,0,0:0:0:0:
320,192,54744,1,0,0:0:0:0:
448,192,54819,1,0,0:0:0:0:
320,192,54894,1,0,0:0:0:0:
64,192,54894,1,0,0:0:0:0:
192,192,54969,1,0,0:0:0:0:
320,192,55044,1,0,0:0:0:0:
448,192,55044,1,0,0:0:0:0:
192,192,55119,1,0,0:0:0:0:
448,192,55194,1,0,0:0:0:0:
64,192,55194,1,0,0:0:0:0:
320,192,55269,1,0,0:0:0:0:
192,192,55344,1,0,0:0:0:0:
64,192,55344,1,0,0:0:0:0:
448,192,55344,1,0,0:0:0:0:
320,192,55419,1,0,0:0:0:0:
192,192,55494,1,0,0:0:0:0:
64,192,55569,1,0,0:0:0:0:
192,192,55644,1,0,0:0:0:0:
320,192,55644,1,0,0:0:0:0:
448,192,55644,1,0,0:0:0:0:
64,192,55719,1,0,0:0:0:0:
320,192,55794,1,0,0:0:0:0:
448,192,55794,1,0,0:0:0:0:
64,192,55869,1,0,0:0:0:0:
192,192,55944,1,0,0:0:0:0:
320,192,55944,1,0,0:0:0:0:
448,192,55944,1,0,0:0:0:0:
64,192,56019,1,0,0:0:0:0:
320,192,56094,1,0,0:0:0:0:
192,192,56169,1,0,0:0:0:0:
64,192,56244,1,0,0:0:0:0:
320,192,56244,1,0,0:0:0:0:
448,192,56244,1,0,0:0:0:0:
192,192,56319,1,0,0:0:0:0:
320,192,56394,1,0,0:0:0:0:
448,192,56469,1,0,0:0:0:0:
192,192,56544,1,0,0:0:0:0:
64,192,56544,1,0,0:0:0:0:
448,192,56694,1,0,0:0:0:0:
192,192,56769,1,0,0:0:0:0:
320,192,56844,1,0,0:0:0:0:
448,192,56844,1,0,0:0:0:0:
192,192,56994,1,0,0:0:0:0:
448,192,57069,1,0,0:0:0:0:
64,192,57144,1,0,0:0:0:0:
320,192,57219,1,0,0:0:0:0:
192,192,57294,1,0,0:0:0:0:
448,192,57294,1,0,0:0:0:0:
320,192,57369,1,0,0:0:0:0:
64,192,57369,1,0,0:0:0:0:
192,192,57444,128,0,57744:0:0:0:0:
64,192,57744,1,0,0:0:0:0:
448,192,57744,1,0,0:0:0:0:
320,192,57819,1,0,0:0:0:0:
192,192,57894,1,0,0:0:0:0:
448,192,57894,1,0,0:0:0:0:
320,192,57969,1,0,0:0:0:0:
64,192,57969,1,0,0:0:0:0:
192,192,58044,1,0,0:0:0:0:
64,192,58119,1,0,0:0:0:0:
448,192,58119,1,0,0:0:0:0:
320,192,58194,1,0,0:0:0:0:
192,192,58269,1,0,0:0:0:0:
448,192,58269,1,0,0:0:0:0:
320,192,58344,1,0,0:0:0:0:
448,192,58419,1,0,0:0:0:0:
64,192,58419,1,0,0:0:0:0:
192,192,58494,1,0,0:0:0:0:
320,192,58569,1,0,0:0:0:0:
64,192,58569,1,0,0:0:0:0:
192,192,58644,1,0,0:0:0:0:
448,192,58644,1,0,0:0:0:0:
320,192,58719,1,0,0:0:0:0:
448,192,58794,1,0,0:0:0:0:
64,192,58794,1,0,0:0:0:0:
192,192,58869,1,0,0:0:0:0:
320,192,58944,1,0,0:0:0:0:
448,192,58944,1,0,0:0:0:0:
192,192,59019,1,0,0:0:0:0:
64,192,59094,1,0,0:0:0:0:
320,192,59094,1,0,0:0:0:0:
192,192,59169,1,0,0:0:0:0:
64,192,59244,1,0,0:0:0:0:
448,192,59244,1,0,0:0:0:0:
320,192,59319,1,0,0:0:0:0:
192,192,59394,1,0,0:0:0:0:
448,192,59394,1,0,0:0:0:0:
320,192,59469,1,0,0:0:0:0:
64,192,59469,1,0,0:0:0:0:
192,192,59544,1,0,0:0:0:0:
64,192,59619,1,0,0:0:0:0:
192,192,59694,1,0,0:0:0:0:
448,192,59694,1,0,0:0:0:0:
320,192,59769,1,0,0:0:0:0:
448,192,59844,1,0,0:0:0:0:
192,192,59844,1,0,0:0:0:0:
64,192,59919,1,0,0:0:0:0:
320,192,59919,1,0,0:0:0:0:
192,192,59994,1,0,0:0:0:0:
64,192,60069,1,0,0:0:0:0:
320,192,60144,1,0,0:0:0:0:
448,192,60144,1,0,0:0:0:0:
192,192,60219,1,0,0:0:0:0:
64,192,60294,1,0,0:0:0:0:
320,192,60294,1,0,0:0:0:0:
192,192,60369,1,0,0:0:0:0:
448,192,60369,1,0,0:0:0:0:
64,192,60444,1,0,0:0:0:0:
320,192,60519,1,0,0:0:0:0:
192,192,60594,1,0,0:0:0:0:
448,192,60594,1,0,0:0:0:0:
320,192,60669,1,0,0:0:0:0:
64,192,60669,1,0,0:0:0:0:
192,192,60744,1,0,0:0:0:0:
448,192,60819,1,0,0:0:0:0:
320,192,60894,1,0,0:0:0:0:
64,192,60894,1,0,0:0:0:0:
192,192,60969,1,0,0:0:0:0:
448,192,60969,1,0,0:0:0:0:
320,192,61044,1,0,0:0:0:0:
448,192,61119,1,0,0:0:0:0:
64,192,61119,1,0,0:0:0:0:
192,192,61194,1,0,0:0:0:0:
320,192,61269,1,0,0:0:0:0:
192,192,61344,1,0,0:0:0:0:
64,192,61344,1,0,0:0:0:0:
448,192,61419,1,0,0:0:0:0:
320,192,61494,1,0,0:0:0:0:
64,192,61494,1,0,0:0:0:0:
192,192,61569,1,0,0:0:0:0:
448,192,61569,1,0,0:0:0:0:
320,192,61644,1,0,0:0:0:0:
448,192,61719,1,0,0:0:0:0:
64,192,61719,1,0,0:0:0:0:
192,192,61794,1,0,0:0:0:0:
320,192,61869,1,0,0:0:0:0:
64,192,61869,1,0,0:0:0:0:
192,192,61944,1,0,0:0:0:0:
320,192,62019,1,0,0:0:0:0:
448,192,62094,1,0,0:0:0:0:
64,192,62094,1,0,0:0:0:0:
192,192,62169,1,0,0:0:0:0:
320,192,62244,1,0,0:0:0:0:
64,192,62244,1,0,0:0:0:0:
192,192,62319,1,0,0:0:0:0:
448,192,62319,1,0,0:0:0:0:
320,192,62394,1,0,0:0:0:0:
448,192,62469,1,0,0:0:0:0:
192,192,62544,1,0,0:0:0:0:
64,192,62544,1,0,0:0:0:0:
320,192,62619,1,0,0:0:0:0:
448,192,62694,1,0,0:0:0:0:
192,192,62694,1,0,0:0:0:0:
320,192,62769,1,0,0:0:0:0:
448,192,62844,1,0,0:0:0:0:
64,192,62844,1,0,0:0:0:0:
192,192,62919,1,0,0:0:0:0:
320,192,62994,1,0,0:0:0:0:
64,192,62994,1,0,0:0:0:0:
192,192,63069,1,0,0:0:0:0:
448,192,63069,1,0,0:0:0:0:
320,192,63144,1,0,0:0:0:0:
64,192,63144,1,0,0:0:0:0:
192,192,63219,1,0,0:0:0:0:
64,192,63294,1,0,0:0:0:0:
448,192,63294,1,0,0:0:0:0:
320,192,63369,1,0,0:0:0:0:
192,192,63444,1,0,0:0:0:0:
448,192,63444,1,0,0:0:0:0:
320,192,63519,1,0,0:0:0:0:
64,192,63519,1,0,0:0:0:0:
192,192,63594,1,0,0:0:0:0:
64,192,63669,1,0,0:0:0:0:
320,192,63744,1,0,0:0:0:0:
448,192,63744,1,0,0:0:0:0:
192,192,63819,1,0,0:0:0:0:
64,192,63894,1,0,0:0:0:0:
448,192,63894,1,0,0:0:0:0:
320,192,63969,1,0,0:0:0:0:
192,192,64044,1,0,0:0:0:0:
448,192,64044,1,0,0:0:0:0:
320,192,64119,1,0,0:0:0:0:
64,192,64119,1,0,0:0:0:0:
192,192,64194,1,0,0:0:0:0:
320,192,64269,1,0,0:0:0:0:
448,192,64344,1,0,0:0:0:0:
64,192,64344,1,0,0:0:0:0:
192,192,64419,1,0,0:0:0:0:
320,192,64494,1,0,0:0:0:0:
64,192,64494,1,0,0:0:0:0:
192,192,64569,1,0,0:0:0:0:
448,192,64569,1,0,0:0:0:0:
64,192,64644,1,0,0:0:0:0:
320,192,64719,1,0,0:0:0:0:
192,192,64794,1,0,0:0:0:0:
448,192,64794,1,0,0:0:0:0:
64,192,64869,1,0,0:0:0:0:
320,192,64944,1,0,0:0:0:0:
448,192,64944,1,0,0:0:0:0:
192,192,65019,1,0,0:0:0:0:
64,192,65094,1,0,0:0:0:0:
320,192,65094,1,0,0:0:0:0:
192,192,65169,1,0,0:0:0:0:
448,192,65169,1,0,0:0:0:0:
320,192,65244,1,0,0:0:0:0:
64,192,65319,1,0,0:0:0:0:
192,192,65394,1,0,0:0:0:0:
448,192,65394,1,0,0:0:0:0:
320,192,65469,1,0,0:0:0:0:
64,192,65469,1,0,0:0:0:0:
192,192,65544,1,0,0:0:0:0:
64,192,65619,1,0,0:0:0:0:
448,192,65619,1,0,0:0:0:0:
320,192,65694,1,0,0:0:0:0:
192,192,65769,1,0,0:0:0:0:
448,192,65769,1,0,0:0:0:0:
320,192,65844,1,0,0:0:0:0:
64,192,65844,1,0,0:0:0:0:
192,192,65919,1,0,0:0:0:0:
64,192,65994,1,0,0:0:0:0:
448,192,65994,1,0,0:0:0:0:
320,192,66069,1,0,0:0:0:0:
192,192,66144,1,0,0:0:0:0:
64,192,66144,1,0,0:0:0:0:
320,192,66219,1,0,0:0:0:0:
64,192,66294,1,0,0:0:0:0:
448,192,66294,1,0,0:0:0:0:
192,192,66369,1,0,0:0:0:0:
320,192,66444,1,0,0:0:0:0:
64,192,66444,1,0,0:0:0:0:
192,192,66519,1,0,0:0:0:0:
448,192,66519,1,0,0:0:0:0:
320,192,66594,1,0,0:0:0:0:
64,192,66669,1,0,0:0:0:0:
320,192,66744,1,0,0:0:0:0:
192,192,66819,1,0,0:0:0:0:
448,192,66819,1,0,0:0:0:0:
320,192,66894,1,0,0:0:0:0:
64,192,66894,1,0,0:0:0:0:
192,192,66969,1,0,0:0:0:0:
64,192,67044,1,0,0:0:0:0:
448,192,67044,1,0,0:0:0:0:
320,192,67119,1,0,0:0:0:0:
448,192,67194,1,0,0:0:0:0:
64,192,67194,1,0,0:0:0:0:
192,192,67269,1,0,0:0:0:0:
320,192,67344,1,0,0:0:0:0:
448,192,67344,1,0,0:0:0:0:
64,192,67419,1,0,0:0:0:0:
192,192,67494,1,0,0:0:0:0:
320,192,67494,1,0,0:0:0:0:
64,192,67569,1,0,0:0:0:0:
448,192,67569,1,0,0:0:0:0:
192,192,67644,1,0,0:0:0:0:
320,192,67644,1,0,0:0:0:0:
448,192,67719,1,0,0:0:0:0:
64,192,67794,1,0,0:0:0:0:
320,192,67794,1,0,0:0:0:0:
192,192,67869,1,0,0:0:0:0:
448,192,67869,1,0,0:0:0:0:
64,192,67944,1,0,0:0:0:0:
192,192,68019,1,0,0:0:0:0:
448,192,68019,1,0,0:0:0:0:
320,192,68094,1,0,0:0:0:0:
64,192,68094,1,0,0:0:0:0:
192,192,68169,1,0,0:0:0:0:
320,192,68244,1,0,0:0:0:0:
448,192,68244,1,0,0:0:0:0:
192,192,68319,1,0,0:0:0:0:
64,192,68319,1,0,0:0:0:0:
320,192,68394,1,0,0:0:0:0:
448,192,68394,1,0,0:0:0:0:
64,192,68469,1,0,0:0:0:0:
192,192,68544,1,0,0:0:0:0:
320,192,68544,1,0,0:0:0:0:
448,192,68619,1,0,0:0:0:0:
320,192,68694,1,0,0:0:0:0:
64,192,68694,1,0,0:0:0:0:
192,192,68769,1,0,0:0:0:0:
448,192,68769,1,0,0:0:0:0:
320,192,68844,1,0,0:0:0:0:
64,192,68844,1,0,0:0:0:0:
192,192,68919,1,0,0:0:0:0:
320,192,68994,1,0,0:0:0:0:
448,192,68994,1,0,0:0:0:0:
192,192,69069,1,0,0:0:0:0:
64,192,69069,1,0,0:0:0:0:
448,192,69144,1,0,0:0:0:0:
192,192,69219,1,0,0:0:0:0:
64,192,69219,1,0,0:0:0:0:
320,192,69294,1,0,0:0:0:0:
448,192,69294,1,0,0:0:0:0:
64,192,69369,1,0,0:0:0:0:
192,192,69444,1,0,0:0:0:0:
320,192,69444,1,0,0:0:0:0:
64,192,69519,1,0,0:0:0:0:
448,192,69519,1,0,0:0:0:0:
192,192,69594,1,0,0:0:0:0:
320,192,69594,1,0,0:0:0:0:
448,192,69669,1,0,0:0:0:0:
192,192,69744,1,0,0:0:0:0:
64,192,69744,1,0,0:0:0:0:
448,192,69819,1,0,0:0:0:0:
64,192,69894,1,0,0:0:0:0:
320,192,69894,1,0,0:0:0:0:
192,192,69969,1,0,0:0:0:0:
448,192,69969,1,0,0:0:0:0:
320,192,70044,1,0,0:0:0:0:
64,192,70044,1,0,0:0:0:0:
192,192,70119,1,0,0:0:0:0:
64,192,70194,1,0,0:0:0:0:
448,192,70194,1,0,0:0:0:0:
192,192,70269,1,0,0:0:0:0:
320,192,70269,1,0,0:0:0:0:
448,192,70344,1,0,0:0:0:0:
192,192,70419,1,0,0:0:0:0:
320,192,70419,1,0,0:0:0:0:
64,192,70494,1,0,0:0:0:0:
448,192,70494,1,0,0:0:0:0:
192,192,70569,1,0,0:0:0:0:
320,192,70644,1,0,0:0:0:0:
64,192,70644,1,0,0:0:0:0:
192,192,70719,1,0,0:0:0:0:
448,192,70719,1,0,0:0:0:0:
320,192,70794,1,0,0:0:0:0:
64,192,70794,1,0,0:0:0:0:
448,192,70869,1,0,0:0:0:0:
192,192,70944,1,0,0:0:0:0:
320,192,70944,1,0,0:0:0:0:
64,192,71019,1,0,0:0:0:0:
448,192,71019,1,0,0:0:0:0:
192,192,71094,1,0,0:0:0:0:
320,192,71094,1,0,0:0:0:0:
64,192,71169,1,0,0:0:0:0:
320,192,71244,1,0,0:0:0:0:
448,192,71244,1,0,0:0:0:0:
192,192,71319,1,0,0:0:0:0:
64,192,71319,1,0,0:0:0:0:
320,192,71394,1,0,0:0:0:0:
448,192,71394,1,0,0:0:0:0:
192,192,71469,1,0,0:0:0:0:
64,192,71544,1,0,0:0:0:0:
448,192,71544,1,0,0:0:0:0:
320,192,71619,1,0,0:0:0:0:
192,192,71694,1,0,0:0:0:0:
64,192,71694,1,0,0:0:0:0:
448,192,71769,1,0,0:0:0:0:
320,192,71844,1,0,0:0:0:0:
192,192,71844,1,0,0:0:0:0:
64,192,71919,1,0,0:0:0:0:
320,192,71994,1,0,0:0:0:0:
448,192,71994,1,0,0:0:0:0:
64,192,72069,1,0,0:0:0:0:
192,192,72144,1,0,0:0:0:0:
320,192,72144,1,0,0:0:0:0:
448,192,72219,1,0,0:0:0:0:
320,192,72294,1,0,0:0:0:0:
64,192,72294,1,0,0:0:0:0:
192,192,72369,1,0,0:0:0:0:
448,192,72369,1,0,0:0:0:0:
320,192,72444,1,0,0:0:0:0:
64,192,72444,1,0,0:0:0:0:
192,192,72519,1,0,0:0:0:0:
320,192,72594,1,0,0:0:0:0:
448,192,72594,1,0,0:0:0:0:
192,192,72669,1,0,0:0:0:0:
64,192,72669,1,0,0:0:0:0:
448,192,72744,1,0,0:0:0:0:
192,192,72819,1,0,0:0:0:0:
64,192,72819,1,0,0:0:0:0:
320,192,72894,1,0,0:0:0:0:
448,192,72894,1,0,0:0:0:0:
64,192,72969,1,0,0:0:0:0:
192,192,73044,1,0,0:0:0:0:
448,192,73044,1,0,0:0:0:0:
320,192,73119,1,0,0:0:0:0:
64,192,73119,1,0,0:0:0:0:
192,192,73194,1,0,0:0:0:0:
448,192,73194,1,0,0:0:0:0:
320,192,73269,1,0,0:0:0:0:
64,192,73344,1,0,0:0:0:0:
192,192,73344,1,0,0:0:0:0:
448,192,73419,1,0,0:0:0:0:
320,192,73494,1,0,0:0:0:0:
192,192,73494,1,0,0:0:0:0:
64,192,73569,1,0,0:0:0:0:
448,192,73569,1,0,0:0:0:0:
192,192,73644,1,0,0:0:0:0:
320,192,73644,1,0,0:0:0:0:
448,192,73719,1,0,0:0:0:0:
64,192,73794,1,0,0:0:0:0:
320,192,73794,1,0,0:0:0:0:
192,192,73869,1,0,0:0:0:0:
448,192,73869,1,0,0:0:0:0:
64,192,73944,1,0,0:0:0:0:
192,192,74019,1,0,0:0:0:0:
448,192,74019,1,0,0:0:0:0:
320,192,74094,1,0,0:0:0:0:
64,192,74094,1,0,0:0:0:0:
448,192,74169,1,0,0:0:0:0:
192,192,74244,1,0,0:0:0:0:
64,192,74244,1,0,0:0:0:0:
320,192,74319,1,0,0:0:0:0:
448,192,74319,1,0,0:0:0:0:
192,192,74394,1,0,0:0:0:0:
64,192,74394,1,0,0:0:0:0:
448,192,74469,1,0,0:0:0:0:
320,192,74544,1,0,0:0:0:0:
192,192,74544,1,0,0:0:0:0:
64,192,74619,1,0,0:0:0:0:
192,192,74694,1,0,0:0:0:0:
448,192,74694,1,0,0:0:0:0:
320,192,74769,1,0,0:0:0:0:
64,192,74769,1,0,0:0:0:0:
192,192,74844,1,0,0:0:0:0:
448,192,74844,1,0,0:0:0:0:
320,192,74919,1,0,0:0:0:0:
192,192,74994,1,0,0:0:0:0:
64,192,74994,1,0,0:0:0:0:
320,192,75069,1,0,0:0:0:0:
448,192,75069,1,0,0:0:0:0:
64,192,75144,1,0,0:0:0:0:
192,192,75219,1,0,0:0:0:0:
320,192,75219,1,0,0:0:0:0:
64,192,75294,1,0,0:0:0:0:
448,192,75294,1,0,0:0:0:0:
192,192,75369,1,0,0:0:0:0:
320,192,75444,1,0,0:0:0:0:
448,192,75444,1,0,0:0:0:0:
64,192,75519,1,0,0:0:0:0:
192,192,75594,1,0,0:0:0:0:
448,192,75594,1,0,0:0:0:0:
320,192,75594,1,0,0:0:0:0:
64,192,75894,1,0,0:0:0:0:
192,192,75894,1,0,0:0:0:0:
320,192,75894,1,0,0:0:0:0:
192,192,76194,1,0,0:0:0:0:
64,192,76194,1,0,0:0:0:0:
320,192,76194,1,0,0:0:0:0:
64,192,76344,1,0,0:0:0:0:
320,192,76344,1,0,0:0:0:0:
448,192,76344,1,0,0:0:0:0:
192,192,76494,1,0,0:0:0:0:
320,192,76494,1,0,0:0:0:0:
192,192,76644,1,0,0:0:0:0:
64,192,76644,128,0,76944:0:0:0:0:
320,192,76944,1,0,0:0:0:0:
448,192,76944,1,0,0:0:0:0:
192,192,77019,1,0,0:0:0:0:
64,192,77094,1,0,0:0:0:0:
448,192,77094,1,0,0:0:0:0:
320,192,77169,1,0,0:0:0:0:
192,192,77244,1,0,0:0:0:0:
64,192,77244,1,0,0:0:0:0:
320,192,77319,1,0,0:0:0:0:
448,192,77394,1,0,0:0:0:0:
64,192,77394,1,0,0:0:0:0:
192,192,77469,1,0,0:0:0:0:
320,192,77544,1,0,0:0:0:0:
448,192,77544,1,0,0:0:0:0:
64,192,77619,1,0,0:0:0:0:
192,192,77694,1,0,0:0:0:0:
448,192,77694,1,0,0:0:0:0:
320,192,77769,1,0,0:0:0:0:
192,192,77844,1,0,0:0:0:0:
64,192,77844,1,0,0:0:0:0:
448,192,77919,1,0,0:0:0:0:
320,192,77994,1,0,0:0:0:0:
64,192,77994,1,0,0:0:0:0:
192,192,78069,1,0,0:0:0:0:
320,192,78144,1,0,0:0:0:0:
448,192,78144,1,0,0:0:0:0:
192,192,78444,1,0,0:0:0:0:
320,192,78444,1,0,0:0:0:0:
64,192,78744,1,0,0:0:0:0:
192,192,78744,1,0,0:0:0:0:
448,192,79044,128,0,79194:0:0:0:0:
64,192,79344,1,0,0:0:0:0:
192,192,79344,1,0,0:0:0:0:
320,192,79344,1,0,0:0:0:0:
448,192,79344,1,0,0:0:0:0:
64,192,79494,1,0,0:0:0:0:
192,192,79494,1,0,0:0:0:0:
320,192,79569,1,0,0:0:0:0:
448,192,79569,1,0,0:0:0:0:
192,192,79644,1,0,0:0:0:0:
64,192,79644,1,0,0:0:0:0:
192,192,79794,1,0,0:0:0:0:
448,192,79794,1,0,0:0:0:0:
320,192,79794,1,0,0:0:0:0:
64,192,79944,1,0,0:0:0:0:
192,192,79944,1,0,0:0:0:0:
320,192,79944,1,0,0:0:0:0:
448,192,79944,1,0,0:0:0:0:
64,192,80094,1,0,0:0:0:0:
448,192,80094,1,0,0:0:0:0:
192,192,80169,1,0,0:0:0:0:
320,192,80244,1,0,0:0:0:0:
448,192,80244,1,0,0:0:0:0:
64,192,80244,1,0,0:0:0:0:
192,192,80394,1,0,0:0:0:0:
320,192,80394,1,0,0:0:0:0:
64,192,80394,1,0,0:0:0:0:
64,192,80544,1,0,0:0:0:0:
320,192,80544,1,0,0:0:0:0:
448,192,80544,1,0,0:0:0:0:
64,192,80844,1,0,0:0:0:0:
192,192,80844,1,0,0:0:0:0:
320,192,80844,1,0,0:0:0:0:
192,192,81144,1,0,0:0:0:0:
320,192,81144,1,0,0:0:0:0:
448,192,81144,1,0,0:0:0:0:
64,192,81294,128,0,81369:0:0:0:0:
192,192,81294,128,0,81369:0:0:0:0:
64,192,81444,128,0,81519:0:0:0:0:
192,192,81444,128,0,81519:0:0:0:0:
448,192,81594,1,0,0:0:0:0:
320,192,81669,1,0,0:0:0:0:
64,192,81744,1,0,0:0:0:0:
192,192,81744,1,0,0:0:0:0:
448,192,81744,1,0,0:0:0:0:
320,192,81819,1,0,0:0:0:0:
192,192,81894,1,0,0:0:0:0:
448,192,81894,1,0,0:0:0:0:
64,192,81969,1,0,0:0:0:0:
192,192,82044,1,0,0:0:0:0:
320,192,82044,1,0,0:0:0:0:
448,192,82119,1,0,0:0:0:0:
64,192,82194,1,0,0:0:0:0:
320,192,82194,1,0,0:0:0:0:
192,192,82269,1,0,0:0:0:0:
320,192,82344,1,0,0:0:0:0:
448,192,82344,1,0,0:0:0:0:
64,192,82419,1,0,0:0:0:0:
192,192,82494,1,0,0:0:0:0:
448,192,82494,1,0,0:0:0:0:
64,192,82569,1,0,0:0:0:0:
192,192,82644,1,0,0:0:0:0:
320,192,82644,1,0,0:0:0:0:
448,192,82719,1,0,0:0:0:0:
64,192,82794,1,0,0:0:0:0:
320,192,82794,1,0,0:0:0:0:
192,192,82869,1,0,0:0:0:0:
320,192,82944,1,0,0:0:0:0:
448,192,82944,1,0,0:0:0:0:
64,192,83019,1,0,0:0:0:0:
192,192,83094,1,0,0:0:0:0:
448,192,83094,1,0,0:0:0:0:
64,192,83169,1,0,0:0:0:0:
320,192,83244,1,0,0:0:0:0:
448,192,83244,1,0,0:0:0:0:
192,192,83319,1,0,0:0:0:0:
64,192,83394,1,0,0:0:0:0:
448,192,83394,1,0,0:0:0:0:
320,192,83469,1,0,0:0:0:0:
192,192,83544,1,0,0:0:0:0:
64,192,83544,1,0,0:0:0:0:
320,192,83619,1,0,0:0:0:0:
64,192,83694,1,0,0:0:0:0:
448,192,83694,1,0,0:0:0:0:
320,192,83769,1,0,0:0:0:0:
192,192,83844,1,0,0:0:0:0:
64,192,83844,1,0,0:0:0:0:
448,192,83919,1,0,0:0:0:0:
320,192,83994,1,0,0:0:0:0:
64,192,83994,1,0,0:0:0:0:
192,192,84069,1,0,0:0:0:0:
320,192,84144,1,0,0:0:0:0:
448,192,84144,1,0,0:0:0:0:
64,192,84219,1,0,0:0:0:0:
192,192,84294,1,0,0:0:0:0:
448,192,84294,1,0,0:0:0:0:
64,192,84369,1,0,0:0:0:0:
320,192,84444,1,0,0:0:0:0:
448,192,84444,1,0,0:0:0:0:
192,192,84519,1,0,0:0:0:0:
64,192,84594,1,0,0:0:0:0:
320,192,84594,1,0,0:0:0:0:
448,192,84669,1,0,0:0:0:0:
320,192,84744,1,0,0:0:0:0:
192,192,84744,1,0,0:0:0:0:
64,192,84819,1,0,0:0:0:0:
192,192,84894,1,0,0:0:0:0:
448,192,84894,1,0,0:0:0:0:
64,192,84969,1,0,0:0:0:0:
192,192,85044,1,0,0:0:0:0:
320,192,85044,1,0,0:0:0:0:
448,192,85119,1,0,0:0:0:0:
320,192,85194,1,0,0:0:0:0:
64,192,85194,1,0,0:0:0:0:
192,192,85269,1,0,0:0:0:0:
320,192,85344,1,0,0:0:0:0:
448,192,85344,1,0,0:0:0:0:
64,192,85419,1,0,0:0:0:0:
192,192,85494,1,0,0:0:0:0:
448,192,85494,1,0,0:0:0:0:
320,192,85569,1,0,0:0:0:0:
192,192,85644,1,0,0:0:0:0:
64,192,85644,1,0,0:0:0:0:
320,192,85719,1,0,0:0:0:0:
64,192,85794,1,0,0:0:0:0:
448,192,85794,1,0,0:0:0:0:
320,192,85869,1,0,0:0:0:0:
192,192,85944,1,0,0:0:0:0:
64,192,85944,1,0,0:0:0:0:
320,192,86019,1,0,0:0:0:0:
192,192,86094,1,0,0:0:0:0:
448,192,86094,1,0,0:0:0:0:
64,192,86169,1,0,0:0:0:0:
192,192,86244,1,0,0:0:0:0:
320,192,86244,1,0,0:0:0:0:
448,192,86319,1,0,0:0:0:0:
320,192,86394,1,0,0:0:0:0:
64,192,86394,1,0,0:0:0:0:
192,192,86469,1,0,0:0:0:0:
320,192,86544,1,0,0:0:0:0:
448,192,86544,1,0,0:0:0:0:
64,192,86694,1,0,0:0:0:0:
192,192,86712,1,0,0:0:0:0:
448,192,86769,1,0,0:0:0:0:
320,192,86787,1,0,0:0:0:0:
64,192,86844,1,0,0:0:0:0:
192,192,86862,1,0,0:0:0:0:
448,192,86919,1,0,0:0:0:0:
320,192,86994,1,0,0:0:0:0:
192,192,86994,1,0,0:0:0:0:
64,192,87069,1,0,0:0:0:0:
448,192,87069,1,0,0:0:0:0:
192,192,87144,1,0,0:0:0:0:
320,192,87144,1,0,0:0:0:0:
64,192,87219,1,0,0:0:0:0:
448,192,87219,1,0,0:0:0:0:
192,192,87294,1,0,0:0:0:0:
320,192,87294,1,0,0:0:0:0:
64,192,87369,1,0,0:0:0:0:
192,192,87444,1,0,0:0:0:0:
320,192,87462,1,0,0:0:0:0:
448,192,87469,1,0,0:0:0:0:
320,192,87594,1,0,0:0:0:0:
192,192,87612,1,0,0:0:0:0:
64,192,87619,1,0,0:0:0:0:
448,192,87744,128,0,87819:0:0:0:0:
320,192,87744,128,0,87819:0:0:0:0:
192,192,87744,1,0,0:0:0:0:
64,192,87894,1,0,0:0:0:0:
192,192,87894,1,0,0:0:0:0:
320,192,87969,1,0,0:0:0:0:
448,192,87969,1,0,0:0:0:0:
64,192,88044,128,0,88119:0:0:0:0:
192,192,88044,128,0,88119:0:0:0:0:
320,192,88194,1,0,0:0:0:0:
448,192,88194,1,0,0:0:0:0:
64,192,88269,128,0,88344:0:0:0:0:
192,192,88269,128,0,88344:0:0:0:0:
320,192,88344,1,0,0:0:0:0:
448,192,88344,1,0,0:0:0:0:
192,192,88419,1,0,0:0:0:0:
64,192,88419,1,0,0:0:0:0:
64,192,88569,1,0,0:0:0:0:
192,192,88569,1,0,0:0:0:0:
320,192,88644,128,0,88719:0:0:0:0:
448,192,88644,128,0,88719:0:0:0:0:
64,192,88794,1,0,0:0:0:0:
192,192,88794,1,0,0:0:0:0:
320,192,88944,1,0,0:0:0:0:
448,192,88944,1,0,0:0:0:0:
192,192,89019,1,0,0:0:0:0:
64,192,89094,1,0,0:0:0:0:
448,192,89094,1,0,0:0:0:0:
320,192,89169,1,0,0:0:0:0:
192,192,89244,1,0,0:0:0:0:
320,192,89319,1,0,0:0:0:0:
448,192,89394,1,0,0:0:0:0:
64,192,89394,1,0,0:0:0:0:
192,192,89469,1,0,0:0:0:0:
320,192,89544,1,0,0:0:0:0:
448,192,89544,1,0,0:0:0:0:
64,192,89619,1,0,0:0:0:0:
192,192,89694,1,0,0:0:0:0:
320,192,89769,1,0,0:0:0:0:
448,192,89844,1,0,0:0:0:0:
64,192,89844,1,0,0:0:0:0:
192,192,89919,1,0,0:0:0:0:
320,192,89994,1,0,0:0:0:0:
192,192,90069,1,0,0:0:0:0:
448,192,90144,1,0,0:0:0:0:
64,192,90144,1,0,0:0:0:0:
320,192,90219,1,0,0:0:0:0:
192,192,90294,1,0,0:0:0:0:
448,192,90294,1,0,0:0:0:0:
320,192,90369,1,0,0:0:0:0:
64,192,90369,1,0,0:0:0:0:
192,192,90444,1,0,0:0:0:0:
64,192,90519,1,0,0:0:0:0:
448,192,90519,1,0,0:0:0:0:
320,192,90594,1,0,0:0:0:0:
192,192,90669,1,0,0:0:0:0:
448,192,90669,1,0,0:0:0:0:
320,192,90744,1,0,0:0:0:0:
64,192,90744,1,0,0:0:0:0:
192,192,90819,1,0,0:0:0:0:
448,192,90894,1,0,0:0:0:0:
64,192,90894,1,0,0:0:0:0:
320,192,90969,1,0,0:0:0:0:
192,192,91044,1,0,0:0:0:0:
448,192,91044,1,0,0:0:0:0:
320,192,91119,1,0,0:0:0:0:
448,192,91194,1,0,0:0:0:0:
64,192,91194,1,0,0:0:0:0:
192,192,91269,1,0,0:0:0:0:
320,192,91344,1,0,0:0:0:0:
64,192,91344,1,0,0:0:0:0:
192,192,91419,1,0,0:0:0:0:
448,192,91419,1,0,0:0:0:0:
320,192,91494,1,0,0:0:0:0:
64,192,91494,1,0,0:0:0:0:
192,192,91569,1,0,0:0:0:0:
64,192,91644,1,0,0:0:0:0:
448,192,91644,1,0,0:0:0:0:
320,192,91719,1,0,0:0:0:0:
192,192,91794,1,0,0:0:0:0:
448,192,91794,1,0,0:0:0:0:
320,192,91869,1,0,0:0:0:0:
64,192,91869,1,0,0:0:0:0:
192,192,91944,1,0,0:0:0:0:
448,192,91944,1,0,0:0:0:0:
64,192,92019,1,0,0:0:0:0:
320,192,92019,1,0,0:0:0:0:
192,192,92094,1,0,0:0:0:0:
64,192,92169,1,0,0:0:0:0:
320,192,92244,1,0,0:0:0:0:
448,192,92244,1,0,0:0:0:0:
192,192,92394,1,0,0:0:0:0:
448,192,92394,1,0,0:0:0:0:
192,192,92544,1,0,0:0:0:0:
64,192,92544,1,0,0:0:0:0:
320,192,92694,1,0,0:0:0:0:
448,192,92694,1,0,0:0:0:0:
64,192,92844,1,0,0:0:0:0:
320,192,92844,1,0,0:0:0:0:
64,192,92994,1,0,0:0:0:0:
320,192,92994,1,0,0:0:0:0:
192,192,93069,1,0,0:0:0:0:
448,192,93069,1,0,0:0:0:0:
320,192,93144,1,0,0:0:0:0:
192,192,93219,1,0,0:0:0:0:
64,192,93219,1,0,0:0:0:0:
320,192,93294,1,0,0:0:0:0:
448,192,93294,1,0,0:0:0:0:
64,192,93444,128,0,93594:0:0:0:0:
192,192,93744,1,0,0:0:0:0:
320,192,93744,1,0,0:0:0:0:
448,192,93744,1,0,0:0:0:0:
64,192,93819,1,0,0:0:0:0:
192,192,93894,1,0,0:0:0:0:
448,192,93894,1,0,0:0:0:0:
320,192,93969,1,0,0:0:0:0:
192,192,94044,1,0,0:0:0:0:
64,192,94044,1,0,0:0:0:0:
448,192,94119,1,0,0:0:0:0:
320,192,94194,1,0,0:0:0:0:
64,192,94194,1,0,0:0:0:0:
192,192,94269,1,0,0:0:0:0:
448,192,94344,1,0,0:0:0:0:
320,192,94344,1,0,0:0:0:0:
64,192,94419,1,0,0:0:0:0:
192,192,94494,1,0,0:0:0:0:
448,192,94494,1,0,0:0:0:0:
320,192,94569,1,0,0:0:0:0:
192,192,94644,1,0,0:0:0:0:
64,192,94644,1,0,0:0:0:0:
448,192,94644,1,0,0:0:0:0:
192,192,94944,1,0,0:0:0:0:
64,192,94944,1,0,0:0:0:0:
448,192,94944,1,0,0:0:0:0:
320,192,95019,1,0,0:0:0:0:
192,192,95094,1,0,0:0:0:0:
448,192,95094,1,0,0:0:0:0:
64,192,95169,1,0,0:0:0:0:
192,192,95244,1,0,0:0:0:0:
320,192,95244,1,0,0:0:0:0:
448,192,95319,1,0,0:0:0:0:
320,192,95394,1,0,0:0:0:0:
64,192,95394,1,0,0:0:0:0:
192,192,95469,1,0,0:0:0:0:
320,192,95544,1,0,0:0:0:0:
448,192,95544,1,0,0:0:0:0:
192,192,95619,1,0,0:0:0:0:
64,192,95694,1,0,0:0:0:0:
320,192,95694,1,0,0:0:0:0:
448,192,95769,1,0,0:0:0:0:
320,192,95844,1,0,0:0:0:0:
192,192,95844,1,0,0:0:0:0:
64,192,95844,1,0,0:0:0:0:
64,192,96144,1,0,0:0:0:0:
192,192,96144,1,0,0:0:0:0:
320,192,96181,1,0,0:0:0:0:
448,192,96219,1,0,0:0:0:0:
192,192,96256,1,0,0:0:0:0:
320,192,96294,1,0,0:0:0:0:
448,192,96331,1,0,0:0:0:0:
64,192,96369,1,0,0:0:0:0:
192,192,96406,1,0,0:0:0:0:
320,192,96444,1,0,0:0:0:0:
448,192,96444,1,0,0:0:0:0:
320,192,96744,1,0,0:0:0:0:
448,192,96744,1,0,0:0:0:0:
192,192,96781,1,0,0:0:0:0:
64,192,96819,1,0,0:0:0:0:
320,192,96856,1,0,0:0:0:0:
192,192,96894,1,0,0:0:0:0:
64,192,96931,1,0,0:0:0:0:
448,192,96969,1,0,0:0:0:0:
320,192,97006,1,0,0:0:0:0:
192,192,97044,1,0,0:0:0:0:
64,192,97044,1,0,0:0:0:0:
192,192,97344,1,0,0:0:0:0:
64,192,97344,1,0,0:0:0:0:
448,192,97344,1,0,0:0:0:0:
320,192,97419,1,0,0:0:0:0:
192,192,97494,1,0,0:0:0:0:
448,192,97494,1,0,0:0:0:0:
64,192,97569,1,0,0:0:0:0:
192,192,97644,1,0,0:0:0:0:
320,192,97644,1,0,0:0:0:0:
448,192,97719,1,0,0:0:0:0:
320,192,97794,1,0,0:0:0:0:
64,192,97794,1,0,0:0:0:0:
192,192,97869,1,0,0:0:0:0:
320,192,97944,1,0,0:0:0:0:
448,192,97944,1,0,0:0:0:0:
64,192,97944,1,0,0:0:0:0:
192,192,98019,1,0,0:0:0:0:
320,192,98094,1,0,0:0:0:0:
64,192,98094,1,0,0:0:0:0:
448,192,98169,1,0,0:0:0:0:
192,192,98169,1,0,0:0:0:0:
320,192,98244,1,0,0:0:0:0:
448,192,98319,1,0,0:0:0:0:
64,192,98319,1,0,0:0:0:0:
192,192,98394,1,0,0:0:0:0:
320,192,98469,1,0,0:0:0:0:
192,192,98544,1,0,0:0:0:0:
64,192,98544,1,0,0:0:0:0:
320,192,98619,1,0,0:0:0:0:
448,192,98619,1,0,0:0:0:0:
192,192,98694,1,0,0:0:0:0:
64,192,98694,1,0,0:0:0:0:
320,192,98769,1,0,0:0:0:0:
448,192,98769,1,0,0:0:0:0:
64,192,98844,1,0,0:0:0:0:
320,192,98919,1,0,0:0:0:0:
64,192,98994,1,0,0:0:0:0:
192,192,98994,1,0,0:0:0:0:
448,192,99069,1,0,0:0:0:0:
320,192,99144,1,0,0:0:0:0:
64,192,99144,1,0,0:0:0:0:
192,192,99219,1,0,0:0:0:0:
320,192,99294,1,0,0:0:0:0:
448,192,99294,1,0,0:0:0:0:
64,192,99369,1,0,0:0:0:0:
320,192,99444,1,0,0:0:0:0:
64,192,99519,1,0,0:0:0:0:
320,192,99594,1,0,0:0:0:0:
448,192,99594,1,0,0:0:0:0:
192,192,99669,1,0,0:0:0:0:
64,192,99744,1,0,0:0:0:0:
320,192,99744,1,0,0:0:0:0:
448,192,99744,1,0,0:0:0:0:
192,192,99819,1,0,0:0:0:0:
64,192,99894,1,0,0:0:0:0:
448,192,99894,1,0,0:0:0:0:
320,192,99969,1,0,0:0:0:0:
192,192,100044,1,0,0:0:0:0:
64,192,100044,1,0,0:0:0:0:
448,192,100044,1,0,0:0:0:0:
320,192,100119,1,0,0:0:0:0:
192,192,100194,1,0,0:0:0:0:
448,192,100194,1,0,0:0:0:0:
64,192,100269,1,0,0:0:0:0:
192,192,100344,1,0,0:0:0:0:
320,192,100344,1,0,0:0:0:0:
448,192,100344,1,0,0:0:0:0:
64,192,100419,1,0,0:0:0:0:
192,192,100494,1,0,0:0:0:0:
448,192,100494,1,0,0:0:0:0:
320,192,100569,1,0,0:0:0:0:
192,192,100644,1,0,0:0:0:0:
64,192,100644,1,0,0:0:0:0:
448,192,100644,1,0,0:0:0:0:
320,192,100719,1,0,0:0:0:0:
64,192,100794,1,0,0:0:0:0:
448,192,100794,1,0,0:0:0:0:
192,192,100869,1,0,0:0:0:0:
320,192,100944,1,0,0:0:0:0:
448,192,100944,1,0,0:0:0:0:
64,192,100944,1,0,0:0:0:0:
192,192,101019,1,0,0:0:0:0:
320,192,101094,1,0,0:0:0:0:
448,192,101169,1,0,0:0:0:0:
320,192,101244,1,0,0:0:0:0:
192,192,101244,1,0,0:0:0:0:
64,192,101244,1,0,0:0:0:0:
448,192,101319,1,0,0:0:0:0:
192,192,101394,1,0,0:0:0:0:
320,192,101469,1,0,0:0:0:0:
192,192,101544,1,0,0:0:0:0:
64,192,101544,1,0,0:0:0:0:
448,192,101544,1,0,0:0:0:0:
320,192,101619,1,0,0:0:0:0:
448,192,101694,1,0,0:0:0:0:
64,192,101694,1,0,0:0:0:0:
192,192,101769,1,0,0:0:0:0:
320,192,101844,1,0,0:0:0:0:
64,192,101844,1,0,0:0:0:0:
192,192,101919,1,0,0:0:0:0:
448,192,101919,1,0,0:0:0:0:
320,192,101994,1,0,0:0:0:0:
448,192,102069,1,0,0:0:0:0:
64,192,102144,1,0,0:0:0:0:
192,192,102144,1,0,0:0:0:0:
320,192,102144,1,0,0:0:0:0:
448,192,102219,1,0,0:0:0:0:
64,192,102294,1,0,0:0:0:0:
320,192,102369,1,0,0:0:0:0:
448,192,102369,1,0,0:0:0:0:
192,192,102444,1,0,0:0:0:0:
64,192,102444,1,0,0:0:0:0:
448,192,102519,1,0,0:0:0:0:
320,192,102594,1,0,0:0:0:0:
192,192,102594,1,0,0:0:0:0:
64,192,102669,1,0,0:0:0:0:
192,192,102744,1,0,0:0:0:0:
448,192,102744,1,0,0:0:0:0:
320,192,102819,1,0,0:0:0:0:
64,192,102894,1,0,0:0:0:0:
192,192,102894,1,0,0:0:0:0:
448,192,102969,1,0,0:0:0:0:
320,192,103044,1,0,0:0:0:0:
64,192,103044,1,0,0:0:0:0:
192,192,103119,1,0,0:0:0:0:
320,192,103194,1,0,0:0:0:0:
448,192,103194,1,0,0:0:0:0:
64,192,103269,1,0,0:0:0:0:
192,192,103344,1,0,0:0:0:0:
320,192,103344,1,0,0:0:0:0:
448,192,103344,1,0,0:0:0:0:
64,192,103419,1,0,0:0:0:0:
192,192,103494,1,0,0:0:0:0:
320,192,103569,1,0,0:0:0:0:
448,192,103569,1,0,0:0:0:0:
192,192,103644,1,0,0:0:0:0:
64,192,103644,1,0,0:0:0:0:
448,192,103719,1,0,0:0:0:0:
320,192,103794,1,0,0:0:0:0:
192,192,103794,1,0,0:0:0:0:
64,192,103869,1,0,0:0:0:0:
192,192,103944,1,0,0:0:0:0:
448,192,103944,1,0,0:0:0:0:
320,192,104019,1,0,0:0:0:0:
192,192,104094,1,0,0:0:0:0:
64,192,104094,1,0,0:0:0:0:
448,192,104169,1,0,0:0:0:0:
320,192,104244,1,0,0:0:0:0:
64,192,104244,1,0,0:0:0:0:
448,192,104319,1,0,0:0:0:0:
320,192,104394,1,0,0:0:0:0:
192,192,104394,1,0,0:0:0:0:
64,192,104469,1,0,0:0:0:0:
192,192,104544,1,0,0:0:0:0:
320,192,104544,1,0,0:0:0:0:
448,192,104544,1,0,0:0:0:0:
64,192,104619,1,0,0:0:0:0:
320,192,104694,1,0,0:0:0:0:
192,192,104769,1,0,0:0:0:0:
64,192,104769,1,0,0:0:0:0:
320,192,104844,1,0,0:0:0:0:
448,192,104844,1,0,0:0:0:0:
64,192,104919,1,0,0:0:0:0:
192,192,104994,1,0,0:0:0:0:
320,192,104994,1,0,0:0:0:0:
448,192,105069,1,0,0:0:0:0:
320,192,105144,1,0,0:0:0:0:
64,192,105144,1,0,0:0:0:0:
448,192,105219,1,0,0:0:0:0:
320,192,105294,1,0,0:0:0:0:
192,192,105294,1,0,0:0:0:0:
64,192,105369,1,0,0:0:0:0:
192,192,105444,1,0,0:0:0:0:
448,192,105444,1,0,0:0:0:0:
320,192,105519,1,0,0:0:0:0:
192,192,105594,1,0,0:0:0:0:
64,192,105594,1,0,0:0:0:0:
448,192,105669,1,0,0:0:0:0:
320,192,105744,1,0,0:0:0:0:
192,192,105744,1,0,0:0:0:0:
64,192,105744,1,0,0:0:0:0:
448,192,105819,1,0,0:0:0:0:
192,192,105894,1,0,0:0:0:0:
320,192,105969,1,0,0:0:0:0:
448,192,105969,1,0,0:0:0:0:
192,192,106044,1,0,0:0:0:0:
64,192,106044,1,0,0:0:0:0:
448,192,106119,1,0,0:0:0:0:
192,192,106194,1,0,0:0:0:0:
320,192,106269,1,0,0:0:0:0:
448,192,106269,1,0,0:0:0:0:
192,192,106344,1,0,0:0:0:0:
64,192,106344,1,0,0:0:0:0:
448,192,106419,1,0,0:0:0:0:
320,192,106494,1,0,0:0:0:0:
64,192,106569,1,0,0:0:0:0:
192,192,106569,1,0,0:0:0:0:
320,192,106644,1,0,0:0:0:0:
448,192,106644,1,0,0:0:0:0:
64,192,106719,1,0,0:0:0:0:
192,192,106794,1,0,0:0:0:0:
320,192,106869,1,0,0:0:0:0:
192,192,106944,1,0,0:0:0:0:
64,192,106944,1,0,0:0:0:0:
448,192,106944,1,0,0:0:0:0:
320,192,107019,1,0,0:0:0:0:
448,192,107094,1,0,0:0:0:0:
192,192,107169,1,0,0:0:0:0:
64,192,107169,1,0,0:0:0:0:
320,192,107244,1,0,0:0:0:0:
448,192,107244,1,0,0:0:0:0:
64,192,107319,1,0,0:0:0:0:
192,192,107394,1,0,0:0:0:0:
320,192,107394,1,0,0:0:0:0:
448,192,107469,1,0,0:0:0:0:
320,192,107544,1,0,0:0:0:0:
64,192,107544,1,0,0:0:0:0:
192,192,107619,1,0,0:0:0:0:
320,192,107694,1,0,0:0:0:0:
448,192,107694,1,0,0:0:0:0:
64,192,107769,1,0,0:0:0:0:
192,192,107844,1,0,0:0:0:0:
448,192,107844,1,0,0:0:0:0:
64,192,107919,1,0,0:0:0:0:
192,192,107994,1,0,0:0:0:0:
320,192,107994,1,0,0:0:0:0:
448,192,108069,1,0,0:0:0:0:
320,192,108144,1,0,0:0:0:0:
192,192,108144,1,0,0:0:0:0:
64,192,108144,1,0,0:0:0:0:
448,192,108219,1,0,0:0:0:0:
192,192,108294,1,0,0:0:0:0:
320,192,108369,1,0,0:0:0:0:
448,192,108369,1,0,0:0:0:0:
192,192,108444,1,0,0:0:0:0:
64,192,108444,1,0,0:0:0:0:
448,192,108519,1,0,0:0:0:0:
320,192,108594,1,0,0:0:0:0:
192,192,108594,1,0,0:0:0:0:
64,192,108669,1,0,0:0:0:0:
448,192,108669,1,0,0:0:0:0:
320,192,108744,1,0,0:0:0:0:
192,192,108744,1,0,0:0:0:0:
448,192,108819,1,0,0:0:0:0:
192,192,108894,1,0,0:0:0:0:
64,192,108894,1,0,0:0:0:0:
448,192,108969,1,0,0:0:0:0:
320,192,109044,1,0,0:0:0:0:
64,192,109044,1,0,0:0:0:0:
448,192,109119,1,0,0:0:0:0:
320,192,109194,1,0,0:0:0:0:
192,192,109194,1,0,0:0:0:0:
64,192,109269,1,0,0:0:0:0:
192,192,109344,1,0,0:0:0:0:
320,192,109344,1,0,0:0:0:0:
448,192,109344,1,0,0:0:0:0:
64,192,109419,1,0,0:0:0:0:
320,192,109494,1,0,0:0:0:0:
192,192,109569,1,0,0:0:0:0:
64,192,109569,1,0,0:0:0:0:
320,192,109644,1,0,0:0:0:0:
448,192,109644,1,0,0:0:0:0:
64,192,109719,1,0,0:0:0:0:
192,192,109794,1,0,0:0:0:0:
448,192,109794,1,0,0:0:0:0:
320,192,109869,1,0,0:0:0:0:
192,192,109944,1,0,0:0:0:0:
64,192,109944,1,0,0:0:0:0:
448,192,109944,1,0,0:0:0:0:
320,192,110019,1,0,0:0:0:0:
64,192,110094,1,0,0:0:0:0:
448,192,110094,1,0,0:0:0:0:
192,192,110169,1,0,0:0:0:0:
64,192,110244,1,0,0:0:0:0:
320,192,110244,1,0,0:0:0:0:
448,192,110244,1,0,0:0:0:0:
192,192,110319,1,0,0:0:0:0:
64,192,110394,1,0,0:0:0:0:
448,192,110394,1,0,0:0:0:0:
320,192,110469,1,0,0:0:0:0:
192,192,110544,1,0,0:0:0:0:
64,192,110544,128,0,110619:0:0:0:0:
448,192,110619,128,0,110694:0:0:0:0:
320,192,110619,1,0,0:0:0:0:
64,192,110694,128,0,110769:0:0:0:0:
192,192,110694,1,0,0:0:0:0:
192,192,110844,1,0,0:0:0:0:
320,192,110844,128,0,110919:0:0:0:0:
64,192,110994,128,0,111069:0:0:0:0:
192,192,110994,1,0,0:0:0:0:
448,192,111069,128,0,111144:0:0:0:0:
320,192,111069,1,0,0:0:0:0:
64,192,111219,128,0,111294:0:0:0:0:
320,192,111219,1,0,0:0:0:0:
448,192,111369,128,0,111444:0:0:0:0:
192,192,111369,1,0,0:0:0:0:
320,192,111444,128,0,111519:0:0:0:0:
64,192,111444,1,0,0:0:0:0:
64,192,111594,1,0,0:0:0:0:
192,192,111594,128,0,111669:0:0:0:0:
64,192,111744,1,0,0:0:0:0:
320,192,111744,1,0,0:0:0:0:
448,192,111744,1,0,0:0:0:0:
192,192,111819,1,0,0:0:0:0:
64,192,111894,1,0,0:0:0:0:
320,192,111969,1,0,0:0:0:0:
448,192,111969,1,0,0:0:0:0:
192,192,112044,1,0,0:0:0:0:
64,192,112044,1,0,0:0:0:0:
448,192,112119,1,0,0:0:0:0:
320,192,112194,1,0,0:0:0:0:
192,192,112194,1,0,0:0:0:0:
64,192,112269,1,0,0:0:0:0:
192,192,112344,1,0,0:0:0:0:
448,192,112344,1,0,0:0:0:0:
64,192,112419,1,0,0:0:0:0:
320,192,112494,1,0,0:0:0:0:
448,192,112494,1,0,0:0:0:0:
192,192,112569,1,0,0:0:0:0:
64,192,112644,1,0,0:0:0:0:
320,192,112644,1,0,0:0:0:0:
448,192,112719,1,0,0:0:0:0:
320,192,112794,1,0,0:0:0:0:
192,192,112794,1,0,0:0:0:0:
64,192,112869,1,0,0:0:0:0:
192,192,112944,1,0,0:0:0:0:
320,192,112944,1,0,0:0:0:0:
448,192,112944,1,0,0:0:0:0:
64,192,113019,1,0,0:0:0:0:
320,192,113094,1,0,0:0:0:0:
192,192,113169,1,0,0:0:0:0:
64,192,113169,1,0,0:0:0:0:
320,192,113244,1,0,0:0:0:0:
448,192,113244,1,0,0:0:0:0:
64,192,113319,1,0,0:0:0:0:
192,192,113394,1,0,0:0:0:0:
320,192,113394,1,0,0:0:0:0:
448,192,113469,1,0,0:0:0:0:
320,192,113544,1,0,0:0:0:0:
64,192,113544,1,0,0:0:0:0:
192,192,113619,1,0,0:0:0:0:
320,192,113694,1,0,0:0:0:0:
448,192,113694,1,0,0:0:0:0:
64,192,113769,1,0,0:0:0:0:
192,192,113844,1,0,0:0:0:0:
448,192,113844,1,0,0:0:0:0:
64,192,113919,1,0,0:0:0:0:
320,192,113994,1,0,0:0:0:0:
448,192,113994,1,0,0:0:0:0:
192,192,114069,1,0,0:0:0:0:
64,192,114144,1,0,0:0:0:0:
320,192,114144,1,0,0:0:0:0:
448,192,114144,1,0,0:0:0:0:
192,192,114219,1,0,0:0:0:0:
64,192,114294,1,0,0:0:0:0:
320,192,114369,1,0,0:0:0:0:
448,192,114369,1,0,0:0:0:0:
192,192,114444,1,0,0:0:0:0:
64,192,114444,1,0,0:0:0:0:
448,192,114519,1,0,0:0:0:0:
320,192,114594,1,0,0:0:0:0:
192,192,114594,1,0,0:0:0:0:
448,192,114669,1,0,0:0:0:0:
320,192,114744,1,0,0:0:0:0:
64,192,114744,1,0,0:0:0:0:
192,192,114819,1,0,0:0:0:0:
320,192,114894,1,0,0:0:0:0:
448,192,114894,1,0,0:0:0:0:
64,192,114969,1,0,0:0:0:0:
192,192,115044,1,0,0:0:0:0:
448,192,115044,1,0,0:0:0:0:
320,192,115119,1,0,0:0:0:0:
192,192,115194,1,0,0:0:0:0:
64,192,115194,1,0,0:0:0:0:
320,192,115269,1,0,0:0:0:0:
192,192,115344,1,0,0:0:0:0:
64,192,115344,1,0,0:0:0:0:
448,192,115344,1,0,0:0:0:0:
320,192,115419,1,0,0:0:0:0:
448,192,115494,1,0,0:0:0:0:
64,192,115569,1,0,0:0:0:0:
192,192,115569,1,0,0:0:0:0:
320,192,115644,1,0,0:0:0:0:
448,192,115644,1,0,0:0:0:0:
192,192,115719,1,0,0:0:0:0:
64,192,115794,1,0,0:0:0:0:
320,192,115869,1,0,0:0:0:0:
448,192,115869,1,0,0:0:0:0:
192,192,115944,1,0,0:0:0:0:
64,192,115944,1,0,0:0:0:0:
448,192,116019,1,0,0:0:0:0:
320,192,116094,1,0,0:0:0:0:
192,192,116169,1,0,0:0:0:0:
64,192,116169,1,0,0:0:0:0:
320,192,116244,1,0,0:0:0:0:
448,192,116244,1,0,0:0:0:0:
64,192,116319,1,0,0:0:0:0:
192,192,116394,1,0,0:0:0:0:
448,192,116394,1,0,0:0:0:0:
320,192,116469,1,0,0:0:0:0:
192,192,116544,1,0,0:0:0:0:
64,192,116544,1,0,0:0:0:0:
448,192,116544,1,0,0:0:0:0:
320,192,116619,1,0,0:0:0:0:
64,192,116694,1,0,0:0:0:0:
192,192,116769,1,0,0:0:0:0:
320,192,116769,1,0,0:0:0:0:
64,192,116844,1,0,0:0:0:0:
448,192,116844,1,0,0:0:0:0:
192,192,116919,1,0,0:0:0:0:
320,192,116994,1,0,0:0:0:0:
448,192,116994,1,0,0:0:0:0:
64,192,117069,1,0,0:0:0:0:
192,192,117144,1,0,0:0:0:0:
320,192,117144,1,0,0:0:0:0:
448,192,117144,1,0,0:0:0:0:
64,192,117219,1,0,0:0:0:0:
192,192,117294,1,0,0:0:0:0:
448,192,117294,1,0,0:0:0:0:
320,192,117369,1,0,0:0:0:0:
192,192,117444,1,0,0:0:0:0:
64,192,117444,1,0,0:0:0:0:
448,192,117444,1,0,0:0:0:0:
320,192,117519,1,0,0:0:0:0:
64,192,117594,1,0,0:0:0:0:
448,192,117594,1,0,0:0:0:0:
192,192,117669,1,0,0:0:0:0:
64,192,117744,1,0,0:0:0:0:
320,192,117744,1,0,0:0:0:0:
448,192,117744,1,0,0:0:0:0:
192,192,117819,1,0,0:0:0:0:
320,192,117894,1,0,0:0:0:0:
64,192,117969,1,0,0:0:0:0:
192,192,117969,1,0,0:0:0:0:
320,192,118044,1,0,0:0:0:0:
448,192,118044,1,0,0:0:0:0:
64,192,118119,1,0,0:0:0:0:
192,192,118194,1,0,0:0:0:0:
320,192,118194,1,0,0:0:0:0:
448,192,118269,1,0,0:0:0:0:
320,192,118344,1,0,0:0:0:0:
192,192,118344,1,0,0:0:0:0:
64,192,118344,1,0,0:0:0:0:
448,192,118419,1,0,0:0:0:0:
320,192,118494,1,0,0:0:0:0:
64,192,118494,1,0,0:0:0:0:
192,192,118569,1,0,0:0:0:0:
320,192,118644,1,0,0:0:0:0:
448,192,118644,1,0,0:0:0:0:
64,192,118719,1,0,0:0:0:0:
192,192,118794,1,0,0:0:0:0:
448,192,118794,1,0,0:0:0:0:
320,192,118869,1,0,0:0:0:0:
192,192,118944,1,0,0:0:0:0:
64,192,118944,1,0,0:0:0:0:
448,192,118944,1,0,0:0:0:0:
320,192,119019,1,0,0:0:0:0:
448,192,119094,1,0,0:0:0:0:
64,192,119169,1,0,0:0:0:0:
192,192,119169,1,0,0:0:0:0:
448,192,119244,1,0,0:0:0:0:
320,192,119244,1,0,0:0:0:0:
64,192,119319,1,0,0:0:0:0:
192,192,119394,1,0,0:0:0:0:
448,192,119394,1,0,0:0:0:0:
320,192,119469,1,0,0:0:0:0:
192,192,119544,1,0,0:0:0:0:
64,192,119544,1,0,0:0:0:0:
448,192,119544,1,0,0:0:0:0:
320,192,119619,1,0,0:0:0:0:
448,192,119694,1,0,0:0:0:0:
64,192,119694,1,0,0:0:0:0:
192,192,119769,1,0,0:0:0:0:
320,192,119844,1,0,0:0:0:0:
448,192,119844,1,0,0:0:0:0:
64,192,119919,1,0,0:0:0:0:
192,192,119994,1,0,0:0:0:0:
448,192,119994,1,0,0:0:0:0:
320,192,120069,1,0,0:0:0:0:
192,192,120144,1,0,0:0:0:0:
64,192,120144,1,0,0:0:0:0:
320,192,120219,1,0,0:0:0:0:
448,192,120219,1,0,0:0:0:0:
192,192,120294,1,0,0:0:0:0:
64,192,120294,1,0,0:0:0:0:
192,192,120444,1,0,0:0:0:0:
320,192,120444,1,0,0:0:0:0:
192,192,120594,1,0,0:0:0:0:
448,192,120594,1,0,0:0:0:0:
320,192,120669,1,0,0:0:0:0:
64,192,120669,1,0,0:0:0:0:
64,192,120819,1,0,0:0:0:0:
192,192,120819,1,0,0:0:0:0:
320,192,120969,1,0,0:0:0:0:
448,192,120969,1,0,0:0:0:0:
192,192,121044,1,0,0:0:0:0:
64,192,121044,1,0,0:0:0:0:
64,192,121194,1,0,0:0:0:0:
192,192,121194,1,0,0:0:0:0:
64,192,121344,128,0,122544:0:0:0:0:
448,192,121344,1,0,0:0:0:0:
192,192,121569,128,0,121719:0:0:0:0:
448,192,121794,1,0,0:0:0:0:
320,192,121944,1,0,0:0:0:0:
192,192,122094,1,0,0:0:0:0:
448,192,122244,1,0,0:0:0:0:
320,192,122394,1,0,0:0:0:0:
192,192,122544,128,0,123744:0:0:0:0:
448,192,122769,1,0,0:0:0:0:
64,192,122994,1,0,0:0:0:0:
320,192,123044,1,0,0:0:0:0:
448,192,123094,1,0,0:0:0:0:
64,192,123144,1,0,0:0:0:0:
448,192,123294,1,0,0:0:0:0:
320,192,123444,1,0,0:0:0:0:
64,192,123594,1,0,0:0:0:0:
320,192,123744,128,0,124944:0:0:0:0:
64,192,123969,1,0,0:0:0:0:
448,192,124194,1,0,0:0:0:0:
192,192,124344,1,0,0:0:0:0:
64,192,124494,1,0,0:0:0:0:
448,192,124644,1,0,0:0:0:0:
64,192,124794,1,0,0:0:0:0:
448,192,124944,128,0,126144:0:0:0:0:
192,192,125094,1,0,0:0:0:0:
320,192,125169,1,0,0:0:0:0:
64,192,125244,1,0,0:0:0:0:
192,192,125394,1,0,0:0:0:0:
64,192,125469,1,0,0:0:0:0:
320,192,125544,1,0,0:0:0:0:
64,192,125694,1,0,0:0:0:0:
320,192,125844,128,0,126144:0:0:0:0:
64,192,126144,128,0,127344:0:0:0:0:
192,192,126144,128,0,126594:0:0:0:0:
448,192,126594,128,0,126744:0:0:0:0:
320,192,126744,128,0,126894:0:0:0:0:
192,192,126894,128,0,127044:0:0:0:0:
448,192,127044,128,0,127194:0:0:0:0:
320,192,127194,128,0,127344:0:0:0:0:
448,192,127344,128,0,128544:0:0:0:0:
192,192,127344,128,0,127794:0:0:0:0:
320,192,127794,128,0,127944:0:0:0:0:
64,192,127944,128,0,128094:0:0:0:0:
320,192,128094,128,0,128244:0:0:0:0:
192,192,128244,128,0,128394:0:0:0:0:
64,192,128394,128,0,128544:0:0:0:0:
192,192,128544,1,0,0:0:0:0:
320,192,128544,1,0,0:0:0:0:
448,192,128619,1,0,0:0:0:0:
64,192,128694,1,0,0:0:0:0:
448,192,128769,1,0,0:0:0:0:
192,192,128844,1,0,0:0:0:0:
64,192,128844,1,0,0:0:0:0:
320,192,128919,1,0,0:0:0:0:
64,192,128994,1,0,0:0:0:0:
448,192,129069,1,0,0:0:0:0:
192,192,129144,1,0,0:0:0:0:
64,192,129144,1,0,0:0:0:0:
448,192,129219,1,0,0:0:0:0:
64,192,129294,1,0,0:0:0:0:
320,192,129369,1,0,0:0:0:0:
192,192,129444,1,0,0:0:0:0:
64,192,129444,1,0,0:0:0:0:
448,192,129519,1,0,0:0:0:0:
64,192,129594,1,0,0:0:0:0:
192,192,129669,1,0,0:0:0:0:
320,192,129744,1,0,0:0:0:0:
448,192,129781,1,0,0:0:0:0:
192,192,129819,1,0,0:0:0:0:
64,192,129856,1,0,0:0:0:0:
320,192,129894,1,0,0:0:0:0:
192,192,130006,1,0,0:0:0:0:
448,192,130044,1,0,0:0:0:0:
320,192,130081,1,0,0:0:0:0:
64,192,130119,1,0,0:0:0:0:
192,192,130156,1,0,0:0:0:0:
448,192,130194,1,0,0:0:0:0:
64,192,130269,1,0,0:0:0:0:
448,192,130344,1,0,0:0:0:0:
320,192,130381,1,0,0:0:0:0:
192,192,130419,1,0,0:0:0:0:
64,192,130456,1,0,0:0:0:0:
448,192,130494,1,0,0:0:0:0:
320,192,130531,1,0,0:0:0:0:
192,192,130569,1,0,0:0:0:0:
64,192,130606,1,0,0:0:0:0:
448,192,130644,1,0,0:0:0:0:
320,192,130681,1,0,0:0:0:0:
192,192,130719,1,0,0:0:0:0:
64,192,130756,1,0,0:0:0:0:
448,192,130794,1,0,0:0:0:0:
320,192,130831,1,0,0:0:0:0:
192,192,130869,1,0,0:0:0:0:
64,192,130906,1,0,0:0:0:0:
448,192,130944,1,0,0:0:0:0:
320,192,130944,128,0,134544:0:0:0:0:
