osu file format v14

[General]
AudioFilename: Title Theme.mp3
AudioLeadIn: 0
PreviewTime: -1
Countdown: 0
SampleSet: Soft
StackLeniency: 0.7
Mode: 2
LetterboxInBreaks: 0
CountdownOffset: 3
WidescreenStoryboard: 0

[Editor]
DistanceSpacing: 0.8
BeatDivisor: 4
GridSize: 4
TimelineZoom: 1.699999

[Metadata]
Title:David Wise
TitleUnicode:David Wise
Artist:Various Soundtracks
ArtistUnicode:Various Soundtracks
Creator:Ycro
Version:Title Theme
Source:Battletoads
Tags:
BeatmapID:2028471
BeatmapSetID:969555

[Difficulty]
HPDrainRate:2
CircleSize:2.5
OverallDifficulty:4
ApproachRate:3
SliderMultiplier:0.9
SliderTickRate:1

[Events]
//Background and Video events
0,0,"Introduction.jpg",0,0
//Break Periods
//Storyboard Layer 0 (Background)
//Storyboard Layer 1 (Fail)
//Storyboard Layer 2 (Pass)
//Storyboard Layer 3 (Foreground)
//Storyboard Sound Samples

[TimingPoints]
0,402.684563758389,4,2,0,100,1,0
100,-100,4,2,0,100,0,0
5637,-100,4,2,0,100,0,0
75805,-100,4,2,0,100,0,1
97046,-100,4,2,0,100,0,0

[HitObjects]
58,84,6040,6,0,B|91:84|91:84|91:133|91:133|159:133,2,135
211,168,7449,2,0,B|159:224|159:224|61:224|61:224|57:81|57:81,1,315
57,83,9060,2,0,B|97:38|97:38|97:37|97:37|337:37|337:37|337:37,1,292.5
327,37,10469,2,0,B|374:53|374:53|414:109,3,112.5
424,106,13489,6,0,B|390:73|390:73|313:43|313:43|261:26|261:26|179:35|179:35|108:95,1,360
108,94,15201,2,0,B|55:301|55:301|257:195|257:195|462:304|462:304|419:111,2,855
218,71,23154,2,0,L|89:99,2,112.5
279,97,24362,2,0,L|201:63,2,67.5
396,194,25167,2,0,P|272:93|272:93,2,157.5
435,65,26677,6,0,L|389:214,2,135
395,193,28187,2,0,B|360:296|360:296|268:232,2,202.5
283,242,30201,2,0,B|212:340|212:340|137:282|137:282|213:193,2,315
201,206,33422,2,0,B|138:178|138:178|150:134|150:134|107:111|107:111|113:47|113:47|146:32,1,247.5
201,206,34630,2,0,B|258:197|258:197|270:102|270:102|314:59|314:59|190:36,1,337.5
201,206,36342,6,0,B|201:297|201:297|201:360|201:360|252:237,1,270
201,206,37751,2,0,B|107:206|107:206|107:153|107:153|210:153|210:153|210:98|210:98|137:98,1,360
201,206,39463,2,0,B|292:206|292:206|292:276|292:276|237:276|237:276|292:276|292:335|292:335|292:335|191:335,1,405
116,38,41476,2,0,B|116:125|116:125|201:125|201:125|201:1|201:53|201:53|201:229,1,450
201,228,43892,6,0,B|249:228|249:228|249:350,2,157.5
153,143,45503,2,0,B|216:143|216:143|216:181|216:181|167:228|167:228|222:228,1,202.5
155,63,46510,2,0,B|70:63|70:63|70:63|70:63|70:143|70:143|118:143|118:143|173:143,1,247.5
237,238,47919,2,0,B|152:238|152:238|152:175|152:175|152:122,1,180
237,238,48825,2,0,B|237:353|237:353|132:352,1,202.5
41,189,49832,2,0,B|41:352|41:352|157:352,2,270
179,57,52449,6,0,B|70:57|70:57|41:57|41:57|41:203,1,270
179,57,54060,2,0,B|179:237|179:237|279:237|279:237|179:314,2,405
179,57,57785,2,0,B|277:57|277:58|281:57|281:57|167:137|167:137|221:137|221:137|152:171,2,360
179,57,61610,2,0,B|140:57|140:57|61:57|61:57|134:167|134:167|29:167,2,337.5
52,174,64731,2,0,B|236:174|236:174|175:51,1,315
52,174,66241,6,0,L|52:21,2,135
52,39,67550,2,0,B|317:38|317:38|385:158|385:158|46:176,2,742.5
45,176,74295,2,0,B|108:175|108:175|45:225|45:225|113:227|113:227|231:215,1,315
253,191,75805,5,0,0:0:0:0:
253,191,75906,1,0,0:0:0:0:
253,191,76006,1,0,0:0:0:0:
253,191,76107,1,0,0:0:0:0:
253,191,76208,5,2,0:0:0:0:
253,191,76308,1,2,0:0:0:0:
253,191,76409,1,2,0:0:0:0:
253,191,76610,1,0,0:0:0:0:
253,191,76711,1,0,0:0:0:0:
253,191,76812,1,0,0:0:0:0:
253,191,77013,5,8,0:0:0:0:
253,191,77315,1,0,0:0:0:0:
253,191,77416,1,0,0:0:0:0:
253,191,77516,1,0,0:0:0:0:
253,191,77617,1,0,0:0:0:0:
253,191,77718,5,8,0:0:0:0:
253,191,77919,1,8,0:0:0:0:
253,191,78422,1,4,0:0:0:0:
253,191,78926,5,0,0:0:0:0:
253,191,79026,1,0,0:0:0:0:
253,191,79127,1,0,0:0:0:0:
253,191,79228,5,4,0:0:0:0:
253,191,79429,1,4,0:0:0:0:
253,191,79932,1,2,0:0:0:0:
253,191,80335,5,0,0:0:0:0:
253,191,80436,1,0,0:0:0:0:
253,191,80536,1,0,0:0:0:0:
253,191,80738,1,4,0:0:0:0:
253,191,80939,5,2,0:0:0:0:
253,191,81040,1,2,0:0:0:0:
253,191,81140,1,2,0:0:0:0:
253,191,81241,1,2,0:0:0:0:
253,191,81342,1,2,0:0:0:0:
253,191,81442,1,2,0:0:0:0:
253,191,81543,1,2,0:0:0:0:
253,191,81644,1,2,0:0:0:0:
253,191,81744,1,2,0:0:0:0:
253,191,81946,5,0,0:0:0:0:
253,191,82046,1,0,0:0:0:0:
253,191,82147,1,0,0:0:0:0:
253,191,82248,1,4,0:0:0:0:
253,191,82449,1,4,0:0:0:0:
255,191,83053,1,8,0:0:0:0:
255,191,83456,1,0,0:0:0:0:
255,191,83557,1,0,0:0:0:0:
255,191,83657,1,0,0:0:0:0:
255,191,83859,5,4,0:0:0:0:
255,191,84563,1,8,0:0:0:0:
255,187,85369,1,8,0:0:0:0:
255,187,85570,1,8,0:0:0:0:
256,189,86073,5,8,0:0:0:0:
253,191,86778,5,8,0:0:0:0:
253,191,86979,5,8,0:0:0:0:
253,191,87080,5,8,0:0:0:0:
253,191,87181,5,8,0:0:0:0:
253,191,87281,5,8,0:0:0:0:
253,191,87382,5,8,0:0:0:0:
253,191,87483,5,8,0:0:0:0:
253,191,87583,5,8,0:0:0:0:
253,191,87684,5,8,0:0:0:0:
253,191,87785,5,8,0:0:0:0:
253,191,87885,5,8,0:0:0:0:
255,188,88288,5,8,0:0:0:0:
255,188,88489,5,8,0:0:0:0:
256,193,89093,5,8,0:0:0:0:
256,190,89798,5,8,0:0:0:0:
256,190,89999,5,8,0:0:0:0:
255,191,90604,5,8,0:0:0:0:
255,188,91308,5,8,0:0:0:0:
255,188,91510,5,8,0:0:0:0:
253,188,92114,5,8,0:0:0:0:
255,190,92516,1,8,0:0:0:0:
255,190,92617,1,8,0:0:0:0:
255,190,92718,1,8,0:0:0:0:
255,190,92818,1,8,0:0:0:0:
255,190,93020,5,8,0:0:0:0:
255,190,93221,5,8,0:0:0:0:
255,190,93322,5,8,0:0:0:0:
255,190,93422,5,8,0:0:0:0:
255,190,93523,5,8,0:0:0:0:
255,190,93624,5,8,0:0:0:0:
255,190,93724,5,8,0:0:0:0:
255,190,93825,5,8,0:0:0:0:
255,190,93926,5,8,0:0:0:0:
255,190,94026,5,8,0:0:0:0:
255,190,94127,5,8,0:0:0:0:
259,188,94429,5,8,0:0:0:0:
259,188,94630,5,8,0:0:0:0:
259,188,95134,5,8,0:0:0:0:
256,187,95436,5,8,0:0:0:0:
256,187,95536,5,8,0:0:0:0:
256,187,95637,5,8,0:0:0:0:
256,187,95738,5,8,0:0:0:0:
256,187,95838,5,8,0:0:0:0:
256,187,95939,5,8,0:0:0:0:
256,187,96140,5,8,0:0:0:0:
255,186,96442,5,8,0:0:0:0:
255,186,96644,5,8,0:0:0:0:
255,186,96845,2,8,L|256:132,1,45
