osu file format v14

[General]
AudioFilename: Genjitsu o Cut up Shitemita_20.mp3
AudioLeadIn: 0
PreviewTime: 17976
Countdown: 0
SampleSet: Normal
StackLeniency: 0.7
Mode: 3
LetterboxInBreaks: 0
SpecialStyle: 0
WidescreenStoryboard: 0

[Editor]
DistanceSpacing: 0.8
BeatDivisor: 4
GridSize: 16
TimelineZoom: 1.4

[Metadata]
Title:tyrcs' 6K Collection Pack
TitleUnicode:tyrcs' 6K Collection Pack
Artist:Various Artists
ArtistUnicode:Various Artists
Creator:tyrcs
Version:Yu^ta - Genjitsu o Cut-up Shite Mita [17]
Source:
Tags:BMS The Quick Brown Fox Break TQBF renard LeaF 失望Choco Shitsubou Choco goreshit slavik goblins Aitsuki Nakuru 藍月なくる Monochrome Butterfly 現実をカットアップしてみた yu^ta Genjitsu o Cut-up Shite Mita -45 Aci-L A c i - L Yoshikawa-45 cornandbeans {Blaze} 八大地獄邪魂転生狂葬散火歌 さかみりと Sakamirito Hachidaijigoku Jakontensei Kyousou Sanbika Sakamiya 一之瀬りと Rito Ichinose かめりあ feat. ななひら ベィスドロップ・フリークス Camellia feat. Nanahira Bassdrop Freaks DEAF KEV Invincible ueotan Mario Paint (Time Regression Mix for BMS) Oerba Tanaka Vanilla Y ヲルバ=田中・ヴァニラ Schwerkraft ROKINA ロキナ Silentroom Nhelv SHAGAN DAISHI KAKU P-MODEL 遮眼大師 核P-MODEL 平沢進 Susumu Hirasawa ああああ AAAA lifework LUZE LuzeriA ルゼ katagiri ch3rry cherry かたぎり Laur Sheriruth (Laur Remix) Team Grimoire vs. Laur Grievous Lady Getty vs. DJ DiA Ops Code Rapture Vicetone & Tony Igy Astronomia (Camellia Remix) Coffin Dance かめりあ Fastest Crash Cut Tatsh reunion Asymmetry Reol アシンメトリー れをる
BeatmapID:3507129
BeatmapSetID:1716337

[Difficulty]
HPDrainRate:8
CircleSize:6
OverallDifficulty:8
ApproachRate:5
SliderMultiplier:1.4
SliderTickRate:1

[Events]
//Background and Video events
0,0,"tyrcs' 6K Collection Pack_19.png",0,0
//Break Periods
//Storyboard Layer 0 (Background)
//Storyboard Layer 1 (Fail)
//Storyboard Layer 2 (Pass)
//Storyboard Layer 3 (Foreground)
//Storyboard Layer 4 (Overlay)
//Storyboard Sound Samples

[TimingPoints]
-24,500,4,1,0,10,1,0

[HitObjects]
298,192,1976,5,0,0:0:0:0:
469,192,1976,1,0,0:0:0:0:
42,192,1976,1,0,0:0:0:0:
298,192,2101,1,0,0:0:0:0:
469,192,2101,1,0,0:0:0:0:
213,192,2351,1,0,0:0:0:0:
42,192,2351,1,0,0:0:0:0:
213,192,2476,1,0,0:0:0:0:
42,192,2476,1,0,0:0:0:0:
469,192,2476,1,0,0:0:0:0:
128,192,2726,1,0,0:0:0:0:
298,192,2726,1,0,0:0:0:0:
213,192,2851,1,0,0:0:0:0:
384,192,2851,1,0,0:0:0:0:
298,192,2976,1,0,0:0:0:0:
469,192,2976,1,0,0:0:0:0:
42,192,2976,1,0,0:0:0:0:
298,192,3101,1,0,0:0:0:0:
469,192,3101,1,0,0:0:0:0:
213,192,3351,1,0,0:0:0:0:
42,192,3351,1,0,0:0:0:0:
213,192,3476,1,0,0:0:0:0:
42,192,3476,1,0,0:0:0:0:
469,192,3476,1,0,0:0:0:0:
128,192,3726,1,0,0:0:0:0:
298,192,3726,1,0,0:0:0:0:
213,192,3851,1,0,0:0:0:0:
384,192,3851,1,0,0:0:0:0:
42,192,3976,1,0,0:0:0:0:
469,192,3976,1,0,0:0:0:0:
298,192,3976,1,0,0:0:0:0:
469,192,4101,1,0,0:0:0:0:
298,192,4101,1,0,0:0:0:0:
42,192,4351,1,0,0:0:0:0:
213,192,4351,1,0,0:0:0:0:
469,192,4476,1,0,0:0:0:0:
42,192,4476,1,0,0:0:0:0:
213,192,4476,1,0,0:0:0:0:
298,192,4726,1,0,0:0:0:0:
128,192,4726,1,0,0:0:0:0:
213,192,4851,1,0,0:0:0:0:
42,192,4851,1,0,0:0:0:0:
469,192,4851,1,0,0:0:0:0:
384,192,4976,1,0,0:0:0:0:
128,192,5101,1,0,0:0:0:0:
42,192,5101,1,0,0:0:0:0:
298,192,5101,1,0,0:0:0:0:
42,192,5351,1,0,0:0:0:0:
213,192,5351,1,0,0:0:0:0:
384,192,5351,1,0,0:0:0:0:
42,192,5601,1,0,0:0:0:0:
213,192,5601,1,0,0:0:0:0:
384,192,5601,1,0,0:0:0:0:
42,192,5851,1,0,0:0:0:0:
213,192,5851,1,0,0:0:0:0:
384,192,5851,1,0,0:0:0:0:
298,192,5976,1,0,0:0:0:0:
469,192,5976,1,0,0:0:0:0:
42,192,5976,1,0,0:0:0:0:
298,192,6101,1,0,0:0:0:0:
469,192,6101,1,0,0:0:0:0:
213,192,6351,1,0,0:0:0:0:
42,192,6351,1,0,0:0:0:0:
213,192,6476,1,0,0:0:0:0:
42,192,6476,1,0,0:0:0:0:
469,192,6476,1,0,0:0:0:0:
128,192,6726,1,0,0:0:0:0:
298,192,6726,1,0,0:0:0:0:
213,192,6851,1,0,0:0:0:0:
384,192,6851,1,0,0:0:0:0:
42,192,6976,1,0,0:0:0:0:
469,192,6976,1,0,0:0:0:0:
298,192,6976,1,0,0:0:0:0:
469,192,7101,1,0,0:0:0:0:
298,192,7101,1,0,0:0:0:0:
42,192,7351,1,0,0:0:0:0:
213,192,7351,1,0,0:0:0:0:
469,192,7476,1,0,0:0:0:0:
42,192,7476,1,0,0:0:0:0:
213,192,7476,1,0,0:0:0:0:
298,192,7726,1,0,0:0:0:0:
128,192,7726,1,0,0:0:0:0:
384,192,7851,1,0,0:0:0:0:
213,192,7851,1,0,0:0:0:0:
298,192,7976,1,0,0:0:0:0:
469,192,7976,1,0,0:0:0:0:
42,192,7976,1,0,0:0:0:0:
298,192,8101,1,0,0:0:0:0:
469,192,8101,1,0,0:0:0:0:
213,192,8351,1,0,0:0:0:0:
42,192,8351,1,0,0:0:0:0:
213,192,8476,1,0,0:0:0:0:
42,192,8476,1,0,0:0:0:0:
469,192,8476,1,0,0:0:0:0:
128,192,8726,1,0,0:0:0:0:
298,192,8726,1,0,0:0:0:0:
213,192,8851,1,0,0:0:0:0:
42,192,8851,1,0,0:0:0:0:
469,192,8851,1,0,0:0:0:0:
384,192,8976,1,0,0:0:0:0:
128,192,9101,1,0,0:0:0:0:
42,192,9101,1,0,0:0:0:0:
298,192,9101,1,0,0:0:0:0:
42,192,9351,1,0,0:0:0:0:
213,192,9351,1,0,0:0:0:0:
384,192,9351,1,0,0:0:0:0:
42,192,9601,1,0,0:0:0:0:
213,192,9601,1,0,0:0:0:0:
384,192,9601,1,0,0:0:0:0:
42,192,9851,1,0,0:0:0:0:
213,192,9851,1,0,0:0:0:0:
384,192,9851,1,0,0:0:0:0:
298,192,9976,1,0,0:0:0:0:
469,192,9976,1,0,0:0:0:0:
42,192,9976,1,0,0:0:0:0:
298,192,10101,1,0,0:0:0:0:
469,192,10101,1,0,0:0:0:0:
128,192,10226,1,0,0:0:0:0:
213,192,10351,1,0,0:0:0:0:
42,192,10351,1,0,0:0:0:0:
298,192,10351,1,0,0:0:0:0:
213,192,10476,1,0,0:0:0:0:
42,192,10476,1,0,0:0:0:0:
384,192,10476,1,0,0:0:0:0:
469,192,10476,1,0,0:0:0:0:
469,192,10601,1,0,0:0:0:0:
128,192,10726,1,0,0:0:0:0:
298,192,10726,1,0,0:0:0:0:
213,192,10851,1,0,0:0:0:0:
384,192,10851,1,0,0:0:0:0:
298,192,10976,1,0,0:0:0:0:
469,192,10976,1,0,0:0:0:0:
42,192,10976,1,0,0:0:0:0:
298,192,11101,1,0,0:0:0:0:
469,192,11101,1,0,0:0:0:0:
213,192,11351,1,0,0:0:0:0:
42,192,11351,1,0,0:0:0:0:
213,192,11476,1,0,0:0:0:0:
42,192,11476,1,0,0:0:0:0:
469,192,11476,1,0,0:0:0:0:
469,192,11601,1,0,0:0:0:0:
128,192,11726,1,0,0:0:0:0:
298,192,11726,1,0,0:0:0:0:
213,192,11851,1,0,0:0:0:0:
384,192,11851,1,0,0:0:0:0:
42,192,11976,1,0,0:0:0:0:
469,192,11976,1,0,0:0:0:0:
298,192,11976,1,0,0:0:0:0:
469,192,12101,1,0,0:0:0:0:
298,192,12101,1,0,0:0:0:0:
128,192,12226,1,0,0:0:0:0:
42,192,12351,1,0,0:0:0:0:
213,192,12351,1,0,0:0:0:0:
469,192,12476,1,0,0:0:0:0:
42,192,12476,1,0,0:0:0:0:
213,192,12476,1,0,0:0:0:0:
298,192,12476,1,0,0:0:0:0:
469,192,12601,1,0,0:0:0:0:
298,192,12726,1,0,0:0:0:0:
128,192,12726,1,0,0:0:0:0:
213,192,12851,1,0,0:0:0:0:
42,192,12851,1,0,0:0:0:0:
469,192,12851,1,0,0:0:0:0:
384,192,12976,1,0,0:0:0:0:
128,192,13101,1,0,0:0:0:0:
42,192,13101,1,0,0:0:0:0:
298,192,13101,1,0,0:0:0:0:
42,192,13351,1,0,0:0:0:0:
213,192,13351,1,0,0:0:0:0:
384,192,13351,1,0,0:0:0:0:
42,192,13601,1,0,0:0:0:0:
213,192,13601,1,0,0:0:0:0:
384,192,13601,1,0,0:0:0:0:
128,192,13726,1,0,0:0:0:0:
213,192,13788,1,0,0:0:0:0:
384,192,13851,1,0,0:0:0:0:
298,192,13851,1,0,0:0:0:0:
42,192,13851,1,0,0:0:0:0:
128,192,13913,1,0,0:0:0:0:
298,192,13976,1,0,0:0:0:0:
469,192,13976,1,0,0:0:0:0:
42,192,13976,1,0,0:0:0:0:
298,192,14101,1,0,0:0:0:0:
469,192,14101,1,0,0:0:0:0:
128,192,14226,1,0,0:0:0:0:
213,192,14351,1,0,0:0:0:0:
42,192,14351,1,0,0:0:0:0:
298,192,14351,1,0,0:0:0:0:
213,192,14476,1,0,0:0:0:0:
42,192,14476,1,0,0:0:0:0:
469,192,14476,1,0,0:0:0:0:
384,192,14476,1,0,0:0:0:0:
469,192,14601,1,0,0:0:0:0:
128,192,14726,1,0,0:0:0:0:
298,192,14726,1,0,0:0:0:0:
213,192,14851,1,0,0:0:0:0:
384,192,14851,1,0,0:0:0:0:
42,192,14976,1,0,0:0:0:0:
469,192,14976,1,0,0:0:0:0:
298,192,14976,1,0,0:0:0:0:
469,192,15101,1,0,0:0:0:0:
298,192,15101,1,0,0:0:0:0:
42,192,15351,1,0,0:0:0:0:
213,192,15351,1,0,0:0:0:0:
469,192,15476,1,0,0:0:0:0:
42,192,15476,1,0,0:0:0:0:
213,192,15476,1,0,0:0:0:0:
469,192,15601,1,0,0:0:0:0:
298,192,15726,1,0,0:0:0:0:
128,192,15726,1,0,0:0:0:0:
384,192,15851,1,0,0:0:0:0:
213,192,15851,1,0,0:0:0:0:
298,192,15976,1,0,0:0:0:0:
469,192,15976,1,0,0:0:0:0:
42,192,15976,1,0,0:0:0:0:
298,192,16101,1,0,0:0:0:0:
469,192,16101,1,0,0:0:0:0:
128,192,16226,1,0,0:0:0:0:
213,192,16351,1,0,0:0:0:0:
42,192,16351,1,0,0:0:0:0:
213,192,16476,1,0,0:0:0:0:
42,192,16476,1,0,0:0:0:0:
469,192,16476,1,0,0:0:0:0:
298,192,16476,1,0,0:0:0:0:
469,192,16601,1,0,0:0:0:0:
128,192,16726,1,0,0:0:0:0:
298,192,16726,1,0,0:0:0:0:
213,192,16851,1,0,0:0:0:0:
42,192,16851,1,0,0:0:0:0:
469,192,16851,1,0,0:0:0:0:
384,192,16976,1,0,0:0:0:0:
128,192,17101,1,0,0:0:0:0:
42,192,17101,1,0,0:0:0:0:
298,192,17101,1,0,0:0:0:0:
42,192,17351,1,0,0:0:0:0:
213,192,17351,1,0,0:0:0:0:
384,192,17351,1,0,0:0:0:0:
42,192,17601,1,0,0:0:0:0:
213,192,17601,1,0,0:0:0:0:
384,192,17601,1,0,0:0:0:0:
128,192,17726,1,0,0:0:0:0:
298,192,17788,1,0,0:0:0:0:
384,192,17851,1,0,0:0:0:0:
42,192,17851,1,0,0:0:0:0:
128,192,17851,1,0,0:0:0:0:
213,192,17913,1,0,0:0:0:0:
298,192,17976,1,0,0:0:0:0:
384,192,17976,1,0,0:0:0:0:
469,192,17976,1,0,0:0:0:0:
42,192,17976,1,0,0:0:0:0:
128,192,18101,1,0,0:0:0:0:
213,192,18101,1,0,0:0:0:0:
298,192,18101,1,0,0:0:0:0:
213,192,18226,1,0,0:0:0:0:
42,192,18226,1,0,0:0:0:0:
384,192,18226,1,0,0:0:0:0:
469,192,18226,1,0,0:0:0:0:
469,192,18351,1,0,0:0:0:0:
384,192,18351,1,0,0:0:0:0:
298,192,18351,1,0,0:0:0:0:
213,192,18476,1,0,0:0:0:0:
128,192,18476,1,0,0:0:0:0:
42,192,18476,1,0,0:0:0:0:
384,192,18601,1,0,0:0:0:0:
298,192,18601,1,0,0:0:0:0:
128,192,18726,1,0,0:0:0:0:
42,192,18726,1,0,0:0:0:0:
384,192,18726,1,0,0:0:0:0:
469,192,18726,1,0,0:0:0:0:
298,192,18851,1,0,0:0:0:0:
213,192,18851,1,0,0:0:0:0:
128,192,18851,1,0,0:0:0:0:
42,192,18976,1,0,0:0:0:0:
298,192,18976,1,0,0:0:0:0:
469,192,18976,1,0,0:0:0:0:
213,192,19101,1,0,0:0:0:0:
384,192,19101,1,0,0:0:0:0:
42,192,19101,1,0,0:0:0:0:
128,192,19226,1,0,0:0:0:0:
298,192,19226,1,0,0:0:0:0:
469,192,19226,1,0,0:0:0:0:
384,192,19226,1,0,0:0:0:0:
213,192,19351,1,0,0:0:0:0:
42,192,19351,1,0,0:0:0:0:
128,192,19351,1,0,0:0:0:0:
469,192,19476,1,0,0:0:0:0:
298,192,19476,1,0,0:0:0:0:
384,192,19476,1,0,0:0:0:0:
213,192,19601,1,0,0:0:0:0:
42,192,19601,1,0,0:0:0:0:
298,192,19726,1,0,0:0:0:0:
384,192,19726,1,0,0:0:0:0:
469,192,19726,1,0,0:0:0:0:
213,192,19726,1,0,0:0:0:0:
128,192,19851,1,0,0:0:0:0:
42,192,19851,1,0,0:0:0:0:
384,192,19851,1,0,0:0:0:0:
213,192,19976,1,0,0:0:0:0:
42,192,19976,1,0,0:0:0:0:
469,192,19976,1,0,0:0:0:0:
298,192,20101,1,0,0:0:0:0:
384,192,20101,1,0,0:0:0:0:
213,192,20101,1,0,0:0:0:0:
128,192,20226,1,0,0:0:0:0:
42,192,20226,1,0,0:0:0:0:
384,192,20226,1,0,0:0:0:0:
469,192,20226,1,0,0:0:0:0:
298,192,20351,1,0,0:0:0:0:
213,192,20351,1,0,0:0:0:0:
128,192,20351,1,0,0:0:0:0:
298,192,20476,1,0,0:0:0:0:
384,192,20476,1,0,0:0:0:0:
469,192,20476,1,0,0:0:0:0:
128,192,20601,1,0,0:0:0:0:
42,192,20601,1,0,0:0:0:0:
42,192,20726,1,0,0:0:0:0:
128,192,20726,1,0,0:0:0:0:
384,192,20726,1,0,0:0:0:0:
469,192,20726,1,0,0:0:0:0:
298,192,20851,1,0,0:0:0:0:
469,192,20851,1,0,0:0:0:0:
213,192,20851,1,0,0:0:0:0:
213,192,20976,1,0,0:0:0:0:
128,192,20976,1,0,0:0:0:0:
42,192,20976,1,0,0:0:0:0:
298,192,21101,1,0,0:0:0:0:
384,192,21101,1,0,0:0:0:0:
469,192,21101,1,0,0:0:0:0:
298,192,21226,1,0,0:0:0:0:
213,192,21226,1,0,0:0:0:0:
128,192,21226,1,0,0:0:0:0:
42,192,21226,1,0,0:0:0:0:
128,192,21351,1,0,0:0:0:0:
42,192,21351,1,0,0:0:0:0:
469,192,21351,1,0,0:0:0:0:
298,192,21476,1,0,0:0:0:0:
384,192,21476,1,0,0:0:0:0:
469,192,21476,1,0,0:0:0:0:
128,192,21601,1,0,0:0:0:0:
42,192,21601,1,0,0:0:0:0:
469,192,21726,1,0,0:0:0:0:
128,192,21726,1,0,0:0:0:0:
213,192,21726,1,0,0:0:0:0:
384,192,21788,1,0,0:0:0:0:
128,192,21851,1,0,0:0:0:0:
42,192,21851,1,0,0:0:0:0:
213,192,21851,1,0,0:0:0:0:
298,192,21913,1,0,0:0:0:0:
42,192,21976,1,0,0:0:0:0:
469,192,21976,1,0,0:0:0:0:
384,192,21976,1,0,0:0:0:0:
128,192,22101,1,0,0:0:0:0:
213,192,22101,1,0,0:0:0:0:
298,192,22101,1,0,0:0:0:0:
213,192,22226,1,0,0:0:0:0:
42,192,22226,1,0,0:0:0:0:
384,192,22226,1,0,0:0:0:0:
469,192,22226,1,0,0:0:0:0:
128,192,22351,1,0,0:0:0:0:
42,192,22351,1,0,0:0:0:0:
298,192,22351,1,0,0:0:0:0:
213,192,22476,1,0,0:0:0:0:
384,192,22476,1,0,0:0:0:0:
469,192,22476,1,0,0:0:0:0:
128,192,22601,1,0,0:0:0:0:
42,192,22601,1,0,0:0:0:0:
384,192,22726,1,0,0:0:0:0:
469,192,22726,1,0,0:0:0:0:
128,192,22726,1,0,0:0:0:0:
213,192,22726,1,0,0:0:0:0:
298,192,22851,1,0,0:0:0:0:
384,192,22851,1,0,0:0:0:0:
469,192,22851,1,0,0:0:0:0:
213,192,22976,1,0,0:0:0:0:
128,192,22976,1,0,0:0:0:0:
42,192,22976,1,0,0:0:0:0:
42,192,23101,1,0,0:0:0:0:
384,192,23101,1,0,0:0:0:0:
298,192,23101,1,0,0:0:0:0:
298,192,23226,1,0,0:0:0:0:
384,192,23226,1,0,0:0:0:0:
469,192,23226,1,0,0:0:0:0:
213,192,23226,1,0,0:0:0:0:
213,192,23351,1,0,0:0:0:0:
128,192,23351,1,0,0:0:0:0:
42,192,23351,1,0,0:0:0:0:
128,192,23476,1,0,0:0:0:0:
42,192,23476,1,0,0:0:0:0:
469,192,23476,1,0,0:0:0:0:
298,192,23601,1,0,0:0:0:0:
384,192,23601,1,0,0:0:0:0:
384,192,23726,1,0,0:0:0:0:
469,192,23726,1,0,0:0:0:0:
213,192,23726,1,0,0:0:0:0:
42,192,23726,1,0,0:0:0:0:
128,192,23851,1,0,0:0:0:0:
213,192,23851,1,0,0:0:0:0:
298,192,23851,1,0,0:0:0:0:
298,192,23976,1,0,0:0:0:0:
384,192,23976,1,0,0:0:0:0:
469,192,23976,1,0,0:0:0:0:
213,192,24101,1,0,0:0:0:0:
128,192,24101,1,0,0:0:0:0:
42,192,24101,1,0,0:0:0:0:
213,192,24226,1,0,0:0:0:0:
298,192,24226,1,0,0:0:0:0:
384,192,24226,1,0,0:0:0:0:
469,192,24226,1,0,0:0:0:0:
469,192,24351,1,0,0:0:0:0:
384,192,24351,1,0,0:0:0:0:
42,192,24351,1,0,0:0:0:0:
128,192,24476,1,0,0:0:0:0:
213,192,24476,1,0,0:0:0:0:
298,192,24476,1,0,0:0:0:0:
298,192,24601,1,0,0:0:0:0:
469,192,24601,1,0,0:0:0:0:
384,192,24726,1,0,0:0:0:0:
213,192,24726,1,0,0:0:0:0:
42,192,24726,1,0,0:0:0:0:
128,192,24726,1,0,0:0:0:0:
128,192,24851,1,0,0:0:0:0:
42,192,24851,1,0,0:0:0:0:
298,192,24851,1,0,0:0:0:0:
213,192,24976,1,0,0:0:0:0:
469,192,24976,1,0,0:0:0:0:
384,192,24976,1,0,0:0:0:0:
213,192,25101,1,0,0:0:0:0:
128,192,25101,1,0,0:0:0:0:
42,192,25101,1,0,0:0:0:0:
298,192,25226,1,0,0:0:0:0:
384,192,25226,1,0,0:0:0:0:
469,192,25226,1,0,0:0:0:0:
128,192,25226,1,0,0:0:0:0:
213,192,25351,1,0,0:0:0:0:
384,192,25351,1,0,0:0:0:0:
469,192,25351,1,0,0:0:0:0:
298,192,25476,1,0,0:0:0:0:
128,192,25476,1,0,0:0:0:0:
42,192,25476,1,0,0:0:0:0:
213,192,25601,1,0,0:0:0:0:
469,192,25601,1,0,0:0:0:0:
384,192,25726,1,0,0:0:0:0:
298,192,25726,1,0,0:0:0:0:
42,192,25726,1,0,0:0:0:0:
128,192,25788,1,0,0:0:0:0:
298,192,25851,1,0,0:0:0:0:
384,192,25851,1,0,0:0:0:0:
469,192,25851,1,0,0:0:0:0:
213,192,25913,1,0,0:0:0:0:
128,192,25976,1,0,0:0:0:0:
42,192,25976,1,0,0:0:0:0:
469,192,25976,1,0,0:0:0:0:
128,192,26101,1,0,0:0:0:0:
213,192,26101,1,0,0:0:0:0:
298,192,26101,1,0,0:0:0:0:
213,192,26226,1,0,0:0:0:0:
42,192,26226,1,0,0:0:0:0:
384,192,26226,1,0,0:0:0:0:
469,192,26226,1,0,0:0:0:0:
469,192,26351,1,0,0:0:0:0:
384,192,26351,1,0,0:0:0:0:
298,192,26351,1,0,0:0:0:0:
213,192,26476,1,0,0:0:0:0:
128,192,26476,1,0,0:0:0:0:
42,192,26476,1,0,0:0:0:0:
384,192,26601,1,0,0:0:0:0:
298,192,26601,1,0,0:0:0:0:
128,192,26726,1,0,0:0:0:0:
42,192,26726,1,0,0:0:0:0:
384,192,26726,1,0,0:0:0:0:
469,192,26726,1,0,0:0:0:0:
298,192,26851,1,0,0:0:0:0:
213,192,26851,1,0,0:0:0:0:
128,192,26851,1,0,0:0:0:0:
42,192,26976,1,0,0:0:0:0:
298,192,26976,1,0,0:0:0:0:
469,192,26976,1,0,0:0:0:0:
213,192,27101,1,0,0:0:0:0:
384,192,27101,1,0,0:0:0:0:
42,192,27101,1,0,0:0:0:0:
128,192,27226,1,0,0:0:0:0:
298,192,27226,1,0,0:0:0:0:
469,192,27226,1,0,0:0:0:0:
384,192,27226,1,0,0:0:0:0:
213,192,27351,1,0,0:0:0:0:
42,192,27351,1,0,0:0:0:0:
128,192,27351,1,0,0:0:0:0:
469,192,27476,1,0,0:0:0:0:
298,192,27476,1,0,0:0:0:0:
384,192,27476,1,0,0:0:0:0:
213,192,27601,1,0,0:0:0:0:
42,192,27601,1,0,0:0:0:0:
298,192,27726,1,0,0:0:0:0:
384,192,27726,1,0,0:0:0:0:
469,192,27726,1,0,0:0:0:0:
213,192,27726,1,0,0:0:0:0:
128,192,27851,1,0,0:0:0:0:
42,192,27851,1,0,0:0:0:0:
384,192,27851,1,0,0:0:0:0:
213,192,27976,1,0,0:0:0:0:
42,192,27976,1,0,0:0:0:0:
469,192,27976,1,0,0:0:0:0:
298,192,28101,1,0,0:0:0:0:
384,192,28101,1,0,0:0:0:0:
213,192,28101,1,0,0:0:0:0:
128,192,28226,1,0,0:0:0:0:
42,192,28226,1,0,0:0:0:0:
384,192,28226,1,0,0:0:0:0:
469,192,28226,1,0,0:0:0:0:
298,192,28351,1,0,0:0:0:0:
213,192,28351,1,0,0:0:0:0:
128,192,28351,1,0,0:0:0:0:
298,192,28476,1,0,0:0:0:0:
384,192,28476,1,0,0:0:0:0:
469,192,28476,1,0,0:0:0:0:
128,192,28601,1,0,0:0:0:0:
42,192,28601,1,0,0:0:0:0:
42,192,28726,1,0,0:0:0:0:
128,192,28726,1,0,0:0:0:0:
384,192,28726,1,0,0:0:0:0:
469,192,28726,1,0,0:0:0:0:
298,192,28851,1,0,0:0:0:0:
469,192,28851,1,0,0:0:0:0:
213,192,28851,1,0,0:0:0:0:
213,192,28976,1,0,0:0:0:0:
128,192,28976,1,0,0:0:0:0:
42,192,28976,1,0,0:0:0:0:
298,192,29101,1,0,0:0:0:0:
384,192,29101,1,0,0:0:0:0:
469,192,29101,1,0,0:0:0:0:
298,192,29226,1,0,0:0:0:0:
213,192,29226,1,0,0:0:0:0:
128,192,29226,1,0,0:0:0:0:
42,192,29226,1,0,0:0:0:0:
128,192,29351,1,0,0:0:0:0:
42,192,29351,1,0,0:0:0:0:
469,192,29351,1,0,0:0:0:0:
298,192,29476,1,0,0:0:0:0:
384,192,29476,1,0,0:0:0:0:
469,192,29476,1,0,0:0:0:0:
128,192,29601,1,0,0:0:0:0:
42,192,29601,1,0,0:0:0:0:
469,192,29726,1,0,0:0:0:0:
128,192,29726,1,0,0:0:0:0:
213,192,29726,1,0,0:0:0:0:
384,192,29788,1,0,0:0:0:0:
128,192,29851,1,0,0:0:0:0:
42,192,29851,1,0,0:0:0:0:
213,192,29851,1,0,0:0:0:0:
298,192,29913,1,0,0:0:0:0:
42,192,29976,1,0,0:0:0:0:
469,192,29976,1,0,0:0:0:0:
384,192,29976,1,0,0:0:0:0:
128,192,30101,1,0,0:0:0:0:
213,192,30101,1,0,0:0:0:0:
298,192,30101,1,0,0:0:0:0:
213,192,30226,1,0,0:0:0:0:
42,192,30226,1,0,0:0:0:0:
384,192,30226,1,0,0:0:0:0:
469,192,30226,1,0,0:0:0:0:
128,192,30351,1,0,0:0:0:0:
42,192,30351,1,0,0:0:0:0:
298,192,30351,1,0,0:0:0:0:
213,192,30476,1,0,0:0:0:0:
384,192,30476,1,0,0:0:0:0:
469,192,30476,1,0,0:0:0:0:
128,192,30601,1,0,0:0:0:0:
42,192,30601,1,0,0:0:0:0:
298,192,30601,1,0,0:0:0:0:
384,192,30726,1,0,0:0:0:0:
469,192,30726,1,0,0:0:0:0:
128,192,30726,1,0,0:0:0:0:
213,192,30726,1,0,0:0:0:0:
298,192,30851,1,0,0:0:0:0:
384,192,30851,1,0,0:0:0:0:
469,192,30851,1,0,0:0:0:0:
213,192,30976,1,0,0:0:0:0:
128,192,30976,1,0,0:0:0:0:
42,192,30976,1,0,0:0:0:0:
42,192,31101,1,0,0:0:0:0:
384,192,31101,1,0,0:0:0:0:
298,192,31101,1,0,0:0:0:0:
298,192,31226,1,0,0:0:0:0:
384,192,31226,1,0,0:0:0:0:
469,192,31226,1,0,0:0:0:0:
213,192,31226,1,0,0:0:0:0:
213,192,31351,1,0,0:0:0:0:
128,192,31351,1,0,0:0:0:0:
42,192,31351,1,0,0:0:0:0:
128,192,31476,1,0,0:0:0:0:
42,192,31476,1,0,0:0:0:0:
469,192,31476,1,0,0:0:0:0:
298,192,31601,1,0,0:0:0:0:
384,192,31601,1,0,0:0:0:0:
213,192,31601,1,0,0:0:0:0:
384,192,31726,1,0,0:0:0:0:
469,192,31726,1,0,0:0:0:0:
42,192,31726,1,0,0:0:0:0:
128,192,31726,1,0,0:0:0:0:
128,192,31851,1,0,0:0:0:0:
213,192,31851,1,0,0:0:0:0:
298,192,31851,1,0,0:0:0:0:
298,192,31976,1,0,0:0:0:0:
384,192,31976,1,0,0:0:0:0:
469,192,31976,1,0,0:0:0:0:
213,192,32101,1,0,0:0:0:0:
128,192,32101,1,0,0:0:0:0:
42,192,32101,1,0,0:0:0:0:
213,192,32226,1,0,0:0:0:0:
298,192,32226,1,0,0:0:0:0:
384,192,32226,1,0,0:0:0:0:
469,192,32226,1,0,0:0:0:0:
469,192,32351,1,0,0:0:0:0:
384,192,32351,1,0,0:0:0:0:
42,192,32351,1,0,0:0:0:0:
128,192,32476,1,0,0:0:0:0:
213,192,32476,1,0,0:0:0:0:
298,192,32476,1,0,0:0:0:0:
298,192,32601,1,0,0:0:0:0:
469,192,32601,1,0,0:0:0:0:
384,192,32601,1,0,0:0:0:0:
384,192,32726,1,0,0:0:0:0:
213,192,32726,1,0,0:0:0:0:
42,192,32726,1,0,0:0:0:0:
128,192,32726,1,0,0:0:0:0:
128,192,32851,1,0,0:0:0:0:
42,192,32851,1,0,0:0:0:0:
298,192,32851,1,0,0:0:0:0:
213,192,32976,1,0,0:0:0:0:
298,192,32976,1,0,0:0:0:0:
384,192,32976,1,0,0:0:0:0:
469,192,32976,1,0,0:0:0:0:
384,192,33101,1,0,0:0:0:0:
469,192,33101,1,0,0:0:0:0:
213,192,33101,1,0,0:0:0:0:
42,192,33101,1,0,0:0:0:0:
128,192,33226,1,0,0:0:0:0:
42,192,33226,1,0,0:0:0:0:
298,192,33226,1,0,0:0:0:0:
469,192,33226,1,0,0:0:0:0:
384,192,33351,1,0,0:0:0:0:
298,192,33351,1,0,0:0:0:0:
213,192,33351,1,0,0:0:0:0:
42,192,33351,1,0,0:0:0:0:
128,192,33476,1,0,0:0:0:0:
213,192,33476,1,0,0:0:0:0:
384,192,33476,1,0,0:0:0:0:
469,192,33476,1,0,0:0:0:0:
469,192,33601,1,0,0:0:0:0:
384,192,33601,1,0,0:0:0:0:
298,192,33601,1,0,0:0:0:0:
42,192,33601,1,0,0:0:0:0:
213,192,33726,1,0,0:0:0:0:
128,192,33726,1,0,0:0:0:0:
42,192,33726,1,0,0:0:0:0:
384,192,33726,1,0,0:0:0:0:
128,192,33851,1,0,0:0:0:0:
213,192,33851,1,0,0:0:0:0:
298,192,33851,1,0,0:0:0:0:
469,192,33851,1,0,0:0:0:0:
213,192,33976,1,0,0:0:0:0:
384,192,33976,1,0,0:0:0:0:
469,192,33976,1,0,0:0:0:0:
42,192,33976,1,0,0:0:0:0:
128,192,34101,1,0,0:0:0:0:
384,192,34226,1,0,0:0:0:0:
213,192,34351,1,0,0:0:0:0:
42,192,34476,1,0,0:0:0:0:
213,192,34601,1,0,0:0:0:0:
469,192,34851,1,0,0:0:0:0:
42,192,34976,1,0,0:0:0:0:
128,192,34976,1,0,0:0:0:0:
298,192,35101,1,0,0:0:0:0:
384,192,35226,1,0,0:0:0:0:
213,192,35351,1,0,0:0:0:0:
42,192,35476,1,0,0:0:0:0:
469,192,35601,1,0,0:0:0:0:
469,192,35726,1,0,0:0:0:0:
213,192,35851,1,0,0:0:0:0:
128,192,35976,1,0,0:0:0:0:
42,192,35976,1,0,0:0:0:0:
298,192,36101,1,0,0:0:0:0:
384,192,36226,1,0,0:0:0:0:
213,192,36351,1,0,0:0:0:0:
42,192,36476,1,0,0:0:0:0:
213,192,36601,1,0,0:0:0:0:
469,192,36851,1,0,0:0:0:0:
128,192,36976,1,0,0:0:0:0:
42,192,36976,1,0,0:0:0:0:
42,192,37226,1,0,0:0:0:0:
42,192,37351,1,0,0:0:0:0:
213,192,37351,1,0,0:0:0:0:
42,192,37476,1,0,0:0:0:0:
213,192,37476,1,0,0:0:0:0:
384,192,37476,1,0,0:0:0:0:
42,192,37601,1,0,0:0:0:0:
213,192,37601,1,0,0:0:0:0:
469,192,37601,1,0,0:0:0:0:
384,192,37601,1,0,0:0:0:0:
42,192,37726,1,0,0:0:0:0:
213,192,37726,1,0,0:0:0:0:
469,192,37726,1,0,0:0:0:0:
384,192,37726,1,0,0:0:0:0:
42,192,37851,1,0,0:0:0:0:
213,192,37851,1,0,0:0:0:0:
469,192,37851,1,0,0:0:0:0:
384,192,37851,1,0,0:0:0:0:
128,192,37976,1,0,0:0:0:0:
42,192,37976,1,0,0:0:0:0:
298,192,38101,1,0,0:0:0:0:
384,192,38226,1,0,0:0:0:0:
213,192,38351,1,0,0:0:0:0:
42,192,38476,1,0,0:0:0:0:
213,192,38601,1,0,0:0:0:0:
469,192,38851,1,0,0:0:0:0:
42,192,38976,1,0,0:0:0:0:
128,192,38976,1,0,0:0:0:0:
298,192,39101,1,0,0:0:0:0:
384,192,39226,1,0,0:0:0:0:
213,192,39351,1,0,0:0:0:0:
42,192,39476,1,0,0:0:0:0:
469,192,39601,1,0,0:0:0:0:
469,192,39726,1,0,0:0:0:0:
213,192,39851,1,0,0:0:0:0:
128,192,39976,1,0,0:0:0:0:
42,192,39976,1,0,0:0:0:0:
298,192,40101,1,0,0:0:0:0:
384,192,40226,1,0,0:0:0:0:
213,192,40351,1,0,0:0:0:0:
42,192,40476,1,0,0:0:0:0:
298,192,40601,1,0,0:0:0:0:
469,192,40851,1,0,0:0:0:0:
42,192,40976,1,0,0:0:0:0:
128,192,40976,1,0,0:0:0:0:
42,192,41226,1,0,0:0:0:0:
42,192,41351,1,0,0:0:0:0:
128,192,41351,1,0,0:0:0:0:
42,192,41476,1,0,0:0:0:0:
128,192,41476,1,0,0:0:0:0:
298,192,41476,1,0,0:0:0:0:
298,192,41601,1,0,0:0:0:0:
128,192,41601,1,0,0:0:0:0:
42,192,41601,1,0,0:0:0:0:
469,192,41601,1,0,0:0:0:0:
42,192,41726,1,0,0:0:0:0:
128,192,41726,1,0,0:0:0:0:
298,192,41726,1,0,0:0:0:0:
469,192,41726,1,0,0:0:0:0:
128,192,41851,1,0,0:0:0:0:
42,192,41851,1,0,0:0:0:0:
298,192,41851,1,0,0:0:0:0:
469,192,41851,1,0,0:0:0:0:
42,192,41976,1,0,0:0:0:0:
213,192,41976,1,0,0:0:0:0:
384,192,41976,1,0,0:0:0:0:
298,192,42101,1,0,0:0:0:0:
384,192,42226,1,0,0:0:0:0:
213,192,42351,1,0,0:0:0:0:
213,192,42601,1,0,0:0:0:0:
128,192,42851,1,0,0:0:0:0:
42,192,42976,1,0,0:0:0:0:
298,192,43101,1,0,0:0:0:0:
384,192,43226,1,0,0:0:0:0:
213,192,43351,1,0,0:0:0:0:
469,192,43601,1,0,0:0:0:0:
298,192,43663,1,0,0:0:0:0:
469,192,43726,1,0,0:0:0:0:
384,192,43851,1,0,0:0:0:0:
42,192,43976,1,0,0:0:0:0:
298,192,44101,1,0,0:0:0:0:
384,192,44226,1,0,0:0:0:0:
213,192,44351,1,0,0:0:0:0:
213,192,44601,1,0,0:0:0:0:
469,192,44726,1,0,0:0:0:0:
128,192,44851,1,0,0:0:0:0:
42,192,44976,1,0,0:0:0:0:
42,192,45226,1,0,0:0:0:0:
298,192,45351,1,0,0:0:0:0:
42,192,45476,1,0,0:0:0:0:
469,192,45476,1,0,0:0:0:0:
128,192,45507,1,0,0:0:0:0:
213,192,45538,1,0,0:0:0:0:
298,192,45569,1,0,0:0:0:0:
384,192,45601,1,0,0:0:0:0:
469,192,45601,1,0,0:0:0:0:
469,192,45726,1,0,0:0:0:0:
298,192,45726,1,0,0:0:0:0:
469,192,45851,1,0,0:0:0:0:
213,192,45851,1,0,0:0:0:0:
298,192,45851,1,0,0:0:0:0:
42,192,45976,1,0,0:0:0:0:
298,192,46101,1,0,0:0:0:0:
384,192,46226,1,0,0:0:0:0:
213,192,46351,1,0,0:0:0:0:
213,192,46601,1,0,0:0:0:0:
128,192,46851,1,0,0:0:0:0:
42,192,46976,1,0,0:0:0:0:
298,192,47101,1,0,0:0:0:0:
384,192,47226,1,0,0:0:0:0:
213,192,47351,1,0,0:0:0:0:
469,192,47601,1,0,0:0:0:0:
298,192,47663,1,0,0:0:0:0:
469,192,47726,1,0,0:0:0:0:
384,192,47851,1,0,0:0:0:0:
42,192,47976,1,0,0:0:0:0:
298,192,48101,1,0,0:0:0:0:
384,192,48226,1,0,0:0:0:0:
213,192,48351,1,0,0:0:0:0:
213,192,48601,1,0,0:0:0:0:
469,192,48726,1,0,0:0:0:0:
128,192,48851,1,0,0:0:0:0:
42,192,48976,1,0,0:0:0:0:
42,192,49226,1,0,0:0:0:0:
298,192,49351,1,0,0:0:0:0:
42,192,49476,1,0,0:0:0:0:
469,192,49476,1,0,0:0:0:0:
384,192,49476,1,0,0:0:0:0:
128,192,49507,1,0,0:0:0:0:
213,192,49538,1,0,0:0:0:0:
298,192,49569,1,0,0:0:0:0:
384,192,49601,1,0,0:0:0:0:
469,192,49601,1,0,0:0:0:0:
42,192,49601,1,0,0:0:0:0:
469,192,49726,1,0,0:0:0:0:
298,192,49726,1,0,0:0:0:0:
128,192,49726,1,0,0:0:0:0:
469,192,49851,1,0,0:0:0:0:
213,192,49851,1,0,0:0:0:0:
298,192,49851,1,0,0:0:0:0:
42,192,49851,1,0,0:0:0:0:
213,192,49976,1,0,0:0:0:0:
128,192,49976,1,0,0:0:0:0:
42,192,49976,1,0,0:0:0:0:
384,192,49976,1,0,0:0:0:0:
298,192,50101,1,0,0:0:0:0:
384,192,50101,1,0,0:0:0:0:
469,192,50101,1,0,0:0:0:0:
298,192,50226,1,0,0:0:0:0:
128,192,50226,1,0,0:0:0:0:
42,192,50226,1,0,0:0:0:0:
213,192,50351,1,0,0:0:0:0:
384,192,50351,1,0,0:0:0:0:
42,192,50476,1,0,0:0:0:0:
298,192,50476,1,0,0:0:0:0:
384,192,50476,1,0,0:0:0:0:
469,192,50476,1,0,0:0:0:0:
213,192,50601,1,0,0:0:0:0:
128,192,50601,1,0,0:0:0:0:
469,192,50601,1,0,0:0:0:0:
128,192,50726,1,0,0:0:0:0:
42,192,50726,1,0,0:0:0:0:
384,192,50726,1,0,0:0:0:0:
298,192,50851,1,0,0:0:0:0:
213,192,50851,1,0,0:0:0:0:
42,192,50976,1,0,0:0:0:0:
298,192,50976,1,0,0:0:0:0:
384,192,50976,1,0,0:0:0:0:
469,192,50976,1,0,0:0:0:0:
213,192,51101,1,0,0:0:0:0:
128,192,51101,1,0,0:0:0:0:
42,192,51101,1,0,0:0:0:0:
213,192,51226,1,0,0:0:0:0:
384,192,51226,1,0,0:0:0:0:
469,192,51226,1,0,0:0:0:0:
128,192,51351,1,0,0:0:0:0:
298,192,51351,1,0,0:0:0:0:
128,192,51476,1,0,0:0:0:0:
42,192,51476,1,0,0:0:0:0:
384,192,51476,1,0,0:0:0:0:
469,192,51476,1,0,0:0:0:0:
213,192,51601,1,0,0:0:0:0:
298,192,51601,1,0,0:0:0:0:
384,192,51601,1,0,0:0:0:0:
213,192,51726,1,0,0:0:0:0:
128,192,51726,1,0,0:0:0:0:
42,192,51726,1,0,0:0:0:0:
298,192,51851,1,0,0:0:0:0:
469,192,51851,1,0,0:0:0:0:
128,192,51976,1,0,0:0:0:0:
42,192,51976,1,0,0:0:0:0:
384,192,51976,1,0,0:0:0:0:
469,192,51976,1,0,0:0:0:0:
213,192,52101,1,0,0:0:0:0:
128,192,52101,1,0,0:0:0:0:
42,192,52101,1,0,0:0:0:0:
298,192,52226,1,0,0:0:0:0:
384,192,52226,1,0,0:0:0:0:
469,192,52226,1,0,0:0:0:0:
384,192,52351,1,0,0:0:0:0:
128,192,52351,1,0,0:0:0:0:
298,192,52476,1,0,0:0:0:0:
213,192,52476,1,0,0:0:0:0:
128,192,52476,1,0,0:0:0:0:
42,192,52476,1,0,0:0:0:0:
298,192,52601,1,0,0:0:0:0:
384,192,52601,1,0,0:0:0:0:
469,192,52601,1,0,0:0:0:0:
213,192,52726,1,0,0:0:0:0:
128,192,52726,1,0,0:0:0:0:
42,192,52726,1,0,0:0:0:0:
213,192,52851,1,0,0:0:0:0:
384,192,52851,1,0,0:0:0:0:
298,192,52976,1,0,0:0:0:0:
384,192,52976,1,0,0:0:0:0:
42,192,52976,1,0,0:0:0:0:
469,192,52976,1,0,0:0:0:0:
213,192,53101,1,0,0:0:0:0:
128,192,53101,1,0,0:0:0:0:
42,192,53101,1,0,0:0:0:0:
128,192,53226,1,0,0:0:0:0:
298,192,53226,1,0,0:0:0:0:
469,192,53226,1,0,0:0:0:0:
384,192,53351,1,0,0:0:0:0:
298,192,53351,1,0,0:0:0:0:
213,192,53476,1,0,0:0:0:0:
128,192,53476,1,0,0:0:0:0:
42,192,53476,1,0,0:0:0:0:
469,192,53476,1,0,0:0:0:0:
298,192,53601,1,0,0:0:0:0:
213,192,53601,1,0,0:0:0:0:
469,192,53601,1,0,0:0:0:0:
384,192,53726,1,0,0:0:0:0:
298,192,53726,1,0,0:0:0:0:
42,192,53726,1,0,0:0:0:0:
128,192,53851,1,0,0:0:0:0:
213,192,53851,1,0,0:0:0:0:
384,192,53851,1,0,0:0:0:0:
128,192,53976,1,0,0:0:0:0:
42,192,53976,1,0,0:0:0:0:
298,192,53976,1,0,0:0:0:0:
469,192,53976,1,0,0:0:0:0:
213,192,54101,1,0,0:0:0:0:
298,192,54101,1,0,0:0:0:0:
384,192,54101,1,0,0:0:0:0:
469,192,54226,1,0,0:0:0:0:
128,192,54226,1,0,0:0:0:0:
213,192,54226,1,0,0:0:0:0:
298,192,54351,1,0,0:0:0:0:
384,192,54351,1,0,0:0:0:0:
42,192,54476,1,0,0:0:0:0:
128,192,54476,1,0,0:0:0:0:
298,192,54476,1,0,0:0:0:0:
469,192,54476,1,0,0:0:0:0:
213,192,54601,1,0,0:0:0:0:
42,192,54601,1,0,0:0:0:0:
384,192,54601,1,0,0:0:0:0:
128,192,54726,1,0,0:0:0:0:
213,192,54726,1,0,0:0:0:0:
298,192,54726,1,0,0:0:0:0:
384,192,54851,1,0,0:0:0:0:
469,192,54851,1,0,0:0:0:0:
469,192,54976,1,0,0:0:0:0:
384,192,54976,1,0,0:0:0:0:
213,192,54976,1,0,0:0:0:0:
42,192,54976,1,0,0:0:0:0:
42,192,55101,1,0,0:0:0:0:
128,192,55101,1,0,0:0:0:0:
298,192,55101,1,0,0:0:0:0:
213,192,55226,1,0,0:0:0:0:
298,192,55226,1,0,0:0:0:0:
469,192,55226,1,0,0:0:0:0:
128,192,55351,1,0,0:0:0:0:
384,192,55351,1,0,0:0:0:0:
213,192,55476,1,0,0:0:0:0:
42,192,55476,1,0,0:0:0:0:
384,192,55476,1,0,0:0:0:0:
469,192,55476,1,0,0:0:0:0:
42,192,55601,1,0,0:0:0:0:
298,192,55601,1,0,0:0:0:0:
213,192,55601,1,0,0:0:0:0:
469,192,55726,1,0,0:0:0:0:
128,192,55726,1,0,0:0:0:0:
384,192,55726,1,0,0:0:0:0:
384,192,55851,1,0,0:0:0:0:
469,192,55851,1,0,0:0:0:0:
128,192,55976,1,0,0:0:0:0:
42,192,55976,1,0,0:0:0:0:
298,192,55976,1,0,0:0:0:0:
213,192,55976,1,0,0:0:0:0:
128,192,56101,1,0,0:0:0:0:
469,192,56101,1,0,0:0:0:0:
298,192,56101,1,0,0:0:0:0:
384,192,56226,1,0,0:0:0:0:
469,192,56226,1,0,0:0:0:0:
213,192,56226,1,0,0:0:0:0:
128,192,56351,1,0,0:0:0:0:
42,192,56351,1,0,0:0:0:0:
298,192,56476,1,0,0:0:0:0:
469,192,56476,1,0,0:0:0:0:
384,192,56476,1,0,0:0:0:0:
213,192,56476,1,0,0:0:0:0:
384,192,56601,1,0,0:0:0:0:
42,192,56601,1,0,0:0:0:0:
298,192,56601,1,0,0:0:0:0:
213,192,56726,1,0,0:0:0:0:
469,192,56726,1,0,0:0:0:0:
128,192,56726,1,0,0:0:0:0:
128,192,56851,1,0,0:0:0:0:
42,192,56851,1,0,0:0:0:0:
213,192,56976,1,0,0:0:0:0:
298,192,56976,1,0,0:0:0:0:
469,192,56976,1,0,0:0:0:0:
384,192,56976,1,0,0:0:0:0:
298,192,57101,1,0,0:0:0:0:
128,192,57101,1,0,0:0:0:0:
42,192,57101,1,0,0:0:0:0:
213,192,57226,1,0,0:0:0:0:
42,192,57226,1,0,0:0:0:0:
469,192,57226,1,0,0:0:0:0:
298,192,57351,1,0,0:0:0:0:
384,192,57351,1,0,0:0:0:0:
128,192,57476,1,0,0:0:0:0:
298,192,57476,1,0,0:0:0:0:
469,192,57476,1,0,0:0:0:0:
42,192,57476,1,0,0:0:0:0:
213,192,57601,1,0,0:0:0:0:
384,192,57601,1,0,0:0:0:0:
128,192,57601,1,0,0:0:0:0:
469,192,57726,1,0,0:0:0:0:
384,192,57726,1,0,0:0:0:0:
213,192,57726,1,0,0:0:0:0:
298,192,57851,1,0,0:0:0:0:
128,192,57851,1,0,0:0:0:0:
42,192,57851,1,0,0:0:0:0:
128,192,57976,1,0,0:0:0:0:
42,192,57976,1,0,0:0:0:0:
384,192,57976,1,0,0:0:0:0:
469,192,57976,1,0,0:0:0:0:
213,192,58101,1,0,0:0:0:0:
298,192,58101,1,0,0:0:0:0:
469,192,58101,1,0,0:0:0:0:
298,192,58226,1,0,0:0:0:0:
128,192,58226,1,0,0:0:0:0:
42,192,58226,1,0,0:0:0:0:
213,192,58351,1,0,0:0:0:0:
384,192,58351,1,0,0:0:0:0:
42,192,58476,1,0,0:0:0:0:
298,192,58476,1,0,0:0:0:0:
469,192,58476,1,0,0:0:0:0:
384,192,58476,1,0,0:0:0:0:
213,192,58601,1,0,0:0:0:0:
128,192,58601,1,0,0:0:0:0:
42,192,58601,1,0,0:0:0:0:
298,192,58726,1,0,0:0:0:0:
384,192,58726,1,0,0:0:0:0:
469,192,58726,1,0,0:0:0:0:
384,192,58851,1,0,0:0:0:0:
213,192,58851,1,0,0:0:0:0:
128,192,58976,1,0,0:0:0:0:
42,192,58976,1,0,0:0:0:0:
298,192,58976,1,0,0:0:0:0:
469,192,58976,1,0,0:0:0:0:
128,192,59101,1,0,0:0:0:0:
213,192,59101,1,0,0:0:0:0:
42,192,59101,1,0,0:0:0:0:
298,192,59226,1,0,0:0:0:0:
384,192,59226,1,0,0:0:0:0:
469,192,59226,1,0,0:0:0:0:
384,192,59351,1,0,0:0:0:0:
213,192,59351,1,0,0:0:0:0:
213,192,59476,1,0,0:0:0:0:
128,192,59476,1,0,0:0:0:0:
42,192,59476,1,0,0:0:0:0:
469,192,59476,1,0,0:0:0:0:
42,192,59601,1,0,0:0:0:0:
128,192,59601,1,0,0:0:0:0:
384,192,59601,1,0,0:0:0:0:
298,192,59663,1,0,0:0:0:0:
213,192,59726,1,0,0:0:0:0:
384,192,59726,1,0,0:0:0:0:
469,192,59726,1,0,0:0:0:0:
298,192,59851,1,0,0:0:0:0:
42,192,59851,1,0,0:0:0:0:
128,192,59851,1,0,0:0:0:0:
213,192,59976,1,0,0:0:0:0:
384,192,59976,1,0,0:0:0:0:
469,192,59976,1,0,0:0:0:0:
298,192,59976,1,0,0:0:0:0:
213,192,60101,1,0,0:0:0:0:
128,192,60101,1,0,0:0:0:0:
42,192,60101,1,0,0:0:0:0:
298,192,60226,1,0,0:0:0:0:
384,192,60226,1,0,0:0:0:0:
469,192,60226,1,0,0:0:0:0:
298,192,60351,1,0,0:0:0:0:
213,192,60351,1,0,0:0:0:0:
213,192,60476,1,0,0:0:0:0:
128,192,60476,1,0,0:0:0:0:
42,192,60476,1,0,0:0:0:0:
469,192,60476,1,0,0:0:0:0:
298,192,60601,1,0,0:0:0:0:
384,192,60601,1,0,0:0:0:0:
469,192,60601,1,0,0:0:0:0:
128,192,60726,1,0,0:0:0:0:
42,192,60726,1,0,0:0:0:0:
213,192,60726,1,0,0:0:0:0:
128,192,60851,1,0,0:0:0:0:
384,192,60851,1,0,0:0:0:0:
469,192,60851,1,0,0:0:0:0:
42,192,60976,1,0,0:0:0:0:
298,192,60976,1,0,0:0:0:0:
384,192,60976,1,0,0:0:0:0:
469,192,60976,1,0,0:0:0:0:
298,192,61101,1,0,0:0:0:0:
213,192,61101,1,0,0:0:0:0:
128,192,61226,1,0,0:0:0:0:
42,192,61226,1,0,0:0:0:0:
384,192,61226,1,0,0:0:0:0:
213,192,61351,1,0,0:0:0:0:
298,192,61351,1,0,0:0:0:0:
469,192,61351,1,0,0:0:0:0:
213,192,61476,1,0,0:0:0:0:
42,192,61476,1,0,0:0:0:0:
384,192,61476,1,0,0:0:0:0:
469,192,61476,1,0,0:0:0:0:
128,192,61538,1,0,0:0:0:0:
42,192,61601,1,0,0:0:0:0:
298,192,61601,1,0,0:0:0:0:
384,192,61601,1,0,0:0:0:0:
213,192,61726,1,0,0:0:0:0:
298,192,61726,1,0,0:0:0:0:
469,192,61726,1,0,0:0:0:0:
384,192,61851,1,0,0:0:0:0:
128,192,61851,1,0,0:0:0:0:
213,192,61851,1,0,0:0:0:0:
128,192,61976,1,0,0:0:0:0:
42,192,61976,1,0,0:0:0:0:
298,192,61976,1,0,0:0:0:0:
213,192,62101,1,0,0:0:0:0:
384,192,62101,1,0,0:0:0:0:
469,192,62101,1,0,0:0:0:0:
469,192,62226,1,0,0:0:0:0:
298,192,62226,1,0,0:0:0:0:
42,192,62226,1,0,0:0:0:0:
384,192,62226,1,0,0:0:0:0:
213,192,62351,1,0,0:0:0:0:
128,192,62351,1,0,0:0:0:0:
298,192,62351,1,0,0:0:0:0:
128,192,62476,1,0,0:0:0:0:
42,192,62476,1,0,0:0:0:0:
469,192,62476,1,0,0:0:0:0:
298,192,62601,1,0,0:0:0:0:
384,192,62601,1,0,0:0:0:0:
213,192,62601,1,0,0:0:0:0:
42,192,62726,1,0,0:0:0:0:
298,192,62726,1,0,0:0:0:0:
384,192,62726,1,0,0:0:0:0:
469,192,62726,1,0,0:0:0:0:
213,192,62851,1,0,0:0:0:0:
128,192,62851,1,0,0:0:0:0:
42,192,62851,1,0,0:0:0:0:
384,192,62976,1,0,0:0:0:0:
128,192,62976,1,0,0:0:0:0:
298,192,62976,1,0,0:0:0:0:
213,192,63101,1,0,0:0:0:0:
384,192,63101,1,0,0:0:0:0:
469,192,63101,1,0,0:0:0:0:
298,192,63226,1,0,0:0:0:0:
128,192,63226,1,0,0:0:0:0:
42,192,63226,1,0,0:0:0:0:
469,192,63226,1,0,0:0:0:0:
213,192,63351,1,0,0:0:0:0:
128,192,63351,1,0,0:0:0:0:
384,192,63351,1,0,0:0:0:0:
42,192,63476,1,0,0:0:0:0:
298,192,63476,1,0,0:0:0:0:
469,192,63476,1,0,0:0:0:0:
213,192,63601,1,0,0:0:0:0:
298,192,63601,1,0,0:0:0:0:
384,192,63601,1,0,0:0:0:0:
128,192,63663,1,0,0:0:0:0:
42,192,63726,1,0,0:0:0:0:
213,192,63726,1,0,0:0:0:0:
469,192,63726,1,0,0:0:0:0:
298,192,63851,1,0,0:0:0:0:
384,192,63851,1,0,0:0:0:0:
469,192,63851,1,0,0:0:0:0:
384,192,63976,1,0,0:0:0:0:
42,192,63976,1,0,0:0:0:0:
128,192,63976,1,0,0:0:0:0:
298,192,64101,1,0,0:0:0:0:
213,192,64101,1,0,0:0:0:0:
128,192,64101,1,0,0:0:0:0:
469,192,64101,1,0,0:0:0:0:
298,192,64226,1,0,0:0:0:0:
42,192,64226,1,0,0:0:0:0:
384,192,64226,1,0,0:0:0:0:
213,192,64351,1,0,0:0:0:0:
42,192,64351,1,0,0:0:0:0:
469,192,64351,1,0,0:0:0:0:
128,192,64476,1,0,0:0:0:0:
298,192,64476,1,0,0:0:0:0:
469,192,64476,1,0,0:0:0:0:
384,192,64601,1,0,0:0:0:0:
298,192,64601,1,0,0:0:0:0:
213,192,64601,1,0,0:0:0:0:
42,192,64601,1,0,0:0:0:0:
128,192,64726,1,0,0:0:0:0:
42,192,64726,1,0,0:0:0:0:
469,192,64726,1,0,0:0:0:0:
298,192,64851,1,0,0:0:0:0:
469,192,64851,1,0,0:0:0:0:
384,192,64851,1,0,0:0:0:0:
128,192,64976,1,0,0:0:0:0:
42,192,64976,1,0,0:0:0:0:
213,192,64976,1,0,0:0:0:0:
213,192,65101,1,0,0:0:0:0:
384,192,65101,1,0,0:0:0:0:
469,192,65101,1,0,0:0:0:0:
298,192,65101,1,0,0:0:0:0:
128,192,65226,1,0,0:0:0:0:
42,192,65226,1,0,0:0:0:0:
469,192,65226,1,0,0:0:0:0:
128,192,65351,1,0,0:0:0:0:
213,192,65351,1,0,0:0:0:0:
298,192,65351,1,0,0:0:0:0:
384,192,65351,1,0,0:0:0:0:
42,192,65476,1,0,0:0:0:0:
384,192,65476,1,0,0:0:0:0:
469,192,65476,1,0,0:0:0:0:
213,192,65601,1,0,0:0:0:0:
128,192,65601,1,0,0:0:0:0:
42,192,65601,1,0,0:0:0:0:
298,192,65663,1,0,0:0:0:0:
128,192,65726,1,0,0:0:0:0:
384,192,65726,1,0,0:0:0:0:
469,192,65726,1,0,0:0:0:0:
213,192,65726,1,0,0:0:0:0:
384,192,65851,1,0,0:0:0:0:
298,192,65851,1,0,0:0:0:0:
42,192,65851,1,0,0:0:0:0:
128,192,65851,1,0,0:0:0:0:
42,192,65976,1,0,0:0:0:0:
213,192,65976,1,0,0:0:0:0:
298,192,65976,1,0,0:0:0:0:
469,192,65976,1,0,0:0:0:0:
213,192,66101,1,0,0:0:0:0:
128,192,66101,1,0,0:0:0:0:
384,192,66101,1,0,0:0:0:0:
298,192,66226,1,0,0:0:0:0:
384,192,66226,1,0,0:0:0:0:
469,192,66226,1,0,0:0:0:0:
213,192,66351,1,0,0:0:0:0:
128,192,66351,1,0,0:0:0:0:
42,192,66351,1,0,0:0:0:0:
128,192,66476,1,0,0:0:0:0:
42,192,66476,1,0,0:0:0:0:
384,192,66476,1,0,0:0:0:0:
469,192,66476,1,0,0:0:0:0:
298,192,66601,1,0,0:0:0:0:
469,192,66601,1,0,0:0:0:0:
384,192,66726,1,0,0:0:0:0:
213,192,66726,1,0,0:0:0:0:
42,192,66726,1,0,0:0:0:0:
128,192,66851,1,0,0:0:0:0:
469,192,66851,1,0,0:0:0:0:
298,192,66851,1,0,0:0:0:0:
213,192,66976,1,0,0:0:0:0:
128,192,66976,1,0,0:0:0:0:
42,192,66976,1,0,0:0:0:0:
384,192,66976,1,0,0:0:0:0:
213,192,67101,1,0,0:0:0:0:
298,192,67101,1,0,0:0:0:0:
469,192,67101,1,0,0:0:0:0:
128,192,67226,1,0,0:0:0:0:
42,192,67226,1,0,0:0:0:0:
384,192,67226,1,0,0:0:0:0:
298,192,67351,1,0,0:0:0:0:
384,192,67351,1,0,0:0:0:0:
469,192,67351,1,0,0:0:0:0:
469,192,67476,1,0,0:0:0:0:
213,192,67476,1,0,0:0:0:0:
128,192,67476,1,0,0:0:0:0:
42,192,67476,1,0,0:0:0:0:
213,192,67601,1,0,0:0:0:0:
384,192,67601,1,0,0:0:0:0:
128,192,67726,1,0,0:0:0:0:
298,192,67726,1,0,0:0:0:0:
469,192,67726,1,0,0:0:0:0:
384,192,67851,1,0,0:0:0:0:
213,192,67851,1,0,0:0:0:0:
42,192,67851,1,0,0:0:0:0:
298,192,67976,1,0,0:0:0:0:
42,192,67976,1,0,0:0:0:0:
128,192,67976,1,0,0:0:0:0:
469,192,67976,1,0,0:0:0:0:
213,192,68101,1,0,0:0:0:0:
298,192,68101,1,0,0:0:0:0:
384,192,68101,1,0,0:0:0:0:
128,192,68226,1,0,0:0:0:0:
42,192,68226,1,0,0:0:0:0:
213,192,68226,1,0,0:0:0:0:
298,192,68351,1,0,0:0:0:0:
469,192,68351,1,0,0:0:0:0:
384,192,68351,1,0,0:0:0:0:
469,192,68476,1,0,0:0:0:0:
384,192,68476,1,0,0:0:0:0:
213,192,68476,1,0,0:0:0:0:
42,192,68476,1,0,0:0:0:0:
128,192,68601,1,0,0:0:0:0:
298,192,68601,1,0,0:0:0:0:
213,192,68726,1,0,0:0:0:0:
42,192,68726,1,0,0:0:0:0:
298,192,68726,1,0,0:0:0:0:
213,192,68851,1,0,0:0:0:0:
384,192,68851,1,0,0:0:0:0:
469,192,68851,1,0,0:0:0:0:
469,192,68976,1,0,0:0:0:0:
128,192,68976,1,0,0:0:0:0:
42,192,68976,1,0,0:0:0:0:
298,192,68976,1,0,0:0:0:0:
128,192,69101,1,0,0:0:0:0:
213,192,69101,1,0,0:0:0:0:
384,192,69101,1,0,0:0:0:0:
213,192,69226,1,0,0:0:0:0:
298,192,69226,1,0,0:0:0:0:
469,192,69226,1,0,0:0:0:0:
384,192,69351,1,0,0:0:0:0:
128,192,69351,1,0,0:0:0:0:
42,192,69351,1,0,0:0:0:0:
42,192,69476,1,0,0:0:0:0:
213,192,69476,1,0,0:0:0:0:
384,192,69476,1,0,0:0:0:0:
469,192,69476,1,0,0:0:0:0:
298,192,69601,1,0,0:0:0:0:
128,192,69601,1,0,0:0:0:0:
384,192,69726,1,0,0:0:0:0:
469,192,69726,1,0,0:0:0:0:
42,192,69726,1,0,0:0:0:0:
128,192,69788,1,0,0:0:0:0:
298,192,69851,1,0,0:0:0:0:
384,192,69851,1,0,0:0:0:0:
469,192,69851,1,0,0:0:0:0:
213,192,69913,1,0,0:0:0:0:
42,192,69976,1,0,0:0:0:0:
128,192,69976,1,0,0:0:0:0:
384,192,69976,1,0,0:0:0:0:
469,192,69976,1,0,0:0:0:0:
298,192,70101,1,0,0:0:0:0:
213,192,70101,1,0,0:0:0:0:
128,192,70101,1,0,0:0:0:0:
298,192,70226,1,0,0:0:0:0:
384,192,70226,1,0,0:0:0:0:
469,192,70226,1,0,0:0:0:0:
213,192,70351,1,0,0:0:0:0:
128,192,70351,1,0,0:0:0:0:
42,192,70351,1,0,0:0:0:0:
128,192,70476,1,0,0:0:0:0:
42,192,70476,1,0,0:0:0:0:
298,192,70476,1,0,0:0:0:0:
469,192,70476,1,0,0:0:0:0:
213,192,70601,1,0,0:0:0:0:
384,192,70601,1,0,0:0:0:0:
128,192,70726,1,0,0:0:0:0:
298,192,70726,1,0,0:0:0:0:
469,192,70726,1,0,0:0:0:0:
213,192,70851,1,0,0:0:0:0:
128,192,70851,1,0,0:0:0:0:
42,192,70851,1,0,0:0:0:0:
213,192,70976,1,0,0:0:0:0:
298,192,70976,1,0,0:0:0:0:
469,192,70976,1,0,0:0:0:0:
384,192,70976,1,0,0:0:0:0:
384,192,71101,1,0,0:0:0:0:
298,192,71101,1,0,0:0:0:0:
42,192,71101,1,0,0:0:0:0:
213,192,71226,1,0,0:0:0:0:
128,192,71226,1,0,0:0:0:0:
469,192,71226,1,0,0:0:0:0:
213,192,71351,1,0,0:0:0:0:
384,192,71351,1,0,0:0:0:0:
42,192,71351,1,0,0:0:0:0:
128,192,71476,1,0,0:0:0:0:
42,192,71476,1,0,0:0:0:0:
469,192,71476,1,0,0:0:0:0:
298,192,71476,1,0,0:0:0:0:
298,192,71601,1,0,0:0:0:0:
384,192,71601,1,0,0:0:0:0:
213,192,71726,1,0,0:0:0:0:
128,192,71726,1,0,0:0:0:0:
42,192,71726,1,0,0:0:0:0:
128,192,71851,1,0,0:0:0:0:
298,192,71851,1,0,0:0:0:0:
384,192,71851,1,0,0:0:0:0:
213,192,71976,1,0,0:0:0:0:
42,192,71976,1,0,0:0:0:0:
384,192,71976,1,0,0:0:0:0:
469,192,71976,1,0,0:0:0:0:
298,192,72101,1,0,0:0:0:0:
469,192,72101,1,0,0:0:0:0:
213,192,72101,1,0,0:0:0:0:
128,192,72226,1,0,0:0:0:0:
42,192,72226,1,0,0:0:0:0:
298,192,72226,1,0,0:0:0:0:
213,192,72351,1,0,0:0:0:0:
128,192,72351,1,0,0:0:0:0:
42,192,72351,1,0,0:0:0:0:
298,192,72476,1,0,0:0:0:0:
384,192,72476,1,0,0:0:0:0:
469,192,72476,1,0,0:0:0:0:
213,192,72476,1,0,0:0:0:0:
384,192,72601,1,0,0:0:0:0:
469,192,72601,1,0,0:0:0:0:
298,192,72726,1,0,0:0:0:0:
128,192,72726,1,0,0:0:0:0:
42,192,72726,1,0,0:0:0:0:
42,192,72851,1,0,0:0:0:0:
128,192,72851,1,0,0:0:0:0:
384,192,72851,1,0,0:0:0:0:
213,192,72976,1,0,0:0:0:0:
298,192,72976,1,0,0:0:0:0:
384,192,72976,1,0,0:0:0:0:
469,192,72976,1,0,0:0:0:0:
128,192,73101,1,0,0:0:0:0:
42,192,73101,1,0,0:0:0:0:
298,192,73101,1,0,0:0:0:0:
42,192,73226,1,0,0:0:0:0:
469,192,73226,1,0,0:0:0:0:
213,192,73226,1,0,0:0:0:0:
298,192,73351,1,0,0:0:0:0:
384,192,73351,1,0,0:0:0:0:
469,192,73351,1,0,0:0:0:0:
213,192,73476,1,0,0:0:0:0:
128,192,73476,1,0,0:0:0:0:
42,192,73476,1,0,0:0:0:0:
384,192,73476,1,0,0:0:0:0:
213,192,73601,1,0,0:0:0:0:
298,192,73601,1,0,0:0:0:0:
128,192,73726,1,0,0:0:0:0:
42,192,73726,1,0,0:0:0:0:
469,192,73726,1,0,0:0:0:0:
384,192,73788,1,0,0:0:0:0:
128,192,73851,1,0,0:0:0:0:
42,192,73851,1,0,0:0:0:0:
213,192,73851,1,0,0:0:0:0:
298,192,73913,1,0,0:0:0:0:
42,192,73976,1,0,0:0:0:0:
128,192,73976,1,0,0:0:0:0:
384,192,73976,1,0,0:0:0:0:
469,192,73976,1,0,0:0:0:0:
213,192,74101,1,0,0:0:0:0:
298,192,74101,1,0,0:0:0:0:
469,192,74101,1,0,0:0:0:0:
213,192,74226,1,0,0:0:0:0:
42,192,74226,1,0,0:0:0:0:
128,192,74226,1,0,0:0:0:0:
128,192,74351,1,0,0:0:0:0:
298,192,74351,1,0,0:0:0:0:
469,192,74351,1,0,0:0:0:0:
298,192,74476,1,0,0:0:0:0:
384,192,74476,1,0,0:0:0:0:
469,192,74476,1,0,0:0:0:0:
213,192,74476,1,0,0:0:0:0:
128,192,74601,1,0,0:0:0:0:
42,192,74601,1,0,0:0:0:0:
213,192,74726,1,0,0:0:0:0:
469,192,74726,1,0,0:0:0:0:
128,192,74726,1,0,0:0:0:0:
298,192,74851,1,0,0:0:0:0:
384,192,74851,1,0,0:0:0:0:
42,192,74851,1,0,0:0:0:0:
469,192,74976,1,0,0:0:0:0:
384,192,74976,1,0,0:0:0:0:
213,192,74976,1,0,0:0:0:0:
128,192,74976,1,0,0:0:0:0:
298,192,75101,1,0,0:0:0:0:
42,192,75101,1,0,0:0:0:0:
128,192,75101,1,0,0:0:0:0:
298,192,75226,1,0,0:0:0:0:
384,192,75226,1,0,0:0:0:0:
469,192,75226,1,0,0:0:0:0:
384,192,75351,1,0,0:0:0:0:
213,192,75351,1,0,0:0:0:0:
469,192,75351,1,0,0:0:0:0:
298,192,75476,1,0,0:0:0:0:
213,192,75476,1,0,0:0:0:0:
128,192,75476,1,0,0:0:0:0:
42,192,75476,1,0,0:0:0:0:
469,192,75601,1,0,0:0:0:0:
384,192,75601,1,0,0:0:0:0:
384,192,75726,1,0,0:0:0:0:
128,192,75726,1,0,0:0:0:0:
42,192,75726,1,0,0:0:0:0:
213,192,75851,1,0,0:0:0:0:
298,192,75851,1,0,0:0:0:0:
469,192,75851,1,0,0:0:0:0:
384,192,75976,1,0,0:0:0:0:
469,192,75976,1,0,0:0:0:0:
128,192,75976,1,0,0:0:0:0:
42,192,75976,1,0,0:0:0:0:
42,192,76101,1,0,0:0:0:0:
213,192,76101,1,0,0:0:0:0:
298,192,76101,1,0,0:0:0:0:
298,192,76226,1,0,0:0:0:0:
384,192,76226,1,0,0:0:0:0:
469,192,76226,1,0,0:0:0:0:
213,192,76351,1,0,0:0:0:0:
128,192,76351,1,0,0:0:0:0:
42,192,76351,1,0,0:0:0:0:
42,192,76476,1,0,0:0:0:0:
128,192,76476,1,0,0:0:0:0:
298,192,76476,1,0,0:0:0:0:
469,192,76476,1,0,0:0:0:0:
384,192,76601,1,0,0:0:0:0:
213,192,76601,1,0,0:0:0:0:
469,192,76726,1,0,0:0:0:0:
213,192,76726,1,0,0:0:0:0:
298,192,76726,1,0,0:0:0:0:
298,192,76851,1,0,0:0:0:0:
128,192,76851,1,0,0:0:0:0:
42,192,76851,1,0,0:0:0:0:
213,192,76976,1,0,0:0:0:0:
42,192,76976,1,0,0:0:0:0:
384,192,76976,1,0,0:0:0:0:
469,192,76976,1,0,0:0:0:0:
298,192,77101,1,0,0:0:0:0:
384,192,77101,1,0,0:0:0:0:
128,192,77101,1,0,0:0:0:0:
42,192,77226,1,0,0:0:0:0:
128,192,77226,1,0,0:0:0:0:
469,192,77226,1,0,0:0:0:0:
298,192,77351,1,0,0:0:0:0:
384,192,77351,1,0,0:0:0:0:
469,192,77351,1,0,0:0:0:0:
298,192,77476,1,0,0:0:0:0:
213,192,77476,1,0,0:0:0:0:
128,192,77476,1,0,0:0:0:0:
42,192,77476,1,0,0:0:0:0:
213,192,77601,1,0,0:0:0:0:
128,192,77601,1,0,0:0:0:0:
384,192,77726,1,0,0:0:0:0:
469,192,77726,1,0,0:0:0:0:
42,192,77726,1,0,0:0:0:0:
128,192,77788,1,0,0:0:0:0:
384,192,77851,1,0,0:0:0:0:
469,192,77851,1,0,0:0:0:0:
298,192,77851,1,0,0:0:0:0:
213,192,77913,1,0,0:0:0:0:
384,192,77976,1,0,0:0:0:0:
469,192,77976,1,0,0:0:0:0:
128,192,77976,1,0,0:0:0:0:
42,192,77976,1,0,0:0:0:0:
298,192,78101,1,0,0:0:0:0:
213,192,78101,1,0,0:0:0:0:
128,192,78101,1,0,0:0:0:0:
298,192,78226,1,0,0:0:0:0:
384,192,78226,1,0,0:0:0:0:
469,192,78226,1,0,0:0:0:0:
213,192,78351,1,0,0:0:0:0:
128,192,78351,1,0,0:0:0:0:
42,192,78351,1,0,0:0:0:0:
213,192,78476,1,0,0:0:0:0:
384,192,78476,1,0,0:0:0:0:
469,192,78476,1,0,0:0:0:0:
298,192,78476,1,0,0:0:0:0:
128,192,78601,1,0,0:0:0:0:
42,192,78601,1,0,0:0:0:0:
384,192,78601,1,0,0:0:0:0:
213,192,78726,1,0,0:0:0:0:
298,192,78726,1,0,0:0:0:0:
469,192,78726,1,0,0:0:0:0:
213,192,78851,1,0,0:0:0:0:
128,192,78851,1,0,0:0:0:0:
42,192,78851,1,0,0:0:0:0:
42,192,78976,1,0,0:0:0:0:
298,192,78976,1,0,0:0:0:0:
384,192,78976,1,0,0:0:0:0:
469,192,78976,1,0,0:0:0:0:
298,192,79101,1,0,0:0:0:0:
213,192,79101,1,0,0:0:0:0:
128,192,79101,1,0,0:0:0:0:
384,192,79226,1,0,0:0:0:0:
469,192,79226,1,0,0:0:0:0:
213,192,79226,1,0,0:0:0:0:
384,192,79351,1,0,0:0:0:0:
298,192,79351,1,0,0:0:0:0:
42,192,79351,1,0,0:0:0:0:
213,192,79476,1,0,0:0:0:0:
42,192,79476,1,0,0:0:0:0:
128,192,79476,1,0,0:0:0:0:
469,192,79476,1,0,0:0:0:0:
298,192,79601,1,0,0:0:0:0:
384,192,79601,1,0,0:0:0:0:
128,192,79601,1,0,0:0:0:0:
42,192,79726,1,0,0:0:0:0:
213,192,79726,1,0,0:0:0:0:
298,192,79726,1,0,0:0:0:0:
469,192,79851,1,0,0:0:0:0:
128,192,79851,1,0,0:0:0:0:
384,192,79851,1,0,0:0:0:0:
298,192,79976,1,0,0:0:0:0:
384,192,79976,1,0,0:0:0:0:
469,192,79976,1,0,0:0:0:0:
42,192,79976,1,0,0:0:0:0:
42,192,80101,1,0,0:0:0:0:
128,192,80101,1,0,0:0:0:0:
213,192,80101,1,0,0:0:0:0:
298,192,80226,1,0,0:0:0:0:
384,192,80226,1,0,0:0:0:0:
213,192,80226,1,0,0:0:0:0:
128,192,80351,1,0,0:0:0:0:
384,192,80351,1,0,0:0:0:0:
469,192,80351,1,0,0:0:0:0:
213,192,80476,1,0,0:0:0:0:
128,192,80476,1,0,0:0:0:0:
42,192,80476,1,0,0:0:0:0:
298,192,80476,1,0,0:0:0:0:
298,192,80601,1,0,0:0:0:0:
469,192,80601,1,0,0:0:0:0:
384,192,80601,1,0,0:0:0:0:
128,192,80726,1,0,0:0:0:0:
42,192,80726,1,0,0:0:0:0:
469,192,80726,1,0,0:0:0:0:
298,192,80851,1,0,0:0:0:0:
213,192,80851,1,0,0:0:0:0:
42,192,80851,1,0,0:0:0:0:
213,192,80976,1,0,0:0:0:0:
298,192,80976,1,0,0:0:0:0:
384,192,80976,1,0,0:0:0:0:
469,192,80976,1,0,0:0:0:0:
128,192,81101,1,0,0:0:0:0:
384,192,81101,1,0,0:0:0:0:
469,192,81101,1,0,0:0:0:0:
42,192,81101,1,0,0:0:0:0:
42,192,81226,1,0,0:0:0:0:
213,192,81226,1,0,0:0:0:0:
469,192,81226,1,0,0:0:0:0:
128,192,81226,1,0,0:0:0:0:
213,192,81351,1,0,0:0:0:0:
298,192,81351,1,0,0:0:0:0:
128,192,81351,1,0,0:0:0:0:
42,192,81351,1,0,0:0:0:0:
128,192,81476,1,0,0:0:0:0:
213,192,81476,1,0,0:0:0:0:
298,192,81476,1,0,0:0:0:0:
384,192,81476,1,0,0:0:0:0:
213,192,81601,1,0,0:0:0:0:
298,192,81601,1,0,0:0:0:0:
384,192,81601,1,0,0:0:0:0:
469,192,81601,1,0,0:0:0:0:
298,192,81726,1,0,0:0:0:0:
384,192,81726,1,0,0:0:0:0:
469,192,81726,1,0,0:0:0:0:
42,192,81726,1,0,0:0:0:0:
128,192,81851,1,0,0:0:0:0:
42,192,81851,1,0,0:0:0:0:
384,192,81851,1,0,0:0:0:0:
469,192,81851,1,0,0:0:0:0:
469,192,81976,1,0,0:0:0:0:
213,192,81976,1,0,0:0:0:0:
128,192,81976,1,0,0:0:0:0:
42,192,81976,1,0,0:0:0:0:
213,192,82226,1,0,0:0:0:0:
384,192,82351,1,0,0:0:0:0:
469,192,82476,1,0,0:0:0:0:
42,192,82476,1,0,0:0:0:0:
213,192,82601,1,0,0:0:0:0:
213,192,82851,1,0,0:0:0:0:
298,192,82976,1,0,0:0:0:0:
128,192,83101,1,0,0:0:0:0:
213,192,83226,1,0,0:0:0:0:
213,192,83351,1,0,0:0:0:0:
42,192,83476,1,0,0:0:0:0:
469,192,83601,1,0,0:0:0:0:
298,192,83726,1,0,0:0:0:0:
213,192,83851,1,0,0:0:0:0:
213,192,83976,1,0,0:0:0:0:
213,192,84101,1,0,0:0:0:0:
384,192,84351,1,0,0:0:0:0:
384,192,84476,1,0,0:0:0:0:
42,192,84476,1,0,0:0:0:0:
213,192,84726,1,0,0:0:0:0:
384,192,84976,1,0,0:0:0:0:
42,192,85476,1,0,0:0:0:0:
469,192,85851,1,0,0:0:0:0:
298,192,85976,1,0,0:0:0:0:
298,192,86101,1,0,0:0:0:0:
384,192,86351,1,0,0:0:0:0:
42,192,86476,1,0,0:0:0:0:
213,192,86601,1,0,0:0:0:0:
469,192,86726,1,0,0:0:0:0:
298,192,86851,1,0,0:0:0:0:
298,192,86976,1,0,0:0:0:0:
298,192,87101,1,0,0:0:0:0:
384,192,87351,1,0,0:0:0:0:
42,192,87476,1,0,0:0:0:0:
213,192,87601,1,0,0:0:0:0:
298,192,87726,1,0,0:0:0:0:
213,192,87851,1,0,0:0:0:0:
298,192,87913,1,0,0:0:0:0:
213,192,87976,1,0,0:0:0:0:
128,192,88101,1,0,0:0:0:0:
384,192,88351,1,0,0:0:0:0:
42,192,88476,1,0,0:0:0:0:
384,192,88476,1,0,0:0:0:0:
213,192,88601,1,0,0:0:0:0:
469,192,88726,1,0,0:0:0:0:
298,192,88851,1,0,0:0:0:0:
213,192,88976,1,0,0:0:0:0:
42,192,88976,1,0,0:0:0:0:
469,192,88976,1,0,0:0:0:0:
213,192,89101,1,0,0:0:0:0:
42,192,89101,1,0,0:0:0:0:
384,192,89226,1,0,0:0:0:0:
469,192,89226,1,0,0:0:0:0:
298,192,89351,1,0,0:0:0:0:
469,192,89351,1,0,0:0:0:0:
128,192,89351,1,0,0:0:0:0:
298,192,89476,1,0,0:0:0:0:
128,192,89476,1,0,0:0:0:0:
42,192,89476,1,0,0:0:0:0:
213,192,89601,1,0,0:0:0:0:
384,192,89601,1,0,0:0:0:0:
384,192,89726,1,0,0:0:0:0:
469,192,89726,1,0,0:0:0:0:
298,192,89726,1,0,0:0:0:0:
298,192,89851,1,0,0:0:0:0:
469,192,89851,1,0,0:0:0:0:
42,192,89976,1,0,0:0:0:0:
128,192,89976,1,0,0:0:0:0:
213,192,90226,1,0,0:0:0:0:
42,192,90351,1,0,0:0:0:0:
384,192,90351,1,0,0:0:0:0:
128,192,90476,1,0,0:0:0:0:
469,192,90476,1,0,0:0:0:0:
213,192,90601,1,0,0:0:0:0:
298,192,90851,1,0,0:0:0:0:
42,192,90976,1,0,0:0:0:0:
469,192,90976,1,0,0:0:0:0:
42,192,91101,1,0,0:0:0:0:
213,192,91101,1,0,0:0:0:0:
298,192,91226,1,0,0:0:0:0:
42,192,91351,1,0,0:0:0:0:
298,192,91351,1,0,0:0:0:0:
128,192,91476,1,0,0:0:0:0:
469,192,91601,1,0,0:0:0:0:
384,192,91726,1,0,0:0:0:0:
298,192,91851,1,0,0:0:0:0:
298,192,91976,1,0,0:0:0:0:
42,192,91976,1,0,0:0:0:0:
469,192,92101,1,0,0:0:0:0:
213,192,92351,1,0,0:0:0:0:
42,192,92351,1,0,0:0:0:0:
384,192,92476,1,0,0:0:0:0:
128,192,92476,1,0,0:0:0:0:
298,192,92726,1,0,0:0:0:0:
384,192,92976,1,0,0:0:0:0:
42,192,92976,1,0,0:0:0:0:
42,192,93101,1,0,0:0:0:0:
42,192,93351,1,0,0:0:0:0:
128,192,93476,1,0,0:0:0:0:
42,192,93601,1,0,0:0:0:0:
213,192,93663,1,0,0:0:0:0:
42,192,93726,1,0,0:0:0:0:
42,192,93851,1,0,0:0:0:0:
298,192,93851,1,0,0:0:0:0:
42,192,93976,1,0,0:0:0:0:
128,192,93976,1,0,0:0:0:0:
469,192,93976,1,0,0:0:0:0:
384,192,93976,1,0,0:0:0:0:
469,192,94101,1,0,0:0:0:0:
213,192,94101,1,0,0:0:0:0:
298,192,94226,1,0,0:0:0:0:
42,192,94351,1,0,0:0:0:0:
213,192,94351,1,0,0:0:0:0:
384,192,94351,1,0,0:0:0:0:
128,192,94476,1,0,0:0:0:0:
469,192,94476,1,0,0:0:0:0:
213,192,94601,1,0,0:0:0:0:
298,192,94601,1,0,0:0:0:0:
298,192,94726,1,0,0:0:0:0:
384,192,94726,1,0,0:0:0:0:
384,192,94851,1,0,0:0:0:0:
469,192,94851,1,0,0:0:0:0:
128,192,94976,1,0,0:0:0:0:
42,192,94976,1,0,0:0:0:0:
213,192,94976,1,0,0:0:0:0:
298,192,94976,1,0,0:0:0:0:
42,192,95101,1,0,0:0:0:0:
384,192,95101,1,0,0:0:0:0:
469,192,95101,1,0,0:0:0:0:
213,192,95226,1,0,0:0:0:0:
42,192,95351,1,0,0:0:0:0:
298,192,95351,1,0,0:0:0:0:
469,192,95351,1,0,0:0:0:0:
128,192,95476,1,0,0:0:0:0:
384,192,95476,1,0,0:0:0:0:
298,192,95601,1,0,0:0:0:0:
213,192,95601,1,0,0:0:0:0:
384,192,95726,1,0,0:0:0:0:
469,192,95726,1,0,0:0:0:0:
213,192,95851,1,0,0:0:0:0:
298,192,95851,1,0,0:0:0:0:
384,192,95913,1,0,0:0:0:0:
128,192,95976,1,0,0:0:0:0:
42,192,95976,1,0,0:0:0:0:
213,192,95976,1,0,0:0:0:0:
469,192,95976,1,0,0:0:0:0:
298,192,96101,1,0,0:0:0:0:
384,192,96101,1,0,0:0:0:0:
213,192,96226,1,0,0:0:0:0:
384,192,96351,1,0,0:0:0:0:
469,192,96351,1,0,0:0:0:0:
42,192,96476,1,0,0:0:0:0:
128,192,96476,1,0,0:0:0:0:
384,192,96476,1,0,0:0:0:0:
298,192,96476,1,0,0:0:0:0:
298,192,96601,1,0,0:0:0:0:
213,192,96601,1,0,0:0:0:0:
213,192,96726,1,0,0:0:0:0:
128,192,96726,1,0,0:0:0:0:
128,192,96851,1,0,0:0:0:0:
42,192,96851,1,0,0:0:0:0:
213,192,96976,1,0,0:0:0:0:
298,192,96976,1,0,0:0:0:0:
384,192,96976,1,0,0:0:0:0:
469,192,96976,1,0,0:0:0:0:
298,192,97101,1,0,0:0:0:0:
469,192,97101,1,0,0:0:0:0:
384,192,97101,1,0,0:0:0:0:
128,192,97226,1,0,0:0:0:0:
42,192,97226,1,0,0:0:0:0:
42,192,97351,1,0,0:0:0:0:
128,192,97351,1,0,0:0:0:0:
213,192,97351,1,0,0:0:0:0:
298,192,97351,1,0,0:0:0:0:
213,192,97601,1,0,0:0:0:0:
298,192,97601,1,0,0:0:0:0:
384,192,97601,1,0,0:0:0:0:
469,192,97601,1,0,0:0:0:0:
42,192,97726,1,0,0:0:0:0:
128,192,97726,1,0,0:0:0:0:
213,192,97788,1,0,0:0:0:0:
298,192,97788,1,0,0:0:0:0:
128,192,97851,1,0,0:0:0:0:
42,192,97851,1,0,0:0:0:0:
384,192,97851,1,0,0:0:0:0:
469,192,97851,1,0,0:0:0:0:
213,192,97913,1,0,0:0:0:0:
298,192,97913,1,0,0:0:0:0:
42,192,97976,1,0,0:0:0:0:
384,192,97976,1,0,0:0:0:0:
469,192,97976,1,0,0:0:0:0:
128,192,97976,1,0,0:0:0:0:
128,192,98101,1,0,0:0:0:0:
213,192,98101,1,0,0:0:0:0:
298,192,98101,1,0,0:0:0:0:
298,192,98226,1,0,0:0:0:0:
384,192,98226,1,0,0:0:0:0:
469,192,98226,1,0,0:0:0:0:
213,192,98351,1,0,0:0:0:0:
128,192,98351,1,0,0:0:0:0:
42,192,98351,1,0,0:0:0:0:
128,192,98476,1,0,0:0:0:0:
42,192,98476,1,0,0:0:0:0:
384,192,98476,1,0,0:0:0:0:
469,192,98476,1,0,0:0:0:0:
384,192,98601,1,0,0:0:0:0:
298,192,98601,1,0,0:0:0:0:
298,192,98726,1,0,0:0:0:0:
213,192,98726,1,0,0:0:0:0:
42,192,98726,1,0,0:0:0:0:
128,192,98851,1,0,0:0:0:0:
213,192,98851,1,0,0:0:0:0:
384,192,98851,1,0,0:0:0:0:
42,192,98976,1,0,0:0:0:0:
128,192,98976,1,0,0:0:0:0:
298,192,98976,1,0,0:0:0:0:
469,192,98976,1,0,0:0:0:0:
213,192,99101,1,0,0:0:0:0:
384,192,99101,1,0,0:0:0:0:
469,192,99101,1,0,0:0:0:0:
298,192,99226,1,0,0:0:0:0:
128,192,99226,1,0,0:0:0:0:
42,192,99226,1,0,0:0:0:0:
298,192,99351,1,0,0:0:0:0:
384,192,99351,1,0,0:0:0:0:
469,192,99351,1,0,0:0:0:0:
469,192,99476,1,0,0:0:0:0:
213,192,99476,1,0,0:0:0:0:
128,192,99476,1,0,0:0:0:0:
42,192,99476,1,0,0:0:0:0:
213,192,99601,1,0,0:0:0:0:
298,192,99601,1,0,0:0:0:0:
298,192,99726,1,0,0:0:0:0:
384,192,99726,1,0,0:0:0:0:
42,192,99726,1,0,0:0:0:0:
384,192,99851,1,0,0:0:0:0:
469,192,99851,1,0,0:0:0:0:
128,192,99851,1,0,0:0:0:0:
298,192,99976,1,0,0:0:0:0:
469,192,99976,1,0,0:0:0:0:
42,192,99976,1,0,0:0:0:0:
213,192,99976,1,0,0:0:0:0:
128,192,100101,1,0,0:0:0:0:
42,192,100101,1,0,0:0:0:0:
298,192,100101,1,0,0:0:0:0:
128,192,100226,1,0,0:0:0:0:
469,192,100226,1,0,0:0:0:0:
384,192,100226,1,0,0:0:0:0:
384,192,100351,1,0,0:0:0:0:
298,192,100351,1,0,0:0:0:0:
213,192,100351,1,0,0:0:0:0:
213,192,100476,1,0,0:0:0:0:
128,192,100476,1,0,0:0:0:0:
42,192,100476,1,0,0:0:0:0:
469,192,100476,1,0,0:0:0:0:
128,192,100601,1,0,0:0:0:0:
384,192,100601,1,0,0:0:0:0:
298,192,100726,1,0,0:0:0:0:
384,192,100726,1,0,0:0:0:0:
469,192,100726,1,0,0:0:0:0:
298,192,100851,1,0,0:0:0:0:
213,192,100851,1,0,0:0:0:0:
128,192,100851,1,0,0:0:0:0:
213,192,100976,1,0,0:0:0:0:
42,192,100976,1,0,0:0:0:0:
384,192,100976,1,0,0:0:0:0:
469,192,100976,1,0,0:0:0:0:
128,192,101101,1,0,0:0:0:0:
42,192,101101,1,0,0:0:0:0:
298,192,101101,1,0,0:0:0:0:
298,192,101226,1,0,0:0:0:0:
384,192,101226,1,0,0:0:0:0:
469,192,101226,1,0,0:0:0:0:
384,192,101351,1,0,0:0:0:0:
213,192,101351,1,0,0:0:0:0:
128,192,101351,1,0,0:0:0:0:
213,192,101476,1,0,0:0:0:0:
128,192,101476,1,0,0:0:0:0:
42,192,101476,1,0,0:0:0:0:
469,192,101476,1,0,0:0:0:0:
298,192,101601,1,0,0:0:0:0:
384,192,101601,1,0,0:0:0:0:
128,192,101726,1,0,0:0:0:0:
42,192,101726,1,0,0:0:0:0:
469,192,101726,1,0,0:0:0:0:
384,192,101788,1,0,0:0:0:0:
42,192,101851,1,0,0:0:0:0:
128,192,101851,1,0,0:0:0:0:
213,192,101851,1,0,0:0:0:0:
298,192,101913,1,0,0:0:0:0:
128,192,101976,1,0,0:0:0:0:
42,192,101976,1,0,0:0:0:0:
384,192,101976,1,0,0:0:0:0:
469,192,101976,1,0,0:0:0:0:
213,192,102101,1,0,0:0:0:0:
298,192,102101,1,0,0:0:0:0:
469,192,102101,1,0,0:0:0:0:
128,192,102226,1,0,0:0:0:0:
42,192,102226,1,0,0:0:0:0:
298,192,102226,1,0,0:0:0:0:
213,192,102351,1,0,0:0:0:0:
128,192,102351,1,0,0:0:0:0:
384,192,102351,1,0,0:0:0:0:
42,192,102476,1,0,0:0:0:0:
213,192,102476,1,0,0:0:0:0:
298,192,102476,1,0,0:0:0:0:
469,192,102476,1,0,0:0:0:0:
384,192,102601,1,0,0:0:0:0:
128,192,102601,1,0,0:0:0:0:
298,192,102726,1,0,0:0:0:0:
384,192,102726,1,0,0:0:0:0:
469,192,102726,1,0,0:0:0:0:
213,192,102851,1,0,0:0:0:0:
128,192,102851,1,0,0:0:0:0:
42,192,102851,1,0,0:0:0:0:
42,192,102976,1,0,0:0:0:0:
213,192,102976,1,0,0:0:0:0:
384,192,102976,1,0,0:0:0:0:
469,192,102976,1,0,0:0:0:0:
298,192,103101,1,0,0:0:0:0:
128,192,103101,1,0,0:0:0:0:
384,192,103101,1,0,0:0:0:0:
298,192,103226,1,0,0:0:0:0:
213,192,103226,1,0,0:0:0:0:
42,192,103226,1,0,0:0:0:0:
384,192,103351,1,0,0:0:0:0:
469,192,103351,1,0,0:0:0:0:
128,192,103351,1,0,0:0:0:0:
128,192,103476,1,0,0:0:0:0:
42,192,103476,1,0,0:0:0:0:
298,192,103476,1,0,0:0:0:0:
469,192,103476,1,0,0:0:0:0:
213,192,103601,1,0,0:0:0:0:
384,192,103601,1,0,0:0:0:0:
213,192,103726,1,0,0:0:0:0:
128,192,103726,1,0,0:0:0:0:
42,192,103726,1,0,0:0:0:0:
298,192,103851,1,0,0:0:0:0:
384,192,103851,1,0,0:0:0:0:
469,192,103851,1,0,0:0:0:0:
128,192,103976,1,0,0:0:0:0:
42,192,103976,1,0,0:0:0:0:
469,192,103976,1,0,0:0:0:0:
384,192,103976,1,0,0:0:0:0:
298,192,104101,1,0,0:0:0:0:
213,192,104101,1,0,0:0:0:0:
42,192,104101,1,0,0:0:0:0:
213,192,104226,1,0,0:0:0:0:
384,192,104226,1,0,0:0:0:0:
469,192,104226,1,0,0:0:0:0:
384,192,104351,1,0,0:0:0:0:
298,192,104351,1,0,0:0:0:0:
128,192,104351,1,0,0:0:0:0:
298,192,104476,1,0,0:0:0:0:
213,192,104476,1,0,0:0:0:0:
42,192,104476,1,0,0:0:0:0:
469,192,104476,1,0,0:0:0:0:
384,192,104601,1,0,0:0:0:0:
128,192,104601,1,0,0:0:0:0:
469,192,104726,1,0,0:0:0:0:
213,192,104726,1,0,0:0:0:0:
298,192,104726,1,0,0:0:0:0:
384,192,104851,1,0,0:0:0:0:
128,192,104851,1,0,0:0:0:0:
213,192,104851,1,0,0:0:0:0:
128,192,104976,1,0,0:0:0:0:
42,192,104976,1,0,0:0:0:0:
298,192,104976,1,0,0:0:0:0:
469,192,104976,1,0,0:0:0:0:
384,192,105101,1,0,0:0:0:0:
469,192,105101,1,0,0:0:0:0:
213,192,105101,1,0,0:0:0:0:
213,192,105226,1,0,0:0:0:0:
128,192,105226,1,0,0:0:0:0:
42,192,105226,1,0,0:0:0:0:
384,192,105351,1,0,0:0:0:0:
298,192,105351,1,0,0:0:0:0:
469,192,105351,1,0,0:0:0:0:
469,192,105476,1,0,0:0:0:0:
384,192,105476,1,0,0:0:0:0:
213,192,105476,1,0,0:0:0:0:
42,192,105476,1,0,0:0:0:0:
128,192,105601,1,0,0:0:0:0:
298,192,105601,1,0,0:0:0:0:
384,192,105726,1,0,0:0:0:0:
469,192,105726,1,0,0:0:0:0:
42,192,105726,1,0,0:0:0:0:
128,192,105788,1,0,0:0:0:0:
384,192,105851,1,0,0:0:0:0:
469,192,105851,1,0,0:0:0:0:
298,192,105851,1,0,0:0:0:0:
213,192,105913,1,0,0:0:0:0:
384,192,105976,1,0,0:0:0:0:
469,192,105976,1,0,0:0:0:0:
128,192,105976,1,0,0:0:0:0:
42,192,105976,1,0,0:0:0:0:
298,192,106101,1,0,0:0:0:0:
213,192,106101,1,0,0:0:0:0:
42,192,106101,1,0,0:0:0:0:
213,192,106226,1,0,0:0:0:0:
298,192,106226,1,0,0:0:0:0:
469,192,106226,1,0,0:0:0:0:
384,192,106351,1,0,0:0:0:0:
128,192,106351,1,0,0:0:0:0:
42,192,106351,1,0,0:0:0:0:
42,192,106476,1,0,0:0:0:0:
213,192,106476,1,0,0:0:0:0:
298,192,106476,1,0,0:0:0:0:
469,192,106476,1,0,0:0:0:0:
128,192,106601,1,0,0:0:0:0:
384,192,106601,1,0,0:0:0:0:
298,192,106726,1,0,0:0:0:0:
384,192,106726,1,0,0:0:0:0:
469,192,106726,1,0,0:0:0:0:
213,192,106851,1,0,0:0:0:0:
128,192,106851,1,0,0:0:0:0:
42,192,106851,1,0,0:0:0:0:
128,192,106976,1,0,0:0:0:0:
384,192,106976,1,0,0:0:0:0:
469,192,106976,1,0,0:0:0:0:
42,192,106976,1,0,0:0:0:0:
213,192,107101,1,0,0:0:0:0:
298,192,107101,1,0,0:0:0:0:
469,192,107101,1,0,0:0:0:0:
298,192,107226,1,0,0:0:0:0:
213,192,107226,1,0,0:0:0:0:
42,192,107226,1,0,0:0:0:0:
42,192,107351,1,0,0:0:0:0:
384,192,107351,1,0,0:0:0:0:
128,192,107476,1,0,0:0:0:0:
298,192,107476,1,0,0:0:0:0:
384,192,107476,1,0,0:0:0:0:
469,192,107476,1,0,0:0:0:0:
298,192,107601,1,0,0:0:0:0:
213,192,107601,1,0,0:0:0:0:
128,192,107726,1,0,0:0:0:0:
42,192,107726,1,0,0:0:0:0:
469,192,107726,1,0,0:0:0:0:
128,192,107851,1,0,0:0:0:0:
213,192,107851,1,0,0:0:0:0:
298,192,107851,1,0,0:0:0:0:
42,192,107976,1,0,0:0:0:0:
298,192,107976,1,0,0:0:0:0:
384,192,107976,1,0,0:0:0:0:
469,192,107976,1,0,0:0:0:0:
128,192,108101,1,0,0:0:0:0:
42,192,108101,1,0,0:0:0:0:
213,192,108101,1,0,0:0:0:0:
128,192,108226,1,0,0:0:0:0:
469,192,108226,1,0,0:0:0:0:
298,192,108226,1,0,0:0:0:0:
213,192,108351,1,0,0:0:0:0:
384,192,108351,1,0,0:0:0:0:
469,192,108351,1,0,0:0:0:0:
213,192,108476,1,0,0:0:0:0:
128,192,108476,1,0,0:0:0:0:
42,192,108476,1,0,0:0:0:0:
298,192,108476,1,0,0:0:0:0:
42,192,108601,1,0,0:0:0:0:
384,192,108601,1,0,0:0:0:0:
469,192,108726,1,0,0:0:0:0:
384,192,108726,1,0,0:0:0:0:
298,192,108726,1,0,0:0:0:0:
128,192,108851,1,0,0:0:0:0:
213,192,108851,1,0,0:0:0:0:
42,192,108851,1,0,0:0:0:0:
384,192,108976,1,0,0:0:0:0:
469,192,108976,1,0,0:0:0:0:
213,192,108976,1,0,0:0:0:0:
298,192,108976,1,0,0:0:0:0:
128,192,109101,1,0,0:0:0:0:
42,192,109101,1,0,0:0:0:0:
384,192,109101,1,0,0:0:0:0:
298,192,109226,1,0,0:0:0:0:
42,192,109226,1,0,0:0:0:0:
213,192,109226,1,0,0:0:0:0:
384,192,109351,1,0,0:0:0:0:
469,192,109351,1,0,0:0:0:0:
213,192,109351,1,0,0:0:0:0:
128,192,109476,1,0,0:0:0:0:
42,192,109476,1,0,0:0:0:0:
469,192,109476,1,0,0:0:0:0:
298,192,109476,1,0,0:0:0:0:
298,192,109601,1,0,0:0:0:0:
384,192,109601,1,0,0:0:0:0:
42,192,109726,1,0,0:0:0:0:
128,192,109726,1,0,0:0:0:0:
469,192,109726,1,0,0:0:0:0:
384,192,109788,1,0,0:0:0:0:
213,192,109851,1,0,0:0:0:0:
42,192,109851,1,0,0:0:0:0:
128,192,109851,1,0,0:0:0:0:
298,192,109913,1,0,0:0:0:0:
128,192,109976,1,0,0:0:0:0:
42,192,109976,1,0,0:0:0:0:
384,192,109976,1,0,0:0:0:0:
469,192,109976,1,0,0:0:0:0:
213,192,110101,1,0,0:0:0:0:
384,192,110101,1,0,0:0:0:0:
469,192,110101,1,0,0:0:0:0:
298,192,110226,1,0,0:0:0:0:
128,192,110226,1,0,0:0:0:0:
42,192,110226,1,0,0:0:0:0:
42,192,110351,1,0,0:0:0:0:
128,192,110351,1,0,0:0:0:0:
384,192,110351,1,0,0:0:0:0:
213,192,110476,1,0,0:0:0:0:
128,192,110476,1,0,0:0:0:0:
42,192,110476,1,0,0:0:0:0:
469,192,110476,1,0,0:0:0:0:
298,192,110601,1,0,0:0:0:0:
384,192,110601,1,0,0:0:0:0:
384,192,110726,1,0,0:0:0:0:
298,192,110726,1,0,0:0:0:0:
213,192,110726,1,0,0:0:0:0:
298,192,110851,1,0,0:0:0:0:
213,192,110851,1,0,0:0:0:0:
128,192,110851,1,0,0:0:0:0:
213,192,110976,1,0,0:0:0:0:
128,192,110976,1,0,0:0:0:0:
42,192,110976,1,0,0:0:0:0:
469,192,110976,1,0,0:0:0:0:
128,192,111101,1,0,0:0:0:0:
42,192,111101,1,0,0:0:0:0:
298,192,111101,1,0,0:0:0:0:
213,192,111226,1,0,0:0:0:0:
384,192,111226,1,0,0:0:0:0:
469,192,111226,1,0,0:0:0:0:
384,192,111351,1,0,0:0:0:0:
469,192,111351,1,0,0:0:0:0:
128,192,111351,1,0,0:0:0:0:
42,192,111476,1,0,0:0:0:0:
384,192,111476,1,0,0:0:0:0:
469,192,111476,1,0,0:0:0:0:
298,192,111476,1,0,0:0:0:0:
213,192,111601,1,0,0:0:0:0:
128,192,111601,1,0,0:0:0:0:
128,192,111726,1,0,0:0:0:0:
213,192,111726,1,0,0:0:0:0:
298,192,111726,1,0,0:0:0:0:
213,192,111851,1,0,0:0:0:0:
298,192,111851,1,0,0:0:0:0:
384,192,111851,1,0,0:0:0:0:
42,192,111976,1,0,0:0:0:0:
298,192,111976,1,0,0:0:0:0:
384,192,111976,1,0,0:0:0:0:
469,192,111976,1,0,0:0:0:0:
384,192,112101,1,0,0:0:0:0:
469,192,112101,1,0,0:0:0:0:
213,192,112101,1,0,0:0:0:0:
128,192,112226,1,0,0:0:0:0:
42,192,112226,1,0,0:0:0:0:
298,192,112226,1,0,0:0:0:0:
128,192,112351,1,0,0:0:0:0:
42,192,112351,1,0,0:0:0:0:
384,192,112351,1,0,0:0:0:0:
42,192,112476,1,0,0:0:0:0:
469,192,112476,1,0,0:0:0:0:
213,192,112476,1,0,0:0:0:0:
128,192,112476,1,0,0:0:0:0:
298,192,112601,1,0,0:0:0:0:
384,192,112601,1,0,0:0:0:0:
298,192,112726,1,0,0:0:0:0:
213,192,112726,1,0,0:0:0:0:
384,192,112726,1,0,0:0:0:0:
298,192,112851,1,0,0:0:0:0:
213,192,112851,1,0,0:0:0:0:
128,192,112851,1,0,0:0:0:0:
213,192,112976,1,0,0:0:0:0:
128,192,112976,1,0,0:0:0:0:
42,192,112976,1,0,0:0:0:0:
469,192,112976,1,0,0:0:0:0:
128,192,113101,1,0,0:0:0:0:
42,192,113101,1,0,0:0:0:0:
384,192,113101,1,0,0:0:0:0:
298,192,113226,1,0,0:0:0:0:
384,192,113226,1,0,0:0:0:0:
469,192,113226,1,0,0:0:0:0:
384,192,113351,1,0,0:0:0:0:
298,192,113351,1,0,0:0:0:0:
213,192,113351,1,0,0:0:0:0:
298,192,113476,1,0,0:0:0:0:
213,192,113476,1,0,0:0:0:0:
128,192,113476,1,0,0:0:0:0:
42,192,113476,1,0,0:0:0:0:
384,192,113601,1,0,0:0:0:0:
469,192,113601,1,0,0:0:0:0:
213,192,113726,1,0,0:0:0:0:
384,192,113726,1,0,0:0:0:0:
469,192,113726,1,0,0:0:0:0:
384,192,113851,1,0,0:0:0:0:
469,192,113851,1,0,0:0:0:0:
213,192,113851,1,0,0:0:0:0:
384,192,113976,1,0,0:0:0:0:
469,192,113976,1,0,0:0:0:0:
42,192,113976,1,0,0:0:0:0:
213,192,113976,1,0,0:0:0:0:
42,192,114101,1,0,0:0:0:0:
128,192,114101,1,0,0:0:0:0:
469,192,114226,1,0,0:0:0:0:
128,192,114351,1,0,0:0:0:0:
213,192,114351,1,0,0:0:0:0:
213,192,114476,1,0,0:0:0:0:
298,192,114476,1,0,0:0:0:0:
42,192,114726,1,0,0:0:0:0:
298,192,114726,1,0,0:0:0:0:
384,192,114726,1,0,0:0:0:0:
298,192,114851,1,0,0:0:0:0:
213,192,114851,1,0,0:0:0:0:
213,192,114976,1,0,0:0:0:0:
42,192,114976,1,0,0:0:0:0:
42,192,115101,1,0,0:0:0:0:
213,192,115101,1,0,0:0:0:0:
469,192,115226,1,0,0:0:0:0:
128,192,115351,1,0,0:0:0:0:
298,192,115351,1,0,0:0:0:0:
213,192,115476,1,0,0:0:0:0:
384,192,115476,1,0,0:0:0:0:
298,192,115726,1,0,0:0:0:0:
469,192,115726,1,0,0:0:0:0:
42,192,115726,1,0,0:0:0:0:
384,192,115851,1,0,0:0:0:0:
213,192,115851,1,0,0:0:0:0:
42,192,115976,1,0,0:0:0:0:
128,192,115976,1,0,0:0:0:0:
42,192,116101,1,0,0:0:0:0:
128,192,116101,1,0,0:0:0:0:
469,192,116226,1,0,0:0:0:0:
213,192,116351,1,0,0:0:0:0:
128,192,116351,1,0,0:0:0:0:
213,192,116476,1,0,0:0:0:0:
298,192,116476,1,0,0:0:0:0:
42,192,116726,1,0,0:0:0:0:
298,192,116726,1,0,0:0:0:0:
384,192,116726,1,0,0:0:0:0:
213,192,116851,1,0,0:0:0:0:
298,192,116851,1,0,0:0:0:0:
213,192,116976,1,0,0:0:0:0:
42,192,116976,1,0,0:0:0:0:
298,192,117101,1,0,0:0:0:0:
469,192,117101,1,0,0:0:0:0:
469,192,117226,1,0,0:0:0:0:
298,192,117351,1,0,0:0:0:0:
469,192,117351,1,0,0:0:0:0:
384,192,117476,1,0,0:0:0:0:
298,192,117601,1,0,0:0:0:0:
469,192,117601,1,0,0:0:0:0:
298,192,117726,1,0,0:0:0:0:
42,192,117726,1,0,0:0:0:0:
128,192,117788,1,0,0:0:0:0:
298,192,117851,1,0,0:0:0:0:
469,192,117851,1,0,0:0:0:0:
42,192,117851,1,0,0:0:0:0:
128,192,117913,1,0,0:0:0:0:
384,192,117976,1,0,0:0:0:0:
469,192,117976,1,0,0:0:0:0:
213,192,117976,1,0,0:0:0:0:
469,192,118101,1,0,0:0:0:0:
384,192,118101,1,0,0:0:0:0:
42,192,118226,1,0,0:0:0:0:
384,192,118351,1,0,0:0:0:0:
298,192,118351,1,0,0:0:0:0:
298,192,118476,1,0,0:0:0:0:
213,192,118476,1,0,0:0:0:0:
469,192,118726,1,0,0:0:0:0:
213,192,118726,1,0,0:0:0:0:
128,192,118726,1,0,0:0:0:0:
213,192,118851,1,0,0:0:0:0:
298,192,118851,1,0,0:0:0:0:
298,192,118976,1,0,0:0:0:0:
469,192,118976,1,0,0:0:0:0:
469,192,119101,1,0,0:0:0:0:
298,192,119101,1,0,0:0:0:0:
42,192,119226,1,0,0:0:0:0:
384,192,119351,1,0,0:0:0:0:
213,192,119351,1,0,0:0:0:0:
298,192,119476,1,0,0:0:0:0:
128,192,119476,1,0,0:0:0:0:
213,192,119726,1,0,0:0:0:0:
42,192,119726,1,0,0:0:0:0:
469,192,119726,1,0,0:0:0:0:
128,192,119851,1,0,0:0:0:0:
298,192,119851,1,0,0:0:0:0:
469,192,119976,1,0,0:0:0:0:
384,192,119976,1,0,0:0:0:0:
469,192,120101,1,0,0:0:0:0:
384,192,120101,1,0,0:0:0:0:
42,192,120226,1,0,0:0:0:0:
298,192,120351,1,0,0:0:0:0:
384,192,120351,1,0,0:0:0:0:
298,192,120476,1,0,0:0:0:0:
213,192,120476,1,0,0:0:0:0:
469,192,120726,1,0,0:0:0:0:
213,192,120726,1,0,0:0:0:0:
128,192,120726,1,0,0:0:0:0:
298,192,120851,1,0,0:0:0:0:
213,192,120851,1,0,0:0:0:0:
298,192,120976,1,0,0:0:0:0:
469,192,120976,1,0,0:0:0:0:
213,192,121101,1,0,0:0:0:0:
42,192,121101,1,0,0:0:0:0:
42,192,121226,1,0,0:0:0:0:
213,192,121351,1,0,0:0:0:0:
42,192,121351,1,0,0:0:0:0:
128,192,121476,1,0,0:0:0:0:
213,192,121601,1,0,0:0:0:0:
42,192,121601,1,0,0:0:0:0:
213,192,121726,1,0,0:0:0:0:
469,192,121726,1,0,0:0:0:0:
384,192,121788,1,0,0:0:0:0:
213,192,121851,1,0,0:0:0:0:
42,192,121851,1,0,0:0:0:0:
469,192,121851,1,0,0:0:0:0:
384,192,121913,1,0,0:0:0:0:
128,192,121976,1,0,0:0:0:0:
42,192,121976,1,0,0:0:0:0:
298,192,121976,1,0,0:0:0:0:
298,192,122101,1,0,0:0:0:0:
469,192,122101,1,0,0:0:0:0:
213,192,122351,1,0,0:0:0:0:
128,192,122351,1,0,0:0:0:0:
384,192,122476,1,0,0:0:0:0:
469,192,122476,1,0,0:0:0:0:
384,192,122726,1,0,0:0:0:0:
298,192,122726,1,0,0:0:0:0:
213,192,122851,1,0,0:0:0:0:
128,192,122851,1,0,0:0:0:0:
42,192,122976,1,0,0:0:0:0:
469,192,122976,1,0,0:0:0:0:
213,192,123101,1,0,0:0:0:0:
298,192,123101,1,0,0:0:0:0:
384,192,123351,1,0,0:0:0:0:
128,192,123351,1,0,0:0:0:0:
42,192,123476,1,0,0:0:0:0:
469,192,123476,1,0,0:0:0:0:
298,192,123726,1,0,0:0:0:0:
213,192,123726,1,0,0:0:0:0:
128,192,123851,1,0,0:0:0:0:
384,192,123851,1,0,0:0:0:0:
298,192,123976,1,0,0:0:0:0:
469,192,123976,1,0,0:0:0:0:
128,192,124101,1,0,0:0:0:0:
42,192,124101,1,0,0:0:0:0:
298,192,124351,1,0,0:0:0:0:
384,192,124351,1,0,0:0:0:0:
213,192,124476,1,0,0:0:0:0:
128,192,124476,1,0,0:0:0:0:
213,192,124726,1,0,0:0:0:0:
298,192,124726,1,0,0:0:0:0:
128,192,124851,1,0,0:0:0:0:
42,192,124851,1,0,0:0:0:0:
128,192,125101,1,0,0:0:0:0:
42,192,125101,1,0,0:0:0:0:
42,192,125351,1,0,0:0:0:0:
128,192,125351,1,0,0:0:0:0:
42,192,125601,1,0,0:0:0:0:
128,192,125601,1,0,0:0:0:0:
42,192,125851,1,0,0:0:0:0:
128,192,125851,1,0,0:0:0:0:
384,192,125976,1,0,0:0:0:0:
469,192,125976,1,0,0:0:0:0:
298,192,125976,1,0,0:0:0:0:
213,192,126101,1,0,0:0:0:0:
298,192,126101,1,0,0:0:0:0:
384,192,126101,1,0,0:0:0:0:
298,192,126226,1,0,0:0:0:0:
213,192,126226,1,0,0:0:0:0:
128,192,126226,1,0,0:0:0:0:
213,192,126351,1,0,0:0:0:0:
128,192,126351,1,0,0:0:0:0:
42,192,126351,1,0,0:0:0:0:
298,192,126476,1,0,0:0:0:0:
384,192,126476,1,0,0:0:0:0:
469,192,126476,1,0,0:0:0:0:
384,192,126601,1,0,0:0:0:0:
298,192,126601,1,0,0:0:0:0:
213,192,126601,1,0,0:0:0:0:
298,192,126726,1,0,0:0:0:0:
128,192,126726,1,0,0:0:0:0:
213,192,126726,1,0,0:0:0:0:
128,192,126851,1,0,0:0:0:0:
42,192,126851,1,0,0:0:0:0:
213,192,126851,1,0,0:0:0:0:
469,192,126976,1,0,0:0:0:0:
298,192,126976,1,0,0:0:0:0:
384,192,126976,1,0,0:0:0:0:
384,192,127101,1,0,0:0:0:0:
469,192,127101,1,0,0:0:0:0:
213,192,127101,1,0,0:0:0:0:
298,192,127226,1,0,0:0:0:0:
213,192,127226,1,0,0:0:0:0:
42,192,127226,1,0,0:0:0:0:
128,192,127351,1,0,0:0:0:0:
384,192,127351,1,0,0:0:0:0:
298,192,127351,1,0,0:0:0:0:
213,192,127476,1,0,0:0:0:0:
384,192,127476,1,0,0:0:0:0:
469,192,127476,1,0,0:0:0:0:
128,192,127601,1,0,0:0:0:0:
42,192,127601,1,0,0:0:0:0:
298,192,127601,1,0,0:0:0:0:
128,192,127726,1,0,0:0:0:0:
213,192,127726,1,0,0:0:0:0:
384,192,127726,1,0,0:0:0:0:
213,192,127851,1,0,0:0:0:0:
298,192,127851,1,0,0:0:0:0:
469,192,127851,1,0,0:0:0:0:
128,192,127976,1,0,0:0:0:0:
42,192,127976,1,0,0:0:0:0:
384,192,127976,1,0,0:0:0:0:
42,192,128101,1,0,0:0:0:0:
128,192,128101,1,0,0:0:0:0:
469,192,128101,1,0,0:0:0:0:
213,192,128226,1,0,0:0:0:0:
298,192,128226,1,0,0:0:0:0:
384,192,128226,1,0,0:0:0:0:
298,192,128351,1,0,0:0:0:0:
384,192,128351,1,0,0:0:0:0:
469,192,128351,1,0,0:0:0:0:
213,192,128476,1,0,0:0:0:0:
128,192,128476,1,0,0:0:0:0:
42,192,128476,1,0,0:0:0:0:
128,192,128601,1,0,0:0:0:0:
213,192,128601,1,0,0:0:0:0:
298,192,128601,1,0,0:0:0:0:
384,192,128726,1,0,0:0:0:0:
469,192,128726,1,0,0:0:0:0:
42,192,128726,1,0,0:0:0:0:
384,192,128851,1,0,0:0:0:0:
469,192,128851,1,0,0:0:0:0:
213,192,128851,1,0,0:0:0:0:
42,192,128976,1,0,0:0:0:0:
298,192,128976,1,0,0:0:0:0:
469,192,129101,1,0,0:0:0:0:
384,192,129101,1,0,0:0:0:0:
128,192,129101,1,0,0:0:0:0:
384,192,129351,1,0,0:0:0:0:
469,192,129351,1,0,0:0:0:0:
213,192,129351,1,0,0:0:0:0:
42,192,129351,1,0,0:0:0:0:
42,192,129601,1,0,0:0:0:0:
213,192,129601,1,0,0:0:0:0:
384,192,129601,1,0,0:0:0:0:
469,192,129601,1,0,0:0:0:0:
42,192,129851,1,0,0:0:0:0:
213,192,129851,1,0,0:0:0:0:
469,192,129851,1,0,0:0:0:0:
384,192,129851,1,0,0:0:0:0:
