osu file format v14

[General]
AudioFilename: Nhelv_15.mp3
AudioLeadIn: 0
PreviewTime: 67204
Countdown: 0
SampleSet: Normal
StackLeniency: 0.7
Mode: 3
LetterboxInBreaks: 0
SpecialStyle: 0
WidescreenStoryboard: 0

[Editor]
DistanceSpacing: 0.8
BeatDivisor: 8
GridSize: 16
TimelineZoom: 1.6

[Metadata]
Title:tyrcs' 6K Collection Pack
TitleUnicode:tyrcs' 6K Collection Pack
Artist:Various Artists
ArtistUnicode:Various Artists
Creator:tyrcs
Version:Silentroom - Nhelv [20]
Source:
Tags:BMS The Quick Brown Fox Break TQBF renard LeaF 失望Choco Shitsubou Choco goreshit slavik goblins Aitsuki Nakuru 藍月なくる Monochrome Butterfly 現実をカットアップしてみた yu^ta Genjitsu o Cut-up Shite Mita -45 Aci-L A c i - L Yoshikawa-45 cornandbeans {Blaze} 八大地獄邪魂転生狂葬散火歌 さかみりと Sakamirito Hachidaijigoku Jakontensei Kyousou Sanbika Sakamiya 一之瀬りと Rito Ichinose かめりあ feat. ななひら ベィスドロップ・フリークス Camellia feat. Nanahira Bassdrop Freaks DEAF KEV Invincible ueotan Mario Paint (Time Regression Mix for BMS) Oerba Tanaka Vanilla Y ヲルバ=田中・ヴァニラ Schwerkraft ROKINA ロキナ Silentroom Nhelv SHAGAN DAISHI KAKU P-MODEL 遮眼大師 核P-MODEL 平沢進 Susumu Hirasawa ああああ AAAA lifework LUZE LuzeriA ルゼ katagiri ch3rry cherry かたぎり Laur Sheriruth (Laur Remix) Team Grimoire vs. Laur Grievous Lady Getty vs. DJ DiA Ops Code Rapture Vicetone & Tony Igy Astronomia (Camellia Remix) Coffin Dance かめりあ Fastest Crash Cut Tatsh reunion Asymmetry Reol アシンメトリー れをる
BeatmapID:3507123
BeatmapSetID:1716337

[Difficulty]
HPDrainRate:8
CircleSize:6
OverallDifficulty:8
ApproachRate:5
SliderMultiplier:1.4
SliderTickRate:1

[Events]
//Background and Video events
0,0,"tyrcs' 6K Collection Pack_14.jpg",0,0
//Break Periods
//Storyboard Layer 0 (Background)
//Storyboard Layer 1 (Fail)
//Storyboard Layer 2 (Pass)
//Storyboard Layer 3 (Foreground)
//Storyboard Layer 4 (Overlay)
//Storyboard Sound Samples

[TimingPoints]
1136,343.658357771261,4,1,0,9,1,0

[HitObjects]
384,192,448,5,0,0:0:0:0:
128,192,534,1,0,0:0:0:0:
384,192,620,1,0,0:0:0:0:
128,192,706,1,0,0:0:0:0:
298,192,792,1,0,0:0:0:0:
213,192,878,1,0,0:0:0:0:
298,192,964,1,0,0:0:0:0:
213,192,1050,1,0,0:0:0:0:
42,192,1136,1,0,0:0:0:0:
469,192,1136,128,0,9383:0:0:0:0:
128,192,1136,1,0,0:0:0:0:
384,192,1136,128,0,6634:0:0:0:0:
298,192,1136,1,0,0:0:0:0:
42,192,6634,128,0,12047:0:0:0:0:
128,192,6634,128,0,12133:0:0:0:0:
213,192,9383,128,0,12218:0:0:0:0:
384,192,9383,128,0,12390:0:0:0:0:
298,192,12133,128,0,12304:0:0:0:0:
469,192,12133,128,0,17631:0:0:0:0:
42,192,12133,1,0,0:0:0:0:
42,192,12476,1,0,0:0:0:0:
213,192,12820,1,0,0:0:0:0:
42,192,12992,1,0,0:0:0:0:
42,192,13335,1,0,0:0:0:0:
42,192,13507,1,0,0:0:0:0:
42,192,13851,1,0,0:0:0:0:
298,192,14195,1,0,0:0:0:0:
42,192,14366,1,0,0:0:0:0:
42,192,14796,1,0,0:0:0:0:
42,192,14882,1,0,0:0:0:0:
42,192,15225,1,0,0:0:0:0:
213,192,15569,1,0,0:0:0:0:
42,192,16256,1,0,0:0:0:0:
42,192,16600,1,0,0:0:0:0:
298,192,16944,1,0,0:0:0:0:
42,192,17116,1,0,0:0:0:0:
42,192,17631,128,0,20380:0:0:0:0:
298,192,17631,1,0,0:0:0:0:
469,192,17975,1,0,0:0:0:0:
213,192,18318,1,0,0:0:0:0:
469,192,18490,1,0,0:0:0:0:
469,192,18834,1,0,0:0:0:0:
469,192,19006,1,0,0:0:0:0:
469,192,19349,1,0,0:0:0:0:
298,192,19693,1,0,0:0:0:0:
469,192,19865,1,0,0:0:0:0:
469,192,20294,1,0,0:0:0:0:
213,192,20380,128,0,21755:0:0:0:0:
469,192,20380,1,0,0:0:0:0:
469,192,20724,1,0,0:0:0:0:
42,192,21068,1,0,0:0:0:0:
384,192,21411,1,0,0:0:0:0:
469,192,21755,1,0,0:0:0:0:
469,192,22099,1,0,0:0:0:0:
213,192,22442,1,0,0:0:0:0:
42,192,22442,1,0,0:0:0:0:
298,192,22614,1,0,0:0:0:0:
213,192,22657,1,0,0:0:0:0:
128,192,22700,1,0,0:0:0:0:
384,192,22786,1,0,0:0:0:0:
469,192,22786,1,0,0:0:0:0:
213,192,22872,1,0,0:0:0:0:
128,192,22872,1,0,0:0:0:0:
42,192,22872,1,0,0:0:0:0:
298,192,22958,1,0,0:0:0:0:
384,192,22958,1,0,0:0:0:0:
469,192,22958,1,0,0:0:0:0:
213,192,23044,1,0,0:0:0:0:
128,192,23044,1,0,0:0:0:0:
42,192,23044,1,0,0:0:0:0:
298,192,23130,1,0,0:0:0:0:
469,192,23130,1,0,0:0:0:0:
384,192,23130,1,0,0:0:0:0:
128,192,23216,1,0,0:0:0:0:
42,192,23216,1,0,0:0:0:0:
213,192,23301,1,0,0:0:0:0:
469,192,23301,1,0,0:0:0:0:
298,192,23387,1,0,0:0:0:0:
128,192,23387,1,0,0:0:0:0:
42,192,23473,1,0,0:0:0:0:
384,192,23473,1,0,0:0:0:0:
469,192,23473,1,0,0:0:0:0:
213,192,23559,1,0,0:0:0:0:
298,192,23559,1,0,0:0:0:0:
128,192,23645,1,0,0:0:0:0:
42,192,23645,1,0,0:0:0:0:
298,192,23731,1,0,0:0:0:0:
384,192,23731,1,0,0:0:0:0:
213,192,23817,1,0,0:0:0:0:
42,192,23817,1,0,0:0:0:0:
469,192,23817,1,0,0:0:0:0:
298,192,23903,1,0,0:0:0:0:
128,192,23903,1,0,0:0:0:0:
384,192,23946,1,0,0:0:0:0:
469,192,23989,1,0,0:0:0:0:
213,192,23989,1,0,0:0:0:0:
298,192,24075,1,0,0:0:0:0:
42,192,24075,1,0,0:0:0:0:
128,192,24161,1,0,0:0:0:0:
384,192,24161,1,0,0:0:0:0:
469,192,24161,1,0,0:0:0:0:
298,192,24247,1,0,0:0:0:0:
213,192,24332,1,0,0:0:0:0:
42,192,24332,1,0,0:0:0:0:
469,192,24332,1,0,0:0:0:0:
384,192,24375,1,0,0:0:0:0:
298,192,24418,1,0,0:0:0:0:
213,192,24461,1,0,0:0:0:0:
128,192,24504,1,0,0:0:0:0:
42,192,24504,1,0,0:0:0:0:
469,192,24504,1,0,0:0:0:0:
384,192,24590,1,0,0:0:0:0:
298,192,24590,1,0,0:0:0:0:
213,192,24676,1,0,0:0:0:0:
128,192,24676,1,0,0:0:0:0:
384,192,24762,1,0,0:0:0:0:
469,192,24762,1,0,0:0:0:0:
298,192,24848,1,0,0:0:0:0:
128,192,24848,1,0,0:0:0:0:
42,192,24848,1,0,0:0:0:0:
213,192,24934,1,0,0:0:0:0:
469,192,24934,1,0,0:0:0:0:
298,192,25020,1,0,0:0:0:0:
384,192,25020,1,0,0:0:0:0:
128,192,25106,1,0,0:0:0:0:
42,192,25106,1,0,0:0:0:0:
469,192,25106,1,0,0:0:0:0:
213,192,25192,1,0,0:0:0:0:
298,192,25192,1,0,0:0:0:0:
384,192,25277,1,0,0:0:0:0:
42,192,25277,1,0,0:0:0:0:
128,192,25277,1,0,0:0:0:0:
298,192,25320,1,0,0:0:0:0:
469,192,25363,1,0,0:0:0:0:
213,192,25363,1,0,0:0:0:0:
298,192,25449,1,0,0:0:0:0:
128,192,25449,1,0,0:0:0:0:
42,192,25535,1,0,0:0:0:0:
384,192,25535,1,0,0:0:0:0:
469,192,25535,1,0,0:0:0:0:
213,192,25621,1,0,0:0:0:0:
42,192,25707,1,0,0:0:0:0:
298,192,25707,1,0,0:0:0:0:
469,192,25707,1,0,0:0:0:0:
42,192,25793,1,0,0:0:0:0:
298,192,25793,1,0,0:0:0:0:
469,192,25793,1,0,0:0:0:0:
213,192,25879,1,0,0:0:0:0:
42,192,25879,1,0,0:0:0:0:
384,192,25879,1,0,0:0:0:0:
298,192,25965,1,0,0:0:0:0:
128,192,25965,1,0,0:0:0:0:
213,192,26051,1,0,0:0:0:0:
384,192,26051,1,0,0:0:0:0:
298,192,26137,1,0,0:0:0:0:
469,192,26137,1,0,0:0:0:0:
384,192,26223,1,0,0:0:0:0:
128,192,26223,1,0,0:0:0:0:
42,192,26223,1,0,0:0:0:0:
213,192,26308,1,0,0:0:0:0:
469,192,26308,1,0,0:0:0:0:
384,192,26394,1,0,0:0:0:0:
128,192,26394,1,0,0:0:0:0:
298,192,26480,1,0,0:0:0:0:
42,192,26480,1,0,0:0:0:0:
469,192,26480,1,0,0:0:0:0:
384,192,26566,1,0,0:0:0:0:
213,192,26566,1,0,0:0:0:0:
298,192,26652,1,0,0:0:0:0:
128,192,26652,1,0,0:0:0:0:
384,192,26695,1,0,0:0:0:0:
213,192,26738,1,0,0:0:0:0:
42,192,26738,1,0,0:0:0:0:
469,192,26738,1,0,0:0:0:0:
298,192,26824,1,0,0:0:0:0:
128,192,26910,1,0,0:0:0:0:
42,192,26910,1,0,0:0:0:0:
384,192,26910,1,0,0:0:0:0:
213,192,26996,1,0,0:0:0:0:
42,192,27082,1,0,0:0:0:0:
469,192,27082,1,0,0:0:0:0:
384,192,27082,1,0,0:0:0:0:
128,192,27125,1,0,0:0:0:0:
213,192,27168,1,0,0:0:0:0:
298,192,27211,1,0,0:0:0:0:
42,192,27254,1,0,0:0:0:0:
384,192,27254,1,0,0:0:0:0:
469,192,27254,1,0,0:0:0:0:
128,192,27339,1,0,0:0:0:0:
213,192,27339,1,0,0:0:0:0:
298,192,27425,1,0,0:0:0:0:
384,192,27425,1,0,0:0:0:0:
128,192,27511,1,0,0:0:0:0:
42,192,27511,1,0,0:0:0:0:
213,192,27597,1,0,0:0:0:0:
469,192,27597,1,0,0:0:0:0:
298,192,27597,1,0,0:0:0:0:
384,192,27683,1,0,0:0:0:0:
128,192,27683,1,0,0:0:0:0:
42,192,27769,1,0,0:0:0:0:
298,192,27769,1,0,0:0:0:0:
213,192,27855,1,0,0:0:0:0:
469,192,27855,1,0,0:0:0:0:
384,192,27855,1,0,0:0:0:0:
298,192,27941,1,0,0:0:0:0:
128,192,27941,1,0,0:0:0:0:
213,192,28027,1,0,0:0:0:0:
42,192,28027,1,0,0:0:0:0:
469,192,28027,1,0,0:0:0:0:
384,192,28113,1,0,0:0:0:0:
42,192,28113,1,0,0:0:0:0:
213,192,28113,1,0,0:0:0:0:
298,192,28199,1,0,0:0:0:0:
42,192,28285,1,0,0:0:0:0:
128,192,28285,1,0,0:0:0:0:
469,192,28285,1,0,0:0:0:0:
213,192,28370,1,0,0:0:0:0:
469,192,28456,1,0,0:0:0:0:
384,192,28456,1,0,0:0:0:0:
298,192,28456,1,0,0:0:0:0:
298,192,28542,1,0,0:0:0:0:
384,192,28542,1,0,0:0:0:0:
469,192,28542,1,0,0:0:0:0:
213,192,28628,1,0,0:0:0:0:
128,192,28628,1,0,0:0:0:0:
42,192,28628,1,0,0:0:0:0:
298,192,28714,1,0,0:0:0:0:
469,192,28714,1,0,0:0:0:0:
384,192,28800,1,0,0:0:0:0:
213,192,28800,1,0,0:0:0:0:
298,192,28886,1,0,0:0:0:0:
128,192,28886,1,0,0:0:0:0:
213,192,28972,1,0,0:0:0:0:
42,192,28972,1,0,0:0:0:0:
469,192,28972,1,0,0:0:0:0:
384,192,29058,1,0,0:0:0:0:
128,192,29058,1,0,0:0:0:0:
42,192,29144,1,0,0:0:0:0:
298,192,29144,1,0,0:0:0:0:
384,192,29230,1,0,0:0:0:0:
213,192,29230,1,0,0:0:0:0:
298,192,29315,1,0,0:0:0:0:
128,192,29315,1,0,0:0:0:0:
42,192,29315,1,0,0:0:0:0:
213,192,29401,1,0,0:0:0:0:
384,192,29401,1,0,0:0:0:0:
128,192,29444,1,0,0:0:0:0:
42,192,29487,1,0,0:0:0:0:
469,192,29487,1,0,0:0:0:0:
213,192,29573,1,0,0:0:0:0:
298,192,29573,1,0,0:0:0:0:
128,192,29659,1,0,0:0:0:0:
42,192,29659,1,0,0:0:0:0:
469,192,29659,1,0,0:0:0:0:
213,192,29745,1,0,0:0:0:0:
42,192,29831,1,0,0:0:0:0:
384,192,29831,1,0,0:0:0:0:
469,192,29831,1,0,0:0:0:0:
298,192,29874,1,0,0:0:0:0:
213,192,29917,1,0,0:0:0:0:
128,192,29960,1,0,0:0:0:0:
42,192,30003,1,0,0:0:0:0:
469,192,30003,1,0,0:0:0:0:
384,192,30003,1,0,0:0:0:0:
298,192,30089,1,0,0:0:0:0:
213,192,30089,1,0,0:0:0:0:
128,192,30175,1,0,0:0:0:0:
469,192,30175,1,0,0:0:0:0:
384,192,30261,1,0,0:0:0:0:
298,192,30261,1,0,0:0:0:0:
213,192,30346,1,0,0:0:0:0:
128,192,30346,1,0,0:0:0:0:
42,192,30346,1,0,0:0:0:0:
469,192,30432,1,0,0:0:0:0:
298,192,30432,1,0,0:0:0:0:
384,192,30518,1,0,0:0:0:0:
128,192,30518,1,0,0:0:0:0:
213,192,30604,1,0,0:0:0:0:
42,192,30604,1,0,0:0:0:0:
469,192,30604,1,0,0:0:0:0:
298,192,30690,1,0,0:0:0:0:
128,192,30690,1,0,0:0:0:0:
213,192,30776,1,0,0:0:0:0:
384,192,30776,1,0,0:0:0:0:
128,192,30819,1,0,0:0:0:0:
469,192,30862,1,0,0:0:0:0:
298,192,30862,1,0,0:0:0:0:
42,192,30862,1,0,0:0:0:0:
213,192,30948,1,0,0:0:0:0:
128,192,31034,1,0,0:0:0:0:
42,192,31034,1,0,0:0:0:0:
384,192,31034,1,0,0:0:0:0:
298,192,31120,1,0,0:0:0:0:
213,192,31206,1,0,0:0:0:0:
128,192,31206,1,0,0:0:0:0:
469,192,31206,1,0,0:0:0:0:
469,192,31292,1,0,0:0:0:0:
213,192,31292,1,0,0:0:0:0:
128,192,31292,1,0,0:0:0:0:
42,192,31377,1,0,0:0:0:0:
298,192,31377,1,0,0:0:0:0:
469,192,31377,1,0,0:0:0:0:
128,192,31463,1,0,0:0:0:0:
384,192,31463,1,0,0:0:0:0:
213,192,31549,1,0,0:0:0:0:
469,192,31549,1,0,0:0:0:0:
298,192,31635,1,0,0:0:0:0:
42,192,31635,1,0,0:0:0:0:
128,192,31721,1,0,0:0:0:0:
469,192,31721,1,0,0:0:0:0:
384,192,31721,1,0,0:0:0:0:
298,192,31807,1,0,0:0:0:0:
42,192,31807,1,0,0:0:0:0:
213,192,31893,1,0,0:0:0:0:
469,192,31893,1,0,0:0:0:0:
384,192,31979,1,0,0:0:0:0:
128,192,31979,1,0,0:0:0:0:
42,192,32065,1,0,0:0:0:0:
298,192,32065,1,0,0:0:0:0:
213,192,32151,1,0,0:0:0:0:
469,192,32151,1,0,0:0:0:0:
384,192,32194,1,0,0:0:0:0:
298,192,32237,1,0,0:0:0:0:
128,192,32237,1,0,0:0:0:0:
213,192,32322,1,0,0:0:0:0:
42,192,32322,1,0,0:0:0:0:
469,192,32408,1,0,0:0:0:0:
128,192,32408,1,0,0:0:0:0:
384,192,32408,1,0,0:0:0:0:
298,192,32494,1,0,0:0:0:0:
42,192,32580,1,0,0:0:0:0:
469,192,32580,1,0,0:0:0:0:
384,192,32580,1,0,0:0:0:0:
128,192,32623,1,0,0:0:0:0:
213,192,32666,1,0,0:0:0:0:
298,192,32709,1,0,0:0:0:0:
42,192,32752,1,0,0:0:0:0:
469,192,32752,1,0,0:0:0:0:
384,192,32752,1,0,0:0:0:0:
128,192,32781,1,0,0:0:0:0:
213,192,32809,1,0,0:0:0:0:
298,192,32838,1,0,0:0:0:0:
384,192,32881,1,0,0:0:0:0:
469,192,32924,1,0,0:0:0:0:
298,192,32967,1,0,0:0:0:0:
213,192,33010,1,0,0:0:0:0:
128,192,33053,1,0,0:0:0:0:
42,192,33096,1,0,0:0:0:0:
298,192,33124,1,0,0:0:0:0:
213,192,33153,1,0,0:0:0:0:
128,192,33182,1,0,0:0:0:0:
384,192,33210,1,0,0:0:0:0:
298,192,33239,1,0,0:0:0:0:
213,192,33268,1,0,0:0:0:0:
469,192,33353,1,0,0:0:0:0:
384,192,33396,1,0,0:0:0:0:
298,192,33439,1,0,0:0:0:0:
128,192,33525,1,0,0:0:0:0:
213,192,33568,1,0,0:0:0:0:
298,192,33611,1,0,0:0:0:0:
42,192,33697,1,0,0:0:0:0:
128,192,33740,1,0,0:0:0:0:
384,192,33783,1,0,0:0:0:0:
469,192,33783,1,0,0:0:0:0:
298,192,33812,1,0,0:0:0:0:
213,192,33840,1,0,0:0:0:0:
128,192,33869,1,0,0:0:0:0:
42,192,33912,1,0,0:0:0:0:
128,192,33955,1,0,0:0:0:0:
213,192,33998,1,0,0:0:0:0:
298,192,34041,1,0,0:0:0:0:
42,192,34127,1,0,0:0:0:0:
384,192,34127,1,0,0:0:0:0:
469,192,34127,1,0,0:0:0:0:
298,192,34213,1,0,0:0:0:0:
128,192,34213,1,0,0:0:0:0:
213,192,34299,1,0,0:0:0:0:
384,192,34299,1,0,0:0:0:0:
298,192,34384,1,0,0:0:0:0:
469,192,34384,1,0,0:0:0:0:
128,192,34384,1,0,0:0:0:0:
42,192,34470,1,0,0:0:0:0:
213,192,34470,1,0,0:0:0:0:
384,192,34470,1,0,0:0:0:0:
128,192,34556,1,0,0:0:0:0:
298,192,34556,1,0,0:0:0:0:
213,192,34642,1,0,0:0:0:0:
469,192,34642,1,0,0:0:0:0:
384,192,34642,1,0,0:0:0:0:
298,192,34728,1,0,0:0:0:0:
128,192,34728,1,0,0:0:0:0:
213,192,34814,1,0,0:0:0:0:
42,192,34814,1,0,0:0:0:0:
384,192,34814,1,0,0:0:0:0:
128,192,34900,1,0,0:0:0:0:
298,192,34900,1,0,0:0:0:0:
469,192,34900,1,0,0:0:0:0:
384,192,34986,1,0,0:0:0:0:
213,192,34986,1,0,0:0:0:0:
42,192,35072,1,0,0:0:0:0:
298,192,35072,1,0,0:0:0:0:
469,192,35072,1,0,0:0:0:0:
384,192,35158,1,0,0:0:0:0:
213,192,35158,1,0,0:0:0:0:
128,192,35158,1,0,0:0:0:0:
42,192,35244,1,0,0:0:0:0:
298,192,35244,1,0,0:0:0:0:
213,192,35330,1,0,0:0:0:0:
384,192,35330,1,0,0:0:0:0:
469,192,35330,1,0,0:0:0:0:
298,192,35415,1,0,0:0:0:0:
128,192,35415,1,0,0:0:0:0:
213,192,35501,1,0,0:0:0:0:
42,192,35501,1,0,0:0:0:0:
469,192,35501,1,0,0:0:0:0:
384,192,35587,1,0,0:0:0:0:
128,192,35587,1,0,0:0:0:0:
42,192,35673,1,0,0:0:0:0:
298,192,35673,1,0,0:0:0:0:
213,192,35759,1,0,0:0:0:0:
384,192,35759,1,0,0:0:0:0:
469,192,35759,1,0,0:0:0:0:
298,192,35845,1,0,0:0:0:0:
128,192,35845,1,0,0:0:0:0:
42,192,35845,1,0,0:0:0:0:
213,192,35931,1,0,0:0:0:0:
469,192,35931,1,0,0:0:0:0:
384,192,36017,1,0,0:0:0:0:
128,192,36017,1,0,0:0:0:0:
42,192,36017,1,0,0:0:0:0:
213,192,36103,1,0,0:0:0:0:
298,192,36103,1,0,0:0:0:0:
42,192,36189,1,0,0:0:0:0:
384,192,36189,1,0,0:0:0:0:
469,192,36189,1,0,0:0:0:0:
298,192,36275,1,0,0:0:0:0:
213,192,36275,1,0,0:0:0:0:
128,192,36275,1,0,0:0:0:0:
469,192,36360,1,0,0:0:0:0:
384,192,36360,1,0,0:0:0:0:
213,192,36446,1,0,0:0:0:0:
128,192,36446,1,0,0:0:0:0:
42,192,36446,1,0,0:0:0:0:
298,192,36532,1,0,0:0:0:0:
384,192,36532,1,0,0:0:0:0:
469,192,36532,1,0,0:0:0:0:
128,192,36618,1,0,0:0:0:0:
42,192,36618,1,0,0:0:0:0:
213,192,36704,1,0,0:0:0:0:
384,192,36704,1,0,0:0:0:0:
469,192,36704,1,0,0:0:0:0:
298,192,36790,1,0,0:0:0:0:
128,192,36790,1,0,0:0:0:0:
213,192,36876,1,0,0:0:0:0:
42,192,36876,1,0,0:0:0:0:
469,192,36876,1,0,0:0:0:0:
128,192,36962,1,0,0:0:0:0:
298,192,36962,1,0,0:0:0:0:
213,192,37048,1,0,0:0:0:0:
384,192,37048,1,0,0:0:0:0:
298,192,37134,1,0,0:0:0:0:
469,192,37134,1,0,0:0:0:0:
128,192,37134,1,0,0:0:0:0:
42,192,37220,1,0,0:0:0:0:
213,192,37220,1,0,0:0:0:0:
384,192,37220,1,0,0:0:0:0:
298,192,37306,1,0,0:0:0:0:
128,192,37306,1,0,0:0:0:0:
213,192,37391,1,0,0:0:0:0:
384,192,37391,1,0,0:0:0:0:
469,192,37391,1,0,0:0:0:0:
298,192,37477,1,0,0:0:0:0:
42,192,37477,1,0,0:0:0:0:
128,192,37563,1,0,0:0:0:0:
213,192,37563,1,0,0:0:0:0:
469,192,37563,1,0,0:0:0:0:
384,192,37649,1,0,0:0:0:0:
298,192,37649,1,0,0:0:0:0:
42,192,37649,1,0,0:0:0:0:
213,192,37735,1,0,0:0:0:0:
469,192,37735,1,0,0:0:0:0:
298,192,37821,1,0,0:0:0:0:
128,192,37821,1,0,0:0:0:0:
42,192,37821,1,0,0:0:0:0:
213,192,37907,1,0,0:0:0:0:
469,192,37907,1,0,0:0:0:0:
384,192,37907,1,0,0:0:0:0:
298,192,37993,1,0,0:0:0:0:
128,192,37993,1,0,0:0:0:0:
213,192,38079,1,0,0:0:0:0:
42,192,38079,1,0,0:0:0:0:
384,192,38079,1,0,0:0:0:0:
298,192,38165,1,0,0:0:0:0:
469,192,38165,1,0,0:0:0:0:
384,192,38251,1,0,0:0:0:0:
128,192,38251,1,0,0:0:0:0:
42,192,38251,1,0,0:0:0:0:
213,192,38337,1,0,0:0:0:0:
298,192,38337,1,0,0:0:0:0:
469,192,38422,1,0,0:0:0:0:
384,192,38422,1,0,0:0:0:0:
213,192,38508,1,0,0:0:0:0:
128,192,38508,1,0,0:0:0:0:
42,192,38508,1,0,0:0:0:0:
384,192,38594,1,0,0:0:0:0:
469,192,38594,1,0,0:0:0:0:
298,192,38594,1,0,0:0:0:0:
128,192,38680,1,0,0:0:0:0:
42,192,38680,1,0,0:0:0:0:
384,192,38766,1,0,0:0:0:0:
469,192,38766,1,0,0:0:0:0:
298,192,38766,1,0,0:0:0:0:
213,192,38852,1,0,0:0:0:0:
128,192,38852,1,0,0:0:0:0:
384,192,38938,1,0,0:0:0:0:
42,192,38938,1,0,0:0:0:0:
469,192,38938,1,0,0:0:0:0:
298,192,39024,1,0,0:0:0:0:
213,192,39024,1,0,0:0:0:0:
128,192,39024,1,0,0:0:0:0:
384,192,39110,1,0,0:0:0:0:
469,192,39110,1,0,0:0:0:0:
213,192,39196,1,0,0:0:0:0:
128,192,39196,1,0,0:0:0:0:
42,192,39196,1,0,0:0:0:0:
298,192,39282,1,0,0:0:0:0:
384,192,39282,1,0,0:0:0:0:
469,192,39282,1,0,0:0:0:0:
213,192,39367,1,0,0:0:0:0:
42,192,39367,1,0,0:0:0:0:
128,192,39453,1,0,0:0:0:0:
298,192,39453,1,0,0:0:0:0:
469,192,39453,1,0,0:0:0:0:
384,192,39539,1,0,0:0:0:0:
213,192,39539,1,0,0:0:0:0:
42,192,39625,1,0,0:0:0:0:
128,192,39625,1,0,0:0:0:0:
298,192,39625,1,0,0:0:0:0:
469,192,39625,1,0,0:0:0:0:
213,192,39711,1,0,0:0:0:0:
42,192,39797,1,0,0:0:0:0:
384,192,39797,1,0,0:0:0:0:
469,192,39797,1,0,0:0:0:0:
128,192,39797,1,0,0:0:0:0:
298,192,39854,1,0,0:0:0:0:
213,192,39912,1,0,0:0:0:0:
42,192,39969,1,0,0:0:0:0:
128,192,39969,1,0,0:0:0:0:
469,192,39969,1,0,0:0:0:0:
384,192,39969,1,0,0:0:0:0:
298,192,40055,1,0,0:0:0:0:
213,192,40141,1,0,0:0:0:0:
128,192,40141,1,0,0:0:0:0:
42,192,40141,1,0,0:0:0:0:
469,192,40141,1,0,0:0:0:0:
384,192,40227,1,0,0:0:0:0:
298,192,40313,1,0,0:0:0:0:
213,192,40313,1,0,0:0:0:0:
128,192,40313,1,0,0:0:0:0:
42,192,40313,1,0,0:0:0:0:
384,192,40398,1,0,0:0:0:0:
469,192,40484,1,0,0:0:0:0:
42,192,40484,1,0,0:0:0:0:
128,192,40484,1,0,0:0:0:0:
298,192,40484,1,0,0:0:0:0:
213,192,40542,1,0,0:0:0:0:
384,192,40599,1,0,0:0:0:0:
298,192,40656,1,0,0:0:0:0:
42,192,40656,1,0,0:0:0:0:
128,192,40656,1,0,0:0:0:0:
469,192,40656,1,0,0:0:0:0:
213,192,40742,1,0,0:0:0:0:
42,192,40828,1,0,0:0:0:0:
298,192,40828,1,0,0:0:0:0:
384,192,40828,1,0,0:0:0:0:
469,192,40828,1,0,0:0:0:0:
128,192,40914,1,0,0:0:0:0:
213,192,41000,1,0,0:0:0:0:
298,192,41000,1,0,0:0:0:0:
384,192,41000,1,0,0:0:0:0:
469,192,41000,1,0,0:0:0:0:
128,192,41086,1,0,0:0:0:0:
42,192,41172,1,0,0:0:0:0:
213,192,41172,1,0,0:0:0:0:
384,192,41172,1,0,0:0:0:0:
469,192,41172,1,0,0:0:0:0:
298,192,41229,1,0,0:0:0:0:
128,192,41286,1,0,0:0:0:0:
42,192,41344,1,0,0:0:0:0:
213,192,41344,1,0,0:0:0:0:
384,192,41344,1,0,0:0:0:0:
469,192,41344,1,0,0:0:0:0:
298,192,41429,1,0,0:0:0:0:
128,192,41515,1,0,0:0:0:0:
42,192,41515,1,0,0:0:0:0:
213,192,41515,1,0,0:0:0:0:
469,192,41515,1,0,0:0:0:0:
384,192,41601,1,0,0:0:0:0:
298,192,41687,1,0,0:0:0:0:
213,192,41687,1,0,0:0:0:0:
42,192,41687,1,0,0:0:0:0:
128,192,41687,1,0,0:0:0:0:
384,192,41773,1,0,0:0:0:0:
469,192,41859,1,0,0:0:0:0:
298,192,41859,1,0,0:0:0:0:
128,192,41859,1,0,0:0:0:0:
42,192,41859,1,0,0:0:0:0:
213,192,41916,1,0,0:0:0:0:
384,192,41974,1,0,0:0:0:0:
469,192,42031,1,0,0:0:0:0:
298,192,42031,1,0,0:0:0:0:
128,192,42031,1,0,0:0:0:0:
42,192,42031,1,0,0:0:0:0:
213,192,42117,1,0,0:0:0:0:
42,192,42203,1,0,0:0:0:0:
298,192,42203,1,0,0:0:0:0:
384,192,42203,1,0,0:0:0:0:
469,192,42203,1,0,0:0:0:0:
128,192,42289,1,0,0:0:0:0:
213,192,42375,1,0,0:0:0:0:
384,192,42375,1,0,0:0:0:0:
469,192,42375,1,0,0:0:0:0:
298,192,42417,1,0,0:0:0:0:
128,192,42460,1,0,0:0:0:0:
42,192,42460,1,0,0:0:0:0:
213,192,42503,1,0,0:0:0:0:
298,192,42546,1,0,0:0:0:0:
469,192,42546,1,0,0:0:0:0:
384,192,42589,1,0,0:0:0:0:
42,192,42632,1,0,0:0:0:0:
128,192,42632,1,0,0:0:0:0:
213,192,42675,1,0,0:0:0:0:
384,192,42718,1,0,0:0:0:0:
469,192,42718,1,0,0:0:0:0:
298,192,42747,1,0,0:0:0:0:
213,192,42775,1,0,0:0:0:0:
128,192,42804,1,0,0:0:0:0:
42,192,42833,1,0,0:0:0:0:
298,192,42861,1,0,0:0:0:0:
384,192,42890,1,0,0:0:0:0:
469,192,42919,1,0,0:0:0:0:
42,192,42947,1,0,0:0:0:0:
128,192,42976,1,0,0:0:0:0:
213,192,43005,1,0,0:0:0:0:
298,192,43033,1,0,0:0:0:0:
384,192,43062,1,0,0:0:0:0:
469,192,43090,1,0,0:0:0:0:
213,192,43119,1,0,0:0:0:0:
128,192,43148,1,0,0:0:0:0:
42,192,43176,1,0,0:0:0:0:
469,192,43205,1,0,0:0:0:0:
384,192,43234,1,0,0:0:0:0:
298,192,43262,1,0,0:0:0:0:
213,192,43291,1,0,0:0:0:0:
128,192,43320,1,0,0:0:0:0:
42,192,43348,1,0,0:0:0:0:
298,192,43377,1,0,0:0:0:0:
384,192,43405,1,0,0:0:0:0:
469,192,43405,1,0,0:0:0:0:
128,192,43448,1,0,0:0:0:0:
42,192,43491,1,0,0:0:0:0:
213,192,43491,1,0,0:0:0:0:
298,192,43534,1,0,0:0:0:0:
384,192,43577,1,0,0:0:0:0:
469,192,43577,1,0,0:0:0:0:
213,192,43620,1,0,0:0:0:0:
128,192,43663,1,0,0:0:0:0:
42,192,43663,1,0,0:0:0:0:
384,192,43706,1,0,0:0:0:0:
298,192,43749,1,0,0:0:0:0:
128,192,43749,1,0,0:0:0:0:
42,192,43749,1,0,0:0:0:0:
469,192,43749,1,0,0:0:0:0:
213,192,43792,1,0,0:0:0:0:
298,192,43835,1,0,0:0:0:0:
384,192,43878,1,0,0:0:0:0:
469,192,43921,1,0,0:0:0:0:
128,192,43950,1,0,0:0:0:0:
213,192,43978,1,0,0:0:0:0:
298,192,44007,1,0,0:0:0:0:
384,192,44036,1,0,0:0:0:0:
42,192,44093,1,0,0:0:0:0:
128,192,44136,1,0,0:0:0:0:
213,192,44179,1,0,0:0:0:0:
469,192,44236,1,0,0:0:0:0:
384,192,44265,1,0,0:0:0:0:
298,192,44293,1,0,0:0:0:0:
213,192,44322,1,0,0:0:0:0:
128,192,44351,1,0,0:0:0:0:
42,192,44379,1,0,0:0:0:0:
469,192,44436,1,0,0:0:0:0:
384,192,44436,1,0,0:0:0:0:
128,192,44479,1,0,0:0:0:0:
213,192,44522,1,0,0:0:0:0:
298,192,44565,1,0,0:0:0:0:
384,192,44608,1,0,0:0:0:0:
469,192,44651,1,0,0:0:0:0:
42,192,44694,1,0,0:0:0:0:
128,192,44737,1,0,0:0:0:0:
213,192,44780,1,0,0:0:0:0:
298,192,44823,1,0,0:0:0:0:
384,192,44866,1,0,0:0:0:0:
42,192,44909,1,0,0:0:0:0:
128,192,44952,1,0,0:0:0:0:
213,192,44995,1,0,0:0:0:0:
298,192,45038,1,0,0:0:0:0:
42,192,45124,1,0,0:0:0:0:
469,192,45124,1,0,0:0:0:0:
384,192,45124,1,0,0:0:0:0:
128,192,45210,1,0,0:0:0:0:
213,192,45253,1,0,0:0:0:0:
298,192,45296,1,0,0:0:0:0:
469,192,45296,1,0,0:0:0:0:
384,192,45339,1,0,0:0:0:0:
128,192,45382,1,0,0:0:0:0:
42,192,45382,1,0,0:0:0:0:
298,192,45467,1,0,0:0:0:0:
384,192,45467,1,0,0:0:0:0:
469,192,45467,1,0,0:0:0:0:
213,192,45496,1,0,0:0:0:0:
128,192,45525,1,0,0:0:0:0:
42,192,45553,1,0,0:0:0:0:
384,192,45639,1,0,0:0:0:0:
469,192,45639,1,0,0:0:0:0:
384,192,45725,1,0,0:0:0:0:
469,192,45725,1,0,0:0:0:0:
213,192,45725,1,0,0:0:0:0:
128,192,45811,1,0,0:0:0:0:
42,192,45811,1,0,0:0:0:0:
213,192,45854,1,0,0:0:0:0:
298,192,45897,1,0,0:0:0:0:
384,192,45897,1,0,0:0:0:0:
469,192,45897,1,0,0:0:0:0:
42,192,45983,1,0,0:0:0:0:
128,192,45983,1,0,0:0:0:0:
298,192,46069,1,0,0:0:0:0:
469,192,46069,1,0,0:0:0:0:
42,192,46155,1,0,0:0:0:0:
128,192,46155,1,0,0:0:0:0:
469,192,46155,1,0,0:0:0:0:
213,192,46183,1,0,0:0:0:0:
298,192,46212,1,0,0:0:0:0:
384,192,46241,1,0,0:0:0:0:
469,192,46284,1,0,0:0:0:0:
298,192,46327,1,0,0:0:0:0:
42,192,46327,1,0,0:0:0:0:
213,192,46370,1,0,0:0:0:0:
128,192,46412,1,0,0:0:0:0:
42,192,46412,1,0,0:0:0:0:
384,192,46412,1,0,0:0:0:0:
298,192,46498,1,0,0:0:0:0:
384,192,46498,1,0,0:0:0:0:
469,192,46498,1,0,0:0:0:0:
213,192,46584,1,0,0:0:0:0:
42,192,46584,1,0,0:0:0:0:
384,192,46670,1,0,0:0:0:0:
469,192,46670,1,0,0:0:0:0:
213,192,46756,1,0,0:0:0:0:
42,192,46756,1,0,0:0:0:0:
128,192,46842,1,0,0:0:0:0:
384,192,46842,1,0,0:0:0:0:
469,192,46842,1,0,0:0:0:0:
298,192,46885,1,0,0:0:0:0:
213,192,46928,1,0,0:0:0:0:
128,192,46971,1,0,0:0:0:0:
42,192,47014,1,0,0:0:0:0:
384,192,47014,1,0,0:0:0:0:
469,192,47014,1,0,0:0:0:0:
298,192,47100,1,0,0:0:0:0:
213,192,47100,1,0,0:0:0:0:
128,192,47186,1,0,0:0:0:0:
42,192,47186,1,0,0:0:0:0:
469,192,47186,1,0,0:0:0:0:
213,192,47229,1,0,0:0:0:0:
298,192,47272,1,0,0:0:0:0:
384,192,47315,1,0,0:0:0:0:
469,192,47358,1,0,0:0:0:0:
42,192,47358,1,0,0:0:0:0:
128,192,47401,1,0,0:0:0:0:
213,192,47443,1,0,0:0:0:0:
298,192,47486,1,0,0:0:0:0:
42,192,47529,1,0,0:0:0:0:
469,192,47529,1,0,0:0:0:0:
384,192,47529,1,0,0:0:0:0:
213,192,47615,1,0,0:0:0:0:
42,192,47615,1,0,0:0:0:0:
298,192,47658,1,0,0:0:0:0:
384,192,47701,1,0,0:0:0:0:
128,192,47701,1,0,0:0:0:0:
469,192,47787,1,0,0:0:0:0:
384,192,47816,1,0,0:0:0:0:
298,192,47844,1,0,0:0:0:0:
213,192,47873,1,0,0:0:0:0:
128,192,47873,1,0,0:0:0:0:
42,192,47873,1,0,0:0:0:0:
384,192,47959,1,0,0:0:0:0:
469,192,47959,1,0,0:0:0:0:
128,192,48045,1,0,0:0:0:0:
42,192,48045,1,0,0:0:0:0:
213,192,48088,1,0,0:0:0:0:
298,192,48131,1,0,0:0:0:0:
384,192,48131,1,0,0:0:0:0:
128,192,48217,1,0,0:0:0:0:
42,192,48217,1,0,0:0:0:0:
469,192,48217,1,0,0:0:0:0:
213,192,48245,1,0,0:0:0:0:
298,192,48274,1,0,0:0:0:0:
384,192,48303,1,0,0:0:0:0:
128,192,48331,1,0,0:0:0:0:
213,192,48360,1,0,0:0:0:0:
298,192,48389,1,0,0:0:0:0:
469,192,48389,1,0,0:0:0:0:
42,192,48431,1,0,0:0:0:0:
128,192,48474,1,0,0:0:0:0:
213,192,48517,1,0,0:0:0:0:
298,192,48560,1,0,0:0:0:0:
469,192,48560,1,0,0:0:0:0:
384,192,48646,1,0,0:0:0:0:
128,192,48646,1,0,0:0:0:0:
42,192,48646,1,0,0:0:0:0:
213,192,48732,1,0,0:0:0:0:
469,192,48732,1,0,0:0:0:0:
298,192,48818,1,0,0:0:0:0:
42,192,48818,1,0,0:0:0:0:
128,192,48904,1,0,0:0:0:0:
384,192,48904,1,0,0:0:0:0:
469,192,48904,1,0,0:0:0:0:
213,192,48947,1,0,0:0:0:0:
298,192,48990,1,0,0:0:0:0:
384,192,49033,1,0,0:0:0:0:
42,192,49076,1,0,0:0:0:0:
469,192,49076,1,0,0:0:0:0:
128,192,49119,1,0,0:0:0:0:
213,192,49162,1,0,0:0:0:0:
384,192,49162,1,0,0:0:0:0:
469,192,49162,1,0,0:0:0:0:
298,192,49248,1,0,0:0:0:0:
128,192,49248,1,0,0:0:0:0:
42,192,49248,1,0,0:0:0:0:
213,192,49334,1,0,0:0:0:0:
469,192,49334,1,0,0:0:0:0:
384,192,49419,1,0,0:0:0:0:
128,192,49419,1,0,0:0:0:0:
42,192,49505,1,0,0:0:0:0:
298,192,49505,1,0,0:0:0:0:
213,192,49591,1,0,0:0:0:0:
384,192,49591,1,0,0:0:0:0:
469,192,49591,1,0,0:0:0:0:
128,192,49620,1,0,0:0:0:0:
42,192,49649,1,0,0:0:0:0:
298,192,49677,1,0,0:0:0:0:
213,192,49706,1,0,0:0:0:0:
128,192,49735,1,0,0:0:0:0:
469,192,49763,1,0,0:0:0:0:
384,192,49763,1,0,0:0:0:0:
298,192,49806,1,0,0:0:0:0:
213,192,49849,1,0,0:0:0:0:
469,192,49849,1,0,0:0:0:0:
384,192,49892,1,0,0:0:0:0:
298,192,49935,1,0,0:0:0:0:
213,192,49978,1,0,0:0:0:0:
128,192,50021,1,0,0:0:0:0:
469,192,50021,1,0,0:0:0:0:
384,192,50021,1,0,0:0:0:0:
42,192,50064,1,0,0:0:0:0:
298,192,50107,1,0,0:0:0:0:
213,192,50193,1,0,0:0:0:0:
128,192,50193,1,0,0:0:0:0:
384,192,50279,1,0,0:0:0:0:
469,192,50279,1,0,0:0:0:0:
298,192,50279,1,0,0:0:0:0:
42,192,50365,1,0,0:0:0:0:
213,192,50365,1,0,0:0:0:0:
384,192,50450,1,0,0:0:0:0:
469,192,50450,1,0,0:0:0:0:
213,192,50536,1,0,0:0:0:0:
42,192,50536,1,0,0:0:0:0:
128,192,50622,1,0,0:0:0:0:
469,192,50622,1,0,0:0:0:0:
298,192,50622,1,0,0:0:0:0:
213,192,50708,1,0,0:0:0:0:
384,192,50708,1,0,0:0:0:0:
298,192,50794,1,0,0:0:0:0:
469,192,50794,1,0,0:0:0:0:
384,192,50880,1,0,0:0:0:0:
213,192,50966,1,0,0:0:0:0:
128,192,50966,1,0,0:0:0:0:
42,192,50966,1,0,0:0:0:0:
384,192,51052,1,0,0:0:0:0:
469,192,51052,1,0,0:0:0:0:
298,192,51095,1,0,0:0:0:0:
42,192,51138,1,0,0:0:0:0:
128,192,51138,1,0,0:0:0:0:
213,192,51166,1,0,0:0:0:0:
298,192,51195,1,0,0:0:0:0:
384,192,51224,1,0,0:0:0:0:
469,192,51224,1,0,0:0:0:0:
213,192,51310,1,0,0:0:0:0:
42,192,51310,1,0,0:0:0:0:
298,192,51396,1,0,0:0:0:0:
469,192,51396,1,0,0:0:0:0:
213,192,51438,1,0,0:0:0:0:
128,192,51481,1,0,0:0:0:0:
42,192,51510,1,0,0:0:0:0:
469,192,51539,1,0,0:0:0:0:
384,192,51567,1,0,0:0:0:0:
298,192,51596,1,0,0:0:0:0:
213,192,51625,1,0,0:0:0:0:
128,192,51653,1,0,0:0:0:0:
42,192,51653,1,0,0:0:0:0:
469,192,51653,1,0,0:0:0:0:
384,192,51696,1,0,0:0:0:0:
298,192,51739,1,0,0:0:0:0:
213,192,51739,1,0,0:0:0:0:
42,192,51825,1,0,0:0:0:0:
128,192,51868,1,0,0:0:0:0:
213,192,51911,1,0,0:0:0:0:
298,192,51954,1,0,0:0:0:0:
384,192,51997,1,0,0:0:0:0:
469,192,51997,1,0,0:0:0:0:
42,192,51997,1,0,0:0:0:0:
128,192,52083,1,0,0:0:0:0:
213,192,52126,1,0,0:0:0:0:
298,192,52169,1,0,0:0:0:0:
469,192,52169,1,0,0:0:0:0:
384,192,52197,1,0,0:0:0:0:
213,192,52226,1,0,0:0:0:0:
128,192,52255,1,0,0:0:0:0:
42,192,52255,1,0,0:0:0:0:
298,192,52341,1,0,0:0:0:0:
384,192,52341,1,0,0:0:0:0:
469,192,52341,1,0,0:0:0:0:
213,192,52427,1,0,0:0:0:0:
42,192,52427,1,0,0:0:0:0:
128,192,52512,1,0,0:0:0:0:
384,192,52512,1,0,0:0:0:0:
298,192,52598,1,0,0:0:0:0:
469,192,52598,1,0,0:0:0:0:
213,192,52641,1,0,0:0:0:0:
128,192,52684,1,0,0:0:0:0:
384,192,52684,1,0,0:0:0:0:
298,192,52727,1,0,0:0:0:0:
213,192,52770,1,0,0:0:0:0:
42,192,52770,1,0,0:0:0:0:
384,192,52813,1,0,0:0:0:0:
469,192,52856,1,0,0:0:0:0:
128,192,52856,1,0,0:0:0:0:
42,192,52856,1,0,0:0:0:0:
213,192,52942,1,0,0:0:0:0:
298,192,53028,1,0,0:0:0:0:
469,192,53028,1,0,0:0:0:0:
384,192,53028,1,0,0:0:0:0:
128,192,53114,1,0,0:0:0:0:
42,192,53114,1,0,0:0:0:0:
213,192,53200,1,0,0:0:0:0:
298,192,53200,1,0,0:0:0:0:
384,192,53286,1,0,0:0:0:0:
469,192,53286,1,0,0:0:0:0:
213,192,53372,1,0,0:0:0:0:
128,192,53372,1,0,0:0:0:0:
42,192,53372,1,0,0:0:0:0:
298,192,53415,1,0,0:0:0:0:
384,192,53457,1,0,0:0:0:0:
469,192,53457,1,0,0:0:0:0:
213,192,53500,1,0,0:0:0:0:
128,192,53543,1,0,0:0:0:0:
42,192,53543,1,0,0:0:0:0:
298,192,53586,1,0,0:0:0:0:
384,192,53629,1,0,0:0:0:0:
469,192,53629,1,0,0:0:0:0:
213,192,53715,1,0,0:0:0:0:
128,192,53715,1,0,0:0:0:0:
42,192,53715,1,0,0:0:0:0:
469,192,53758,1,0,0:0:0:0:
384,192,53801,1,0,0:0:0:0:
298,192,53844,1,0,0:0:0:0:
128,192,53887,1,0,0:0:0:0:
42,192,53887,1,0,0:0:0:0:
384,192,53973,1,0,0:0:0:0:
469,192,53973,1,0,0:0:0:0:
298,192,53973,1,0,0:0:0:0:
213,192,54016,1,0,0:0:0:0:
128,192,54059,1,0,0:0:0:0:
42,192,54102,1,0,0:0:0:0:
298,192,54145,1,0,0:0:0:0:
469,192,54145,1,0,0:0:0:0:
213,192,54188,1,0,0:0:0:0:
42,192,54231,1,0,0:0:0:0:
128,192,54231,1,0,0:0:0:0:
384,192,54231,1,0,0:0:0:0:
298,192,54274,1,0,0:0:0:0:
213,192,54317,1,0,0:0:0:0:
469,192,54317,1,0,0:0:0:0:
384,192,54403,1,0,0:0:0:0:
469,192,54403,1,0,0:0:0:0:
42,192,54403,1,0,0:0:0:0:
128,192,54431,1,0,0:0:0:0:
213,192,54460,1,0,0:0:0:0:
298,192,54488,1,0,0:0:0:0:
384,192,54531,1,0,0:0:0:0:
469,192,54574,1,0,0:0:0:0:
42,192,54574,1,0,0:0:0:0:
213,192,54660,1,0,0:0:0:0:
298,192,54660,1,0,0:0:0:0:
384,192,54703,1,0,0:0:0:0:
42,192,54746,1,0,0:0:0:0:
128,192,54746,1,0,0:0:0:0:
469,192,54746,1,0,0:0:0:0:
213,192,54789,1,0,0:0:0:0:
298,192,54832,1,0,0:0:0:0:
128,192,54875,1,0,0:0:0:0:
42,192,54918,1,0,0:0:0:0:
384,192,54918,1,0,0:0:0:0:
469,192,54918,1,0,0:0:0:0:
298,192,54947,1,0,0:0:0:0:
213,192,54975,1,0,0:0:0:0:
128,192,55004,1,0,0:0:0:0:
469,192,55047,1,0,0:0:0:0:
384,192,55090,1,0,0:0:0:0:
213,192,55090,1,0,0:0:0:0:
298,192,55133,1,0,0:0:0:0:
42,192,55176,1,0,0:0:0:0:
128,192,55176,1,0,0:0:0:0:
384,192,55233,1,0,0:0:0:0:
298,192,55262,1,0,0:0:0:0:
213,192,55290,1,0,0:0:0:0:
128,192,55319,1,0,0:0:0:0:
469,192,55348,1,0,0:0:0:0:
42,192,55348,1,0,0:0:0:0:
384,192,55391,1,0,0:0:0:0:
298,192,55434,1,0,0:0:0:0:
128,192,55434,1,0,0:0:0:0:
42,192,55476,1,0,0:0:0:0:
469,192,55519,1,0,0:0:0:0:
213,192,55519,1,0,0:0:0:0:
384,192,55562,1,0,0:0:0:0:
128,192,55605,1,0,0:0:0:0:
42,192,55605,1,0,0:0:0:0:
213,192,55634,1,0,0:0:0:0:
298,192,55663,1,0,0:0:0:0:
469,192,55691,1,0,0:0:0:0:
384,192,55734,1,0,0:0:0:0:
213,192,55777,1,0,0:0:0:0:
128,192,55777,1,0,0:0:0:0:
42,192,55777,1,0,0:0:0:0:
298,192,55820,1,0,0:0:0:0:
384,192,55863,1,0,0:0:0:0:
469,192,55863,1,0,0:0:0:0:
128,192,55949,1,0,0:0:0:0:
42,192,55949,1,0,0:0:0:0:
213,192,56035,1,0,0:0:0:0:
298,192,56035,1,0,0:0:0:0:
42,192,56121,1,0,0:0:0:0:
384,192,56121,1,0,0:0:0:0:
469,192,56121,1,0,0:0:0:0:
128,192,56178,1,0,0:0:0:0:
213,192,56207,1,0,0:0:0:0:
298,192,56235,1,0,0:0:0:0:
384,192,56264,1,0,0:0:0:0:
469,192,56293,1,0,0:0:0:0:
42,192,56336,1,0,0:0:0:0:
128,192,56379,1,0,0:0:0:0:
213,192,56422,1,0,0:0:0:0:
298,192,56464,1,0,0:0:0:0:
384,192,56464,1,0,0:0:0:0:
469,192,56464,1,0,0:0:0:0:
128,192,56507,1,0,0:0:0:0:
213,192,56550,1,0,0:0:0:0:
42,192,56593,1,0,0:0:0:0:
128,192,56636,1,0,0:0:0:0:
384,192,56679,1,0,0:0:0:0:
298,192,56722,1,0,0:0:0:0:
469,192,56722,1,0,0:0:0:0:
213,192,56765,1,0,0:0:0:0:
128,192,56808,1,0,0:0:0:0:
42,192,56808,1,0,0:0:0:0:
298,192,56894,1,0,0:0:0:0:
469,192,56894,1,0,0:0:0:0:
384,192,56894,1,0,0:0:0:0:
213,192,56980,1,0,0:0:0:0:
42,192,56980,1,0,0:0:0:0:
128,192,57066,1,0,0:0:0:0:
384,192,57152,1,0,0:0:0:0:
469,192,57152,1,0,0:0:0:0:
213,192,57152,1,0,0:0:0:0:
298,192,57238,1,0,0:0:0:0:
42,192,57238,1,0,0:0:0:0:
128,192,57324,1,0,0:0:0:0:
384,192,57324,1,0,0:0:0:0:
213,192,57410,1,0,0:0:0:0:
469,192,57410,1,0,0:0:0:0:
298,192,57495,1,0,0:0:0:0:
469,192,57495,1,0,0:0:0:0:
42,192,57495,1,0,0:0:0:0:
128,192,57581,1,0,0:0:0:0:
384,192,57581,1,0,0:0:0:0:
213,192,57667,1,0,0:0:0:0:
469,192,57667,1,0,0:0:0:0:
298,192,57753,1,0,0:0:0:0:
42,192,57753,1,0,0:0:0:0:
128,192,57839,1,0,0:0:0:0:
384,192,57839,1,0,0:0:0:0:
469,192,57839,1,0,0:0:0:0:
213,192,57882,1,0,0:0:0:0:
298,192,57925,1,0,0:0:0:0:
42,192,57925,1,0,0:0:0:0:
128,192,58011,1,0,0:0:0:0:
384,192,58011,1,0,0:0:0:0:
213,192,58097,1,0,0:0:0:0:
298,192,58097,1,0,0:0:0:0:
469,192,58097,1,0,0:0:0:0:
384,192,58183,1,0,0:0:0:0:
128,192,58183,1,0,0:0:0:0:
42,192,58269,1,0,0:0:0:0:
298,192,58269,1,0,0:0:0:0:
213,192,58355,1,0,0:0:0:0:
469,192,58355,1,0,0:0:0:0:
384,192,58355,1,0,0:0:0:0:
128,192,58441,1,0,0:0:0:0:
42,192,58526,1,0,0:0:0:0:
298,192,58526,1,0,0:0:0:0:
469,192,58526,1,0,0:0:0:0:
384,192,58612,1,0,0:0:0:0:
213,192,58612,1,0,0:0:0:0:
298,192,58698,1,0,0:0:0:0:
128,192,58698,1,0,0:0:0:0:
469,192,58741,1,0,0:0:0:0:
213,192,58784,1,0,0:0:0:0:
42,192,58784,1,0,0:0:0:0:
384,192,58827,1,0,0:0:0:0:
128,192,58870,1,0,0:0:0:0:
42,192,58870,1,0,0:0:0:0:
298,192,58870,1,0,0:0:0:0:
469,192,58927,1,0,0:0:0:0:
384,192,58956,1,0,0:0:0:0:
298,192,58999,1,0,0:0:0:0:
213,192,59042,1,0,0:0:0:0:
42,192,59042,1,0,0:0:0:0:
128,192,59128,1,0,0:0:0:0:
384,192,59128,1,0,0:0:0:0:
42,192,59214,1,0,0:0:0:0:
298,192,59214,1,0,0:0:0:0:
469,192,59214,1,0,0:0:0:0:
213,192,59257,1,0,0:0:0:0:
128,192,59300,1,0,0:0:0:0:
42,192,59343,1,0,0:0:0:0:
384,192,59386,1,0,0:0:0:0:
469,192,59386,1,0,0:0:0:0:
213,192,59472,1,0,0:0:0:0:
128,192,59472,1,0,0:0:0:0:
42,192,59472,1,0,0:0:0:0:
298,192,59557,1,0,0:0:0:0:
469,192,59557,1,0,0:0:0:0:
384,192,59643,1,0,0:0:0:0:
128,192,59643,1,0,0:0:0:0:
42,192,59643,1,0,0:0:0:0:
213,192,59729,1,0,0:0:0:0:
469,192,59729,1,0,0:0:0:0:
298,192,59772,1,0,0:0:0:0:
128,192,59815,1,0,0:0:0:0:
42,192,59858,1,0,0:0:0:0:
384,192,59901,1,0,0:0:0:0:
469,192,59901,1,0,0:0:0:0:
298,192,59901,1,0,0:0:0:0:
213,192,59944,1,0,0:0:0:0:
42,192,59987,1,0,0:0:0:0:
128,192,60030,1,0,0:0:0:0:
213,192,60073,1,0,0:0:0:0:
298,192,60116,1,0,0:0:0:0:
384,192,60159,1,0,0:0:0:0:
42,192,60159,1,0,0:0:0:0:
213,192,60245,1,0,0:0:0:0:
42,192,60245,1,0,0:0:0:0:
469,192,60245,1,0,0:0:0:0:
298,192,60331,1,0,0:0:0:0:
128,192,60417,1,0,0:0:0:0:
42,192,60417,1,0,0:0:0:0:
384,192,60417,1,0,0:0:0:0:
128,192,60502,1,0,0:0:0:0:
469,192,60502,1,0,0:0:0:0:
213,192,60502,1,0,0:0:0:0:
298,192,60588,1,0,0:0:0:0:
213,192,60588,1,0,0:0:0:0:
42,192,60588,1,0,0:0:0:0:
384,192,60631,1,0,0:0:0:0:
128,192,60674,1,0,0:0:0:0:
469,192,60674,1,0,0:0:0:0:
213,192,60760,1,0,0:0:0:0:
384,192,60760,1,0,0:0:0:0:
42,192,60846,1,0,0:0:0:0:
298,192,60846,1,0,0:0:0:0:
213,192,60889,1,0,0:0:0:0:
128,192,60932,1,0,0:0:0:0:
469,192,60932,1,0,0:0:0:0:
384,192,60975,1,0,0:0:0:0:
298,192,61018,1,0,0:0:0:0:
42,192,61018,1,0,0:0:0:0:
128,192,61061,1,0,0:0:0:0:
213,192,61104,1,0,0:0:0:0:
469,192,61104,1,0,0:0:0:0:
298,192,61147,1,0,0:0:0:0:
384,192,61190,1,0,0:0:0:0:
469,192,61190,1,0,0:0:0:0:
213,192,61276,1,0,0:0:0:0:
128,192,61276,1,0,0:0:0:0:
42,192,61276,1,0,0:0:0:0:
298,192,61362,1,0,0:0:0:0:
384,192,61362,1,0,0:0:0:0:
128,192,61448,1,0,0:0:0:0:
42,192,61448,1,0,0:0:0:0:
298,192,61533,1,0,0:0:0:0:
384,192,61533,1,0,0:0:0:0:
213,192,61619,1,0,0:0:0:0:
42,192,61619,1,0,0:0:0:0:
469,192,61619,1,0,0:0:0:0:
128,192,61705,1,0,0:0:0:0:
298,192,61705,1,0,0:0:0:0:
213,192,61791,1,0,0:0:0:0:
384,192,61791,1,0,0:0:0:0:
298,192,61877,1,0,0:0:0:0:
469,192,61877,1,0,0:0:0:0:
384,192,61963,1,0,0:0:0:0:
128,192,61963,1,0,0:0:0:0:
42,192,61963,1,0,0:0:0:0:
298,192,61992,1,0,0:0:0:0:
213,192,62020,1,0,0:0:0:0:
128,192,62049,1,0,0:0:0:0:
42,192,62078,1,0,0:0:0:0:
469,192,62106,1,0,0:0:0:0:
384,192,62135,1,0,0:0:0:0:
298,192,62178,1,0,0:0:0:0:
213,192,62221,1,0,0:0:0:0:
42,192,62221,1,0,0:0:0:0:
128,192,62221,1,0,0:0:0:0:
384,192,62307,1,0,0:0:0:0:
298,192,62350,1,0,0:0:0:0:
213,192,62393,1,0,0:0:0:0:
42,192,62393,1,0,0:0:0:0:
469,192,62393,1,0,0:0:0:0:
128,192,62479,1,0,0:0:0:0:
213,192,62521,1,0,0:0:0:0:
298,192,62564,1,0,0:0:0:0:
384,192,62607,1,0,0:0:0:0:
469,192,62650,1,0,0:0:0:0:
42,192,62650,1,0,0:0:0:0:
128,192,62693,1,0,0:0:0:0:
213,192,62736,1,0,0:0:0:0:
298,192,62779,1,0,0:0:0:0:
384,192,62822,1,0,0:0:0:0:
213,192,62908,1,0,0:0:0:0:
128,192,62908,1,0,0:0:0:0:
469,192,62994,1,0,0:0:0:0:
128,192,62994,1,0,0:0:0:0:
42,192,62994,1,0,0:0:0:0:
384,192,63037,1,0,0:0:0:0:
298,192,63080,1,0,0:0:0:0:
213,192,63123,1,0,0:0:0:0:
128,192,63166,1,0,0:0:0:0:
42,192,63209,1,0,0:0:0:0:
298,192,63252,1,0,0:0:0:0:
384,192,63252,1,0,0:0:0:0:
469,192,63252,1,0,0:0:0:0:
128,192,63295,1,0,0:0:0:0:
213,192,63338,1,0,0:0:0:0:
42,192,63338,1,0,0:0:0:0:
298,192,63381,1,0,0:0:0:0:
384,192,63424,1,0,0:0:0:0:
469,192,63467,1,0,0:0:0:0:
213,192,63509,1,0,0:0:0:0:
42,192,63509,1,0,0:0:0:0:
128,192,63509,1,0,0:0:0:0:
298,192,63595,1,0,0:0:0:0:
469,192,63595,1,0,0:0:0:0:
213,192,63624,1,0,0:0:0:0:
128,192,63653,1,0,0:0:0:0:
42,192,63681,1,0,0:0:0:0:
469,192,63724,1,0,0:0:0:0:
384,192,63767,1,0,0:0:0:0:
128,192,63767,1,0,0:0:0:0:
213,192,63810,1,0,0:0:0:0:
298,192,63853,1,0,0:0:0:0:
42,192,63853,1,0,0:0:0:0:
128,192,63896,1,0,0:0:0:0:
213,192,63939,1,0,0:0:0:0:
298,192,63982,1,0,0:0:0:0:
384,192,64025,1,0,0:0:0:0:
469,192,64025,1,0,0:0:0:0:
42,192,64025,1,0,0:0:0:0:
298,192,64111,1,0,0:0:0:0:
128,192,64111,1,0,0:0:0:0:
213,192,64197,1,0,0:0:0:0:
384,192,64197,1,0,0:0:0:0:
298,192,64283,1,0,0:0:0:0:
469,192,64283,1,0,0:0:0:0:
42,192,64283,1,0,0:0:0:0:
42,192,64369,1,0,0:0:0:0:
128,192,64369,1,0,0:0:0:0:
213,192,64369,1,0,0:0:0:0:
384,192,64455,1,0,0:0:0:0:
469,192,64455,1,0,0:0:0:0:
128,192,64540,1,0,0:0:0:0:
213,192,64540,1,0,0:0:0:0:
298,192,64626,1,0,0:0:0:0:
384,192,64626,1,0,0:0:0:0:
128,192,64712,1,0,0:0:0:0:
42,192,64712,1,0,0:0:0:0:
213,192,64741,1,0,0:0:0:0:
298,192,64770,1,0,0:0:0:0:
384,192,64798,1,0,0:0:0:0:
469,192,64827,1,0,0:0:0:0:
213,192,64884,1,0,0:0:0:0:
42,192,64884,1,0,0:0:0:0:
384,192,64970,1,0,0:0:0:0:
469,192,64970,1,0,0:0:0:0:
298,192,64999,1,0,0:0:0:0:
213,192,65027,1,0,0:0:0:0:
128,192,65056,1,0,0:0:0:0:
42,192,65085,1,0,0:0:0:0:
298,192,65142,1,0,0:0:0:0:
384,192,65171,1,0,0:0:0:0:
469,192,65199,1,0,0:0:0:0:
213,192,65228,1,0,0:0:0:0:
42,192,65228,1,0,0:0:0:0:
298,192,65271,1,0,0:0:0:0:
384,192,65314,1,0,0:0:0:0:
128,192,65357,1,0,0:0:0:0:
213,192,65400,1,0,0:0:0:0:
42,192,65400,1,0,0:0:0:0:
469,192,65400,1,0,0:0:0:0:
298,192,65443,1,0,0:0:0:0:
384,192,65486,1,0,0:0:0:0:
213,192,65528,1,0,0:0:0:0:
128,192,65571,1,0,0:0:0:0:
298,192,65571,1,0,0:0:0:0:
42,192,65614,1,0,0:0:0:0:
384,192,65657,1,0,0:0:0:0:
469,192,65657,1,0,0:0:0:0:
128,192,65743,1,0,0:0:0:0:
42,192,65743,1,0,0:0:0:0:
469,192,65743,1,0,0:0:0:0:
213,192,65786,1,0,0:0:0:0:
298,192,65829,1,0,0:0:0:0:
384,192,65872,1,0,0:0:0:0:
213,192,65915,1,0,0:0:0:0:
469,192,65915,1,0,0:0:0:0:
128,192,65958,1,0,0:0:0:0:
42,192,66001,1,0,0:0:0:0:
298,192,66001,1,0,0:0:0:0:
213,192,66044,1,0,0:0:0:0:
128,192,66087,1,0,0:0:0:0:
384,192,66087,1,0,0:0:0:0:
469,192,66087,1,0,0:0:0:0:
42,192,66130,1,0,0:0:0:0:
213,192,66173,1,0,0:0:0:0:
298,192,66216,1,0,0:0:0:0:
384,192,66259,1,0,0:0:0:0:
469,192,66302,1,0,0:0:0:0:
42,192,66345,1,0,0:0:0:0:
128,192,66373,1,0,0:0:0:0:
213,192,66402,1,0,0:0:0:0:
298,192,66431,1,0,0:0:0:0:
469,192,66474,1,0,0:0:0:0:
213,192,66559,1,0,0:0:0:0:
469,192,66645,1,0,0:0:0:0:
213,192,66731,1,0,0:0:0:0:
469,192,66817,1,0,0:0:0:0:
213,192,66903,1,0,0:0:0:0:
469,192,66989,1,0,0:0:0:0:
213,192,67075,1,0,0:0:0:0:
384,192,67118,1,0,0:0:0:0:
42,192,67118,128,0,67204:0:0:0:0:
128,192,67118,1,0,0:0:0:0:
469,192,67118,1,0,0:0:0:0:
298,192,67204,1,0,0:0:0:0:
213,192,67290,1,0,0:0:0:0:
128,192,67376,1,0,0:0:0:0:
42,192,67462,1,0,0:0:0:0:
384,192,67462,1,0,0:0:0:0:
469,192,67462,1,0,0:0:0:0:
213,192,67547,1,0,0:0:0:0:
298,192,67633,1,0,0:0:0:0:
384,192,67719,1,0,0:0:0:0:
128,192,67719,1,0,0:0:0:0:
213,192,67805,1,0,0:0:0:0:
42,192,67891,1,0,0:0:0:0:
298,192,67891,1,0,0:0:0:0:
128,192,67977,1,0,0:0:0:0:
213,192,68063,1,0,0:0:0:0:
42,192,68149,1,0,0:0:0:0:
384,192,68149,1,0,0:0:0:0:
469,192,68149,1,0,0:0:0:0:
298,192,68235,1,0,0:0:0:0:
213,192,68321,1,0,0:0:0:0:
128,192,68407,1,0,0:0:0:0:
42,192,68493,1,0,0:0:0:0:
384,192,68493,1,0,0:0:0:0:
469,192,68493,1,0,0:0:0:0:
213,192,68578,1,0,0:0:0:0:
298,192,68664,1,0,0:0:0:0:
469,192,68664,1,0,0:0:0:0:
128,192,68750,1,0,0:0:0:0:
42,192,68750,1,0,0:0:0:0:
213,192,68836,1,0,0:0:0:0:
384,192,68836,1,0,0:0:0:0:
469,192,68836,1,0,0:0:0:0:
298,192,68922,1,0,0:0:0:0:
128,192,69008,1,0,0:0:0:0:
213,192,69094,1,0,0:0:0:0:
384,192,69094,1,0,0:0:0:0:
42,192,69180,1,0,0:0:0:0:
128,192,69266,1,0,0:0:0:0:
213,192,69352,1,0,0:0:0:0:
469,192,69352,1,0,0:0:0:0:
384,192,69438,1,0,0:0:0:0:
298,192,69524,1,0,0:0:0:0:
128,192,69524,1,0,0:0:0:0:
42,192,69524,1,0,0:0:0:0:
213,192,69609,1,0,0:0:0:0:
469,192,69695,1,0,0:0:0:0:
384,192,69695,1,0,0:0:0:0:
128,192,69781,1,0,0:0:0:0:
213,192,69781,1,0,0:0:0:0:
42,192,69867,1,0,0:0:0:0:
384,192,69867,1,0,0:0:0:0:
469,192,69867,1,0,0:0:0:0:
298,192,69953,1,0,0:0:0:0:
213,192,70039,1,0,0:0:0:0:
128,192,70125,1,0,0:0:0:0:
384,192,70125,1,0,0:0:0:0:
298,192,70211,1,0,0:0:0:0:
469,192,70211,1,0,0:0:0:0:
42,192,70211,1,0,0:0:0:0:
213,192,70297,1,0,0:0:0:0:
128,192,70383,1,0,0:0:0:0:
298,192,70383,1,0,0:0:0:0:
384,192,70469,1,0,0:0:0:0:
469,192,70469,1,0,0:0:0:0:
42,192,70554,128,0,70640:0:0:0:0:
128,192,70554,1,0,0:0:0:0:
298,192,70640,1,0,0:0:0:0:
469,192,70640,1,0,0:0:0:0:
213,192,70726,1,0,0:0:0:0:
128,192,70812,1,0,0:0:0:0:
42,192,70898,1,0,0:0:0:0:
384,192,70898,1,0,0:0:0:0:
469,192,70898,1,0,0:0:0:0:
213,192,70984,1,0,0:0:0:0:
298,192,71070,1,0,0:0:0:0:
128,192,71156,1,0,0:0:0:0:
42,192,71242,128,0,71328:0:0:0:0:
213,192,71242,1,0,0:0:0:0:
469,192,71242,1,0,0:0:0:0:
384,192,71242,1,0,0:0:0:0:
298,192,71328,1,0,0:0:0:0:
128,192,71414,1,0,0:0:0:0:
384,192,71414,1,0,0:0:0:0:
213,192,71500,1,0,0:0:0:0:
469,192,71500,1,0,0:0:0:0:
298,192,71585,1,0,0:0:0:0:
128,192,71585,1,0,0:0:0:0:
42,192,71585,1,0,0:0:0:0:
384,192,71671,1,0,0:0:0:0:
469,192,71757,1,0,0:0:0:0:
213,192,71757,1,0,0:0:0:0:
384,192,71843,1,0,0:0:0:0:
128,192,71843,1,0,0:0:0:0:
42,192,71929,128,0,72015:0:0:0:0:
298,192,71929,1,0,0:0:0:0:
213,192,72015,1,0,0:0:0:0:
469,192,72015,1,0,0:0:0:0:
384,192,72101,1,0,0:0:0:0:
298,192,72187,1,0,0:0:0:0:
128,192,72187,1,0,0:0:0:0:
42,192,72273,1,0,0:0:0:0:
384,192,72273,1,0,0:0:0:0:
469,192,72273,1,0,0:0:0:0:
213,192,72359,1,0,0:0:0:0:
384,192,72445,1,0,0:0:0:0:
128,192,72445,1,0,0:0:0:0:
298,192,72531,1,0,0:0:0:0:
42,192,72531,1,0,0:0:0:0:
469,192,72616,128,0,72702:0:0:0:0:
128,192,72616,1,0,0:0:0:0:
384,192,72616,1,0,0:0:0:0:
213,192,72616,1,0,0:0:0:0:
298,192,72702,1,0,0:0:0:0:
128,192,72788,1,0,0:0:0:0:
213,192,72874,1,0,0:0:0:0:
42,192,72960,1,0,0:0:0:0:
298,192,72960,1,0,0:0:0:0:
469,192,72960,1,0,0:0:0:0:
128,192,73046,1,0,0:0:0:0:
213,192,73132,1,0,0:0:0:0:
298,192,73218,1,0,0:0:0:0:
384,192,73218,1,0,0:0:0:0:
469,192,73304,128,0,73390:0:0:0:0:
128,192,73304,1,0,0:0:0:0:
42,192,73390,1,0,0:0:0:0:
298,192,73390,1,0,0:0:0:0:
213,192,73476,1,0,0:0:0:0:
128,192,73561,1,0,0:0:0:0:
42,192,73647,1,0,0:0:0:0:
384,192,73647,1,0,0:0:0:0:
469,192,73647,1,0,0:0:0:0:
213,192,73733,1,0,0:0:0:0:
298,192,73819,1,0,0:0:0:0:
384,192,73905,1,0,0:0:0:0:
469,192,73991,1,0,0:0:0:0:
42,192,73991,1,0,0:0:0:0:
128,192,73991,1,0,0:0:0:0:
298,192,74077,1,0,0:0:0:0:
213,192,74163,1,0,0:0:0:0:
384,192,74163,1,0,0:0:0:0:
298,192,74249,1,0,0:0:0:0:
128,192,74249,1,0,0:0:0:0:
213,192,74335,1,0,0:0:0:0:
42,192,74335,1,0,0:0:0:0:
469,192,74335,1,0,0:0:0:0:
384,192,74421,1,0,0:0:0:0:
298,192,74507,1,0,0:0:0:0:
128,192,74507,1,0,0:0:0:0:
213,192,74592,1,0,0:0:0:0:
469,192,74592,1,0,0:0:0:0:
298,192,74678,1,0,0:0:0:0:
384,192,74764,1,0,0:0:0:0:
128,192,74764,1,0,0:0:0:0:
298,192,74850,1,0,0:0:0:0:
42,192,74850,1,0,0:0:0:0:
213,192,74936,1,0,0:0:0:0:
128,192,75022,1,0,0:0:0:0:
42,192,75022,1,0,0:0:0:0:
469,192,75022,1,0,0:0:0:0:
384,192,75108,1,0,0:0:0:0:
298,192,75194,1,0,0:0:0:0:
42,192,75194,1,0,0:0:0:0:
128,192,75280,1,0,0:0:0:0:
384,192,75280,1,0,0:0:0:0:
213,192,75366,1,0,0:0:0:0:
469,192,75366,128,0,75452:0:0:0:0:
298,192,75366,1,0,0:0:0:0:
42,192,75366,1,0,0:0:0:0:
128,192,75452,1,0,0:0:0:0:
213,192,75538,1,0,0:0:0:0:
298,192,75623,1,0,0:0:0:0:
469,192,75623,1,0,0:0:0:0:
128,192,75709,1,0,0:0:0:0:
42,192,75709,1,0,0:0:0:0:
384,192,75709,1,0,0:0:0:0:
213,192,75795,1,0,0:0:0:0:
298,192,75881,1,0,0:0:0:0:
469,192,75881,1,0,0:0:0:0:
42,192,75967,1,0,0:0:0:0:
128,192,75967,1,0,0:0:0:0:
469,192,76053,128,0,76139:0:0:0:0:
213,192,76053,1,0,0:0:0:0:
298,192,76139,1,0,0:0:0:0:
384,192,76139,1,0,0:0:0:0:
128,192,76225,1,0,0:0:0:0:
42,192,76311,1,0,0:0:0:0:
213,192,76397,1,0,0:0:0:0:
384,192,76397,1,0,0:0:0:0:
469,192,76397,1,0,0:0:0:0:
128,192,76483,1,0,0:0:0:0:
298,192,76569,1,0,0:0:0:0:
469,192,76569,1,0,0:0:0:0:
384,192,76654,1,0,0:0:0:0:
213,192,76654,1,0,0:0:0:0:
298,192,76740,1,0,0:0:0:0:
128,192,76740,1,0,0:0:0:0:
42,192,76740,1,0,0:0:0:0:
469,192,76826,1,0,0:0:0:0:
213,192,76912,1,0,0:0:0:0:
42,192,76912,1,0,0:0:0:0:
128,192,76998,1,0,0:0:0:0:
298,192,76998,1,0,0:0:0:0:
213,192,77084,1,0,0:0:0:0:
384,192,77084,1,0,0:0:0:0:
469,192,77084,1,0,0:0:0:0:
42,192,77170,1,0,0:0:0:0:
128,192,77256,1,0,0:0:0:0:
298,192,77256,1,0,0:0:0:0:
384,192,77342,1,0,0:0:0:0:
213,192,77342,1,0,0:0:0:0:
42,192,77428,1,0,0:0:0:0:
298,192,77428,1,0,0:0:0:0:
469,192,77428,1,0,0:0:0:0:
128,192,77514,1,0,0:0:0:0:
384,192,77514,1,0,0:0:0:0:
213,192,77514,1,0,0:0:0:0:
42,192,77599,1,0,0:0:0:0:
298,192,77599,1,0,0:0:0:0:
213,192,77685,1,0,0:0:0:0:
469,192,77685,1,0,0:0:0:0:
42,192,77771,1,0,0:0:0:0:
128,192,77771,1,0,0:0:0:0:
384,192,77771,1,0,0:0:0:0:
213,192,77857,1,0,0:0:0:0:
298,192,77857,1,0,0:0:0:0:
42,192,77943,1,0,0:0:0:0:
469,192,77943,1,0,0:0:0:0:
384,192,77943,1,0,0:0:0:0:
128,192,78029,1,0,0:0:0:0:
298,192,78029,1,0,0:0:0:0:
213,192,78029,1,0,0:0:0:0:
42,192,78115,1,0,0:0:0:0:
384,192,78115,1,0,0:0:0:0:
469,192,78115,1,0,0:0:0:0:
384,192,78201,1,0,0:0:0:0:
469,192,78201,1,0,0:0:0:0:
128,192,78287,1,0,0:0:0:0:
42,192,78287,1,0,0:0:0:0:
128,192,78373,1,0,0:0:0:0:
213,192,78373,1,0,0:0:0:0:
384,192,78459,1,0,0:0:0:0:
469,192,78459,1,0,0:0:0:0:
298,192,78459,1,0,0:0:0:0:
384,192,78545,1,0,0:0:0:0:
128,192,78545,1,0,0:0:0:0:
128,192,78630,1,0,0:0:0:0:
128,192,78716,1,0,0:0:0:0:
42,192,78716,1,0,0:0:0:0:
298,192,78802,1,0,0:0:0:0:
469,192,78802,1,0,0:0:0:0:
298,192,78888,1,0,0:0:0:0:
213,192,78888,1,0,0:0:0:0:
469,192,78888,1,0,0:0:0:0:
298,192,78974,1,0,0:0:0:0:
469,192,78974,1,0,0:0:0:0:
469,192,79060,1,0,0:0:0:0:
128,192,79146,1,0,0:0:0:0:
42,192,79146,1,0,0:0:0:0:
213,192,79146,1,0,0:0:0:0:
128,192,79232,1,0,0:0:0:0:
298,192,79318,1,0,0:0:0:0:
384,192,79318,1,0,0:0:0:0:
384,192,79404,1,0,0:0:0:0:
298,192,79404,1,0,0:0:0:0:
128,192,79490,1,0,0:0:0:0:
42,192,79490,1,0,0:0:0:0:
42,192,79576,1,0,0:0:0:0:
42,192,79661,1,0,0:0:0:0:
384,192,79661,1,0,0:0:0:0:
469,192,79661,1,0,0:0:0:0:
384,192,79747,1,0,0:0:0:0:
298,192,79747,1,0,0:0:0:0:
128,192,79833,1,0,0:0:0:0:
213,192,79833,1,0,0:0:0:0:
42,192,79833,1,0,0:0:0:0:
128,192,79919,1,0,0:0:0:0:
469,192,80005,1,0,0:0:0:0:
469,192,80091,1,0,0:0:0:0:
384,192,80091,1,0,0:0:0:0:
213,192,80091,1,0,0:0:0:0:
384,192,80177,1,0,0:0:0:0:
213,192,80177,1,0,0:0:0:0:
213,192,80263,1,0,0:0:0:0:
128,192,80263,1,0,0:0:0:0:
298,192,80349,1,0,0:0:0:0:
469,192,80349,1,0,0:0:0:0:
298,192,80435,1,0,0:0:0:0:
469,192,80435,1,0,0:0:0:0:
469,192,80521,1,0,0:0:0:0:
298,192,80521,1,0,0:0:0:0:
213,192,80521,1,0,0:0:0:0:
469,192,80606,1,0,0:0:0:0:
128,192,80692,1,0,0:0:0:0:
42,192,80692,1,0,0:0:0:0:
128,192,80778,1,0,0:0:0:0:
213,192,80778,1,0,0:0:0:0:
384,192,80778,1,0,0:0:0:0:
384,192,80864,1,0,0:0:0:0:
298,192,80864,1,0,0:0:0:0:
384,192,80950,1,0,0:0:0:0:
213,192,81036,1,0,0:0:0:0:
213,192,81122,1,0,0:0:0:0:
128,192,81122,1,0,0:0:0:0:
42,192,81122,1,0,0:0:0:0:
384,192,81208,1,0,0:0:0:0:
469,192,81208,1,0,0:0:0:0:
298,192,81208,1,0,0:0:0:0:
384,192,81294,1,0,0:0:0:0:
42,192,81380,1,0,0:0:0:0:
213,192,81380,1,0,0:0:0:0:
42,192,81466,1,0,0:0:0:0:
213,192,81466,1,0,0:0:0:0:
298,192,81466,1,0,0:0:0:0:
42,192,81552,1,0,0:0:0:0:
213,192,81552,1,0,0:0:0:0:
42,192,81637,1,0,0:0:0:0:
384,192,81637,1,0,0:0:0:0:
469,192,81637,1,0,0:0:0:0:
384,192,81723,1,0,0:0:0:0:
469,192,81723,1,0,0:0:0:0:
128,192,81809,1,0,0:0:0:0:
128,192,81895,1,0,0:0:0:0:
213,192,81895,1,0,0:0:0:0:
384,192,81895,1,0,0:0:0:0:
213,192,81981,1,0,0:0:0:0:
384,192,81981,1,0,0:0:0:0:
384,192,82067,1,0,0:0:0:0:
469,192,82067,1,0,0:0:0:0:
213,192,82153,1,0,0:0:0:0:
128,192,82153,1,0,0:0:0:0:
42,192,82153,1,0,0:0:0:0:
42,192,82239,1,0,0:0:0:0:
298,192,82239,1,0,0:0:0:0:
384,192,82239,1,0,0:0:0:0:
298,192,82325,1,0,0:0:0:0:
298,192,82411,1,0,0:0:0:0:
128,192,82411,1,0,0:0:0:0:
128,192,82497,1,0,0:0:0:0:
42,192,82497,1,0,0:0:0:0:
42,192,82583,1,0,0:0:0:0:
384,192,82583,1,0,0:0:0:0:
469,192,82583,1,0,0:0:0:0:
384,192,82668,1,0,0:0:0:0:
469,192,82668,1,0,0:0:0:0:
213,192,82754,1,0,0:0:0:0:
42,192,82754,1,0,0:0:0:0:
42,192,82840,1,0,0:0:0:0:
213,192,82840,1,0,0:0:0:0:
42,192,82926,1,0,0:0:0:0:
298,192,82926,1,0,0:0:0:0:
213,192,82926,1,0,0:0:0:0:
42,192,83012,1,0,0:0:0:0:
384,192,83098,1,0,0:0:0:0:
298,192,83098,1,0,0:0:0:0:
384,192,83184,1,0,0:0:0:0:
469,192,83184,1,0,0:0:0:0:
213,192,83270,1,0,0:0:0:0:
42,192,83270,1,0,0:0:0:0:
128,192,83270,1,0,0:0:0:0:
298,192,83270,1,0,0:0:0:0:
469,192,83356,1,0,0:0:0:0:
384,192,83442,1,0,0:0:0:0:
469,192,83442,1,0,0:0:0:0:
128,192,83528,1,0,0:0:0:0:
42,192,83528,1,0,0:0:0:0:
469,192,83528,1,0,0:0:0:0:
128,192,83614,1,0,0:0:0:0:
42,192,83614,1,0,0:0:0:0:
298,192,83614,1,0,0:0:0:0:
298,192,83699,1,0,0:0:0:0:
384,192,83699,1,0,0:0:0:0:
298,192,83785,1,0,0:0:0:0:
42,192,83871,1,0,0:0:0:0:
42,192,83957,1,0,0:0:0:0:
128,192,83957,1,0,0:0:0:0:
213,192,83957,1,0,0:0:0:0:
469,192,84043,1,0,0:0:0:0:
469,192,84129,1,0,0:0:0:0:
469,192,84215,1,0,0:0:0:0:
384,192,84215,1,0,0:0:0:0:
42,192,84215,1,0,0:0:0:0:
42,192,84301,1,0,0:0:0:0:
128,192,84301,1,0,0:0:0:0:
128,192,84387,1,0,0:0:0:0:
298,192,84387,1,0,0:0:0:0:
384,192,84387,1,0,0:0:0:0:
384,192,84473,1,0,0:0:0:0:
384,192,84559,1,0,0:0:0:0:
213,192,84644,1,0,0:0:0:0:
128,192,84644,1,0,0:0:0:0:
42,192,84644,1,0,0:0:0:0:
128,192,84730,1,0,0:0:0:0:
298,192,84816,1,0,0:0:0:0:
384,192,84816,1,0,0:0:0:0:
298,192,84902,1,0,0:0:0:0:
384,192,84902,1,0,0:0:0:0:
128,192,84988,1,0,0:0:0:0:
42,192,84988,1,0,0:0:0:0:
469,192,84988,1,0,0:0:0:0:
469,192,85074,1,0,0:0:0:0:
42,192,85074,1,0,0:0:0:0:
128,192,85074,1,0,0:0:0:0:
469,192,85160,1,0,0:0:0:0:
213,192,85246,1,0,0:0:0:0:
469,192,85246,1,0,0:0:0:0:
213,192,85332,1,0,0:0:0:0:
128,192,85332,1,0,0:0:0:0:
42,192,85332,1,0,0:0:0:0:
384,192,85418,1,0,0:0:0:0:
384,192,85504,1,0,0:0:0:0:
298,192,85504,1,0,0:0:0:0:
298,192,85590,1,0,0:0:0:0:
128,192,85590,1,0,0:0:0:0:
128,192,85675,1,0,0:0:0:0:
42,192,85675,1,0,0:0:0:0:
128,192,85761,1,0,0:0:0:0:
384,192,85761,1,0,0:0:0:0:
469,192,85761,1,0,0:0:0:0:
384,192,85847,1,0,0:0:0:0:
469,192,85847,1,0,0:0:0:0:
298,192,85933,1,0,0:0:0:0:
298,192,86019,1,0,0:0:0:0:
213,192,86019,1,0,0:0:0:0:
128,192,86019,1,0,0:0:0:0:
469,192,86105,1,0,0:0:0:0:
469,192,86191,1,0,0:0:0:0:
384,192,86191,1,0,0:0:0:0:
384,192,86277,1,0,0:0:0:0:
42,192,86277,1,0,0:0:0:0:
128,192,86277,1,0,0:0:0:0:
42,192,86363,1,0,0:0:0:0:
128,192,86363,1,0,0:0:0:0:
298,192,86449,1,0,0:0:0:0:
298,192,86535,1,0,0:0:0:0:
298,192,86621,1,0,0:0:0:0:
384,192,86621,1,0,0:0:0:0:
128,192,86621,1,0,0:0:0:0:
128,192,86706,1,0,0:0:0:0:
42,192,86706,1,0,0:0:0:0:
213,192,86706,1,0,0:0:0:0:
469,192,86792,1,0,0:0:0:0:
469,192,86878,1,0,0:0:0:0:
298,192,86878,1,0,0:0:0:0:
298,192,86964,1,0,0:0:0:0:
213,192,86964,1,0,0:0:0:0:
469,192,86964,1,0,0:0:0:0:
469,192,87050,1,0,0:0:0:0:
298,192,87050,1,0,0:0:0:0:
128,192,87136,1,0,0:0:0:0:
42,192,87136,1,0,0:0:0:0:
128,192,87222,1,0,0:0:0:0:
213,192,87222,1,0,0:0:0:0:
469,192,87308,1,0,0:0:0:0:
469,192,87394,1,0,0:0:0:0:
384,192,87394,1,0,0:0:0:0:
42,192,87394,1,0,0:0:0:0:
42,192,87480,1,0,0:0:0:0:
384,192,87480,1,0,0:0:0:0:
42,192,87566,1,0,0:0:0:0:
128,192,87566,1,0,0:0:0:0:
213,192,87651,1,0,0:0:0:0:
298,192,87651,1,0,0:0:0:0:
298,192,87737,1,0,0:0:0:0:
384,192,87737,1,0,0:0:0:0:
128,192,87823,1,0,0:0:0:0:
42,192,87823,1,0,0:0:0:0:
384,192,87909,1,0,0:0:0:0:
298,192,87909,1,0,0:0:0:0:
128,192,87995,1,0,0:0:0:0:
42,192,87995,1,0,0:0:0:0:
384,192,88081,1,0,0:0:0:0:
469,192,88081,1,0,0:0:0:0:
213,192,88167,1,0,0:0:0:0:
128,192,88167,1,0,0:0:0:0:
469,192,88253,1,0,0:0:0:0:
384,192,88253,1,0,0:0:0:0:
213,192,88339,1,0,0:0:0:0:
128,192,88339,1,0,0:0:0:0:
384,192,88425,1,0,0:0:0:0:
469,192,88425,1,0,0:0:0:0:
213,192,88511,1,0,0:0:0:0:
128,192,88511,1,0,0:0:0:0:
384,192,88597,1,0,0:0:0:0:
469,192,88597,1,0,0:0:0:0:
213,192,88682,1,0,0:0:0:0:
128,192,88682,1,0,0:0:0:0:
384,192,88768,1,0,0:0:0:0:
469,192,88768,1,0,0:0:0:0:
213,192,88854,1,0,0:0:0:0:
128,192,88854,1,0,0:0:0:0:
384,192,88940,1,0,0:0:0:0:
469,192,88940,1,0,0:0:0:0:
213,192,89026,1,0,0:0:0:0:
128,192,89026,1,0,0:0:0:0:
298,192,89112,1,0,0:0:0:0:
42,192,89112,128,0,91861:0:0:0:0:
469,192,89112,1,0,0:0:0:0:
128,192,89198,1,0,0:0:0:0:
213,192,89284,1,0,0:0:0:0:
298,192,89370,1,0,0:0:0:0:
384,192,89456,1,0,0:0:0:0:
469,192,89456,1,0,0:0:0:0:
213,192,89542,1,0,0:0:0:0:
128,192,89628,1,0,0:0:0:0:
469,192,89628,1,0,0:0:0:0:
298,192,89713,1,0,0:0:0:0:
213,192,89799,1,0,0:0:0:0:
469,192,89885,1,0,0:0:0:0:
298,192,89971,1,0,0:0:0:0:
128,192,89971,1,0,0:0:0:0:
384,192,90057,1,0,0:0:0:0:
128,192,90143,1,0,0:0:0:0:
469,192,90143,1,0,0:0:0:0:
298,192,90229,1,0,0:0:0:0:
213,192,90315,1,0,0:0:0:0:
384,192,90401,1,0,0:0:0:0:
128,192,90487,1,0,0:0:0:0:
469,192,90487,1,0,0:0:0:0:
298,192,90573,1,0,0:0:0:0:
213,192,90659,1,0,0:0:0:0:
128,192,90659,1,0,0:0:0:0:
384,192,90744,1,0,0:0:0:0:
298,192,90830,1,0,0:0:0:0:
469,192,90830,1,0,0:0:0:0:
213,192,90916,1,0,0:0:0:0:
128,192,91002,1,0,0:0:0:0:
384,192,91002,1,0,0:0:0:0:
298,192,91088,1,0,0:0:0:0:
213,192,91174,1,0,0:0:0:0:
469,192,91260,1,0,0:0:0:0:
298,192,91346,1,0,0:0:0:0:
128,192,91346,1,0,0:0:0:0:
384,192,91432,1,0,0:0:0:0:
128,192,91518,1,0,0:0:0:0:
469,192,91518,1,0,0:0:0:0:
298,192,91604,1,0,0:0:0:0:
213,192,91689,1,0,0:0:0:0:
384,192,91775,1,0,0:0:0:0:
128,192,91861,1,0,0:0:0:0:
298,192,91861,1,0,0:0:0:0:
469,192,91861,1,0,0:0:0:0:
213,192,91947,1,0,0:0:0:0:
298,192,92033,1,0,0:0:0:0:
384,192,92033,1,0,0:0:0:0:
42,192,92119,1,0,0:0:0:0:
298,192,92205,1,0,0:0:0:0:
469,192,92205,1,0,0:0:0:0:
213,192,92291,1,0,0:0:0:0:
128,192,92377,1,0,0:0:0:0:
42,192,92377,1,0,0:0:0:0:
469,192,92377,1,0,0:0:0:0:
384,192,92463,1,0,0:0:0:0:
213,192,92549,128,0,93236:0:0:0:0:
298,192,92549,1,0,0:0:0:0:
469,192,92635,1,0,0:0:0:0:
384,192,92720,1,0,0:0:0:0:
42,192,92720,1,0,0:0:0:0:
128,192,92806,1,0,0:0:0:0:
298,192,92892,1,0,0:0:0:0:
469,192,92892,1,0,0:0:0:0:
42,192,92978,1,0,0:0:0:0:
298,192,93064,1,0,0:0:0:0:
128,192,93150,1,0,0:0:0:0:
384,192,93236,128,0,93923:0:0:0:0:
42,192,93236,1,0,0:0:0:0:
469,192,93236,1,0,0:0:0:0:
213,192,93322,1,0,0:0:0:0:
128,192,93408,1,0,0:0:0:0:
298,192,93408,1,0,0:0:0:0:
42,192,93494,1,0,0:0:0:0:
213,192,93580,1,0,0:0:0:0:
469,192,93580,1,0,0:0:0:0:
42,192,93666,1,0,0:0:0:0:
213,192,93751,1,0,0:0:0:0:
298,192,93751,1,0,0:0:0:0:
469,192,93837,1,0,0:0:0:0:
128,192,93923,128,0,94611:0:0:0:0:
42,192,93923,1,0,0:0:0:0:
298,192,94009,1,0,0:0:0:0:
213,192,94095,1,0,0:0:0:0:
469,192,94095,1,0,0:0:0:0:
42,192,94181,1,0,0:0:0:0:
298,192,94267,1,0,0:0:0:0:
469,192,94267,1,0,0:0:0:0:
213,192,94353,1,0,0:0:0:0:
384,192,94439,1,0,0:0:0:0:
469,192,94525,1,0,0:0:0:0:
298,192,94611,128,0,95298:0:0:0:0:
42,192,94611,1,0,0:0:0:0:
213,192,94611,1,0,0:0:0:0:
384,192,94696,1,0,0:0:0:0:
128,192,94782,1,0,0:0:0:0:
213,192,94868,1,0,0:0:0:0:
42,192,94954,1,0,0:0:0:0:
469,192,94954,1,0,0:0:0:0:
384,192,95040,1,0,0:0:0:0:
213,192,95126,1,0,0:0:0:0:
42,192,95126,1,0,0:0:0:0:
128,192,95212,1,0,0:0:0:0:
469,192,95298,128,0,97360:0:0:0:0:
213,192,95298,1,0,0:0:0:0:
384,192,95384,1,0,0:0:0:0:
298,192,95470,1,0,0:0:0:0:
128,192,95470,1,0,0:0:0:0:
42,192,95556,1,0,0:0:0:0:
213,192,95642,1,0,0:0:0:0:
384,192,95642,1,0,0:0:0:0:
298,192,95727,1,0,0:0:0:0:
213,192,95813,1,0,0:0:0:0:
128,192,95899,1,0,0:0:0:0:
42,192,95985,1,0,0:0:0:0:
384,192,95985,1,0,0:0:0:0:
213,192,96071,1,0,0:0:0:0:
298,192,96157,1,0,0:0:0:0:
384,192,96157,1,0,0:0:0:0:
42,192,96243,1,0,0:0:0:0:
128,192,96329,1,0,0:0:0:0:
298,192,96329,1,0,0:0:0:0:
213,192,96415,1,0,0:0:0:0:
128,192,96501,1,0,0:0:0:0:
384,192,96501,1,0,0:0:0:0:
42,192,96587,1,0,0:0:0:0:
213,192,96673,1,0,0:0:0:0:
384,192,96673,1,0,0:0:0:0:
128,192,96758,1,0,0:0:0:0:
42,192,96844,1,0,0:0:0:0:
298,192,96844,1,0,0:0:0:0:
384,192,96930,1,0,0:0:0:0:
128,192,97016,1,0,0:0:0:0:
42,192,97016,1,0,0:0:0:0:
213,192,97102,1,0,0:0:0:0:
298,192,97188,1,0,0:0:0:0:
384,192,97274,1,0,0:0:0:0:
213,192,97360,128,0,98047:0:0:0:0:
128,192,97360,1,0,0:0:0:0:
42,192,97360,1,0,0:0:0:0:
384,192,97446,1,0,0:0:0:0:
298,192,97532,1,0,0:0:0:0:
128,192,97618,1,0,0:0:0:0:
42,192,97703,1,0,0:0:0:0:
469,192,97703,1,0,0:0:0:0:
298,192,97789,1,0,0:0:0:0:
384,192,97875,1,0,0:0:0:0:
469,192,97875,1,0,0:0:0:0:
128,192,97961,1,0,0:0:0:0:
42,192,98047,128,0,99937:0:0:0:0:
298,192,98047,1,0,0:0:0:0:
384,192,98133,1,0,0:0:0:0:
469,192,98219,1,0,0:0:0:0:
213,192,98219,1,0,0:0:0:0:
298,192,98305,1,0,0:0:0:0:
384,192,98391,1,0,0:0:0:0:
128,192,98391,1,0,0:0:0:0:
213,192,98477,1,0,0:0:0:0:
298,192,98563,1,0,0:0:0:0:
128,192,98649,1,0,0:0:0:0:
469,192,98734,1,0,0:0:0:0:
298,192,98820,1,0,0:0:0:0:
469,192,98906,1,0,0:0:0:0:
298,192,98992,1,0,0:0:0:0:
469,192,99078,1,0,0:0:0:0:
298,192,99164,1,0,0:0:0:0:
469,192,99250,1,0,0:0:0:0:
298,192,99336,1,0,0:0:0:0:
469,192,99422,1,0,0:0:0:0:
128,192,99422,128,0,99937:0:0:0:0:
298,192,99508,1,0,0:0:0:0:
469,192,99594,1,0,0:0:0:0:
298,192,99680,1,0,0:0:0:0:
469,192,99765,1,0,0:0:0:0:
298,192,99851,1,0,0:0:0:0:
469,192,99937,1,0,0:0:0:0:
298,192,100023,1,0,0:0:0:0:
213,192,100109,1,0,0:0:0:0:
42,192,100109,1,0,0:0:0:0:
384,192,100109,1,0,0:0:0:0:
469,192,100109,1,0,0:0:0:0:
128,192,100195,1,0,0:0:0:0:
213,192,100281,1,0,0:0:0:0:
42,192,100367,1,0,0:0:0:0:
469,192,100367,1,0,0:0:0:0:
384,192,100367,1,0,0:0:0:0:
213,192,100453,1,0,0:0:0:0:
128,192,100453,1,0,0:0:0:0:
42,192,100453,1,0,0:0:0:0:
298,192,100453,1,0,0:0:0:0:
384,192,100539,1,0,0:0:0:0:
128,192,100625,1,0,0:0:0:0:
213,192,100625,1,0,0:0:0:0:
469,192,100625,1,0,0:0:0:0:
298,192,100711,1,0,0:0:0:0:
128,192,100796,1,0,0:0:0:0:
42,192,100796,1,0,0:0:0:0:
384,192,100796,1,0,0:0:0:0:
469,192,100796,1,0,0:0:0:0:
213,192,100882,1,0,0:0:0:0:
128,192,100882,1,0,0:0:0:0:
42,192,100882,1,0,0:0:0:0:
298,192,100968,1,0,0:0:0:0:
128,192,101054,1,0,0:0:0:0:
384,192,101054,1,0,0:0:0:0:
469,192,101054,1,0,0:0:0:0:
469,192,101140,1,0,0:0:0:0:
384,192,101140,1,0,0:0:0:0:
298,192,101140,1,0,0:0:0:0:
42,192,101140,1,0,0:0:0:0:
213,192,101226,1,0,0:0:0:0:
128,192,101312,1,0,0:0:0:0:
42,192,101312,1,0,0:0:0:0:
384,192,101312,1,0,0:0:0:0:
298,192,101398,1,0,0:0:0:0:
213,192,101484,1,0,0:0:0:0:
128,192,101484,1,0,0:0:0:0:
42,192,101484,1,0,0:0:0:0:
469,192,101484,1,0,0:0:0:0:
384,192,101570,1,0,0:0:0:0:
298,192,101656,1,0,0:0:0:0:
42,192,101741,1,0,0:0:0:0:
128,192,101741,1,0,0:0:0:0:
469,192,101741,1,0,0:0:0:0:
213,192,101827,1,0,0:0:0:0:
298,192,101827,1,0,0:0:0:0:
384,192,101827,1,0,0:0:0:0:
469,192,101827,1,0,0:0:0:0:
128,192,101913,1,0,0:0:0:0:
42,192,101999,1,0,0:0:0:0:
298,192,101999,1,0,0:0:0:0:
384,192,101999,1,0,0:0:0:0:
213,192,102085,1,0,0:0:0:0:
128,192,102171,1,0,0:0:0:0:
42,192,102171,1,0,0:0:0:0:
384,192,102171,1,0,0:0:0:0:
469,192,102171,1,0,0:0:0:0:
298,192,102257,1,0,0:0:0:0:
384,192,102257,1,0,0:0:0:0:
469,192,102257,1,0,0:0:0:0:
213,192,102343,1,0,0:0:0:0:
128,192,102429,1,0,0:0:0:0:
42,192,102429,1,0,0:0:0:0:
384,192,102429,1,0,0:0:0:0:
213,192,102515,1,0,0:0:0:0:
128,192,102515,1,0,0:0:0:0:
42,192,102515,1,0,0:0:0:0:
469,192,102515,1,0,0:0:0:0:
298,192,102601,1,0,0:0:0:0:
128,192,102687,1,0,0:0:0:0:
384,192,102687,1,0,0:0:0:0:
469,192,102687,1,0,0:0:0:0:
213,192,102772,1,0,0:0:0:0:
128,192,102858,1,0,0:0:0:0:
42,192,102858,1,0,0:0:0:0:
298,192,102858,1,0,0:0:0:0:
469,192,102858,1,0,0:0:0:0:
384,192,102944,1,0,0:0:0:0:
298,192,103030,1,0,0:0:0:0:
213,192,103116,1,0,0:0:0:0:
42,192,103116,1,0,0:0:0:0:
128,192,103116,1,0,0:0:0:0:
128,192,103202,1,0,0:0:0:0:
213,192,103202,1,0,0:0:0:0:
384,192,103202,1,0,0:0:0:0:
469,192,103202,1,0,0:0:0:0:
298,192,103288,1,0,0:0:0:0:
128,192,103374,1,0,0:0:0:0:
42,192,103374,1,0,0:0:0:0:
384,192,103374,1,0,0:0:0:0:
213,192,103460,1,0,0:0:0:0:
42,192,103546,1,0,0:0:0:0:
298,192,103546,1,0,0:0:0:0:
469,192,103546,1,0,0:0:0:0:
384,192,103546,1,0,0:0:0:0:
384,192,103632,1,0,0:0:0:0:
298,192,103632,1,0,0:0:0:0:
128,192,103632,1,0,0:0:0:0:
213,192,103718,1,0,0:0:0:0:
469,192,103803,1,0,0:0:0:0:
384,192,103803,1,0,0:0:0:0:
128,192,103803,1,0,0:0:0:0:
298,192,103889,1,0,0:0:0:0:
384,192,103889,1,0,0:0:0:0:
469,192,103889,1,0,0:0:0:0:
42,192,103889,1,0,0:0:0:0:
213,192,103975,1,0,0:0:0:0:
128,192,104061,1,0,0:0:0:0:
384,192,104061,1,0,0:0:0:0:
469,192,104061,1,0,0:0:0:0:
298,192,104147,1,0,0:0:0:0:
213,192,104233,1,0,0:0:0:0:
42,192,104233,1,0,0:0:0:0:
384,192,104233,1,0,0:0:0:0:
469,192,104233,1,0,0:0:0:0:
128,192,104319,1,0,0:0:0:0:
213,192,104405,1,0,0:0:0:0:
384,192,104491,1,0,0:0:0:0:
298,192,104491,1,0,0:0:0:0:
469,192,104491,1,0,0:0:0:0:
384,192,104577,1,0,0:0:0:0:
298,192,104577,1,0,0:0:0:0:
128,192,104577,1,0,0:0:0:0:
42,192,104577,1,0,0:0:0:0:
213,192,104663,1,0,0:0:0:0:
128,192,104748,1,0,0:0:0:0:
384,192,104748,1,0,0:0:0:0:
469,192,104748,1,0,0:0:0:0:
298,192,104834,1,0,0:0:0:0:
42,192,104920,1,0,0:0:0:0:
469,192,104920,1,0,0:0:0:0:
128,192,104920,1,0,0:0:0:0:
213,192,104920,1,0,0:0:0:0:
213,192,105006,1,0,0:0:0:0:
128,192,105006,1,0,0:0:0:0:
384,192,105006,1,0,0:0:0:0:
298,192,105092,1,0,0:0:0:0:
128,192,105178,1,0,0:0:0:0:
42,192,105178,1,0,0:0:0:0:
384,192,105178,1,0,0:0:0:0:
42,192,105264,1,0,0:0:0:0:
128,192,105264,1,0,0:0:0:0:
469,192,105264,1,0,0:0:0:0:
213,192,105264,1,0,0:0:0:0:
298,192,105350,1,0,0:0:0:0:
128,192,105436,1,0,0:0:0:0:
42,192,105436,1,0,0:0:0:0:
384,192,105436,1,0,0:0:0:0:
213,192,105522,1,0,0:0:0:0:
128,192,105522,1,0,0:0:0:0:
42,192,105522,1,0,0:0:0:0:
469,192,105522,1,0,0:0:0:0:
298,192,105608,1,0,0:0:0:0:
384,192,105608,1,0,0:0:0:0:
469,192,105608,1,0,0:0:0:0:
213,192,105694,1,0,0:0:0:0:
128,192,105779,1,0,0:0:0:0:
42,192,105779,1,0,0:0:0:0:
469,192,105779,1,0,0:0:0:0:
384,192,105779,1,0,0:0:0:0:
298,192,105837,1,0,0:0:0:0:
213,192,105894,1,0,0:0:0:0:
128,192,105951,1,0,0:0:0:0:
42,192,105951,1,0,0:0:0:0:
384,192,105951,1,0,0:0:0:0:
469,192,105951,1,0,0:0:0:0:
298,192,106037,1,0,0:0:0:0:
213,192,106123,1,0,0:0:0:0:
128,192,106123,1,0,0:0:0:0:
42,192,106123,1,0,0:0:0:0:
469,192,106123,1,0,0:0:0:0:
384,192,106209,1,0,0:0:0:0:
298,192,106295,1,0,0:0:0:0:
213,192,106295,1,0,0:0:0:0:
128,192,106295,1,0,0:0:0:0:
42,192,106295,1,0,0:0:0:0:
384,192,106381,1,0,0:0:0:0:
469,192,106467,1,0,0:0:0:0:
128,192,106467,1,0,0:0:0:0:
42,192,106467,1,0,0:0:0:0:
298,192,106467,1,0,0:0:0:0:
213,192,106524,1,0,0:0:0:0:
384,192,106581,1,0,0:0:0:0:
298,192,106639,1,0,0:0:0:0:
128,192,106639,1,0,0:0:0:0:
42,192,106639,1,0,0:0:0:0:
469,192,106639,1,0,0:0:0:0:
213,192,106725,1,0,0:0:0:0:
42,192,106810,1,0,0:0:0:0:
298,192,106810,1,0,0:0:0:0:
384,192,106810,1,0,0:0:0:0:
469,192,106810,1,0,0:0:0:0:
128,192,106896,1,0,0:0:0:0:
213,192,106982,1,0,0:0:0:0:
298,192,106982,1,0,0:0:0:0:
384,192,106982,1,0,0:0:0:0:
469,192,106982,1,0,0:0:0:0:
128,192,107068,1,0,0:0:0:0:
42,192,107154,1,0,0:0:0:0:
384,192,107154,1,0,0:0:0:0:
469,192,107154,1,0,0:0:0:0:
213,192,107154,1,0,0:0:0:0:
298,192,107211,1,0,0:0:0:0:
128,192,107269,1,0,0:0:0:0:
384,192,107326,1,0,0:0:0:0:
469,192,107326,1,0,0:0:0:0:
213,192,107326,1,0,0:0:0:0:
42,192,107326,1,0,0:0:0:0:
298,192,107412,1,0,0:0:0:0:
213,192,107498,1,0,0:0:0:0:
128,192,107498,1,0,0:0:0:0:
42,192,107498,1,0,0:0:0:0:
469,192,107498,1,0,0:0:0:0:
384,192,107584,1,0,0:0:0:0:
298,192,107670,1,0,0:0:0:0:
213,192,107670,1,0,0:0:0:0:
128,192,107670,1,0,0:0:0:0:
42,192,107670,1,0,0:0:0:0:
384,192,107756,1,0,0:0:0:0:
469,192,107841,1,0,0:0:0:0:
298,192,107841,1,0,0:0:0:0:
128,192,107841,1,0,0:0:0:0:
42,192,107841,1,0,0:0:0:0:
213,192,107899,1,0,0:0:0:0:
384,192,107956,1,0,0:0:0:0:
42,192,108013,1,0,0:0:0:0:
128,192,108013,1,0,0:0:0:0:
298,192,108013,1,0,0:0:0:0:
469,192,108013,1,0,0:0:0:0:
213,192,108099,1,0,0:0:0:0:
42,192,108185,1,0,0:0:0:0:
298,192,108185,1,0,0:0:0:0:
384,192,108185,1,0,0:0:0:0:
469,192,108185,1,0,0:0:0:0:
128,192,108271,1,0,0:0:0:0:
384,192,108357,1,0,0:0:0:0:
469,192,108357,1,0,0:0:0:0:
298,192,108357,1,0,0:0:0:0:
128,192,108443,1,0,0:0:0:0:
42,192,108443,1,0,0:0:0:0:
213,192,108443,1,0,0:0:0:0:
298,192,108529,1,0,0:0:0:0:
384,192,108529,1,0,0:0:0:0:
469,192,108529,1,0,0:0:0:0:
213,192,108615,1,0,0:0:0:0:
128,192,108615,1,0,0:0:0:0:
42,192,108615,1,0,0:0:0:0:
384,192,108701,1,0,0:0:0:0:
469,192,108701,1,0,0:0:0:0:
298,192,108701,1,0,0:0:0:0:
213,192,108786,1,0,0:0:0:0:
128,192,108786,1,0,0:0:0:0:
42,192,108786,1,0,0:0:0:0:
298,192,108872,1,0,0:0:0:0:
384,192,108872,1,0,0:0:0:0:
469,192,108872,1,0,0:0:0:0:
213,192,108958,1,0,0:0:0:0:
128,192,108958,1,0,0:0:0:0:
42,192,108958,1,0,0:0:0:0:
298,192,109044,1,0,0:0:0:0:
384,192,109044,1,0,0:0:0:0:
469,192,109044,1,0,0:0:0:0:
213,192,109130,1,0,0:0:0:0:
128,192,109130,1,0,0:0:0:0:
42,192,109130,1,0,0:0:0:0:
298,192,109216,1,0,0:0:0:0:
384,192,109216,1,0,0:0:0:0:
469,192,109216,1,0,0:0:0:0:
213,192,109302,1,0,0:0:0:0:
128,192,109302,1,0,0:0:0:0:
42,192,109302,1,0,0:0:0:0:
298,192,109388,1,0,0:0:0:0:
384,192,109388,1,0,0:0:0:0:
469,192,109388,1,0,0:0:0:0:
213,192,109474,1,0,0:0:0:0:
128,192,109474,1,0,0:0:0:0:
42,192,109474,1,0,0:0:0:0:
298,192,109560,1,0,0:0:0:0:
384,192,109560,1,0,0:0:0:0:
469,192,109560,1,0,0:0:0:0:
213,192,109646,1,0,0:0:0:0:
128,192,109646,1,0,0:0:0:0:
42,192,109646,1,0,0:0:0:0:
384,192,109732,1,0,0:0:0:0:
298,192,109732,1,0,0:0:0:0:
469,192,109732,1,0,0:0:0:0:
213,192,109774,1,0,0:0:0:0:
128,192,109817,1,0,0:0:0:0:
42,192,109860,1,0,0:0:0:0:
384,192,109903,1,0,0:0:0:0:
298,192,109946,1,0,0:0:0:0:
213,192,109989,1,0,0:0:0:0:
128,192,110032,1,0,0:0:0:0:
469,192,110075,1,0,0:0:0:0:
384,192,110118,1,0,0:0:0:0:
298,192,110161,1,0,0:0:0:0:
213,192,110204,1,0,0:0:0:0:
42,192,110247,1,0,0:0:0:0:
128,192,110290,1,0,0:0:0:0:
213,192,110333,1,0,0:0:0:0:
298,192,110376,1,0,0:0:0:0:
469,192,110419,1,0,0:0:0:0:
128,192,110419,1,0,0:0:0:0:
42,192,110419,1,0,0:0:0:0:
384,192,110419,1,0,0:0:0:0:
298,192,111106,1,0,0:0:0:0:
469,192,111106,1,0,0:0:0:0:
42,192,111106,128,0,113168:0:0:0:0:
469,192,113397,128,0,113626:0:0:0:0:
384,192,113626,128,0,113855:0:0:0:0:
298,192,113855,128,0,115230:0:0:0:0:
42,192,115230,128,0,116261:0:0:0:0:
469,192,116605,128,0,117292:0:0:0:0:
213,192,117292,128,0,118667:0:0:0:0:
298,192,118667,128,0,119354:0:0:0:0:
384,192,119354,128,0,121931:0:0:0:0:
42,192,120729,1,0,0:0:0:0:
213,192,120815,1,0,0:0:0:0:
42,192,120900,1,0,0:0:0:0:
213,192,120986,1,0,0:0:0:0:
42,192,121072,1,0,0:0:0:0:
213,192,121158,1,0,0:0:0:0:
42,192,121244,1,0,0:0:0:0:
213,192,121330,1,0,0:0:0:0:
42,192,121416,1,0,0:0:0:0:
213,192,121502,1,0,0:0:0:0:
42,192,121588,1,0,0:0:0:0:
213,192,121674,1,0,0:0:0:0:
42,192,121760,1,0,0:0:0:0:
213,192,121845,1,0,0:0:0:0:
42,192,121931,1,0,0:0:0:0:
213,192,122017,1,0,0:0:0:0:
384,192,122103,1,0,0:0:0:0:
469,192,122103,1,0,0:0:0:0:
128,192,122103,1,0,0:0:0:0:
42,192,122103,1,0,0:0:0:0:
298,192,122189,1,0,0:0:0:0:
213,192,122275,1,0,0:0:0:0:
384,192,122361,1,0,0:0:0:0:
298,192,122361,1,0,0:0:0:0:
128,192,122361,1,0,0:0:0:0:
469,192,122447,1,0,0:0:0:0:
384,192,122447,1,0,0:0:0:0:
42,192,122447,1,0,0:0:0:0:
298,192,122447,1,0,0:0:0:0:
213,192,122533,1,0,0:0:0:0:
384,192,122619,1,0,0:0:0:0:
469,192,122619,1,0,0:0:0:0:
128,192,122619,1,0,0:0:0:0:
298,192,122705,1,0,0:0:0:0:
469,192,122791,1,0,0:0:0:0:
384,192,122791,1,0,0:0:0:0:
213,192,122791,1,0,0:0:0:0:
42,192,122791,1,0,0:0:0:0:
469,192,122876,1,0,0:0:0:0:
384,192,122876,1,0,0:0:0:0:
128,192,122876,1,0,0:0:0:0:
213,192,122962,1,0,0:0:0:0:
469,192,123048,1,0,0:0:0:0:
384,192,123048,1,0,0:0:0:0:
298,192,123048,1,0,0:0:0:0:
384,192,123134,1,0,0:0:0:0:
298,192,123134,1,0,0:0:0:0:
128,192,123134,1,0,0:0:0:0:
42,192,123134,1,0,0:0:0:0:
213,192,123220,1,0,0:0:0:0:
469,192,123306,1,0,0:0:0:0:
384,192,123306,1,0,0:0:0:0:
298,192,123306,1,0,0:0:0:0:
213,192,123392,1,0,0:0:0:0:
128,192,123478,1,0,0:0:0:0:
42,192,123478,1,0,0:0:0:0:
384,192,123478,1,0,0:0:0:0:
469,192,123478,1,0,0:0:0:0:
213,192,123564,1,0,0:0:0:0:
298,192,123650,1,0,0:0:0:0:
213,192,123736,1,0,0:0:0:0:
128,192,123736,1,0,0:0:0:0:
384,192,123736,1,0,0:0:0:0:
128,192,123822,1,0,0:0:0:0:
42,192,123822,1,0,0:0:0:0:
469,192,123822,1,0,0:0:0:0:
213,192,123822,1,0,0:0:0:0:
298,192,123907,1,0,0:0:0:0:
42,192,123993,1,0,0:0:0:0:
128,192,123993,1,0,0:0:0:0:
384,192,123993,1,0,0:0:0:0:
213,192,124079,1,0,0:0:0:0:
128,192,124165,1,0,0:0:0:0:
42,192,124165,1,0,0:0:0:0:
298,192,124165,1,0,0:0:0:0:
469,192,124165,1,0,0:0:0:0:
42,192,124251,1,0,0:0:0:0:
128,192,124251,1,0,0:0:0:0:
384,192,124251,1,0,0:0:0:0:
298,192,124337,1,0,0:0:0:0:
128,192,124423,1,0,0:0:0:0:
42,192,124423,1,0,0:0:0:0:
213,192,124423,1,0,0:0:0:0:
213,192,124509,1,0,0:0:0:0:
128,192,124509,1,0,0:0:0:0:
384,192,124509,1,0,0:0:0:0:
469,192,124509,1,0,0:0:0:0:
298,192,124595,1,0,0:0:0:0:
128,192,124681,1,0,0:0:0:0:
42,192,124681,1,0,0:0:0:0:
213,192,124681,1,0,0:0:0:0:
298,192,124767,1,0,0:0:0:0:
384,192,124853,1,0,0:0:0:0:
469,192,124853,1,0,0:0:0:0:
128,192,124853,1,0,0:0:0:0:
42,192,124853,1,0,0:0:0:0:
298,192,124938,1,0,0:0:0:0:
213,192,125024,1,0,0:0:0:0:
384,192,125110,1,0,0:0:0:0:
469,192,125110,1,0,0:0:0:0:
128,192,125110,1,0,0:0:0:0:
469,192,125196,1,0,0:0:0:0:
384,192,125196,1,0,0:0:0:0:
42,192,125196,1,0,0:0:0:0:
298,192,125196,1,0,0:0:0:0:
213,192,125282,1,0,0:0:0:0:
298,192,125368,1,0,0:0:0:0:
469,192,125368,1,0,0:0:0:0:
128,192,125368,1,0,0:0:0:0:
384,192,125454,1,0,0:0:0:0:
469,192,125540,1,0,0:0:0:0:
298,192,125540,1,0,0:0:0:0:
213,192,125540,1,0,0:0:0:0:
42,192,125540,1,0,0:0:0:0:
298,192,125626,1,0,0:0:0:0:
469,192,125626,1,0,0:0:0:0:
128,192,125626,1,0,0:0:0:0:
213,192,125712,1,0,0:0:0:0:
469,192,125798,1,0,0:0:0:0:
384,192,125798,1,0,0:0:0:0:
298,192,125798,1,0,0:0:0:0:
384,192,125883,1,0,0:0:0:0:
469,192,125883,1,0,0:0:0:0:
128,192,125883,1,0,0:0:0:0:
42,192,125883,1,0,0:0:0:0:
213,192,125969,1,0,0:0:0:0:
469,192,126055,1,0,0:0:0:0:
384,192,126055,1,0,0:0:0:0:
298,192,126055,1,0,0:0:0:0:
213,192,126141,1,0,0:0:0:0:
128,192,126227,1,0,0:0:0:0:
42,192,126227,1,0,0:0:0:0:
384,192,126227,1,0,0:0:0:0:
469,192,126227,1,0,0:0:0:0:
213,192,126313,1,0,0:0:0:0:
298,192,126399,1,0,0:0:0:0:
42,192,126485,1,0,0:0:0:0:
128,192,126485,1,0,0:0:0:0:
384,192,126485,1,0,0:0:0:0:
128,192,126571,1,0,0:0:0:0:
42,192,126571,1,0,0:0:0:0:
469,192,126571,1,0,0:0:0:0:
213,192,126571,1,0,0:0:0:0:
298,192,126657,1,0,0:0:0:0:
42,192,126743,1,0,0:0:0:0:
213,192,126743,1,0,0:0:0:0:
384,192,126743,1,0,0:0:0:0:
128,192,126829,1,0,0:0:0:0:
213,192,126914,1,0,0:0:0:0:
42,192,126914,1,0,0:0:0:0:
298,192,126914,1,0,0:0:0:0:
469,192,126914,1,0,0:0:0:0:
42,192,127000,1,0,0:0:0:0:
213,192,127000,1,0,0:0:0:0:
384,192,127000,1,0,0:0:0:0:
298,192,127086,1,0,0:0:0:0:
128,192,127172,1,0,0:0:0:0:
42,192,127172,1,0,0:0:0:0:
213,192,127172,1,0,0:0:0:0:
42,192,127258,1,0,0:0:0:0:
128,192,127258,1,0,0:0:0:0:
384,192,127258,1,0,0:0:0:0:
469,192,127258,1,0,0:0:0:0:
298,192,127344,1,0,0:0:0:0:
128,192,127430,1,0,0:0:0:0:
42,192,127430,1,0,0:0:0:0:
213,192,127430,1,0,0:0:0:0:
298,192,127516,1,0,0:0:0:0:
128,192,127516,1,0,0:0:0:0:
384,192,127516,1,0,0:0:0:0:
469,192,127516,1,0,0:0:0:0:
213,192,127602,1,0,0:0:0:0:
469,192,127602,1,0,0:0:0:0:
298,192,127645,1,0,0:0:0:0:
384,192,127688,1,0,0:0:0:0:
128,192,127731,1,0,0:0:0:0:
42,192,127774,1,0,0:0:0:0:
469,192,127774,1,0,0:0:0:0:
298,192,127817,1,0,0:0:0:0:
213,192,127860,1,0,0:0:0:0:
128,192,127902,1,0,0:0:0:0:
384,192,127945,1,0,0:0:0:0:
469,192,127945,1,0,0:0:0:0:
213,192,127988,1,0,0:0:0:0:
298,192,128031,1,0,0:0:0:0:
384,192,128074,1,0,0:0:0:0:
42,192,128117,1,0,0:0:0:0:
128,192,128117,1,0,0:0:0:0:
469,192,128160,1,0,0:0:0:0:
213,192,128203,1,0,0:0:0:0:
128,192,128246,1,0,0:0:0:0:
42,192,128289,1,0,0:0:0:0:
384,192,128289,1,0,0:0:0:0:
213,192,128332,1,0,0:0:0:0:
298,192,128375,1,0,0:0:0:0:
469,192,128418,1,0,0:0:0:0:
384,192,128461,1,0,0:0:0:0:
128,192,128461,1,0,0:0:0:0:
42,192,128504,1,0,0:0:0:0:
298,192,128547,1,0,0:0:0:0:
213,192,128590,1,0,0:0:0:0:
469,192,128633,1,0,0:0:0:0:
128,192,128633,1,0,0:0:0:0:
298,192,128676,1,0,0:0:0:0:
384,192,128719,1,0,0:0:0:0:
42,192,128762,1,0,0:0:0:0:
213,192,128805,1,0,0:0:0:0:
469,192,128805,1,0,0:0:0:0:
128,192,128848,1,0,0:0:0:0:
384,192,128890,1,0,0:0:0:0:
298,192,128933,1,0,0:0:0:0:
213,192,128976,1,0,0:0:0:0:
42,192,128976,1,0,0:0:0:0:
469,192,129019,1,0,0:0:0:0:
128,192,129062,1,0,0:0:0:0:
298,192,129105,1,0,0:0:0:0:
42,192,129148,1,0,0:0:0:0:
384,192,129148,1,0,0:0:0:0:
469,192,129191,1,0,0:0:0:0:
213,192,129234,1,0,0:0:0:0:
128,192,129277,1,0,0:0:0:0:
42,192,129320,1,0,0:0:0:0:
384,192,129320,1,0,0:0:0:0:
213,192,129363,1,0,0:0:0:0:
298,192,129406,1,0,0:0:0:0:
469,192,129449,1,0,0:0:0:0:
128,192,129492,1,0,0:0:0:0:
42,192,129492,1,0,0:0:0:0:
384,192,129535,1,0,0:0:0:0:
213,192,129578,1,0,0:0:0:0:
128,192,129621,1,0,0:0:0:0:
42,192,129664,1,0,0:0:0:0:
298,192,129664,1,0,0:0:0:0:
469,192,129707,1,0,0:0:0:0:
128,192,129750,1,0,0:0:0:0:
213,192,129793,1,0,0:0:0:0:
384,192,129836,1,0,0:0:0:0:
469,192,129836,1,0,0:0:0:0:
42,192,129879,1,0,0:0:0:0:
298,192,129921,1,0,0:0:0:0:
213,192,129964,1,0,0:0:0:0:
128,192,130007,1,0,0:0:0:0:
469,192,130007,1,0,0:0:0:0:
42,192,130050,1,0,0:0:0:0:
213,192,130093,1,0,0:0:0:0:
298,192,130136,1,0,0:0:0:0:
384,192,130179,1,0,0:0:0:0:
128,192,130179,1,0,0:0:0:0:
213,192,130222,1,0,0:0:0:0:
298,192,130265,1,0,0:0:0:0:
384,192,130308,1,0,0:0:0:0:
469,192,130351,1,0,0:0:0:0:
42,192,130351,1,0,0:0:0:0:
128,192,130380,1,0,0:0:0:0:
213,192,130408,1,0,0:0:0:0:
298,192,130437,1,0,0:0:0:0:
384,192,130466,1,0,0:0:0:0:
469,192,130494,1,0,0:0:0:0:
42,192,130523,1,0,0:0:0:0:
128,192,130552,1,0,0:0:0:0:
213,192,130580,1,0,0:0:0:0:
298,192,130609,1,0,0:0:0:0:
384,192,130652,1,0,0:0:0:0:
469,192,130695,1,0,0:0:0:0:
213,192,130738,1,0,0:0:0:0:
298,192,130781,1,0,0:0:0:0:
42,192,130824,1,0,0:0:0:0:
128,192,130867,1,0,0:0:0:0:
213,192,130909,1,0,0:0:0:0:
298,192,130952,1,0,0:0:0:0:
384,192,130995,1,0,0:0:0:0:
213,192,131038,1,0,0:0:0:0:
469,192,131038,1,0,0:0:0:0:
128,192,131067,1,0,0:0:0:0:
42,192,131096,1,0,0:0:0:0:
469,192,131124,1,0,0:0:0:0:
384,192,131153,1,0,0:0:0:0:
298,192,131182,1,0,0:0:0:0:
213,192,131210,1,0,0:0:0:0:
128,192,131239,1,0,0:0:0:0:
42,192,131267,1,0,0:0:0:0:
469,192,131296,1,0,0:0:0:0:
384,192,131325,1,0,0:0:0:0:
298,192,131353,1,0,0:0:0:0:
213,192,131382,1,0,0:0:0:0:
42,192,131425,1,0,0:0:0:0:
298,192,131468,1,0,0:0:0:0:
128,192,131511,1,0,0:0:0:0:
384,192,131554,1,0,0:0:0:0:
213,192,131597,1,0,0:0:0:0:
469,192,131640,1,0,0:0:0:0:
298,192,131683,1,0,0:0:0:0:
128,192,131726,1,0,0:0:0:0:
42,192,131726,1,0,0:0:0:0:
384,192,131726,1,0,0:0:0:0:
213,192,131769,1,0,0:0:0:0:
298,192,131812,1,0,0:0:0:0:
384,192,131855,1,0,0:0:0:0:
469,192,131898,1,0,0:0:0:0:
128,192,131940,1,0,0:0:0:0:
213,192,131983,1,0,0:0:0:0:
469,192,132069,1,0,0:0:0:0:
384,192,132098,1,0,0:0:0:0:
298,192,132127,1,0,0:0:0:0:
42,192,132213,1,0,0:0:0:0:
128,192,132241,1,0,0:0:0:0:
213,192,132270,1,0,0:0:0:0:
298,192,132298,1,0,0:0:0:0:
384,192,132327,1,0,0:0:0:0:
42,192,132413,128,0,132928:0:0:0:0:
213,192,132413,128,0,132928:0:0:0:0:
469,192,132413,128,0,132928:0:0:0:0:
128,192,132413,128,0,132928:0:0:0:0:
213,192,133100,1,0,0:0:0:0:
42,192,133100,1,0,0:0:0:0:
128,192,133100,1,0,0:0:0:0:
298,192,133100,1,0,0:0:0:0:
469,192,133100,1,0,0:0:0:0:
384,192,133100,1,0,0:0:0:0:
469,192,133215,1,0,0:0:0:0:
384,192,133272,1,0,0:0:0:0:
298,192,133329,1,0,0:0:0:0:
213,192,133387,1,0,0:0:0:0:
42,192,133444,1,0,0:0:0:0:
128,192,133487,1,0,0:0:0:0:
213,192,133530,1,0,0:0:0:0:
298,192,133573,1,0,0:0:0:0:
469,192,133616,1,0,0:0:0:0:
384,192,133644,1,0,0:0:0:0:
298,192,133673,1,0,0:0:0:0:
213,192,133702,1,0,0:0:0:0:
128,192,133730,1,0,0:0:0:0:
42,192,133759,1,0,0:0:0:0:
298,192,133788,1,0,0:0:0:0:
213,192,133816,1,0,0:0:0:0:
128,192,133845,1,0,0:0:0:0:
384,192,133874,1,0,0:0:0:0:
298,192,133902,1,0,0:0:0:0:
213,192,133931,1,0,0:0:0:0:
469,192,133959,1,0,0:0:0:0:
384,192,133988,1,0,0:0:0:0:
298,192,134017,1,0,0:0:0:0:
213,192,134045,1,0,0:0:0:0:
128,192,134074,1,0,0:0:0:0:
42,192,134103,1,0,0:0:0:0:
469,192,134131,1,0,0:0:0:0:
384,192,134174,1,0,0:0:0:0:
298,192,134217,1,0,0:0:0:0:
213,192,134260,1,0,0:0:0:0:
128,192,134303,1,0,0:0:0:0:
469,192,134346,1,0,0:0:0:0:
384,192,134389,1,0,0:0:0:0:
298,192,134432,1,0,0:0:0:0:
213,192,134475,1,0,0:0:0:0:
469,192,134518,1,0,0:0:0:0:
384,192,134561,1,0,0:0:0:0:
298,192,134604,1,0,0:0:0:0:
42,192,134647,1,0,0:0:0:0:
469,192,134690,1,0,0:0:0:0:
384,192,134733,1,0,0:0:0:0:
128,192,134776,1,0,0:0:0:0:
42,192,134819,1,0,0:0:0:0:
469,192,134862,1,0,0:0:0:0:
213,192,134905,1,0,0:0:0:0:
128,192,134947,1,0,0:0:0:0:
42,192,134990,1,0,0:0:0:0:
298,192,135048,1,0,0:0:0:0:
384,192,135105,1,0,0:0:0:0:
469,192,135162,1,0,0:0:0:0:
128,192,135162,1,0,0:0:0:0:
42,192,135162,1,0,0:0:0:0:
213,192,135248,1,0,0:0:0:0:
42,192,135334,1,0,0:0:0:0:
298,192,135334,1,0,0:0:0:0:
469,192,135334,1,0,0:0:0:0:
384,192,135334,1,0,0:0:0:0:
128,192,135420,1,0,0:0:0:0:
213,192,135506,1,0,0:0:0:0:
298,192,135506,1,0,0:0:0:0:
384,192,135506,1,0,0:0:0:0:
469,192,135506,1,0,0:0:0:0:
42,192,135592,1,0,0:0:0:0:
384,192,135678,1,0,0:0:0:0:
469,192,135678,1,0,0:0:0:0:
213,192,135678,1,0,0:0:0:0:
384,192,135764,1,0,0:0:0:0:
469,192,135764,1,0,0:0:0:0:
128,192,135764,1,0,0:0:0:0:
42,192,135764,1,0,0:0:0:0:
213,192,135850,1,0,0:0:0:0:
128,192,135850,1,0,0:0:0:0:
42,192,135850,1,0,0:0:0:0:
298,192,135850,1,0,0:0:0:0:
298,192,135935,1,0,0:0:0:0:
384,192,136021,1,0,0:0:0:0:
42,192,136107,1,0,0:0:0:0:
128,192,136107,1,0,0:0:0:0:
213,192,136107,1,0,0:0:0:0:
213,192,136193,1,0,0:0:0:0:
298,192,136193,1,0,0:0:0:0:
384,192,136193,1,0,0:0:0:0:
469,192,136193,1,0,0:0:0:0:
128,192,136279,1,0,0:0:0:0:
42,192,136365,1,0,0:0:0:0:
298,192,136365,1,0,0:0:0:0:
384,192,136365,1,0,0:0:0:0:
213,192,136451,1,0,0:0:0:0:
298,192,136451,1,0,0:0:0:0:
384,192,136451,1,0,0:0:0:0:
128,192,136537,1,0,0:0:0:0:
42,192,136537,1,0,0:0:0:0:
298,192,136623,1,0,0:0:0:0:
384,192,136623,1,0,0:0:0:0:
469,192,136623,1,0,0:0:0:0:
213,192,136709,1,0,0:0:0:0:
384,192,136795,1,0,0:0:0:0:
298,192,136881,1,0,0:0:0:0:
213,192,136881,1,0,0:0:0:0:
128,192,136881,1,0,0:0:0:0:
42,192,136881,1,0,0:0:0:0:
469,192,136966,1,0,0:0:0:0:
384,192,137052,1,0,0:0:0:0:
213,192,137052,1,0,0:0:0:0:
298,192,137138,1,0,0:0:0:0:
128,192,137138,1,0,0:0:0:0:
213,192,137224,1,0,0:0:0:0:
42,192,137224,1,0,0:0:0:0:
384,192,137224,1,0,0:0:0:0:
469,192,137224,1,0,0:0:0:0:
298,192,137310,1,0,0:0:0:0:
42,192,137396,1,0,0:0:0:0:
213,192,137396,1,0,0:0:0:0:
128,192,137396,1,0,0:0:0:0:
213,192,137482,1,0,0:0:0:0:
128,192,137482,1,0,0:0:0:0:
42,192,137482,1,0,0:0:0:0:
298,192,137568,1,0,0:0:0:0:
384,192,137568,1,0,0:0:0:0:
469,192,137568,1,0,0:0:0:0:
213,192,137597,1,0,0:0:0:0:
128,192,137625,1,0,0:0:0:0:
42,192,137654,1,0,0:0:0:0:
213,192,137711,1,0,0:0:0:0:
298,192,137768,1,0,0:0:0:0:
469,192,137826,1,0,0:0:0:0:
384,192,137854,1,0,0:0:0:0:
298,192,137883,1,0,0:0:0:0:
213,192,137912,1,0,0:0:0:0:
128,192,137954,1,0,0:0:0:0:
42,192,137997,1,0,0:0:0:0:
298,192,138040,1,0,0:0:0:0:
384,192,138083,1,0,0:0:0:0:
469,192,138083,1,0,0:0:0:0:
128,192,138169,1,0,0:0:0:0:
213,192,138169,1,0,0:0:0:0:
384,192,138255,1,0,0:0:0:0:
469,192,138255,1,0,0:0:0:0:
298,192,138255,1,0,0:0:0:0:
128,192,138341,1,0,0:0:0:0:
42,192,138341,1,0,0:0:0:0:
384,192,138427,1,0,0:0:0:0:
298,192,138427,1,0,0:0:0:0:
128,192,138513,1,0,0:0:0:0:
42,192,138513,1,0,0:0:0:0:
213,192,138513,1,0,0:0:0:0:
128,192,138599,1,0,0:0:0:0:
42,192,138599,1,0,0:0:0:0:
469,192,138599,1,0,0:0:0:0:
384,192,138599,1,0,0:0:0:0:
213,192,138642,1,0,0:0:0:0:
298,192,138685,1,0,0:0:0:0:
384,192,138728,1,0,0:0:0:0:
469,192,138771,1,0,0:0:0:0:
42,192,138814,1,0,0:0:0:0:
128,192,138857,1,0,0:0:0:0:
213,192,138900,1,0,0:0:0:0:
298,192,138943,1,0,0:0:0:0:
384,192,139000,1,0,0:0:0:0:
469,192,139057,1,0,0:0:0:0:
42,192,139114,1,0,0:0:0:0:
213,192,139172,1,0,0:0:0:0:
384,192,139286,1,0,0:0:0:0:
469,192,139286,1,0,0:0:0:0:
128,192,139329,1,0,0:0:0:0:
298,192,139372,1,0,0:0:0:0:
384,192,139401,1,0,0:0:0:0:
469,192,139429,1,0,0:0:0:0:
213,192,139458,1,0,0:0:0:0:
298,192,139487,1,0,0:0:0:0:
384,192,139515,1,0,0:0:0:0:
128,192,139544,1,0,0:0:0:0:
213,192,139573,1,0,0:0:0:0:
298,192,139601,1,0,0:0:0:0:
42,192,139630,1,0,0:0:0:0:
128,192,139658,1,0,0:0:0:0:
213,192,139687,1,0,0:0:0:0:
298,192,139716,1,0,0:0:0:0:
384,192,139759,1,0,0:0:0:0:
469,192,139802,1,0,0:0:0:0:
128,192,139802,1,0,0:0:0:0:
42,192,139802,1,0,0:0:0:0:
384,192,139973,1,0,0:0:0:0:
469,192,139973,1,0,0:0:0:0:
42,192,140031,1,0,0:0:0:0:
128,192,140088,1,0,0:0:0:0:
213,192,140145,1,0,0:0:0:0:
298,192,140203,1,0,0:0:0:0:
384,192,140260,1,0,0:0:0:0:
469,192,140317,1,0,0:0:0:0:
213,192,140360,1,0,0:0:0:0:
128,192,140403,1,0,0:0:0:0:
298,192,140446,1,0,0:0:0:0:
213,192,140489,1,0,0:0:0:0:
42,192,140489,1,0,0:0:0:0:
384,192,140532,1,0,0:0:0:0:
128,192,140575,1,0,0:0:0:0:
469,192,140575,1,0,0:0:0:0:
298,192,140618,1,0,0:0:0:0:
213,192,140661,1,0,0:0:0:0:
42,192,140661,1,0,0:0:0:0:
384,192,140704,1,0,0:0:0:0:
298,192,140747,1,0,0:0:0:0:
469,192,140790,1,0,0:0:0:0:
213,192,140833,1,0,0:0:0:0:
128,192,140833,1,0,0:0:0:0:
384,192,140876,1,0,0:0:0:0:
298,192,140919,1,0,0:0:0:0:
469,192,140961,1,0,0:0:0:0:
213,192,141004,1,0,0:0:0:0:
128,192,141004,1,0,0:0:0:0:
42,192,141004,1,0,0:0:0:0:
298,192,141047,1,0,0:0:0:0:
384,192,141090,1,0,0:0:0:0:
469,192,141133,1,0,0:0:0:0:
298,192,141176,1,0,0:0:0:0:
213,192,141219,1,0,0:0:0:0:
128,192,141262,1,0,0:0:0:0:
42,192,141305,1,0,0:0:0:0:
298,192,141348,1,0,0:0:0:0:
384,192,141348,1,0,0:0:0:0:
469,192,141348,1,0,0:0:0:0:
213,192,141434,1,0,0:0:0:0:
42,192,141434,1,0,0:0:0:0:
128,192,141520,1,0,0:0:0:0:
298,192,141520,1,0,0:0:0:0:
469,192,141520,1,0,0:0:0:0:
384,192,141606,1,0,0:0:0:0:
42,192,141606,1,0,0:0:0:0:
213,192,141606,1,0,0:0:0:0:
128,192,141692,1,0,0:0:0:0:
298,192,141692,1,0,0:0:0:0:
469,192,141692,1,0,0:0:0:0:
384,192,141778,1,0,0:0:0:0:
213,192,141778,1,0,0:0:0:0:
298,192,141864,1,0,0:0:0:0:
469,192,141864,1,0,0:0:0:0:
42,192,141864,1,0,0:0:0:0:
128,192,141950,1,0,0:0:0:0:
384,192,141950,1,0,0:0:0:0:
469,192,142035,1,0,0:0:0:0:
213,192,142035,1,0,0:0:0:0:
42,192,142035,1,0,0:0:0:0:
128,192,142121,1,0,0:0:0:0:
298,192,142121,1,0,0:0:0:0:
213,192,142207,1,0,0:0:0:0:
384,192,142207,1,0,0:0:0:0:
42,192,142207,1,0,0:0:0:0:
128,192,142293,1,0,0:0:0:0:
298,192,142293,1,0,0:0:0:0:
469,192,142293,1,0,0:0:0:0:
384,192,142379,1,0,0:0:0:0:
213,192,142379,1,0,0:0:0:0:
42,192,142379,1,0,0:0:0:0:
128,192,142465,1,0,0:0:0:0:
469,192,142465,1,0,0:0:0:0:
384,192,142551,1,0,0:0:0:0:
213,192,142551,1,0,0:0:0:0:
42,192,142551,1,0,0:0:0:0:
128,192,142637,1,0,0:0:0:0:
298,192,142637,1,0,0:0:0:0:
469,192,142637,1,0,0:0:0:0:
384,192,142723,1,0,0:0:0:0:
213,192,142723,1,0,0:0:0:0:
42,192,142723,1,0,0:0:0:0:
128,192,142809,1,0,0:0:0:0:
298,192,142809,1,0,0:0:0:0:
213,192,142895,1,0,0:0:0:0:
42,192,142895,1,0,0:0:0:0:
469,192,142895,1,0,0:0:0:0:
128,192,142980,1,0,0:0:0:0:
384,192,142980,1,0,0:0:0:0:
42,192,143066,1,0,0:0:0:0:
298,192,143066,1,0,0:0:0:0:
469,192,143066,1,0,0:0:0:0:
384,192,143152,1,0,0:0:0:0:
213,192,143152,1,0,0:0:0:0:
298,192,143238,1,0,0:0:0:0:
128,192,143238,1,0,0:0:0:0:
469,192,143238,1,0,0:0:0:0:
384,192,143324,1,0,0:0:0:0:
213,192,143324,1,0,0:0:0:0:
42,192,143324,1,0,0:0:0:0:
128,192,143410,1,0,0:0:0:0:
469,192,143410,1,0,0:0:0:0:
298,192,143410,1,0,0:0:0:0:
384,192,143496,1,0,0:0:0:0:
42,192,143496,1,0,0:0:0:0:
128,192,143582,1,0,0:0:0:0:
298,192,143582,1,0,0:0:0:0:
469,192,143582,1,0,0:0:0:0:
384,192,143668,1,0,0:0:0:0:
213,192,143668,1,0,0:0:0:0:
298,192,143754,1,0,0:0:0:0:
469,192,143754,1,0,0:0:0:0:
42,192,143754,1,0,0:0:0:0:
128,192,143840,1,0,0:0:0:0:
384,192,143840,1,0,0:0:0:0:
469,192,143926,1,0,0:0:0:0:
213,192,143926,1,0,0:0:0:0:
42,192,143926,1,0,0:0:0:0:
128,192,144011,1,0,0:0:0:0:
298,192,144011,1,0,0:0:0:0:
213,192,144097,1,0,0:0:0:0:
42,192,144097,1,0,0:0:0:0:
469,192,144097,1,0,0:0:0:0:
384,192,144097,1,0,0:0:0:0:
298,192,144183,1,0,0:0:0:0:
128,192,144183,1,0,0:0:0:0:
298,192,144269,1,0,0:0:0:0:
469,192,144269,1,0,0:0:0:0:
213,192,144269,1,0,0:0:0:0:
42,192,144355,1,0,0:0:0:0:
298,192,144355,1,0,0:0:0:0:
128,192,144355,1,0,0:0:0:0:
128,192,144441,1,0,0:0:0:0:
42,192,144441,1,0,0:0:0:0:
298,192,144441,1,0,0:0:0:0:
469,192,144441,1,0,0:0:0:0:
213,192,144527,1,0,0:0:0:0:
42,192,144613,1,0,0:0:0:0:
298,192,144613,1,0,0:0:0:0:
469,192,144613,1,0,0:0:0:0:
128,192,144699,1,0,0:0:0:0:
384,192,144699,1,0,0:0:0:0:
213,192,144785,1,0,0:0:0:0:
42,192,144785,1,0,0:0:0:0:
469,192,144785,1,0,0:0:0:0:
298,192,144871,1,0,0:0:0:0:
384,192,144871,1,0,0:0:0:0:
469,192,144871,1,0,0:0:0:0:
213,192,144957,1,0,0:0:0:0:
128,192,145042,1,0,0:0:0:0:
42,192,145128,1,0,0:0:0:0:
384,192,145128,1,0,0:0:0:0:
469,192,145128,1,0,0:0:0:0:
298,192,145128,1,0,0:0:0:0:
213,192,145214,1,0,0:0:0:0:
128,192,145300,1,0,0:0:0:0:
42,192,145300,1,0,0:0:0:0:
298,192,145386,1,0,0:0:0:0:
384,192,145386,1,0,0:0:0:0:
213,192,145472,1,0,0:0:0:0:
128,192,145472,1,0,0:0:0:0:
42,192,145472,1,0,0:0:0:0:
469,192,145472,1,0,0:0:0:0:
298,192,145558,1,0,0:0:0:0:
128,192,145644,1,0,0:0:0:0:
42,192,145644,1,0,0:0:0:0:
384,192,145644,1,0,0:0:0:0:
128,192,145730,1,0,0:0:0:0:
42,192,145730,1,0,0:0:0:0:
298,192,145730,1,0,0:0:0:0:
42,192,145816,1,0,0:0:0:0:
128,192,145816,1,0,0:0:0:0:
213,192,145816,1,0,0:0:0:0:
469,192,145816,1,0,0:0:0:0:
384,192,145902,1,0,0:0:0:0:
298,192,145987,1,0,0:0:0:0:
213,192,145987,1,0,0:0:0:0:
128,192,145987,1,0,0:0:0:0:
384,192,146073,1,0,0:0:0:0:
469,192,146073,1,0,0:0:0:0:
298,192,146159,1,0,0:0:0:0:
128,192,146159,1,0,0:0:0:0:
42,192,146159,1,0,0:0:0:0:
213,192,146245,1,0,0:0:0:0:
384,192,146245,1,0,0:0:0:0:
298,192,146331,1,0,0:0:0:0:
469,192,146331,1,0,0:0:0:0:
42,192,146331,1,0,0:0:0:0:
213,192,146417,1,0,0:0:0:0:
128,192,146503,1,0,0:0:0:0:
42,192,146503,1,0,0:0:0:0:
384,192,146503,1,0,0:0:0:0:
469,192,146503,1,0,0:0:0:0:
298,192,146589,1,0,0:0:0:0:
213,192,146675,1,0,0:0:0:0:
128,192,146675,1,0,0:0:0:0:
42,192,146675,1,0,0:0:0:0:
128,192,146761,1,0,0:0:0:0:
213,192,146761,1,0,0:0:0:0:
384,192,146761,1,0,0:0:0:0:
469,192,146761,1,0,0:0:0:0:
298,192,146847,1,0,0:0:0:0:
384,192,146847,1,0,0:0:0:0:
469,192,146847,1,0,0:0:0:0:
213,192,146933,1,0,0:0:0:0:
42,192,146933,1,0,0:0:0:0:
298,192,146961,1,0,0:0:0:0:
384,192,146990,1,0,0:0:0:0:
469,192,147018,1,0,0:0:0:0:
128,192,147018,1,0,0:0:0:0:
213,192,147104,1,0,0:0:0:0:
42,192,147104,1,0,0:0:0:0:
298,192,147190,1,0,0:0:0:0:
384,192,147190,1,0,0:0:0:0:
469,192,147190,1,0,0:0:0:0:
213,192,147190,1,0,0:0:0:0:
128,192,147276,1,0,0:0:0:0:
42,192,147362,1,0,0:0:0:0:
298,192,147362,1,0,0:0:0:0:
469,192,147362,1,0,0:0:0:0:
384,192,147448,1,0,0:0:0:0:
213,192,147448,1,0,0:0:0:0:
298,192,147534,1,0,0:0:0:0:
469,192,147534,1,0,0:0:0:0:
42,192,147534,1,0,0:0:0:0:
128,192,147534,1,0,0:0:0:0:
213,192,147620,1,0,0:0:0:0:
128,192,147620,1,0,0:0:0:0:
42,192,147620,1,0,0:0:0:0:
384,192,147620,1,0,0:0:0:0:
298,192,147706,1,0,0:0:0:0:
213,192,147792,1,0,0:0:0:0:
128,192,147878,1,0,0:0:0:0:
42,192,147878,1,0,0:0:0:0:
384,192,147878,1,0,0:0:0:0:
469,192,147878,1,0,0:0:0:0:
298,192,147964,1,0,0:0:0:0:
213,192,148049,1,0,0:0:0:0:
384,192,148049,1,0,0:0:0:0:
469,192,148049,1,0,0:0:0:0:
128,192,148135,1,0,0:0:0:0:
298,192,148135,1,0,0:0:0:0:
213,192,148221,1,0,0:0:0:0:
42,192,148221,1,0,0:0:0:0:
384,192,148221,1,0,0:0:0:0:
469,192,148221,1,0,0:0:0:0:
298,192,148307,1,0,0:0:0:0:
128,192,148307,1,0,0:0:0:0:
213,192,148393,1,0,0:0:0:0:
469,192,148393,1,0,0:0:0:0:
384,192,148393,1,0,0:0:0:0:
469,192,148479,1,0,0:0:0:0:
384,192,148479,1,0,0:0:0:0:
128,192,148479,1,0,0:0:0:0:
42,192,148565,1,0,0:0:0:0:
298,192,148565,1,0,0:0:0:0:
384,192,148565,1,0,0:0:0:0:
469,192,148565,1,0,0:0:0:0:
213,192,148651,1,0,0:0:0:0:
128,192,148737,1,0,0:0:0:0:
42,192,148737,1,0,0:0:0:0:
298,192,148823,1,0,0:0:0:0:
384,192,148823,1,0,0:0:0:0:
469,192,148823,1,0,0:0:0:0:
213,192,148909,1,0,0:0:0:0:
128,192,148909,1,0,0:0:0:0:
298,192,148995,1,0,0:0:0:0:
384,192,148995,1,0,0:0:0:0:
469,192,148995,1,0,0:0:0:0:
42,192,149080,1,0,0:0:0:0:
469,192,149166,1,0,0:0:0:0:
298,192,149166,1,0,0:0:0:0:
384,192,149166,1,0,0:0:0:0:
298,192,149252,1,0,0:0:0:0:
128,192,149252,1,0,0:0:0:0:
42,192,149252,1,0,0:0:0:0:
384,192,149252,1,0,0:0:0:0:
213,192,149338,1,0,0:0:0:0:
128,192,149424,1,0,0:0:0:0:
384,192,149424,1,0,0:0:0:0:
469,192,149424,1,0,0:0:0:0:
298,192,149510,1,0,0:0:0:0:
42,192,149510,1,0,0:0:0:0:
384,192,149510,1,0,0:0:0:0:
298,192,149596,1,0,0:0:0:0:
213,192,149596,1,0,0:0:0:0:
469,192,149596,1,0,0:0:0:0:
469,192,149682,1,0,0:0:0:0:
128,192,149768,1,0,0:0:0:0:
128,192,149854,1,0,0:0:0:0:
298,192,149940,1,0,0:0:0:0:
469,192,149940,1,0,0:0:0:0:
298,192,150025,1,0,0:0:0:0:
42,192,150111,1,0,0:0:0:0:
42,192,150197,1,0,0:0:0:0:
384,192,150283,1,0,0:0:0:0:
469,192,150283,1,0,0:0:0:0:
384,192,150369,1,0,0:0:0:0:
128,192,150455,1,0,0:0:0:0:
128,192,150541,1,0,0:0:0:0:
469,192,150627,1,0,0:0:0:0:
298,192,150627,1,0,0:0:0:0:
469,192,150713,1,0,0:0:0:0:
213,192,150799,1,0,0:0:0:0:
213,192,150885,1,0,0:0:0:0:
384,192,150971,1,0,0:0:0:0:
298,192,150971,1,0,0:0:0:0:
469,192,150971,1,0,0:0:0:0:
384,192,151056,1,0,0:0:0:0:
42,192,151142,1,0,0:0:0:0:
42,192,151228,1,0,0:0:0:0:
298,192,151314,1,0,0:0:0:0:
469,192,151314,1,0,0:0:0:0:
298,192,151400,1,0,0:0:0:0:
128,192,151486,1,0,0:0:0:0:
128,192,151572,1,0,0:0:0:0:
384,192,151658,1,0,0:0:0:0:
42,192,151658,1,0,0:0:0:0:
384,192,151744,1,0,0:0:0:0:
213,192,151830,1,0,0:0:0:0:
213,192,151916,1,0,0:0:0:0:
469,192,152002,1,0,0:0:0:0:
384,192,152002,1,0,0:0:0:0:
469,192,152087,1,0,0:0:0:0:
298,192,152173,1,0,0:0:0:0:
298,192,152259,1,0,0:0:0:0:
128,192,152345,1,0,0:0:0:0:
42,192,152345,1,0,0:0:0:0:
384,192,152345,1,0,0:0:0:0:
469,192,152345,1,0,0:0:0:0:
213,192,152431,1,0,0:0:0:0:
298,192,152517,1,0,0:0:0:0:
128,192,152603,1,0,0:0:0:0:
42,192,152603,1,0,0:0:0:0:
469,192,152603,1,0,0:0:0:0:
384,192,152603,1,0,0:0:0:0:
298,192,152689,1,0,0:0:0:0:
213,192,152775,1,0,0:0:0:0:
42,192,152861,1,0,0:0:0:0:
128,192,152861,1,0,0:0:0:0:
384,192,152861,1,0,0:0:0:0:
469,192,152861,1,0,0:0:0:0:
213,192,152947,1,0,0:0:0:0:
298,192,153032,1,0,0:0:0:0:
42,192,153118,1,0,0:0:0:0:
128,192,153118,1,0,0:0:0:0:
384,192,153118,1,0,0:0:0:0:
469,192,153118,1,0,0:0:0:0:
213,192,153204,1,0,0:0:0:0:
298,192,153290,1,0,0:0:0:0:
128,192,153376,1,0,0:0:0:0:
42,192,153376,1,0,0:0:0:0:
469,192,153376,1,0,0:0:0:0:
384,192,153376,1,0,0:0:0:0:
298,192,153462,1,0,0:0:0:0:
213,192,153548,1,0,0:0:0:0:
128,192,153634,1,0,0:0:0:0:
42,192,153634,1,0,0:0:0:0:
384,192,153634,1,0,0:0:0:0:
469,192,153634,1,0,0:0:0:0:
298,192,153720,1,0,0:0:0:0:
213,192,153806,1,0,0:0:0:0:
128,192,153806,1,0,0:0:0:0:
42,192,153806,1,0,0:0:0:0:
384,192,153806,1,0,0:0:0:0:
298,192,153892,1,0,0:0:0:0:
469,192,153892,1,0,0:0:0:0:
213,192,153978,1,0,0:0:0:0:
42,192,153978,1,0,0:0:0:0:
384,192,154063,1,0,0:0:0:0:
469,192,154063,1,0,0:0:0:0:
298,192,154063,1,0,0:0:0:0:
128,192,154063,1,0,0:0:0:0:
213,192,154149,1,0,0:0:0:0:
42,192,154149,1,0,0:0:0:0:
298,192,154235,1,0,0:0:0:0:
469,192,154235,1,0,0:0:0:0:
213,192,154321,1,0,0:0:0:0:
42,192,154321,1,0,0:0:0:0:
128,192,154321,1,0,0:0:0:0:
384,192,154321,1,0,0:0:0:0:
298,192,154407,1,0,0:0:0:0:
469,192,154407,1,0,0:0:0:0:
213,192,154493,1,0,0:0:0:0:
128,192,154493,1,0,0:0:0:0:
42,192,154493,1,0,0:0:0:0:
384,192,154493,1,0,0:0:0:0:
298,192,154579,1,0,0:0:0:0:
469,192,154579,1,0,0:0:0:0:
298,192,154665,1,0,0:0:0:0:
469,192,154665,1,0,0:0:0:0:
213,192,154751,1,0,0:0:0:0:
128,192,154751,1,0,0:0:0:0:
42,192,154751,1,0,0:0:0:0:
384,192,154751,1,0,0:0:0:0:
298,192,154837,1,0,0:0:0:0:
469,192,154837,1,0,0:0:0:0:
298,192,154923,1,0,0:0:0:0:
469,192,154923,1,0,0:0:0:0:
469,192,155009,1,0,0:0:0:0:
298,192,155009,1,0,0:0:0:0:
128,192,155009,1,0,0:0:0:0:
42,192,155009,1,0,0:0:0:0:
