osu file format v14

[General]
AudioFilename: Schwerkraft_14.mp3
AudioLeadIn: 0
PreviewTime: 89345
Countdown: 0
SampleSet: Normal
StackLeniency: 0.7
Mode: 3
LetterboxInBreaks: 0
SpecialStyle: 0
WidescreenStoryboard: 0

[Editor]
DistanceSpacing: 1
BeatDivisor: 2
GridSize: 16
TimelineZoom: 1.9

[Metadata]
Title:tyrcs' 6K Collection Pack
TitleUnicode:tyrcs' 6K Collection Pack
Artist:Various Artists
ArtistUnicode:Various Artists
Creator:tyrcs
Version:ROKINA - Schwerkraft [19]
Source:
Tags:BMS The Quick Brown Fox Break TQBF renard LeaF 失望Choco Shitsubou Choco goreshit slavik goblins Aitsuki Nakuru 藍月なくる Monochrome Butterfly 現実をカットアップしてみた yu^ta Genjitsu o Cut-up Shite Mita -45 Aci-L A c i - L Yoshikawa-45 cornandbeans {Blaze} 八大地獄邪魂転生狂葬散火歌 さかみりと Sakamirito Hachidaijigoku Jakontensei Kyousou Sanbika Sakamiya 一之瀬りと Rito Ichinose かめりあ feat. ななひら ベィスドロップ・フリークス Camellia feat. Nanahira Bassdrop Freaks DEAF KEV Invincible ueotan Mario Paint (Time Regression Mix for BMS) Oerba Tanaka Vanilla Y ヲルバ=田中・ヴァニラ Schwerkraft ROKINA ロキナ Silentroom Nhelv SHAGAN DAISHI KAKU P-MODEL 遮眼大師 核P-MODEL 平沢進 Susumu Hirasawa ああああ AAAA lifework LUZE LuzeriA ルゼ katagiri ch3rry cherry かたぎり Laur Sheriruth (Laur Remix) Team Grimoire vs. Laur Grievous Lady Getty vs. DJ DiA Ops Code Rapture Vicetone & Tony Igy Astronomia (Camellia Remix) Coffin Dance かめりあ Fastest Crash Cut Tatsh reunion Asymmetry Reol アシンメトリー れをる
BeatmapID:3507122
BeatmapSetID:1716337

[Difficulty]
HPDrainRate:8
CircleSize:6
OverallDifficulty:8
ApproachRate:5
SliderMultiplier:1.4
SliderTickRate:1

[Events]
//Background and Video events
0,0,"tyrcs' 6K Collection Pack_13.png",0,0
//Break Periods
2,55911,68926
//Storyboard Layer 0 (Background)
//Storyboard Layer 1 (Fail)
//Storyboard Layer 2 (Pass)
//Storyboard Layer 3 (Foreground)
//Storyboard Layer 4 (Overlay)
//Storyboard Sound Samples

[TimingPoints]
-24,240.24024024024,4,1,0,5,1,0

[HitObjects]
384,192,936,5,0,0:0:0:0:
298,192,936,1,0,0:0:0:0:
469,192,936,1,0,0:0:0:0:
128,192,997,1,0,0:0:0:0:
42,192,997,1,0,0:0:0:0:
298,192,1057,1,0,0:0:0:0:
384,192,1057,1,0,0:0:0:0:
128,192,1117,1,0,0:0:0:0:
42,192,1117,1,0,0:0:0:0:
298,192,1177,1,0,0:0:0:0:
384,192,1177,1,0,0:0:0:0:
469,192,1177,1,0,0:0:0:0:
213,192,1237,1,0,0:0:0:0:
128,192,1237,1,0,0:0:0:0:
384,192,1297,1,0,0:0:0:0:
469,192,1297,1,0,0:0:0:0:
213,192,1357,1,0,0:0:0:0:
128,192,1357,1,0,0:0:0:0:
469,192,1417,1,0,0:0:0:0:
42,192,1417,1,0,0:0:0:0:
298,192,1417,1,0,0:0:0:0:
213,192,1537,1,0,0:0:0:0:
128,192,1537,1,0,0:0:0:0:
42,192,1537,1,0,0:0:0:0:
298,192,1657,1,0,0:0:0:0:
384,192,1657,1,0,0:0:0:0:
469,192,1657,1,0,0:0:0:0:
469,192,1777,1,0,0:0:0:0:
42,192,1777,1,0,0:0:0:0:
213,192,1777,1,0,0:0:0:0:
42,192,1897,1,0,0:0:0:0:
298,192,1897,1,0,0:0:0:0:
128,192,1897,1,0,0:0:0:0:
469,192,1897,1,0,0:0:0:0:
213,192,2018,1,0,0:0:0:0:
128,192,2138,1,0,0:0:0:0:
298,192,2258,1,0,0:0:0:0:
42,192,2378,1,0,0:0:0:0:
384,192,2498,1,0,0:0:0:0:
298,192,2618,1,0,0:0:0:0:
213,192,2738,1,0,0:0:0:0:
42,192,2858,1,0,0:0:0:0:
213,192,2979,1,0,0:0:0:0:
298,192,3099,1,0,0:0:0:0:
42,192,3219,1,0,0:0:0:0:
384,192,3339,1,0,0:0:0:0:
298,192,3459,1,0,0:0:0:0:
42,192,3579,1,0,0:0:0:0:
213,192,3699,1,0,0:0:0:0:
42,192,3819,1,0,0:0:0:0:
213,192,3939,1,0,0:0:0:0:
42,192,4060,1,0,0:0:0:0:
213,192,4180,1,0,0:0:0:0:
298,192,4300,1,0,0:0:0:0:
384,192,4420,1,0,0:0:0:0:
298,192,4540,1,0,0:0:0:0:
213,192,4660,1,0,0:0:0:0:
469,192,4780,1,0,0:0:0:0:
128,192,4900,1,0,0:0:0:0:
213,192,5021,1,0,0:0:0:0:
384,192,5141,1,0,0:0:0:0:
469,192,5261,1,0,0:0:0:0:
384,192,5381,1,0,0:0:0:0:
213,192,5501,1,0,0:0:0:0:
42,192,5501,1,0,0:0:0:0:
128,192,5621,1,0,0:0:0:0:
42,192,5741,1,0,0:0:0:0:
298,192,5741,1,0,0:0:0:0:
384,192,5741,1,0,0:0:0:0:
469,192,5741,1,0,0:0:0:0:
128,192,5861,1,0,0:0:0:0:
213,192,5982,1,0,0:0:0:0:
298,192,6102,1,0,0:0:0:0:
42,192,6222,1,0,0:0:0:0:
384,192,6342,1,0,0:0:0:0:
298,192,6462,1,0,0:0:0:0:
213,192,6582,1,0,0:0:0:0:
42,192,6702,1,0,0:0:0:0:
213,192,6822,1,0,0:0:0:0:
298,192,6942,1,0,0:0:0:0:
42,192,7063,1,0,0:0:0:0:
384,192,7183,1,0,0:0:0:0:
298,192,7303,1,0,0:0:0:0:
469,192,7303,1,0,0:0:0:0:
42,192,7423,1,0,0:0:0:0:
213,192,7543,1,0,0:0:0:0:
42,192,7663,1,0,0:0:0:0:
298,192,7663,1,0,0:0:0:0:
384,192,7663,1,0,0:0:0:0:
469,192,7663,1,0,0:0:0:0:
213,192,7783,1,0,0:0:0:0:
42,192,7903,1,0,0:0:0:0:
213,192,8024,1,0,0:0:0:0:
298,192,8144,1,0,0:0:0:0:
384,192,8264,1,0,0:0:0:0:
298,192,8384,1,0,0:0:0:0:
213,192,8504,1,0,0:0:0:0:
42,192,8624,1,0,0:0:0:0:
469,192,8624,1,0,0:0:0:0:
128,192,8744,1,0,0:0:0:0:
42,192,8864,1,0,0:0:0:0:
298,192,8864,1,0,0:0:0:0:
128,192,8864,1,0,0:0:0:0:
469,192,8864,1,0,0:0:0:0:
384,192,8985,1,0,0:0:0:0:
469,192,9105,1,0,0:0:0:0:
213,192,9105,1,0,0:0:0:0:
42,192,9225,1,0,0:0:0:0:
384,192,9225,1,0,0:0:0:0:
298,192,9345,1,0,0:0:0:0:
128,192,9345,1,0,0:0:0:0:
128,192,9465,1,0,0:0:0:0:
42,192,9585,1,0,0:0:0:0:
298,192,9585,1,0,0:0:0:0:
384,192,9585,1,0,0:0:0:0:
469,192,9585,1,0,0:0:0:0:
384,192,9705,1,0,0:0:0:0:
213,192,9705,1,0,0:0:0:0:
298,192,9825,1,0,0:0:0:0:
213,192,9825,1,0,0:0:0:0:
42,192,9825,1,0,0:0:0:0:
128,192,9825,1,0,0:0:0:0:
469,192,9945,1,0,0:0:0:0:
298,192,9945,1,0,0:0:0:0:
42,192,10066,1,0,0:0:0:0:
128,192,10066,1,0,0:0:0:0:
298,192,10066,1,0,0:0:0:0:
469,192,10066,1,0,0:0:0:0:
213,192,10186,1,0,0:0:0:0:
384,192,10186,1,0,0:0:0:0:
213,192,10306,1,0,0:0:0:0:
128,192,10306,1,0,0:0:0:0:
42,192,10306,1,0,0:0:0:0:
298,192,10306,1,0,0:0:0:0:
128,192,10426,1,0,0:0:0:0:
213,192,10426,1,0,0:0:0:0:
42,192,10546,1,0,0:0:0:0:
298,192,10546,1,0,0:0:0:0:
384,192,10546,1,0,0:0:0:0:
469,192,10546,1,0,0:0:0:0:
213,192,10666,1,0,0:0:0:0:
128,192,10666,1,0,0:0:0:0:
42,192,10786,1,0,0:0:0:0:
298,192,10786,1,0,0:0:0:0:
384,192,10786,1,0,0:0:0:0:
469,192,10786,1,0,0:0:0:0:
384,192,10906,1,0,0:0:0:0:
128,192,10906,1,0,0:0:0:0:
213,192,11027,1,0,0:0:0:0:
128,192,11027,1,0,0:0:0:0:
42,192,11027,1,0,0:0:0:0:
469,192,11027,1,0,0:0:0:0:
384,192,11147,1,0,0:0:0:0:
42,192,11147,1,0,0:0:0:0:
298,192,11267,1,0,0:0:0:0:
384,192,11267,1,0,0:0:0:0:
469,192,11267,1,0,0:0:0:0:
128,192,11267,1,0,0:0:0:0:
213,192,11387,1,0,0:0:0:0:
298,192,11387,1,0,0:0:0:0:
42,192,11507,1,0,0:0:0:0:
384,192,11507,1,0,0:0:0:0:
469,192,11507,1,0,0:0:0:0:
128,192,11507,1,0,0:0:0:0:
298,192,11627,1,0,0:0:0:0:
384,192,11627,1,0,0:0:0:0:
42,192,11747,1,0,0:0:0:0:
469,192,11747,1,0,0:0:0:0:
213,192,11747,1,0,0:0:0:0:
128,192,11747,1,0,0:0:0:0:
298,192,11867,1,0,0:0:0:0:
384,192,11867,1,0,0:0:0:0:
213,192,11988,1,0,0:0:0:0:
128,192,11988,1,0,0:0:0:0:
42,192,11988,1,0,0:0:0:0:
469,192,11988,1,0,0:0:0:0:
298,192,12108,1,0,0:0:0:0:
42,192,12108,1,0,0:0:0:0:
213,192,12228,1,0,0:0:0:0:
128,192,12228,1,0,0:0:0:0:
298,192,12228,1,0,0:0:0:0:
384,192,12228,1,0,0:0:0:0:
213,192,12348,1,0,0:0:0:0:
469,192,12348,1,0,0:0:0:0:
298,192,12468,1,0,0:0:0:0:
384,192,12468,1,0,0:0:0:0:
469,192,12468,1,0,0:0:0:0:
42,192,12468,1,0,0:0:0:0:
213,192,12588,1,0,0:0:0:0:
42,192,12588,1,0,0:0:0:0:
213,192,12708,1,0,0:0:0:0:
298,192,12708,1,0,0:0:0:0:
384,192,12708,1,0,0:0:0:0:
469,192,12708,1,0,0:0:0:0:
384,192,12828,1,0,0:0:0:0:
128,192,12828,1,0,0:0:0:0:
298,192,12948,1,0,0:0:0:0:
213,192,12948,1,0,0:0:0:0:
128,192,12948,1,0,0:0:0:0:
42,192,12948,1,0,0:0:0:0:
384,192,13069,1,0,0:0:0:0:
213,192,13069,1,0,0:0:0:0:
298,192,13069,1,0,0:0:0:0:
469,192,13069,1,0,0:0:0:0:
42,192,13189,1,0,0:0:0:0:
128,192,13189,1,0,0:0:0:0:
298,192,13189,1,0,0:0:0:0:
384,192,13309,1,0,0:0:0:0:
469,192,13309,1,0,0:0:0:0:
128,192,13309,1,0,0:0:0:0:
213,192,13429,1,0,0:0:0:0:
42,192,13429,1,0,0:0:0:0:
469,192,13429,1,0,0:0:0:0:
298,192,13429,1,0,0:0:0:0:
298,192,13549,1,0,0:0:0:0:
42,192,13549,1,0,0:0:0:0:
384,192,13549,1,0,0:0:0:0:
213,192,13669,1,0,0:0:0:0:
128,192,13669,1,0,0:0:0:0:
469,192,13669,1,0,0:0:0:0:
42,192,13789,1,0,0:0:0:0:
298,192,13789,1,0,0:0:0:0:
384,192,13789,1,0,0:0:0:0:
213,192,13909,1,0,0:0:0:0:
42,192,13909,1,0,0:0:0:0:
469,192,13909,1,0,0:0:0:0:
384,192,13909,1,0,0:0:0:0:
298,192,14030,1,0,0:0:0:0:
128,192,14030,1,0,0:0:0:0:
213,192,14030,1,0,0:0:0:0:
384,192,14150,1,0,0:0:0:0:
469,192,14150,1,0,0:0:0:0:
42,192,14150,1,0,0:0:0:0:
213,192,14270,1,0,0:0:0:0:
128,192,14270,1,0,0:0:0:0:
42,192,14270,1,0,0:0:0:0:
213,192,14390,1,0,0:0:0:0:
298,192,14390,1,0,0:0:0:0:
384,192,14390,1,0,0:0:0:0:
469,192,14390,1,0,0:0:0:0:
384,192,14510,1,0,0:0:0:0:
128,192,14510,1,0,0:0:0:0:
42,192,14510,1,0,0:0:0:0:
213,192,14630,1,0,0:0:0:0:
128,192,14630,1,0,0:0:0:0:
469,192,14630,1,0,0:0:0:0:
384,192,14750,1,0,0:0:0:0:
298,192,14750,1,0,0:0:0:0:
42,192,14750,1,0,0:0:0:0:
469,192,14870,1,0,0:0:0:0:
42,192,14870,1,0,0:0:0:0:
128,192,14870,1,0,0:0:0:0:
298,192,14870,1,0,0:0:0:0:
213,192,14991,1,0,0:0:0:0:
384,192,14991,1,0,0:0:0:0:
298,192,14991,1,0,0:0:0:0:
128,192,15111,1,0,0:0:0:0:
42,192,15111,1,0,0:0:0:0:
469,192,15111,1,0,0:0:0:0:
298,192,15231,1,0,0:0:0:0:
384,192,15231,1,0,0:0:0:0:
469,192,15231,1,0,0:0:0:0:
213,192,15351,1,0,0:0:0:0:
42,192,15351,1,0,0:0:0:0:
128,192,15351,1,0,0:0:0:0:
469,192,15351,1,0,0:0:0:0:
384,192,15431,1,0,0:0:0:0:
128,192,15431,1,0,0:0:0:0:
298,192,15511,1,0,0:0:0:0:
42,192,15511,1,0,0:0:0:0:
213,192,15591,1,0,0:0:0:0:
128,192,15591,1,0,0:0:0:0:
384,192,15591,1,0,0:0:0:0:
213,192,15671,1,0,0:0:0:0:
469,192,15671,1,0,0:0:0:0:
128,192,15751,1,0,0:0:0:0:
384,192,15751,1,0,0:0:0:0:
213,192,15831,1,0,0:0:0:0:
298,192,15831,1,0,0:0:0:0:
42,192,15831,1,0,0:0:0:0:
298,192,15911,1,0,0:0:0:0:
469,192,15911,1,0,0:0:0:0:
213,192,15992,1,0,0:0:0:0:
42,192,15992,1,0,0:0:0:0:
384,192,16072,1,0,0:0:0:0:
469,192,16072,1,0,0:0:0:0:
128,192,16072,1,0,0:0:0:0:
384,192,16152,1,0,0:0:0:0:
213,192,16152,1,0,0:0:0:0:
298,192,16232,1,0,0:0:0:0:
42,192,16232,1,0,0:0:0:0:
469,192,16312,1,0,0:0:0:0:
213,192,16312,1,0,0:0:0:0:
128,192,16342,1,0,0:0:0:0:
42,192,16372,1,0,0:0:0:0:
298,192,16402,1,0,0:0:0:0:
213,192,16432,1,0,0:0:0:0:
128,192,16462,1,0,0:0:0:0:
42,192,16492,1,0,0:0:0:0:
384,192,16522,1,0,0:0:0:0:
298,192,16552,1,0,0:0:0:0:
213,192,16582,1,0,0:0:0:0:
128,192,16612,1,0,0:0:0:0:
384,192,16642,1,0,0:0:0:0:
298,192,16672,1,0,0:0:0:0:
213,192,16702,1,0,0:0:0:0:
128,192,16732,1,0,0:0:0:0:
469,192,16762,1,0,0:0:0:0:
384,192,16792,1,0,0:0:0:0:
298,192,16822,1,0,0:0:0:0:
213,192,16852,1,0,0:0:0:0:
469,192,16882,1,0,0:0:0:0:
384,192,16912,1,0,0:0:0:0:
298,192,16942,1,0,0:0:0:0:
213,192,16972,1,0,0:0:0:0:
128,192,17003,1,0,0:0:0:0:
42,192,17033,1,0,0:0:0:0:
384,192,17033,1,0,0:0:0:0:
469,192,17033,1,0,0:0:0:0:
42,192,17273,1,0,0:0:0:0:
298,192,17273,1,0,0:0:0:0:
469,192,17273,1,0,0:0:0:0:
213,192,17273,1,0,0:0:0:0:
128,192,17393,1,0,0:0:0:0:
384,192,17393,1,0,0:0:0:0:
128,192,17513,1,0,0:0:0:0:
469,192,17513,1,0,0:0:0:0:
298,192,17513,1,0,0:0:0:0:
213,192,17513,1,0,0:0:0:0:
128,192,17633,1,0,0:0:0:0:
298,192,17633,1,0,0:0:0:0:
128,192,17753,1,0,0:0:0:0:
42,192,17753,1,0,0:0:0:0:
384,192,17753,1,0,0:0:0:0:
469,192,17753,1,0,0:0:0:0:
128,192,17873,1,0,0:0:0:0:
298,192,17873,1,0,0:0:0:0:
128,192,17994,1,0,0:0:0:0:
469,192,17994,1,0,0:0:0:0:
298,192,17994,1,0,0:0:0:0:
42,192,17994,1,0,0:0:0:0:
384,192,18114,1,0,0:0:0:0:
128,192,18114,1,0,0:0:0:0:
42,192,18234,1,0,0:0:0:0:
469,192,18234,1,0,0:0:0:0:
384,192,18234,1,0,0:0:0:0:
298,192,18234,1,0,0:0:0:0:
213,192,18354,1,0,0:0:0:0:
128,192,18354,1,0,0:0:0:0:
213,192,18474,1,0,0:0:0:0:
42,192,18474,1,0,0:0:0:0:
469,192,18474,1,0,0:0:0:0:
384,192,18474,1,0,0:0:0:0:
213,192,18594,1,0,0:0:0:0:
298,192,18594,1,0,0:0:0:0:
213,192,18714,1,0,0:0:0:0:
128,192,18714,1,0,0:0:0:0:
384,192,18714,1,0,0:0:0:0:
469,192,18714,1,0,0:0:0:0:
213,192,18834,1,0,0:0:0:0:
384,192,18834,1,0,0:0:0:0:
469,192,18834,1,0,0:0:0:0:
298,192,18954,1,0,0:0:0:0:
213,192,18954,1,0,0:0:0:0:
42,192,18954,1,0,0:0:0:0:
469,192,18954,1,0,0:0:0:0:
298,192,19075,1,0,0:0:0:0:
213,192,19075,1,0,0:0:0:0:
469,192,19075,1,0,0:0:0:0:
42,192,19195,1,0,0:0:0:0:
298,192,19195,1,0,0:0:0:0:
128,192,19195,1,0,0:0:0:0:
384,192,19195,1,0,0:0:0:0:
298,192,19315,1,0,0:0:0:0:
213,192,19315,1,0,0:0:0:0:
42,192,19315,1,0,0:0:0:0:
469,192,19315,1,0,0:0:0:0:
213,192,19435,1,0,0:0:0:0:
128,192,19435,1,0,0:0:0:0:
384,192,19435,1,0,0:0:0:0:
469,192,19435,1,0,0:0:0:0:
469,192,19555,1,0,0:0:0:0:
128,192,19555,1,0,0:0:0:0:
469,192,19675,1,0,0:0:0:0:
213,192,19675,1,0,0:0:0:0:
298,192,19675,1,0,0:0:0:0:
42,192,19675,1,0,0:0:0:0:
469,192,19795,1,0,0:0:0:0:
213,192,19795,1,0,0:0:0:0:
469,192,19915,1,0,0:0:0:0:
128,192,19915,1,0,0:0:0:0:
42,192,19915,1,0,0:0:0:0:
298,192,19915,1,0,0:0:0:0:
469,192,20036,1,0,0:0:0:0:
298,192,20036,1,0,0:0:0:0:
213,192,20156,1,0,0:0:0:0:
42,192,20156,1,0,0:0:0:0:
298,192,20156,1,0,0:0:0:0:
128,192,20156,1,0,0:0:0:0:
384,192,20276,1,0,0:0:0:0:
128,192,20276,1,0,0:0:0:0:
213,192,20396,1,0,0:0:0:0:
384,192,20396,1,0,0:0:0:0:
469,192,20396,1,0,0:0:0:0:
298,192,20396,1,0,0:0:0:0:
384,192,20516,1,0,0:0:0:0:
42,192,20516,1,0,0:0:0:0:
128,192,20636,1,0,0:0:0:0:
384,192,20636,1,0,0:0:0:0:
469,192,20636,1,0,0:0:0:0:
298,192,20636,1,0,0:0:0:0:
384,192,20756,1,0,0:0:0:0:
42,192,20756,1,0,0:0:0:0:
128,192,20756,1,0,0:0:0:0:
213,192,20876,1,0,0:0:0:0:
298,192,20876,1,0,0:0:0:0:
384,192,20876,1,0,0:0:0:0:
469,192,20876,1,0,0:0:0:0:
213,192,20997,1,0,0:0:0:0:
128,192,20997,1,0,0:0:0:0:
384,192,20997,1,0,0:0:0:0:
42,192,21117,1,0,0:0:0:0:
298,192,21117,1,0,0:0:0:0:
469,192,21117,1,0,0:0:0:0:
213,192,21357,1,0,0:0:0:0:
42,192,21357,1,0,0:0:0:0:
469,192,21357,1,0,0:0:0:0:
384,192,21357,1,0,0:0:0:0:
298,192,21477,1,0,0:0:0:0:
128,192,21477,1,0,0:0:0:0:
42,192,21477,1,0,0:0:0:0:
42,192,21597,1,0,0:0:0:0:
213,192,21597,1,0,0:0:0:0:
384,192,21597,1,0,0:0:0:0:
469,192,21597,1,0,0:0:0:0:
298,192,21717,1,0,0:0:0:0:
128,192,21717,1,0,0:0:0:0:
42,192,21837,1,0,0:0:0:0:
128,192,21837,1,0,0:0:0:0:
384,192,21837,1,0,0:0:0:0:
469,192,21837,1,0,0:0:0:0:
298,192,21897,1,0,0:0:0:0:
213,192,21897,1,0,0:0:0:0:
128,192,21957,1,0,0:0:0:0:
469,192,21957,1,0,0:0:0:0:
384,192,22018,1,0,0:0:0:0:
298,192,22018,1,0,0:0:0:0:
213,192,22078,1,0,0:0:0:0:
128,192,22078,1,0,0:0:0:0:
469,192,22078,1,0,0:0:0:0:
42,192,22078,1,0,0:0:0:0:
213,192,22198,1,0,0:0:0:0:
384,192,22198,1,0,0:0:0:0:
213,192,22318,1,0,0:0:0:0:
384,192,22318,1,0,0:0:0:0:
469,192,22318,1,0,0:0:0:0:
42,192,22318,1,0,0:0:0:0:
213,192,22438,1,0,0:0:0:0:
128,192,22438,1,0,0:0:0:0:
469,192,22438,1,0,0:0:0:0:
298,192,22558,1,0,0:0:0:0:
384,192,22558,1,0,0:0:0:0:
42,192,22558,1,0,0:0:0:0:
128,192,22558,1,0,0:0:0:0:
298,192,22678,1,0,0:0:0:0:
213,192,22678,1,0,0:0:0:0:
469,192,22678,1,0,0:0:0:0:
298,192,22798,1,0,0:0:0:0:
128,192,22798,1,0,0:0:0:0:
42,192,22798,1,0,0:0:0:0:
469,192,22798,1,0,0:0:0:0:
384,192,22858,1,0,0:0:0:0:
298,192,22918,1,0,0:0:0:0:
213,192,22918,1,0,0:0:0:0:
128,192,22979,1,0,0:0:0:0:
42,192,23039,1,0,0:0:0:0:
469,192,23039,1,0,0:0:0:0:
384,192,23039,1,0,0:0:0:0:
213,192,23159,1,0,0:0:0:0:
298,192,23159,1,0,0:0:0:0:
384,192,23159,1,0,0:0:0:0:
128,192,23279,1,0,0:0:0:0:
213,192,23279,1,0,0:0:0:0:
298,192,23279,1,0,0:0:0:0:
128,192,23399,1,0,0:0:0:0:
42,192,23399,1,0,0:0:0:0:
469,192,23399,1,0,0:0:0:0:
298,192,23519,1,0,0:0:0:0:
384,192,23519,1,0,0:0:0:0:
469,192,23519,1,0,0:0:0:0:
384,192,23639,1,0,0:0:0:0:
298,192,23639,1,0,0:0:0:0:
213,192,23639,1,0,0:0:0:0:
298,192,23759,1,0,0:0:0:0:
213,192,23759,1,0,0:0:0:0:
128,192,23759,1,0,0:0:0:0:
213,192,23879,1,0,0:0:0:0:
128,192,23879,1,0,0:0:0:0:
42,192,23879,1,0,0:0:0:0:
42,192,24000,1,0,0:0:0:0:
384,192,24000,1,0,0:0:0:0:
469,192,24000,1,0,0:0:0:0:
213,192,24060,1,0,0:0:0:0:
298,192,24060,1,0,0:0:0:0:
384,192,24120,1,0,0:0:0:0:
42,192,24120,1,0,0:0:0:0:
213,192,24180,1,0,0:0:0:0:
128,192,24180,1,0,0:0:0:0:
469,192,24240,1,0,0:0:0:0:
42,192,24240,1,0,0:0:0:0:
298,192,24240,1,0,0:0:0:0:
384,192,24240,1,0,0:0:0:0:
384,192,24360,1,0,0:0:0:0:
298,192,24360,1,0,0:0:0:0:
128,192,24360,1,0,0:0:0:0:
213,192,24480,1,0,0:0:0:0:
128,192,24480,1,0,0:0:0:0:
42,192,24480,1,0,0:0:0:0:
469,192,24480,1,0,0:0:0:0:
298,192,24600,1,0,0:0:0:0:
384,192,24600,1,0,0:0:0:0:
213,192,24600,1,0,0:0:0:0:
42,192,24720,1,0,0:0:0:0:
128,192,24720,1,0,0:0:0:0:
469,192,24720,1,0,0:0:0:0:
298,192,24840,1,0,0:0:0:0:
213,192,24840,1,0,0:0:0:0:
128,192,24840,1,0,0:0:0:0:
42,192,24960,1,0,0:0:0:0:
298,192,24960,1,0,0:0:0:0:
469,192,24960,1,0,0:0:0:0:
213,192,25081,1,0,0:0:0:0:
213,192,25201,1,0,0:0:0:0:
213,192,25321,1,0,0:0:0:0:
42,192,25441,1,0,0:0:0:0:
298,192,25441,1,0,0:0:0:0:
384,192,25441,1,0,0:0:0:0:
469,192,25441,1,0,0:0:0:0:
384,192,25561,1,0,0:0:0:0:
128,192,25561,1,0,0:0:0:0:
213,192,25681,1,0,0:0:0:0:
42,192,25681,1,0,0:0:0:0:
384,192,25681,1,0,0:0:0:0:
469,192,25681,1,0,0:0:0:0:
384,192,25801,1,0,0:0:0:0:
213,192,25801,1,0,0:0:0:0:
298,192,25921,1,0,0:0:0:0:
469,192,25921,1,0,0:0:0:0:
42,192,25921,1,0,0:0:0:0:
128,192,25921,1,0,0:0:0:0:
42,192,26042,1,0,0:0:0:0:
298,192,26042,1,0,0:0:0:0:
213,192,26042,1,0,0:0:0:0:
128,192,26162,1,0,0:0:0:0:
298,192,26162,1,0,0:0:0:0:
384,192,26162,1,0,0:0:0:0:
469,192,26162,1,0,0:0:0:0:
298,192,26282,1,0,0:0:0:0:
469,192,26282,1,0,0:0:0:0:
384,192,26402,1,0,0:0:0:0:
213,192,26402,1,0,0:0:0:0:
128,192,26402,1,0,0:0:0:0:
42,192,26402,1,0,0:0:0:0:
213,192,26522,1,0,0:0:0:0:
469,192,26522,1,0,0:0:0:0:
384,192,26642,1,0,0:0:0:0:
298,192,26642,1,0,0:0:0:0:
213,192,26642,1,0,0:0:0:0:
42,192,26642,1,0,0:0:0:0:
128,192,26762,1,0,0:0:0:0:
213,192,26762,1,0,0:0:0:0:
384,192,26762,1,0,0:0:0:0:
469,192,26882,1,0,0:0:0:0:
42,192,26882,1,0,0:0:0:0:
128,192,26882,1,0,0:0:0:0:
298,192,26882,1,0,0:0:0:0:
213,192,26942,1,0,0:0:0:0:
384,192,26942,1,0,0:0:0:0:
298,192,27003,1,0,0:0:0:0:
128,192,27003,1,0,0:0:0:0:
213,192,27063,1,0,0:0:0:0:
384,192,27063,1,0,0:0:0:0:
298,192,27123,1,0,0:0:0:0:
469,192,27123,1,0,0:0:0:0:
42,192,27123,1,0,0:0:0:0:
128,192,27243,1,0,0:0:0:0:
384,192,27243,1,0,0:0:0:0:
213,192,27363,1,0,0:0:0:0:
128,192,27363,1,0,0:0:0:0:
42,192,27363,1,0,0:0:0:0:
469,192,27363,1,0,0:0:0:0:
384,192,27483,1,0,0:0:0:0:
128,192,27483,1,0,0:0:0:0:
42,192,27603,1,0,0:0:0:0:
298,192,27603,1,0,0:0:0:0:
384,192,27603,1,0,0:0:0:0:
469,192,27603,1,0,0:0:0:0:
384,192,27723,1,0,0:0:0:0:
128,192,27723,1,0,0:0:0:0:
298,192,27843,1,0,0:0:0:0:
213,192,27843,1,0,0:0:0:0:
42,192,27843,1,0,0:0:0:0:
469,192,27843,1,0,0:0:0:0:
298,192,27963,1,0,0:0:0:0:
384,192,27963,1,0,0:0:0:0:
42,192,27963,1,0,0:0:0:0:
213,192,28084,1,0,0:0:0:0:
128,192,28084,1,0,0:0:0:0:
384,192,28084,1,0,0:0:0:0:
469,192,28084,1,0,0:0:0:0:
298,192,28204,1,0,0:0:0:0:
213,192,28204,1,0,0:0:0:0:
42,192,28204,1,0,0:0:0:0:
42,192,28324,1,0,0:0:0:0:
128,192,28324,1,0,0:0:0:0:
298,192,28324,1,0,0:0:0:0:
384,192,28324,1,0,0:0:0:0:
128,192,28444,1,0,0:0:0:0:
384,192,28444,1,0,0:0:0:0:
469,192,28444,1,0,0:0:0:0:
298,192,28564,1,0,0:0:0:0:
213,192,28564,1,0,0:0:0:0:
42,192,28564,1,0,0:0:0:0:
469,192,28564,1,0,0:0:0:0:
128,192,28684,1,0,0:0:0:0:
42,192,28684,1,0,0:0:0:0:
298,192,28684,1,0,0:0:0:0:
213,192,28804,1,0,0:0:0:0:
128,192,28804,1,0,0:0:0:0:
469,192,28804,1,0,0:0:0:0:
384,192,28804,1,0,0:0:0:0:
213,192,28924,1,0,0:0:0:0:
469,192,28924,1,0,0:0:0:0:
298,192,28924,1,0,0:0:0:0:
298,192,29045,1,0,0:0:0:0:
42,192,29045,1,0,0:0:0:0:
384,192,29045,1,0,0:0:0:0:
128,192,29165,1,0,0:0:0:0:
298,192,29165,1,0,0:0:0:0:
469,192,29165,1,0,0:0:0:0:
298,192,29285,1,0,0:0:0:0:
213,192,29285,1,0,0:0:0:0:
42,192,29285,1,0,0:0:0:0:
298,192,29405,1,0,0:0:0:0:
128,192,29405,1,0,0:0:0:0:
469,192,29405,1,0,0:0:0:0:
298,192,29525,1,0,0:0:0:0:
384,192,29525,1,0,0:0:0:0:
42,192,29525,1,0,0:0:0:0:
213,192,29645,1,0,0:0:0:0:
298,192,29645,1,0,0:0:0:0:
469,192,29645,1,0,0:0:0:0:
128,192,29765,1,0,0:0:0:0:
42,192,29765,1,0,0:0:0:0:
384,192,29765,1,0,0:0:0:0:
213,192,29765,1,0,0:0:0:0:
213,192,29885,1,0,0:0:0:0:
384,192,29885,1,0,0:0:0:0:
469,192,29885,1,0,0:0:0:0:
298,192,30006,1,0,0:0:0:0:
128,192,30006,1,0,0:0:0:0:
42,192,30006,1,0,0:0:0:0:
213,192,30066,1,0,0:0:0:0:
384,192,30066,1,0,0:0:0:0:
128,192,30126,1,0,0:0:0:0:
298,192,30126,1,0,0:0:0:0:
469,192,30126,1,0,0:0:0:0:
213,192,30246,1,0,0:0:0:0:
42,192,30246,1,0,0:0:0:0:
384,192,30246,1,0,0:0:0:0:
469,192,30246,1,0,0:0:0:0:
42,192,30366,1,0,0:0:0:0:
298,192,30366,1,0,0:0:0:0:
42,192,30486,1,0,0:0:0:0:
128,192,30486,1,0,0:0:0:0:
298,192,30486,1,0,0:0:0:0:
469,192,30486,1,0,0:0:0:0:
469,192,30606,1,0,0:0:0:0:
213,192,30606,1,0,0:0:0:0:
42,192,30726,1,0,0:0:0:0:
213,192,30726,1,0,0:0:0:0:
469,192,30726,1,0,0:0:0:0:
384,192,30726,1,0,0:0:0:0:
469,192,30846,1,0,0:0:0:0:
384,192,30846,1,0,0:0:0:0:
213,192,30846,1,0,0:0:0:0:
42,192,30846,1,0,0:0:0:0:
128,192,30966,1,0,0:0:0:0:
42,192,30966,1,0,0:0:0:0:
298,192,30966,1,0,0:0:0:0:
469,192,30966,1,0,0:0:0:0:
213,192,31207,1,0,0:0:0:0:
128,192,31207,1,0,0:0:0:0:
469,192,31207,1,0,0:0:0:0:
384,192,31207,1,0,0:0:0:0:
128,192,31327,1,0,0:0:0:0:
42,192,31327,1,0,0:0:0:0:
384,192,31327,1,0,0:0:0:0:
298,192,31327,1,0,0:0:0:0:
42,192,31447,1,0,0:0:0:0:
469,192,31447,1,0,0:0:0:0:
213,192,31447,1,0,0:0:0:0:
384,192,31447,1,0,0:0:0:0:
128,192,31507,1,0,0:0:0:0:
298,192,31507,1,0,0:0:0:0:
213,192,31567,1,0,0:0:0:0:
384,192,31567,1,0,0:0:0:0:
298,192,31627,1,0,0:0:0:0:
128,192,31627,1,0,0:0:0:0:
213,192,31687,1,0,0:0:0:0:
42,192,31687,1,0,0:0:0:0:
469,192,31687,1,0,0:0:0:0:
469,192,31807,1,0,0:0:0:0:
128,192,31927,1,0,0:0:0:0:
213,192,31927,1,0,0:0:0:0:
128,192,32048,1,0,0:0:0:0:
298,192,32168,1,0,0:0:0:0:
384,192,32168,1,0,0:0:0:0:
384,192,32288,1,0,0:0:0:0:
128,192,32408,1,0,0:0:0:0:
42,192,32408,1,0,0:0:0:0:
42,192,32528,1,0,0:0:0:0:
213,192,32648,1,0,0:0:0:0:
298,192,32648,1,0,0:0:0:0:
384,192,32648,1,0,0:0:0:0:
469,192,32648,1,0,0:0:0:0:
384,192,32768,1,0,0:0:0:0:
298,192,32768,1,0,0:0:0:0:
128,192,32768,1,0,0:0:0:0:
213,192,32888,1,0,0:0:0:0:
128,192,32888,1,0,0:0:0:0:
42,192,32888,1,0,0:0:0:0:
469,192,32888,1,0,0:0:0:0:
213,192,33009,1,0,0:0:0:0:
384,192,33009,1,0,0:0:0:0:
298,192,33009,1,0,0:0:0:0:
128,192,33129,1,0,0:0:0:0:
42,192,33129,1,0,0:0:0:0:
469,192,33129,1,0,0:0:0:0:
384,192,33129,1,0,0:0:0:0:
298,192,33249,1,0,0:0:0:0:
213,192,33249,1,0,0:0:0:0:
128,192,33249,1,0,0:0:0:0:
42,192,33369,1,0,0:0:0:0:
298,192,33369,1,0,0:0:0:0:
384,192,33369,1,0,0:0:0:0:
469,192,33369,1,0,0:0:0:0:
213,192,33489,1,0,0:0:0:0:
128,192,33489,1,0,0:0:0:0:
42,192,33489,1,0,0:0:0:0:
213,192,33609,1,0,0:0:0:0:
298,192,33609,1,0,0:0:0:0:
384,192,33609,1,0,0:0:0:0:
469,192,33609,1,0,0:0:0:0:
384,192,33729,1,0,0:0:0:0:
42,192,33729,1,0,0:0:0:0:
128,192,33729,1,0,0:0:0:0:
298,192,33849,1,0,0:0:0:0:
213,192,33849,1,0,0:0:0:0:
128,192,33849,1,0,0:0:0:0:
469,192,33849,1,0,0:0:0:0:
384,192,33969,1,0,0:0:0:0:
42,192,33969,1,0,0:0:0:0:
298,192,33969,1,0,0:0:0:0:
213,192,34090,1,0,0:0:0:0:
128,192,34090,1,0,0:0:0:0:
42,192,34090,1,0,0:0:0:0:
469,192,34090,1,0,0:0:0:0:
128,192,34210,1,0,0:0:0:0:
298,192,34210,1,0,0:0:0:0:
384,192,34210,1,0,0:0:0:0:
213,192,34330,1,0,0:0:0:0:
42,192,34330,1,0,0:0:0:0:
384,192,34330,1,0,0:0:0:0:
469,192,34330,1,0,0:0:0:0:
298,192,34450,1,0,0:0:0:0:
469,192,34450,1,0,0:0:0:0:
128,192,34450,1,0,0:0:0:0:
213,192,34570,1,0,0:0:0:0:
128,192,34570,1,0,0:0:0:0:
42,192,34570,1,0,0:0:0:0:
384,192,34570,1,0,0:0:0:0:
298,192,34690,1,0,0:0:0:0:
384,192,34690,1,0,0:0:0:0:
42,192,34690,1,0,0:0:0:0:
128,192,34810,1,0,0:0:0:0:
213,192,34810,1,0,0:0:0:0:
469,192,34810,1,0,0:0:0:0:
298,192,34810,1,0,0:0:0:0:
384,192,34930,1,0,0:0:0:0:
128,192,34930,1,0,0:0:0:0:
42,192,34930,1,0,0:0:0:0:
298,192,35051,1,0,0:0:0:0:
384,192,35051,1,0,0:0:0:0:
469,192,35051,1,0,0:0:0:0:
213,192,35051,1,0,0:0:0:0:
213,192,35171,1,0,0:0:0:0:
128,192,35171,1,0,0:0:0:0:
42,192,35171,1,0,0:0:0:0:
298,192,35291,1,0,0:0:0:0:
384,192,35291,1,0,0:0:0:0:
469,192,35291,1,0,0:0:0:0:
128,192,35291,1,0,0:0:0:0:
213,192,35411,1,0,0:0:0:0:
42,192,35411,1,0,0:0:0:0:
128,192,35411,1,0,0:0:0:0:
213,192,35531,1,0,0:0:0:0:
298,192,35531,1,0,0:0:0:0:
384,192,35531,1,0,0:0:0:0:
469,192,35531,1,0,0:0:0:0:
298,192,35651,1,0,0:0:0:0:
128,192,35651,1,0,0:0:0:0:
42,192,35651,1,0,0:0:0:0:
213,192,35771,1,0,0:0:0:0:
128,192,35771,1,0,0:0:0:0:
384,192,35771,1,0,0:0:0:0:
469,192,35771,1,0,0:0:0:0:
298,192,35891,1,0,0:0:0:0:
213,192,35891,1,0,0:0:0:0:
469,192,35891,1,0,0:0:0:0:
42,192,35891,1,0,0:0:0:0:
384,192,36012,1,0,0:0:0:0:
298,192,36012,1,0,0:0:0:0:
128,192,36012,1,0,0:0:0:0:
42,192,36012,1,0,0:0:0:0:
469,192,36072,1,0,0:0:0:0:
213,192,36132,1,0,0:0:0:0:
384,192,36132,1,0,0:0:0:0:
128,192,36192,1,0,0:0:0:0:
42,192,36252,1,0,0:0:0:0:
298,192,36252,1,0,0:0:0:0:
469,192,36252,1,0,0:0:0:0:
298,192,36372,1,0,0:0:0:0:
213,192,36372,1,0,0:0:0:0:
42,192,36372,1,0,0:0:0:0:
128,192,36492,1,0,0:0:0:0:
213,192,36492,1,0,0:0:0:0:
384,192,36492,1,0,0:0:0:0:
469,192,36492,1,0,0:0:0:0:
384,192,36612,1,0,0:0:0:0:
298,192,36612,1,0,0:0:0:0:
42,192,36612,1,0,0:0:0:0:
213,192,36732,1,0,0:0:0:0:
128,192,36732,1,0,0:0:0:0:
298,192,36732,1,0,0:0:0:0:
469,192,36732,1,0,0:0:0:0:
384,192,36852,1,0,0:0:0:0:
469,192,36852,1,0,0:0:0:0:
42,192,36852,1,0,0:0:0:0:
298,192,36972,1,0,0:0:0:0:
384,192,36972,1,0,0:0:0:0:
128,192,36972,1,0,0:0:0:0:
42,192,36972,1,0,0:0:0:0:
469,192,37093,1,0,0:0:0:0:
213,192,37093,1,0,0:0:0:0:
128,192,37093,1,0,0:0:0:0:
384,192,37213,1,0,0:0:0:0:
298,192,37213,1,0,0:0:0:0:
213,192,37213,1,0,0:0:0:0:
42,192,37213,1,0,0:0:0:0:
469,192,37333,1,0,0:0:0:0:
128,192,37333,1,0,0:0:0:0:
42,192,37333,1,0,0:0:0:0:
384,192,37453,1,0,0:0:0:0:
298,192,37453,1,0,0:0:0:0:
213,192,37453,1,0,0:0:0:0:
469,192,37453,1,0,0:0:0:0:
384,192,37573,1,0,0:0:0:0:
298,192,37573,1,0,0:0:0:0:
213,192,37573,1,0,0:0:0:0:
128,192,37573,1,0,0:0:0:0:
298,192,37693,1,0,0:0:0:0:
213,192,37693,1,0,0:0:0:0:
128,192,37693,1,0,0:0:0:0:
42,192,37693,1,0,0:0:0:0:
128,192,37813,1,0,0:0:0:0:
384,192,37813,1,0,0:0:0:0:
469,192,37813,1,0,0:0:0:0:
384,192,37933,1,0,0:0:0:0:
298,192,37933,1,0,0:0:0:0:
213,192,37933,1,0,0:0:0:0:
42,192,37933,1,0,0:0:0:0:
213,192,38054,1,0,0:0:0:0:
42,192,38054,1,0,0:0:0:0:
469,192,38054,1,0,0:0:0:0:
298,192,38174,1,0,0:0:0:0:
128,192,38174,1,0,0:0:0:0:
384,192,38174,1,0,0:0:0:0:
469,192,38174,1,0,0:0:0:0:
298,192,38294,1,0,0:0:0:0:
128,192,38294,1,0,0:0:0:0:
42,192,38294,1,0,0:0:0:0:
213,192,38414,1,0,0:0:0:0:
384,192,38414,1,0,0:0:0:0:
469,192,38414,1,0,0:0:0:0:
42,192,38414,1,0,0:0:0:0:
128,192,38534,1,0,0:0:0:0:
42,192,38534,1,0,0:0:0:0:
298,192,38534,1,0,0:0:0:0:
128,192,38654,1,0,0:0:0:0:
469,192,38654,1,0,0:0:0:0:
384,192,38654,1,0,0:0:0:0:
298,192,38654,1,0,0:0:0:0:
384,192,38774,1,0,0:0:0:0:
128,192,38774,1,0,0:0:0:0:
213,192,38774,1,0,0:0:0:0:
213,192,38894,1,0,0:0:0:0:
42,192,38894,1,0,0:0:0:0:
469,192,38894,1,0,0:0:0:0:
384,192,38894,1,0,0:0:0:0:
298,192,39015,1,0,0:0:0:0:
213,192,39015,1,0,0:0:0:0:
469,192,39015,1,0,0:0:0:0:
384,192,39135,1,0,0:0:0:0:
128,192,39135,1,0,0:0:0:0:
42,192,39135,1,0,0:0:0:0:
213,192,39135,1,0,0:0:0:0:
128,192,39255,1,0,0:0:0:0:
298,192,39255,1,0,0:0:0:0:
384,192,39255,1,0,0:0:0:0:
298,192,39375,1,0,0:0:0:0:
42,192,39375,1,0,0:0:0:0:
469,192,39375,1,0,0:0:0:0:
128,192,39375,1,0,0:0:0:0:
384,192,39495,1,0,0:0:0:0:
213,192,39495,1,0,0:0:0:0:
42,192,39495,1,0,0:0:0:0:
298,192,39615,1,0,0:0:0:0:
384,192,39615,1,0,0:0:0:0:
469,192,39615,1,0,0:0:0:0:
128,192,39615,1,0,0:0:0:0:
298,192,39735,1,0,0:0:0:0:
213,192,39735,1,0,0:0:0:0:
128,192,39735,1,0,0:0:0:0:
42,192,39855,1,0,0:0:0:0:
384,192,39855,1,0,0:0:0:0:
469,192,39855,1,0,0:0:0:0:
128,192,39855,1,0,0:0:0:0:
298,192,39975,1,0,0:0:0:0:
298,192,40096,1,0,0:0:0:0:
298,192,40216,1,0,0:0:0:0:
213,192,40336,1,0,0:0:0:0:
128,192,40336,1,0,0:0:0:0:
42,192,40336,1,0,0:0:0:0:
469,192,40336,1,0,0:0:0:0:
384,192,40456,1,0,0:0:0:0:
128,192,40456,1,0,0:0:0:0:
42,192,40456,1,0,0:0:0:0:
128,192,40576,1,0,0:0:0:0:
298,192,40576,1,0,0:0:0:0:
469,192,40576,1,0,0:0:0:0:
384,192,40576,1,0,0:0:0:0:
213,192,40696,1,0,0:0:0:0:
128,192,40696,1,0,0:0:0:0:
42,192,40696,1,0,0:0:0:0:
213,192,40816,1,0,0:0:0:0:
298,192,40816,1,0,0:0:0:0:
384,192,40816,1,0,0:0:0:0:
469,192,40816,1,0,0:0:0:0:
298,192,40936,1,0,0:0:0:0:
128,192,40936,1,0,0:0:0:0:
42,192,40936,1,0,0:0:0:0:
298,192,41057,1,0,0:0:0:0:
384,192,41057,1,0,0:0:0:0:
469,192,41057,1,0,0:0:0:0:
128,192,41057,1,0,0:0:0:0:
298,192,41177,1,0,0:0:0:0:
213,192,41177,1,0,0:0:0:0:
42,192,41177,1,0,0:0:0:0:
42,192,41297,1,0,0:0:0:0:
128,192,41297,1,0,0:0:0:0:
384,192,41297,1,0,0:0:0:0:
469,192,41297,1,0,0:0:0:0:
213,192,41417,1,0,0:0:0:0:
298,192,41417,1,0,0:0:0:0:
469,192,41417,1,0,0:0:0:0:
298,192,41537,1,0,0:0:0:0:
469,192,41537,1,0,0:0:0:0:
128,192,41537,1,0,0:0:0:0:
42,192,41537,1,0,0:0:0:0:
213,192,41657,1,0,0:0:0:0:
128,192,41657,1,0,0:0:0:0:
469,192,41657,1,0,0:0:0:0:
384,192,41777,1,0,0:0:0:0:
298,192,41777,1,0,0:0:0:0:
213,192,41777,1,0,0:0:0:0:
42,192,41777,1,0,0:0:0:0:
128,192,41897,1,0,0:0:0:0:
384,192,41897,1,0,0:0:0:0:
298,192,42018,1,0,0:0:0:0:
128,192,42018,1,0,0:0:0:0:
42,192,42018,1,0,0:0:0:0:
213,192,42018,1,0,0:0:0:0:
469,192,42078,1,0,0:0:0:0:
384,192,42138,1,0,0:0:0:0:
298,192,42138,1,0,0:0:0:0:
42,192,42138,1,0,0:0:0:0:
128,192,42198,1,0,0:0:0:0:
384,192,42258,1,0,0:0:0:0:
469,192,42258,1,0,0:0:0:0:
213,192,42258,1,0,0:0:0:0:
213,192,42378,1,0,0:0:0:0:
128,192,42378,1,0,0:0:0:0:
42,192,42378,1,0,0:0:0:0:
213,192,42498,1,0,0:0:0:0:
298,192,42498,1,0,0:0:0:0:
384,192,42498,1,0,0:0:0:0:
469,192,42498,1,0,0:0:0:0:
213,192,42618,1,0,0:0:0:0:
128,192,42618,1,0,0:0:0:0:
42,192,42618,1,0,0:0:0:0:
298,192,42738,1,0,0:0:0:0:
384,192,42738,1,0,0:0:0:0:
469,192,42738,1,0,0:0:0:0:
42,192,42738,1,0,0:0:0:0:
384,192,42858,1,0,0:0:0:0:
213,192,42858,1,0,0:0:0:0:
128,192,42858,1,0,0:0:0:0:
298,192,42979,1,0,0:0:0:0:
128,192,42979,1,0,0:0:0:0:
469,192,42979,1,0,0:0:0:0:
384,192,42979,1,0,0:0:0:0:
384,192,43099,1,0,0:0:0:0:
128,192,43099,1,0,0:0:0:0:
42,192,43099,1,0,0:0:0:0:
298,192,43219,1,0,0:0:0:0:
213,192,43219,1,0,0:0:0:0:
42,192,43219,1,0,0:0:0:0:
469,192,43219,1,0,0:0:0:0:
128,192,43279,1,0,0:0:0:0:
213,192,43339,1,0,0:0:0:0:
384,192,43339,1,0,0:0:0:0:
298,192,43399,1,0,0:0:0:0:
213,192,43459,1,0,0:0:0:0:
128,192,43459,1,0,0:0:0:0:
42,192,43459,1,0,0:0:0:0:
469,192,43459,1,0,0:0:0:0:
128,192,43579,1,0,0:0:0:0:
42,192,43579,1,0,0:0:0:0:
469,192,43579,1,0,0:0:0:0:
384,192,43579,1,0,0:0:0:0:
298,192,43699,1,0,0:0:0:0:
384,192,43699,1,0,0:0:0:0:
469,192,43699,1,0,0:0:0:0:
42,192,43699,1,0,0:0:0:0:
213,192,43819,1,0,0:0:0:0:
298,192,43819,1,0,0:0:0:0:
213,192,43939,1,0,0:0:0:0:
42,192,43939,1,0,0:0:0:0:
128,192,43939,1,0,0:0:0:0:
384,192,43939,1,0,0:0:0:0:
298,192,44060,1,0,0:0:0:0:
384,192,44060,1,0,0:0:0:0:
469,192,44060,1,0,0:0:0:0:
128,192,44060,1,0,0:0:0:0:
298,192,44180,1,0,0:0:0:0:
213,192,44180,1,0,0:0:0:0:
42,192,44180,1,0,0:0:0:0:
469,192,44180,1,0,0:0:0:0:
384,192,44300,1,0,0:0:0:0:
42,192,44300,1,0,0:0:0:0:
213,192,44420,1,0,0:0:0:0:
128,192,44420,1,0,0:0:0:0:
298,192,44420,1,0,0:0:0:0:
469,192,44420,1,0,0:0:0:0:
384,192,44540,1,0,0:0:0:0:
298,192,44540,1,0,0:0:0:0:
128,192,44540,1,0,0:0:0:0:
42,192,44540,1,0,0:0:0:0:
213,192,44660,1,0,0:0:0:0:
42,192,44660,1,0,0:0:0:0:
384,192,44660,1,0,0:0:0:0:
469,192,44660,1,0,0:0:0:0:
298,192,44720,1,0,0:0:0:0:
469,192,44780,1,0,0:0:0:0:
213,192,44780,1,0,0:0:0:0:
128,192,44840,1,0,0:0:0:0:
384,192,44900,1,0,0:0:0:0:
298,192,44900,1,0,0:0:0:0:
42,192,44900,1,0,0:0:0:0:
213,192,44900,1,0,0:0:0:0:
213,192,45021,1,0,0:0:0:0:
128,192,45021,1,0,0:0:0:0:
384,192,45021,1,0,0:0:0:0:
469,192,45021,1,0,0:0:0:0:
384,192,45141,1,0,0:0:0:0:
298,192,45141,1,0,0:0:0:0:
128,192,45141,1,0,0:0:0:0:
42,192,45141,1,0,0:0:0:0:
298,192,45261,1,0,0:0:0:0:
213,192,45261,1,0,0:0:0:0:
469,192,45261,1,0,0:0:0:0:
384,192,45381,1,0,0:0:0:0:
213,192,45381,1,0,0:0:0:0:
128,192,45381,1,0,0:0:0:0:
469,192,45381,1,0,0:0:0:0:
384,192,45501,1,0,0:0:0:0:
298,192,45501,1,0,0:0:0:0:
128,192,45501,1,0,0:0:0:0:
42,192,45501,1,0,0:0:0:0:
213,192,45621,1,0,0:0:0:0:
42,192,45621,1,0,0:0:0:0:
298,192,45621,1,0,0:0:0:0:
128,192,45741,1,0,0:0:0:0:
213,192,45741,1,0,0:0:0:0:
384,192,45741,1,0,0:0:0:0:
469,192,45741,1,0,0:0:0:0:
128,192,45861,1,0,0:0:0:0:
298,192,45861,1,0,0:0:0:0:
384,192,45861,1,0,0:0:0:0:
42,192,45861,1,0,0:0:0:0:
213,192,45982,1,0,0:0:0:0:
298,192,45982,1,0,0:0:0:0:
469,192,45982,1,0,0:0:0:0:
213,192,46102,1,0,0:0:0:0:
128,192,46102,1,0,0:0:0:0:
42,192,46102,1,0,0:0:0:0:
469,192,46102,1,0,0:0:0:0:
384,192,46222,1,0,0:0:0:0:
128,192,46222,1,0,0:0:0:0:
384,192,46342,1,0,0:0:0:0:
469,192,46342,1,0,0:0:0:0:
298,192,46342,1,0,0:0:0:0:
42,192,46342,1,0,0:0:0:0:
213,192,46402,1,0,0:0:0:0:
128,192,46462,1,0,0:0:0:0:
42,192,46462,1,0,0:0:0:0:
469,192,46462,1,0,0:0:0:0:
384,192,46462,1,0,0:0:0:0:
298,192,46522,1,0,0:0:0:0:
469,192,46582,1,0,0:0:0:0:
213,192,46582,1,0,0:0:0:0:
128,192,46582,1,0,0:0:0:0:
42,192,46582,1,0,0:0:0:0:
128,192,46702,1,0,0:0:0:0:
384,192,46702,1,0,0:0:0:0:
213,192,46702,1,0,0:0:0:0:
298,192,46702,1,0,0:0:0:0:
42,192,46822,1,0,0:0:0:0:
384,192,46822,1,0,0:0:0:0:
469,192,46822,1,0,0:0:0:0:
298,192,46822,1,0,0:0:0:0:
213,192,46882,1,0,0:0:0:0:
128,192,46942,1,0,0:0:0:0:
42,192,46942,1,0,0:0:0:0:
384,192,46942,1,0,0:0:0:0:
469,192,46942,1,0,0:0:0:0:
298,192,47003,1,0,0:0:0:0:
213,192,47063,1,0,0:0:0:0:
128,192,47063,1,0,0:0:0:0:
469,192,47063,1,0,0:0:0:0:
42,192,47063,1,0,0:0:0:0:
213,192,47143,1,0,0:0:0:0:
128,192,47143,1,0,0:0:0:0:
384,192,47223,1,0,0:0:0:0:
469,192,47223,1,0,0:0:0:0:
298,192,47303,1,0,0:0:0:0:
128,192,47303,1,0,0:0:0:0:
42,192,47303,1,0,0:0:0:0:
128,192,47383,1,0,0:0:0:0:
42,192,47383,1,0,0:0:0:0:
298,192,47463,1,0,0:0:0:0:
384,192,47463,1,0,0:0:0:0:
213,192,47543,1,0,0:0:0:0:
42,192,47543,1,0,0:0:0:0:
469,192,47543,1,0,0:0:0:0:
384,192,47663,1,0,0:0:0:0:
128,192,47663,1,0,0:0:0:0:
213,192,47783,1,0,0:0:0:0:
469,192,47783,1,0,0:0:0:0:
298,192,47903,1,0,0:0:0:0:
128,192,47903,1,0,0:0:0:0:
42,192,48024,1,0,0:0:0:0:
213,192,48024,1,0,0:0:0:0:
384,192,48024,1,0,0:0:0:0:
469,192,48024,1,0,0:0:0:0:
384,192,48144,1,0,0:0:0:0:
384,192,48264,1,0,0:0:0:0:
128,192,48264,1,0,0:0:0:0:
298,192,48264,1,0,0:0:0:0:
128,192,48384,1,0,0:0:0:0:
128,192,48504,1,0,0:0:0:0:
298,192,48504,1,0,0:0:0:0:
384,192,48504,1,0,0:0:0:0:
298,192,48624,1,0,0:0:0:0:
298,192,48744,1,0,0:0:0:0:
42,192,48744,1,0,0:0:0:0:
213,192,48744,1,0,0:0:0:0:
42,192,48864,1,0,0:0:0:0:
213,192,48864,1,0,0:0:0:0:
42,192,48985,1,0,0:0:0:0:
298,192,48985,1,0,0:0:0:0:
469,192,48985,1,0,0:0:0:0:
128,192,49105,1,0,0:0:0:0:
42,192,49225,1,0,0:0:0:0:
213,192,49225,1,0,0:0:0:0:
384,192,49225,1,0,0:0:0:0:
128,192,49345,1,0,0:0:0:0:
42,192,49465,1,0,0:0:0:0:
469,192,49465,1,0,0:0:0:0:
298,192,49465,1,0,0:0:0:0:
213,192,49585,1,0,0:0:0:0:
128,192,49615,1,0,0:0:0:0:
42,192,49645,1,0,0:0:0:0:
128,192,49675,1,0,0:0:0:0:
42,192,49705,1,0,0:0:0:0:
213,192,49735,1,0,0:0:0:0:
298,192,49765,1,0,0:0:0:0:
384,192,49795,1,0,0:0:0:0:
128,192,49825,1,0,0:0:0:0:
298,192,49855,1,0,0:0:0:0:
384,192,49885,1,0,0:0:0:0:
469,192,49915,1,0,0:0:0:0:
213,192,49945,1,0,0:0:0:0:
42,192,49945,1,0,0:0:0:0:
42,192,50026,1,0,0:0:0:0:
298,192,50026,1,0,0:0:0:0:
128,192,50106,1,0,0:0:0:0:
298,192,50106,1,0,0:0:0:0:
128,192,50186,1,0,0:0:0:0:
384,192,50186,1,0,0:0:0:0:
213,192,50266,1,0,0:0:0:0:
384,192,50266,1,0,0:0:0:0:
213,192,50346,1,0,0:0:0:0:
469,192,50346,1,0,0:0:0:0:
298,192,50426,1,0,0:0:0:0:
469,192,50426,1,0,0:0:0:0:
42,192,50426,1,0,0:0:0:0:
42,192,50546,1,0,0:0:0:0:
384,192,50546,1,0,0:0:0:0:
128,192,50666,1,0,0:0:0:0:
384,192,50666,1,0,0:0:0:0:
128,192,50786,1,0,0:0:0:0:
469,192,50786,1,0,0:0:0:0:
213,192,50906,1,0,0:0:0:0:
42,192,50906,1,0,0:0:0:0:
469,192,50906,1,0,0:0:0:0:
298,192,51027,1,0,0:0:0:0:
384,192,51027,1,0,0:0:0:0:
42,192,51027,1,0,0:0:0:0:
42,192,51147,1,0,0:0:0:0:
213,192,51147,1,0,0:0:0:0:
469,192,51147,1,0,0:0:0:0:
128,192,51267,1,0,0:0:0:0:
384,192,51267,1,0,0:0:0:0:
298,192,51387,1,0,0:0:0:0:
469,192,51387,1,0,0:0:0:0:
42,192,51387,1,0,0:0:0:0:
213,192,51507,1,0,0:0:0:0:
128,192,51507,1,0,0:0:0:0:
469,192,51507,1,0,0:0:0:0:
42,192,51627,1,0,0:0:0:0:
298,192,51627,1,0,0:0:0:0:
469,192,51627,1,0,0:0:0:0:
384,192,51747,1,0,0:0:0:0:
128,192,51747,1,0,0:0:0:0:
42,192,51867,1,0,0:0:0:0:
128,192,51897,1,0,0:0:0:0:
213,192,51927,1,0,0:0:0:0:
384,192,51957,1,0,0:0:0:0:
128,192,51988,1,0,0:0:0:0:
298,192,52018,1,0,0:0:0:0:
384,192,52048,1,0,0:0:0:0:
469,192,52078,1,0,0:0:0:0:
42,192,52108,1,0,0:0:0:0:
213,192,52108,1,0,0:0:0:0:
384,192,52138,1,0,0:0:0:0:
298,192,52168,1,0,0:0:0:0:
213,192,52198,1,0,0:0:0:0:
469,192,52228,1,0,0:0:0:0:
298,192,52258,1,0,0:0:0:0:
213,192,52288,1,0,0:0:0:0:
128,192,52318,1,0,0:0:0:0:
42,192,52348,1,0,0:0:0:0:
384,192,52348,1,0,0:0:0:0:
469,192,52348,1,0,0:0:0:0:
384,192,52468,1,0,0:0:0:0:
298,192,52468,1,0,0:0:0:0:
213,192,52588,1,0,0:0:0:0:
128,192,52588,1,0,0:0:0:0:
469,192,52588,1,0,0:0:0:0:
128,192,52708,1,0,0:0:0:0:
42,192,52708,1,0,0:0:0:0:
298,192,52828,1,0,0:0:0:0:
384,192,52828,1,0,0:0:0:0:
42,192,52828,1,0,0:0:0:0:
128,192,52948,1,0,0:0:0:0:
384,192,52948,1,0,0:0:0:0:
469,192,52948,1,0,0:0:0:0:
298,192,53069,1,0,0:0:0:0:
213,192,53069,1,0,0:0:0:0:
42,192,53069,1,0,0:0:0:0:
298,192,53189,1,0,0:0:0:0:
384,192,53189,1,0,0:0:0:0:
42,192,53189,1,0,0:0:0:0:
213,192,53309,1,0,0:0:0:0:
128,192,53309,1,0,0:0:0:0:
469,192,53309,1,0,0:0:0:0:
213,192,53429,1,0,0:0:0:0:
298,192,53429,1,0,0:0:0:0:
469,192,53429,1,0,0:0:0:0:
128,192,53549,1,0,0:0:0:0:
42,192,53549,1,0,0:0:0:0:
384,192,53549,1,0,0:0:0:0:
384,192,53789,1,0,0:0:0:0:
213,192,53789,1,0,0:0:0:0:
42,192,53789,1,0,0:0:0:0:
469,192,53789,1,0,0:0:0:0:
213,192,53909,1,0,0:0:0:0:
384,192,53909,1,0,0:0:0:0:
469,192,53909,1,0,0:0:0:0:
384,192,54030,1,0,0:0:0:0:
298,192,54030,1,0,0:0:0:0:
128,192,54030,1,0,0:0:0:0:
42,192,54030,1,0,0:0:0:0:
213,192,54150,1,0,0:0:0:0:
42,192,54150,1,0,0:0:0:0:
384,192,54150,1,0,0:0:0:0:
469,192,54150,1,0,0:0:0:0:
469,192,54270,1,0,0:0:0:0:
384,192,54270,1,0,0:0:0:0:
213,192,54270,1,0,0:0:0:0:
42,192,54390,1,0,0:0:0:0:
384,192,54390,1,0,0:0:0:0:
128,192,54390,1,0,0:0:0:0:
298,192,54390,1,0,0:0:0:0:
384,192,54510,1,0,0:0:0:0:
469,192,54510,1,0,0:0:0:0:
213,192,54510,1,0,0:0:0:0:
42,192,54510,1,0,0:0:0:0:
213,192,54630,1,0,0:0:0:0:
384,192,54630,1,0,0:0:0:0:
469,192,54630,1,0,0:0:0:0:
128,192,54750,1,0,0:0:0:0:
298,192,54750,1,0,0:0:0:0:
42,192,54750,1,0,0:0:0:0:
384,192,54750,1,0,0:0:0:0:
213,192,54870,1,0,0:0:0:0:
42,192,54870,1,0,0:0:0:0:
384,192,54870,1,0,0:0:0:0:
469,192,54870,1,0,0:0:0:0:
469,192,54991,1,0,0:0:0:0:
384,192,54991,1,0,0:0:0:0:
213,192,54991,1,0,0:0:0:0:
42,192,55111,1,0,0:0:0:0:
384,192,55111,1,0,0:0:0:0:
128,192,55111,1,0,0:0:0:0:
298,192,55111,1,0,0:0:0:0:
298,192,55231,1,0,0:0:0:0:
213,192,55231,1,0,0:0:0:0:
42,192,55231,1,0,0:0:0:0:
469,192,55231,1,0,0:0:0:0:
128,192,55351,1,0,0:0:0:0:
384,192,55351,1,0,0:0:0:0:
298,192,55471,1,0,0:0:0:0:
213,192,55471,1,0,0:0:0:0:
42,192,55471,1,0,0:0:0:0:
469,192,55471,1,0,0:0:0:0:
298,192,55591,1,0,0:0:0:0:
213,192,55591,1,0,0:0:0:0:
128,192,55711,1,0,0:0:0:0:
42,192,55711,1,0,0:0:0:0:
213,192,55711,1,0,0:0:0:0:
469,192,55711,1,0,0:0:0:0:
384,192,55711,1,0,0:0:0:0:
298,192,55711,1,0,0:0:0:0:
128,192,70126,5,0,0:0:0:0:
128,192,70366,1,0,0:0:0:0:
128,192,70606,1,0,0:0:0:0:
384,192,70606,1,0,0:0:0:0:
128,192,70726,1,0,0:0:0:0:
384,192,70846,1,0,0:0:0:0:
128,192,70846,1,0,0:0:0:0:
384,192,70966,1,0,0:0:0:0:
213,192,71087,1,0,0:0:0:0:
42,192,71087,1,0,0:0:0:0:
384,192,71087,1,0,0:0:0:0:
469,192,71087,1,0,0:0:0:0:
128,192,71207,1,0,0:0:0:0:
213,192,71327,1,0,0:0:0:0:
298,192,71447,1,0,0:0:0:0:
42,192,71567,1,0,0:0:0:0:
469,192,71567,1,0,0:0:0:0:
128,192,71567,1,0,0:0:0:0:
384,192,71687,1,0,0:0:0:0:
298,192,71807,1,0,0:0:0:0:
213,192,71927,1,0,0:0:0:0:
42,192,72048,1,0,0:0:0:0:
469,192,72048,1,0,0:0:0:0:
384,192,72048,1,0,0:0:0:0:
213,192,72168,1,0,0:0:0:0:
298,192,72288,1,0,0:0:0:0:
42,192,72408,1,0,0:0:0:0:
384,192,72528,1,0,0:0:0:0:
469,192,72528,1,0,0:0:0:0:
128,192,72528,1,0,0:0:0:0:
298,192,72648,1,0,0:0:0:0:
42,192,72768,1,0,0:0:0:0:
469,192,72768,1,0,0:0:0:0:
128,192,72828,1,0,0:0:0:0:
213,192,72888,1,0,0:0:0:0:
384,192,72888,1,0,0:0:0:0:
469,192,72948,1,0,0:0:0:0:
42,192,73009,1,0,0:0:0:0:
298,192,73009,1,0,0:0:0:0:
384,192,73009,1,0,0:0:0:0:
213,192,73129,1,0,0:0:0:0:
42,192,73249,1,0,0:0:0:0:
213,192,73369,1,0,0:0:0:0:
298,192,73489,1,0,0:0:0:0:
469,192,73489,1,0,0:0:0:0:
42,192,73489,1,0,0:0:0:0:
384,192,73609,1,0,0:0:0:0:
298,192,73729,1,0,0:0:0:0:
213,192,73849,1,0,0:0:0:0:
42,192,73969,1,0,0:0:0:0:
298,192,73969,1,0,0:0:0:0:
469,192,73969,1,0,0:0:0:0:
128,192,74090,1,0,0:0:0:0:
298,192,74210,1,0,0:0:0:0:
384,192,74330,1,0,0:0:0:0:
213,192,74450,1,0,0:0:0:0:
42,192,74450,1,0,0:0:0:0:
469,192,74450,1,0,0:0:0:0:
42,192,74570,1,0,0:0:0:0:
384,192,74570,1,0,0:0:0:0:
298,192,74690,1,0,0:0:0:0:
128,192,74690,1,0,0:0:0:0:
469,192,74750,1,0,0:0:0:0:
213,192,74810,1,0,0:0:0:0:
42,192,74810,1,0,0:0:0:0:
384,192,74870,1,0,0:0:0:0:
128,192,74930,1,0,0:0:0:0:
469,192,74930,1,0,0:0:0:0:
213,192,74930,1,0,0:0:0:0:
469,192,75051,1,0,0:0:0:0:
42,192,75051,1,0,0:0:0:0:
213,192,75171,1,0,0:0:0:0:
298,192,75291,1,0,0:0:0:0:
42,192,75411,1,0,0:0:0:0:
469,192,75411,1,0,0:0:0:0:
128,192,75411,1,0,0:0:0:0:
384,192,75531,1,0,0:0:0:0:
128,192,75531,1,0,0:0:0:0:
298,192,75651,1,0,0:0:0:0:
213,192,75771,1,0,0:0:0:0:
42,192,75891,1,0,0:0:0:0:
384,192,75891,1,0,0:0:0:0:
469,192,75891,1,0,0:0:0:0:
469,192,76012,1,0,0:0:0:0:
213,192,76012,1,0,0:0:0:0:
298,192,76132,1,0,0:0:0:0:
42,192,76252,1,0,0:0:0:0:
384,192,76372,1,0,0:0:0:0:
469,192,76372,1,0,0:0:0:0:
213,192,76372,1,0,0:0:0:0:
298,192,76492,1,0,0:0:0:0:
469,192,76492,1,0,0:0:0:0:
128,192,76492,1,0,0:0:0:0:
42,192,76612,1,0,0:0:0:0:
384,192,76612,1,0,0:0:0:0:
128,192,76672,1,0,0:0:0:0:
213,192,76732,1,0,0:0:0:0:
298,192,76732,1,0,0:0:0:0:
469,192,76792,1,0,0:0:0:0:
128,192,76852,1,0,0:0:0:0:
42,192,76852,1,0,0:0:0:0:
384,192,76852,1,0,0:0:0:0:
213,192,76972,1,0,0:0:0:0:
384,192,76972,1,0,0:0:0:0:
42,192,77093,1,0,0:0:0:0:
469,192,77093,1,0,0:0:0:0:
384,192,77093,1,0,0:0:0:0:
213,192,77213,1,0,0:0:0:0:
298,192,77333,1,0,0:0:0:0:
128,192,77333,1,0,0:0:0:0:
42,192,77333,1,0,0:0:0:0:
469,192,77333,1,0,0:0:0:0:
384,192,77453,1,0,0:0:0:0:
128,192,77453,1,0,0:0:0:0:
298,192,77573,1,0,0:0:0:0:
128,192,77573,1,0,0:0:0:0:
42,192,77573,1,0,0:0:0:0:
213,192,77693,1,0,0:0:0:0:
42,192,77813,1,0,0:0:0:0:
298,192,77813,1,0,0:0:0:0:
384,192,77813,1,0,0:0:0:0:
469,192,77813,1,0,0:0:0:0:
298,192,77933,1,0,0:0:0:0:
42,192,77933,1,0,0:0:0:0:
213,192,78054,1,0,0:0:0:0:
128,192,78054,1,0,0:0:0:0:
384,192,78054,1,0,0:0:0:0:
469,192,78054,1,0,0:0:0:0:
384,192,78174,1,0,0:0:0:0:
128,192,78174,1,0,0:0:0:0:
298,192,78294,1,0,0:0:0:0:
213,192,78294,1,0,0:0:0:0:
42,192,78294,1,0,0:0:0:0:
469,192,78294,1,0,0:0:0:0:
213,192,78414,1,0,0:0:0:0:
469,192,78414,1,0,0:0:0:0:
384,192,78534,1,0,0:0:0:0:
128,192,78534,1,0,0:0:0:0:
42,192,78654,1,0,0:0:0:0:
298,192,78654,1,0,0:0:0:0:
213,192,78774,1,0,0:0:0:0:
42,192,78774,1,0,0:0:0:0:
384,192,78774,1,0,0:0:0:0:
469,192,78774,1,0,0:0:0:0:
213,192,78894,1,0,0:0:0:0:
469,192,78894,1,0,0:0:0:0:
213,192,79015,1,0,0:0:0:0:
42,192,79015,1,0,0:0:0:0:
298,192,79015,1,0,0:0:0:0:
469,192,79015,1,0,0:0:0:0:
384,192,79135,1,0,0:0:0:0:
42,192,79135,1,0,0:0:0:0:
213,192,79255,1,0,0:0:0:0:
128,192,79255,1,0,0:0:0:0:
384,192,79255,1,0,0:0:0:0:
469,192,79255,1,0,0:0:0:0:
298,192,79375,1,0,0:0:0:0:
42,192,79375,1,0,0:0:0:0:
128,192,79495,1,0,0:0:0:0:
298,192,79495,1,0,0:0:0:0:
384,192,79495,1,0,0:0:0:0:
469,192,79495,1,0,0:0:0:0:
213,192,79615,1,0,0:0:0:0:
469,192,79615,1,0,0:0:0:0:
298,192,79735,1,0,0:0:0:0:
128,192,79735,1,0,0:0:0:0:
42,192,79735,1,0,0:0:0:0:
384,192,79735,1,0,0:0:0:0:
298,192,79855,1,0,0:0:0:0:
42,192,79855,1,0,0:0:0:0:
128,192,79975,1,0,0:0:0:0:
298,192,79975,1,0,0:0:0:0:
469,192,79975,1,0,0:0:0:0:
384,192,79975,1,0,0:0:0:0:
213,192,80096,1,0,0:0:0:0:
42,192,80096,1,0,0:0:0:0:
42,192,80216,1,0,0:0:0:0:
298,192,80216,1,0,0:0:0:0:
384,192,80216,1,0,0:0:0:0:
469,192,80216,1,0,0:0:0:0:
128,192,80336,1,0,0:0:0:0:
469,192,80336,1,0,0:0:0:0:
384,192,80456,1,0,0:0:0:0:
298,192,80456,1,0,0:0:0:0:
42,192,80456,1,0,0:0:0:0:
213,192,80456,1,0,0:0:0:0:
213,192,80576,1,0,0:0:0:0:
469,192,80576,1,0,0:0:0:0:
298,192,80696,1,0,0:0:0:0:
384,192,80696,1,0,0:0:0:0:
469,192,80696,1,0,0:0:0:0:
42,192,80696,1,0,0:0:0:0:
213,192,80816,1,0,0:0:0:0:
128,192,80816,1,0,0:0:0:0:
42,192,80936,1,0,0:0:0:0:
298,192,80936,1,0,0:0:0:0:
384,192,80936,1,0,0:0:0:0:
469,192,80936,1,0,0:0:0:0:
128,192,81057,1,0,0:0:0:0:
42,192,81057,1,0,0:0:0:0:
213,192,81177,1,0,0:0:0:0:
298,192,81177,1,0,0:0:0:0:
384,192,81177,1,0,0:0:0:0:
469,192,81177,1,0,0:0:0:0:
384,192,81297,1,0,0:0:0:0:
128,192,81297,1,0,0:0:0:0:
298,192,81417,1,0,0:0:0:0:
213,192,81417,1,0,0:0:0:0:
42,192,81417,1,0,0:0:0:0:
128,192,81417,1,0,0:0:0:0:
384,192,81537,1,0,0:0:0:0:
469,192,81537,1,0,0:0:0:0:
128,192,81657,1,0,0:0:0:0:
213,192,81657,1,0,0:0:0:0:
42,192,81657,1,0,0:0:0:0:
469,192,81657,1,0,0:0:0:0:
384,192,81777,1,0,0:0:0:0:
128,192,81777,1,0,0:0:0:0:
42,192,81897,1,0,0:0:0:0:
298,192,81897,1,0,0:0:0:0:
384,192,81897,1,0,0:0:0:0:
469,192,81897,1,0,0:0:0:0:
384,192,82018,1,0,0:0:0:0:
128,192,82018,1,0,0:0:0:0:
298,192,82138,1,0,0:0:0:0:
128,192,82138,1,0,0:0:0:0:
42,192,82138,1,0,0:0:0:0:
469,192,82138,1,0,0:0:0:0:
213,192,82258,1,0,0:0:0:0:
298,192,82258,1,0,0:0:0:0:
384,192,82258,1,0,0:0:0:0:
298,192,82378,1,0,0:0:0:0:
469,192,82378,1,0,0:0:0:0:
128,192,82378,1,0,0:0:0:0:
42,192,82378,1,0,0:0:0:0:
213,192,82498,1,0,0:0:0:0:
128,192,82498,1,0,0:0:0:0:
384,192,82498,1,0,0:0:0:0:
298,192,82618,1,0,0:0:0:0:
469,192,82618,1,0,0:0:0:0:
42,192,82618,1,0,0:0:0:0:
384,192,82618,1,0,0:0:0:0:
298,192,82738,1,0,0:0:0:0:
128,192,82738,1,0,0:0:0:0:
42,192,82738,1,0,0:0:0:0:
213,192,82858,1,0,0:0:0:0:
384,192,82858,1,0,0:0:0:0:
128,192,82858,1,0,0:0:0:0:
469,192,82858,1,0,0:0:0:0:
298,192,82979,1,0,0:0:0:0:
213,192,82979,1,0,0:0:0:0:
42,192,82979,1,0,0:0:0:0:
469,192,82979,1,0,0:0:0:0:
384,192,83099,1,0,0:0:0:0:
42,192,83099,1,0,0:0:0:0:
298,192,83099,1,0,0:0:0:0:
213,192,83219,1,0,0:0:0:0:
128,192,83219,1,0,0:0:0:0:
469,192,83219,1,0,0:0:0:0:
384,192,83219,1,0,0:0:0:0:
298,192,83339,1,0,0:0:0:0:
128,192,83339,1,0,0:0:0:0:
42,192,83339,1,0,0:0:0:0:
42,192,83459,1,0,0:0:0:0:
384,192,83459,1,0,0:0:0:0:
469,192,83459,1,0,0:0:0:0:
213,192,83459,1,0,0:0:0:0:
213,192,83579,1,0,0:0:0:0:
128,192,83579,1,0,0:0:0:0:
469,192,83579,1,0,0:0:0:0:
298,192,83579,1,0,0:0:0:0:
298,192,83699,1,0,0:0:0:0:
384,192,83699,1,0,0:0:0:0:
128,192,83699,1,0,0:0:0:0:
213,192,83819,1,0,0:0:0:0:
42,192,83819,1,0,0:0:0:0:
384,192,83819,1,0,0:0:0:0:
469,192,83819,1,0,0:0:0:0:
298,192,83939,1,0,0:0:0:0:
469,192,83939,1,0,0:0:0:0:
128,192,83939,1,0,0:0:0:0:
42,192,83939,1,0,0:0:0:0:
298,192,84060,1,0,0:0:0:0:
384,192,84060,1,0,0:0:0:0:
128,192,84060,1,0,0:0:0:0:
213,192,84180,1,0,0:0:0:0:
42,192,84180,1,0,0:0:0:0:
384,192,84180,1,0,0:0:0:0:
469,192,84180,1,0,0:0:0:0:
298,192,84300,1,0,0:0:0:0:
213,192,84300,1,0,0:0:0:0:
42,192,84300,1,0,0:0:0:0:
469,192,84300,1,0,0:0:0:0:
384,192,84360,1,0,0:0:0:0:
128,192,84420,1,0,0:0:0:0:
298,192,84420,1,0,0:0:0:0:
42,192,84480,1,0,0:0:0:0:
213,192,84540,1,0,0:0:0:0:
298,192,84540,1,0,0:0:0:0:
384,192,84540,1,0,0:0:0:0:
469,192,84540,1,0,0:0:0:0:
469,192,84620,1,0,0:0:0:0:
128,192,84620,1,0,0:0:0:0:
384,192,84700,1,0,0:0:0:0:
213,192,84700,1,0,0:0:0:0:
298,192,84780,1,0,0:0:0:0:
469,192,84780,1,0,0:0:0:0:
42,192,84780,1,0,0:0:0:0:
128,192,84860,1,0,0:0:0:0:
298,192,84860,1,0,0:0:0:0:
213,192,84940,1,0,0:0:0:0:
384,192,84940,1,0,0:0:0:0:
42,192,85021,1,0,0:0:0:0:
298,192,85021,1,0,0:0:0:0:
469,192,85021,1,0,0:0:0:0:
42,192,85101,1,0,0:0:0:0:
384,192,85101,1,0,0:0:0:0:
298,192,85181,1,0,0:0:0:0:
128,192,85181,1,0,0:0:0:0:
213,192,85261,1,0,0:0:0:0:
42,192,85261,1,0,0:0:0:0:
469,192,85261,1,0,0:0:0:0:
213,192,85341,1,0,0:0:0:0:
384,192,85341,1,0,0:0:0:0:
128,192,85421,1,0,0:0:0:0:
298,192,85421,1,0,0:0:0:0:
213,192,85501,1,0,0:0:0:0:
42,192,85501,1,0,0:0:0:0:
469,192,85501,1,0,0:0:0:0:
298,192,85561,1,0,0:0:0:0:
384,192,85561,1,0,0:0:0:0:
213,192,85621,1,0,0:0:0:0:
128,192,85621,1,0,0:0:0:0:
469,192,85681,1,0,0:0:0:0:
384,192,85681,1,0,0:0:0:0:
298,192,85741,1,0,0:0:0:0:
213,192,85741,1,0,0:0:0:0:
384,192,85801,1,0,0:0:0:0:
469,192,85801,1,0,0:0:0:0:
213,192,85861,1,0,0:0:0:0:
128,192,85861,1,0,0:0:0:0:
298,192,85921,1,0,0:0:0:0:
384,192,85921,1,0,0:0:0:0:
128,192,85982,1,0,0:0:0:0:
42,192,85982,1,0,0:0:0:0:
213,192,86042,1,0,0:0:0:0:
298,192,86042,1,0,0:0:0:0:
128,192,86102,1,0,0:0:0:0:
42,192,86102,1,0,0:0:0:0:
298,192,86162,1,0,0:0:0:0:
384,192,86162,1,0,0:0:0:0:
213,192,86222,1,0,0:0:0:0:
128,192,86222,1,0,0:0:0:0:
384,192,86282,1,0,0:0:0:0:
469,192,86282,1,0,0:0:0:0:
298,192,86342,1,0,0:0:0:0:
213,192,86342,1,0,0:0:0:0:
384,192,86402,1,0,0:0:0:0:
469,192,86402,1,0,0:0:0:0:
213,192,86462,1,0,0:0:0:0:
128,192,86462,1,0,0:0:0:0:
298,192,86522,1,0,0:0:0:0:
384,192,86522,1,0,0:0:0:0:
128,192,86582,1,0,0:0:0:0:
42,192,86582,1,0,0:0:0:0:
213,192,86642,1,0,0:0:0:0:
298,192,86642,1,0,0:0:0:0:
42,192,86702,1,0,0:0:0:0:
128,192,86702,1,0,0:0:0:0:
298,192,86762,1,0,0:0:0:0:
384,192,86762,1,0,0:0:0:0:
213,192,86822,1,0,0:0:0:0:
128,192,86822,1,0,0:0:0:0:
469,192,86882,1,0,0:0:0:0:
384,192,86882,1,0,0:0:0:0:
298,192,86942,1,0,0:0:0:0:
213,192,86942,1,0,0:0:0:0:
384,192,87003,1,0,0:0:0:0:
469,192,87003,1,0,0:0:0:0:
128,192,87063,1,0,0:0:0:0:
213,192,87063,1,0,0:0:0:0:
298,192,87123,1,0,0:0:0:0:
384,192,87123,1,0,0:0:0:0:
128,192,87183,1,0,0:0:0:0:
42,192,87183,1,0,0:0:0:0:
213,192,87243,1,0,0:0:0:0:
298,192,87243,1,0,0:0:0:0:
128,192,87303,1,0,0:0:0:0:
42,192,87303,1,0,0:0:0:0:
298,192,87363,1,0,0:0:0:0:
384,192,87363,1,0,0:0:0:0:
213,192,87423,1,0,0:0:0:0:
42,192,87423,1,0,0:0:0:0:
469,192,87423,1,0,0:0:0:0:
469,192,88384,1,0,0:0:0:0:
384,192,88384,1,0,0:0:0:0:
469,192,88504,1,0,0:0:0:0:
213,192,88624,1,0,0:0:0:0:
128,192,88624,1,0,0:0:0:0:
128,192,88744,1,0,0:0:0:0:
298,192,88864,1,0,0:0:0:0:
384,192,88864,1,0,0:0:0:0:
384,192,88985,1,0,0:0:0:0:
128,192,89105,1,0,0:0:0:0:
42,192,89105,1,0,0:0:0:0:
298,192,89105,1,0,0:0:0:0:
42,192,89225,1,0,0:0:0:0:
298,192,89345,1,0,0:0:0:0:
384,192,89345,1,0,0:0:0:0:
469,192,89345,1,0,0:0:0:0:
213,192,89345,1,0,0:0:0:0:
384,192,89465,1,0,0:0:0:0:
128,192,89465,1,0,0:0:0:0:
213,192,89465,1,0,0:0:0:0:
298,192,89585,1,0,0:0:0:0:
469,192,89585,1,0,0:0:0:0:
128,192,89585,1,0,0:0:0:0:
42,192,89585,1,0,0:0:0:0:
213,192,89705,1,0,0:0:0:0:
469,192,89705,1,0,0:0:0:0:
384,192,89705,1,0,0:0:0:0:
42,192,89705,1,0,0:0:0:0:
128,192,89825,1,0,0:0:0:0:
298,192,89825,1,0,0:0:0:0:
384,192,89825,1,0,0:0:0:0:
298,192,89945,1,0,0:0:0:0:
213,192,89945,1,0,0:0:0:0:
42,192,89945,1,0,0:0:0:0:
469,192,89945,1,0,0:0:0:0:
384,192,90066,1,0,0:0:0:0:
298,192,90066,1,0,0:0:0:0:
42,192,90066,1,0,0:0:0:0:
128,192,90066,1,0,0:0:0:0:
213,192,90186,1,0,0:0:0:0:
128,192,90186,1,0,0:0:0:0:
384,192,90186,1,0,0:0:0:0:
469,192,90186,1,0,0:0:0:0:
298,192,90306,1,0,0:0:0:0:
469,192,90306,1,0,0:0:0:0:
213,192,90306,1,0,0:0:0:0:
42,192,90306,1,0,0:0:0:0:
384,192,90426,1,0,0:0:0:0:
128,192,90426,1,0,0:0:0:0:
213,192,90426,1,0,0:0:0:0:
298,192,90546,1,0,0:0:0:0:
469,192,90546,1,0,0:0:0:0:
128,192,90546,1,0,0:0:0:0:
42,192,90546,1,0,0:0:0:0:
213,192,90666,1,0,0:0:0:0:
469,192,90666,1,0,0:0:0:0:
384,192,90666,1,0,0:0:0:0:
42,192,90666,1,0,0:0:0:0:
128,192,90786,1,0,0:0:0:0:
298,192,90786,1,0,0:0:0:0:
384,192,90786,1,0,0:0:0:0:
298,192,90906,1,0,0:0:0:0:
213,192,90906,1,0,0:0:0:0:
42,192,90906,1,0,0:0:0:0:
469,192,90906,1,0,0:0:0:0:
384,192,91027,1,0,0:0:0:0:
298,192,91027,1,0,0:0:0:0:
42,192,91027,1,0,0:0:0:0:
128,192,91027,1,0,0:0:0:0:
213,192,91147,1,0,0:0:0:0:
384,192,91147,1,0,0:0:0:0:
469,192,91147,1,0,0:0:0:0:
42,192,91147,1,0,0:0:0:0:
213,192,91267,1,0,0:0:0:0:
128,192,91267,1,0,0:0:0:0:
298,192,91267,1,0,0:0:0:0:
469,192,91267,1,0,0:0:0:0:
384,192,91387,1,0,0:0:0:0:
298,192,91387,1,0,0:0:0:0:
42,192,91387,1,0,0:0:0:0:
213,192,91507,1,0,0:0:0:0:
128,192,91507,1,0,0:0:0:0:
469,192,91507,1,0,0:0:0:0:
384,192,91507,1,0,0:0:0:0:
298,192,91627,1,0,0:0:0:0:
213,192,91627,1,0,0:0:0:0:
128,192,91747,1,0,0:0:0:0:
42,192,91747,1,0,0:0:0:0:
298,192,91747,1,0,0:0:0:0:
384,192,91747,1,0,0:0:0:0:
213,192,91867,1,0,0:0:0:0:
128,192,91867,1,0,0:0:0:0:
469,192,91867,1,0,0:0:0:0:
384,192,91988,1,0,0:0:0:0:
298,192,91988,1,0,0:0:0:0:
213,192,91988,1,0,0:0:0:0:
128,192,92108,1,0,0:0:0:0:
384,192,92108,1,0,0:0:0:0:
42,192,92108,1,0,0:0:0:0:
42,192,92228,1,0,0:0:0:0:
213,192,92228,1,0,0:0:0:0:
298,192,92228,1,0,0:0:0:0:
469,192,92228,1,0,0:0:0:0:
128,192,92348,1,0,0:0:0:0:
298,192,92348,1,0,0:0:0:0:
469,192,92348,1,0,0:0:0:0:
469,192,92468,1,0,0:0:0:0:
384,192,92468,1,0,0:0:0:0:
213,192,92468,1,0,0:0:0:0:
42,192,92468,1,0,0:0:0:0:
42,192,92588,1,0,0:0:0:0:
213,192,92588,1,0,0:0:0:0:
298,192,92588,1,0,0:0:0:0:
128,192,92708,1,0,0:0:0:0:
384,192,92708,1,0,0:0:0:0:
469,192,92708,1,0,0:0:0:0:
42,192,92708,1,0,0:0:0:0:
128,192,92828,1,0,0:0:0:0:
298,192,92828,1,0,0:0:0:0:
469,192,92828,1,0,0:0:0:0:
384,192,92948,1,0,0:0:0:0:
469,192,92948,1,0,0:0:0:0:
213,192,92948,1,0,0:0:0:0:
42,192,92948,1,0,0:0:0:0:
42,192,93069,1,0,0:0:0:0:
128,192,93069,1,0,0:0:0:0:
384,192,93069,1,0,0:0:0:0:
213,192,93189,1,0,0:0:0:0:
128,192,93189,1,0,0:0:0:0:
42,192,93189,1,0,0:0:0:0:
298,192,93189,1,0,0:0:0:0:
128,192,93309,1,0,0:0:0:0:
384,192,93309,1,0,0:0:0:0:
298,192,93309,1,0,0:0:0:0:
213,192,93429,1,0,0:0:0:0:
42,192,93429,1,0,0:0:0:0:
384,192,93429,1,0,0:0:0:0:
469,192,93429,1,0,0:0:0:0:
298,192,93549,1,0,0:0:0:0:
42,192,93549,1,0,0:0:0:0:
128,192,93549,1,0,0:0:0:0:
469,192,93549,1,0,0:0:0:0:
384,192,93669,1,0,0:0:0:0:
213,192,93669,1,0,0:0:0:0:
128,192,93669,1,0,0:0:0:0:
213,192,93789,1,0,0:0:0:0:
298,192,93789,1,0,0:0:0:0:
469,192,93789,1,0,0:0:0:0:
42,192,93789,1,0,0:0:0:0:
128,192,93909,1,0,0:0:0:0:
213,192,93909,1,0,0:0:0:0:
469,192,93909,1,0,0:0:0:0:
384,192,93909,1,0,0:0:0:0:
298,192,94030,1,0,0:0:0:0:
384,192,94030,1,0,0:0:0:0:
128,192,94030,1,0,0:0:0:0:
42,192,94030,1,0,0:0:0:0:
213,192,94150,1,0,0:0:0:0:
42,192,94150,1,0,0:0:0:0:
298,192,94150,1,0,0:0:0:0:
469,192,94150,1,0,0:0:0:0:
128,192,94270,1,0,0:0:0:0:
384,192,94270,1,0,0:0:0:0:
298,192,94270,1,0,0:0:0:0:
213,192,94390,1,0,0:0:0:0:
42,192,94390,1,0,0:0:0:0:
384,192,94390,1,0,0:0:0:0:
469,192,94390,1,0,0:0:0:0:
298,192,94510,1,0,0:0:0:0:
42,192,94510,1,0,0:0:0:0:
128,192,94510,1,0,0:0:0:0:
469,192,94510,1,0,0:0:0:0:
384,192,94630,1,0,0:0:0:0:
298,192,94630,1,0,0:0:0:0:
128,192,94630,1,0,0:0:0:0:
213,192,94750,1,0,0:0:0:0:
298,192,94750,1,0,0:0:0:0:
469,192,94750,1,0,0:0:0:0:
42,192,94750,1,0,0:0:0:0:
128,192,94870,1,0,0:0:0:0:
42,192,94870,1,0,0:0:0:0:
384,192,94870,1,0,0:0:0:0:
298,192,94870,1,0,0:0:0:0:
384,192,94991,1,0,0:0:0:0:
213,192,94991,1,0,0:0:0:0:
128,192,94991,1,0,0:0:0:0:
469,192,94991,1,0,0:0:0:0:
298,192,95111,1,0,0:0:0:0:
213,192,95111,1,0,0:0:0:0:
42,192,95111,1,0,0:0:0:0:
469,192,95111,1,0,0:0:0:0:
298,192,95231,1,0,0:0:0:0:
384,192,95231,1,0,0:0:0:0:
42,192,95231,1,0,0:0:0:0:
128,192,95351,1,0,0:0:0:0:
213,192,95351,1,0,0:0:0:0:
384,192,95351,1,0,0:0:0:0:
469,192,95351,1,0,0:0:0:0:
128,192,95471,1,0,0:0:0:0:
298,192,95471,1,0,0:0:0:0:
469,192,95471,1,0,0:0:0:0:
128,192,95591,1,0,0:0:0:0:
42,192,95591,1,0,0:0:0:0:
384,192,95591,1,0,0:0:0:0:
469,192,95591,1,0,0:0:0:0:
213,192,95711,1,0,0:0:0:0:
298,192,95711,1,0,0:0:0:0:
42,192,95711,1,0,0:0:0:0:
213,192,95831,1,0,0:0:0:0:
384,192,95831,1,0,0:0:0:0:
469,192,95831,1,0,0:0:0:0:
42,192,95831,1,0,0:0:0:0:
213,192,95951,1,0,0:0:0:0:
128,192,95951,1,0,0:0:0:0:
384,192,95951,1,0,0:0:0:0:
298,192,96072,1,0,0:0:0:0:
213,192,96072,1,0,0:0:0:0:
42,192,96072,1,0,0:0:0:0:
469,192,96072,1,0,0:0:0:0:
128,192,96312,1,0,0:0:0:0:
42,192,96312,1,0,0:0:0:0:
298,192,96312,1,0,0:0:0:0:
469,192,96312,1,0,0:0:0:0:
213,192,96552,1,0,0:0:0:0:
42,192,96552,1,0,0:0:0:0:
384,192,96552,1,0,0:0:0:0:
469,192,96552,1,0,0:0:0:0:
213,192,96792,1,0,0:0:0:0:
298,192,96792,1,0,0:0:0:0:
42,192,96792,1,0,0:0:0:0:
469,192,96792,1,0,0:0:0:0:
42,192,97033,1,0,0:0:0:0:
213,192,97153,1,0,0:0:0:0:
42,192,97273,1,0,0:0:0:0:
298,192,97273,1,0,0:0:0:0:
128,192,97273,1,0,0:0:0:0:
469,192,97273,1,0,0:0:0:0:
213,192,97393,1,0,0:0:0:0:
469,192,97393,1,0,0:0:0:0:
384,192,97393,1,0,0:0:0:0:
42,192,97393,1,0,0:0:0:0:
128,192,97513,1,0,0:0:0:0:
298,192,97513,1,0,0:0:0:0:
384,192,97513,1,0,0:0:0:0:
298,192,97633,1,0,0:0:0:0:
213,192,97633,1,0,0:0:0:0:
42,192,97633,1,0,0:0:0:0:
469,192,97633,1,0,0:0:0:0:
384,192,97753,1,0,0:0:0:0:
298,192,97753,1,0,0:0:0:0:
42,192,97753,1,0,0:0:0:0:
128,192,97753,1,0,0:0:0:0:
213,192,97873,1,0,0:0:0:0:
128,192,97873,1,0,0:0:0:0:
384,192,97873,1,0,0:0:0:0:
469,192,97873,1,0,0:0:0:0:
298,192,97994,1,0,0:0:0:0:
469,192,97994,1,0,0:0:0:0:
213,192,97994,1,0,0:0:0:0:
42,192,97994,1,0,0:0:0:0:
384,192,98114,1,0,0:0:0:0:
128,192,98114,1,0,0:0:0:0:
213,192,98114,1,0,0:0:0:0:
298,192,98234,1,0,0:0:0:0:
469,192,98234,1,0,0:0:0:0:
128,192,98234,1,0,0:0:0:0:
42,192,98234,1,0,0:0:0:0:
213,192,98354,1,0,0:0:0:0:
469,192,98354,1,0,0:0:0:0:
384,192,98354,1,0,0:0:0:0:
42,192,98354,1,0,0:0:0:0:
128,192,98474,1,0,0:0:0:0:
298,192,98474,1,0,0:0:0:0:
384,192,98474,1,0,0:0:0:0:
298,192,98594,1,0,0:0:0:0:
213,192,98594,1,0,0:0:0:0:
42,192,98594,1,0,0:0:0:0:
469,192,98594,1,0,0:0:0:0:
384,192,98714,1,0,0:0:0:0:
298,192,98714,1,0,0:0:0:0:
42,192,98714,1,0,0:0:0:0:
128,192,98714,1,0,0:0:0:0:
213,192,98834,1,0,0:0:0:0:
384,192,98834,1,0,0:0:0:0:
469,192,98834,1,0,0:0:0:0:
42,192,98834,1,0,0:0:0:0:
213,192,98954,1,0,0:0:0:0:
128,192,98954,1,0,0:0:0:0:
298,192,98954,1,0,0:0:0:0:
469,192,98954,1,0,0:0:0:0:
384,192,99075,1,0,0:0:0:0:
298,192,99075,1,0,0:0:0:0:
42,192,99075,1,0,0:0:0:0:
213,192,99195,1,0,0:0:0:0:
128,192,99195,1,0,0:0:0:0:
469,192,99195,1,0,0:0:0:0:
384,192,99195,1,0,0:0:0:0:
298,192,99315,1,0,0:0:0:0:
213,192,99315,1,0,0:0:0:0:
469,192,99315,1,0,0:0:0:0:
42,192,99315,1,0,0:0:0:0:
128,192,99435,1,0,0:0:0:0:
42,192,99435,1,0,0:0:0:0:
298,192,99435,1,0,0:0:0:0:
384,192,99435,1,0,0:0:0:0:
213,192,99555,1,0,0:0:0:0:
128,192,99555,1,0,0:0:0:0:
469,192,99555,1,0,0:0:0:0:
384,192,99675,1,0,0:0:0:0:
298,192,99675,1,0,0:0:0:0:
213,192,99675,1,0,0:0:0:0:
42,192,99675,1,0,0:0:0:0:
128,192,99795,1,0,0:0:0:0:
384,192,99795,1,0,0:0:0:0:
42,192,99795,1,0,0:0:0:0:
298,192,99915,1,0,0:0:0:0:
213,192,99915,1,0,0:0:0:0:
469,192,99915,1,0,0:0:0:0:
384,192,100036,1,0,0:0:0:0:
298,192,100036,1,0,0:0:0:0:
128,192,100036,1,0,0:0:0:0:
42,192,100036,1,0,0:0:0:0:
298,192,100156,1,0,0:0:0:0:
213,192,100156,1,0,0:0:0:0:
469,192,100156,1,0,0:0:0:0:
128,192,100276,1,0,0:0:0:0:
384,192,100276,1,0,0:0:0:0:
298,192,100396,1,0,0:0:0:0:
213,192,100396,1,0,0:0:0:0:
42,192,100396,1,0,0:0:0:0:
469,192,100396,1,0,0:0:0:0:
298,192,100516,1,0,0:0:0:0:
384,192,100516,1,0,0:0:0:0:
42,192,100516,1,0,0:0:0:0:
128,192,100636,1,0,0:0:0:0:
384,192,100636,1,0,0:0:0:0:
469,192,100636,1,0,0:0:0:0:
213,192,100636,1,0,0:0:0:0:
213,192,100756,1,0,0:0:0:0:
128,192,100756,1,0,0:0:0:0:
384,192,100756,1,0,0:0:0:0:
469,192,100756,1,0,0:0:0:0:
298,192,100876,1,0,0:0:0:0:
469,192,100876,1,0,0:0:0:0:
42,192,100876,1,0,0:0:0:0:
128,192,100876,1,0,0:0:0:0:
298,192,100997,1,0,0:0:0:0:
42,192,100997,1,0,0:0:0:0:
213,192,101117,1,0,0:0:0:0:
128,192,101117,1,0,0:0:0:0:
384,192,101117,1,0,0:0:0:0:
469,192,101117,1,0,0:0:0:0:
384,192,101237,1,0,0:0:0:0:
298,192,101237,1,0,0:0:0:0:
42,192,101237,1,0,0:0:0:0:
128,192,101237,1,0,0:0:0:0:
213,192,101357,1,0,0:0:0:0:
298,192,101357,1,0,0:0:0:0:
384,192,101357,1,0,0:0:0:0:
469,192,101357,1,0,0:0:0:0:
384,192,101477,1,0,0:0:0:0:
298,192,101477,1,0,0:0:0:0:
213,192,101477,1,0,0:0:0:0:
128,192,101477,1,0,0:0:0:0:
298,192,101597,1,0,0:0:0:0:
213,192,101597,1,0,0:0:0:0:
128,192,101597,1,0,0:0:0:0:
42,192,101597,1,0,0:0:0:0:
213,192,101717,1,0,0:0:0:0:
128,192,101717,1,0,0:0:0:0:
384,192,101717,1,0,0:0:0:0:
469,192,101717,1,0,0:0:0:0:
298,192,101837,1,0,0:0:0:0:
128,192,101837,1,0,0:0:0:0:
42,192,101837,1,0,0:0:0:0:
384,192,101837,1,0,0:0:0:0:
213,192,101957,1,0,0:0:0:0:
469,192,101957,1,0,0:0:0:0:
384,192,102078,1,0,0:0:0:0:
298,192,102078,1,0,0:0:0:0:
42,192,102078,1,0,0:0:0:0:
128,192,102078,1,0,0:0:0:0:
128,192,102198,1,0,0:0:0:0:
213,192,102198,1,0,0:0:0:0:
384,192,102198,1,0,0:0:0:0:
469,192,102198,1,0,0:0:0:0:
298,192,102318,1,0,0:0:0:0:
213,192,102318,1,0,0:0:0:0:
128,192,102318,1,0,0:0:0:0:
42,192,102318,1,0,0:0:0:0:
128,192,102438,1,0,0:0:0:0:
213,192,102438,1,0,0:0:0:0:
384,192,102438,1,0,0:0:0:0:
298,192,102438,1,0,0:0:0:0:
213,192,102558,1,0,0:0:0:0:
384,192,102558,1,0,0:0:0:0:
469,192,102558,1,0,0:0:0:0:
298,192,102558,1,0,0:0:0:0:
128,192,102678,1,0,0:0:0:0:
384,192,102678,1,0,0:0:0:0:
469,192,102678,1,0,0:0:0:0:
42,192,102678,1,0,0:0:0:0:
298,192,102798,1,0,0:0:0:0:
469,192,102798,1,0,0:0:0:0:
213,192,102798,1,0,0:0:0:0:
42,192,102798,1,0,0:0:0:0:
128,192,102878,1,0,0:0:0:0:
298,192,102878,1,0,0:0:0:0:
213,192,102958,1,0,0:0:0:0:
384,192,102958,1,0,0:0:0:0:
42,192,103039,1,0,0:0:0:0:
469,192,103039,1,0,0:0:0:0:
128,192,103039,1,0,0:0:0:0:
128,192,103119,1,0,0:0:0:0:
298,192,103119,1,0,0:0:0:0:
213,192,103199,1,0,0:0:0:0:
384,192,103199,1,0,0:0:0:0:
298,192,103279,1,0,0:0:0:0:
469,192,103279,1,0,0:0:0:0:
42,192,103279,1,0,0:0:0:0:
128,192,103359,1,0,0:0:0:0:
298,192,103359,1,0,0:0:0:0:
213,192,103439,1,0,0:0:0:0:
384,192,103439,1,0,0:0:0:0:
469,192,103519,1,0,0:0:0:0:
128,192,103519,1,0,0:0:0:0:
42,192,103519,1,0,0:0:0:0:
128,192,103599,1,0,0:0:0:0:
298,192,103599,1,0,0:0:0:0:
384,192,103679,1,0,0:0:0:0:
213,192,103679,1,0,0:0:0:0:
298,192,103759,1,0,0:0:0:0:
469,192,103759,1,0,0:0:0:0:
42,192,103759,1,0,0:0:0:0:
213,192,103839,1,0,0:0:0:0:
469,192,103839,1,0,0:0:0:0:
384,192,103919,1,0,0:0:0:0:
128,192,103919,1,0,0:0:0:0:
213,192,104000,1,0,0:0:0:0:
42,192,104000,1,0,0:0:0:0:
298,192,104000,1,0,0:0:0:0:
213,192,104080,1,0,0:0:0:0:
469,192,104080,1,0,0:0:0:0:
128,192,104160,1,0,0:0:0:0:
384,192,104160,1,0,0:0:0:0:
298,192,104240,1,0,0:0:0:0:
469,192,104240,1,0,0:0:0:0:
42,192,104240,1,0,0:0:0:0:
384,192,104240,1,0,0:0:0:0:
42,192,104320,1,0,0:0:0:0:
213,192,104320,1,0,0:0:0:0:
213,192,104400,1,0,0:0:0:0:
384,192,104400,1,0,0:0:0:0:
128,192,104480,1,0,0:0:0:0:
384,192,104480,1,0,0:0:0:0:
42,192,104480,1,0,0:0:0:0:
469,192,104480,1,0,0:0:0:0:
128,192,104560,1,0,0:0:0:0:
298,192,104560,1,0,0:0:0:0:
298,192,104640,1,0,0:0:0:0:
469,192,104640,1,0,0:0:0:0:
213,192,104720,1,0,0:0:0:0:
128,192,104720,1,0,0:0:0:0:
42,192,104720,1,0,0:0:0:0:
469,192,104720,1,0,0:0:0:0:
128,192,104840,1,0,0:0:0:0:
128,192,104960,1,0,0:0:0:0:
298,192,104960,1,0,0:0:0:0:
384,192,104960,1,0,0:0:0:0:
384,192,105081,1,0,0:0:0:0:
384,192,105201,1,0,0:0:0:0:
213,192,105201,1,0,0:0:0:0:
128,192,105201,1,0,0:0:0:0:
213,192,105321,1,0,0:0:0:0:
213,192,105441,1,0,0:0:0:0:
298,192,105441,1,0,0:0:0:0:
469,192,105441,1,0,0:0:0:0:
128,192,105501,1,0,0:0:0:0:
469,192,105561,1,0,0:0:0:0:
298,192,105561,1,0,0:0:0:0:
128,192,105621,1,0,0:0:0:0:
42,192,105681,1,0,0:0:0:0:
469,192,105681,1,0,0:0:0:0:
213,192,105681,1,0,0:0:0:0:
42,192,105801,1,0,0:0:0:0:
213,192,105801,1,0,0:0:0:0:
213,192,105921,1,0,0:0:0:0:
469,192,105921,1,0,0:0:0:0:
384,192,105921,1,0,0:0:0:0:
298,192,106162,1,0,0:0:0:0:
128,192,106162,1,0,0:0:0:0:
42,192,106162,1,0,0:0:0:0:
384,192,106282,1,0,0:0:0:0:
384,192,106402,1,0,0:0:0:0:
128,192,106402,1,0,0:0:0:0:
213,192,106462,1,0,0:0:0:0:
384,192,106522,1,0,0:0:0:0:
128,192,106522,1,0,0:0:0:0:
213,192,106582,1,0,0:0:0:0:
298,192,106642,1,0,0:0:0:0:
469,192,106642,1,0,0:0:0:0:
42,192,106642,1,0,0:0:0:0:
128,192,106762,1,0,0:0:0:0:
128,192,106882,1,0,0:0:0:0:
384,192,106882,1,0,0:0:0:0:
469,192,106882,1,0,0:0:0:0:
42,192,107003,1,0,0:0:0:0:
213,192,107123,1,0,0:0:0:0:
384,192,107123,1,0,0:0:0:0:
469,192,107123,1,0,0:0:0:0:
213,192,107243,1,0,0:0:0:0:
298,192,107243,1,0,0:0:0:0:
128,192,107363,1,0,0:0:0:0:
42,192,107363,1,0,0:0:0:0:
469,192,107363,1,0,0:0:0:0:
298,192,107483,1,0,0:0:0:0:
384,192,107483,1,0,0:0:0:0:
298,192,107603,1,0,0:0:0:0:
213,192,107603,1,0,0:0:0:0:
42,192,107603,1,0,0:0:0:0:
469,192,107603,1,0,0:0:0:0:
128,192,107843,1,0,0:0:0:0:
42,192,107843,1,0,0:0:0:0:
298,192,107843,1,0,0:0:0:0:
384,192,107843,1,0,0:0:0:0:
213,192,108084,1,0,0:0:0:0:
128,192,108084,1,0,0:0:0:0:
384,192,108084,1,0,0:0:0:0:
469,192,108084,1,0,0:0:0:0:
298,192,108324,1,0,0:0:0:0:
213,192,108324,1,0,0:0:0:0:
42,192,108324,1,0,0:0:0:0:
469,192,108324,1,0,0:0:0:0:
42,192,108564,1,0,0:0:0:0:
128,192,108594,1,0,0:0:0:0:
213,192,108624,1,0,0:0:0:0:
298,192,108654,1,0,0:0:0:0:
384,192,108684,1,0,0:0:0:0:
298,192,108714,1,0,0:0:0:0:
128,192,108744,1,0,0:0:0:0:
213,192,108774,1,0,0:0:0:0:
42,192,108804,1,0,0:0:0:0:
469,192,108804,1,0,0:0:0:0:
384,192,108834,1,0,0:0:0:0:
298,192,108864,1,0,0:0:0:0:
128,192,108894,1,0,0:0:0:0:
384,192,108924,1,0,0:0:0:0:
298,192,108954,1,0,0:0:0:0:
213,192,108985,1,0,0:0:0:0:
42,192,109015,1,0,0:0:0:0:
384,192,109045,1,0,0:0:0:0:
469,192,109045,1,0,0:0:0:0:
128,192,109045,1,0,0:0:0:0:
298,192,109285,1,0,0:0:0:0:
42,192,109285,1,0,0:0:0:0:
384,192,109345,1,0,0:0:0:0:
128,192,109405,1,0,0:0:0:0:
298,192,109405,1,0,0:0:0:0:
42,192,109465,1,0,0:0:0:0:
128,192,109525,1,0,0:0:0:0:
384,192,109525,1,0,0:0:0:0:
469,192,109525,1,0,0:0:0:0:
384,192,109645,1,0,0:0:0:0:
213,192,109645,1,0,0:0:0:0:
42,192,109705,1,0,0:0:0:0:
213,192,109765,1,0,0:0:0:0:
469,192,109765,1,0,0:0:0:0:
42,192,109885,1,0,0:0:0:0:
128,192,109885,1,0,0:0:0:0:
384,192,109885,1,0,0:0:0:0:
128,192,110006,1,0,0:0:0:0:
298,192,110006,1,0,0:0:0:0:
469,192,110066,1,0,0:0:0:0:
298,192,110126,1,0,0:0:0:0:
42,192,110126,1,0,0:0:0:0:
213,192,110186,1,0,0:0:0:0:
128,192,110246,1,0,0:0:0:0:
42,192,110246,1,0,0:0:0:0:
384,192,110246,1,0,0:0:0:0:
469,192,110246,1,0,0:0:0:0:
384,192,110366,1,0,0:0:0:0:
128,192,110486,1,0,0:0:0:0:
298,192,110486,1,0,0:0:0:0:
469,192,110486,1,0,0:0:0:0:
42,192,110486,1,0,0:0:0:0:
298,192,110606,1,0,0:0:0:0:
128,192,110606,1,0,0:0:0:0:
42,192,110606,1,0,0:0:0:0:
128,192,110726,1,0,0:0:0:0:
213,192,110726,1,0,0:0:0:0:
384,192,110726,1,0,0:0:0:0:
469,192,110726,1,0,0:0:0:0:
298,192,110846,1,0,0:0:0:0:
469,192,110846,1,0,0:0:0:0:
128,192,110846,1,0,0:0:0:0:
42,192,110846,1,0,0:0:0:0:
42,192,110966,1,0,0:0:0:0:
128,192,110966,1,0,0:0:0:0:
298,192,110966,1,0,0:0:0:0:
469,192,111087,1,0,0:0:0:0:
128,192,111087,1,0,0:0:0:0:
384,192,111087,1,0,0:0:0:0:
213,192,111087,1,0,0:0:0:0:
128,192,111207,1,0,0:0:0:0:
42,192,111207,1,0,0:0:0:0:
298,192,111207,1,0,0:0:0:0:
469,192,111207,1,0,0:0:0:0:
298,192,111327,1,0,0:0:0:0:
128,192,111327,1,0,0:0:0:0:
42,192,111327,1,0,0:0:0:0:
384,192,111447,1,0,0:0:0:0:
213,192,111447,1,0,0:0:0:0:
469,192,111447,1,0,0:0:0:0:
128,192,111447,1,0,0:0:0:0:
298,192,111567,1,0,0:0:0:0:
469,192,111567,1,0,0:0:0:0:
128,192,111567,1,0,0:0:0:0:
42,192,111567,1,0,0:0:0:0:
42,192,111687,1,0,0:0:0:0:
128,192,111687,1,0,0:0:0:0:
298,192,111687,1,0,0:0:0:0:
469,192,111807,1,0,0:0:0:0:
128,192,111807,1,0,0:0:0:0:
384,192,111807,1,0,0:0:0:0:
213,192,111807,1,0,0:0:0:0:
213,192,111927,1,0,0:0:0:0:
298,192,111927,1,0,0:0:0:0:
469,192,111927,1,0,0:0:0:0:
42,192,111927,1,0,0:0:0:0:
384,192,112048,1,0,0:0:0:0:
128,192,112048,1,0,0:0:0:0:
213,192,112168,1,0,0:0:0:0:
298,192,112168,1,0,0:0:0:0:
469,192,112168,1,0,0:0:0:0:
42,192,112168,1,0,0:0:0:0:
42,192,112408,1,0,0:0:0:0:
128,192,112408,1,0,0:0:0:0:
469,192,112408,1,0,0:0:0:0:
213,192,112408,1,0,0:0:0:0:
213,192,112528,1,0,0:0:0:0:
128,192,112528,1,0,0:0:0:0:
42,192,112528,1,0,0:0:0:0:
298,192,112528,1,0,0:0:0:0:
298,192,112648,1,0,0:0:0:0:
213,192,112648,1,0,0:0:0:0:
128,192,112648,1,0,0:0:0:0:
384,192,112648,1,0,0:0:0:0:
213,192,112768,1,0,0:0:0:0:
469,192,112768,1,0,0:0:0:0:
298,192,112768,1,0,0:0:0:0:
384,192,112768,1,0,0:0:0:0:
128,192,112888,1,0,0:0:0:0:
298,192,112888,1,0,0:0:0:0:
469,192,112888,1,0,0:0:0:0:
384,192,112888,1,0,0:0:0:0:
42,192,113009,1,0,0:0:0:0:
213,192,113129,1,0,0:0:0:0:
384,192,113129,1,0,0:0:0:0:
469,192,113129,1,0,0:0:0:0:
42,192,113249,1,0,0:0:0:0:
384,192,113249,1,0,0:0:0:0:
128,192,113369,1,0,0:0:0:0:
42,192,113489,1,0,0:0:0:0:
298,192,113489,1,0,0:0:0:0:
213,192,113609,1,0,0:0:0:0:
42,192,113729,1,0,0:0:0:0:
384,192,113729,1,0,0:0:0:0:
298,192,113849,1,0,0:0:0:0:
42,192,113969,1,0,0:0:0:0:
469,192,113969,1,0,0:0:0:0:
128,192,114090,1,0,0:0:0:0:
384,192,114090,1,0,0:0:0:0:
213,192,114150,1,0,0:0:0:0:
42,192,114210,1,0,0:0:0:0:
298,192,114210,1,0,0:0:0:0:
128,192,114270,1,0,0:0:0:0:
213,192,114330,1,0,0:0:0:0:
384,192,114330,1,0,0:0:0:0:
469,192,114330,1,0,0:0:0:0:
298,192,114450,1,0,0:0:0:0:
42,192,114450,1,0,0:0:0:0:
128,192,114450,1,0,0:0:0:0:
128,192,114570,1,0,0:0:0:0:
384,192,114570,1,0,0:0:0:0:
469,192,114570,1,0,0:0:0:0:
298,192,114690,1,0,0:0:0:0:
213,192,114690,1,0,0:0:0:0:
42,192,114690,1,0,0:0:0:0:
384,192,114810,1,0,0:0:0:0:
469,192,114810,1,0,0:0:0:0:
42,192,114810,1,0,0:0:0:0:
213,192,114930,1,0,0:0:0:0:
128,192,114930,1,0,0:0:0:0:
384,192,114930,1,0,0:0:0:0:
128,192,115051,1,0,0:0:0:0:
42,192,115051,1,0,0:0:0:0:
298,192,115051,1,0,0:0:0:0:
469,192,115051,1,0,0:0:0:0:
213,192,115171,1,0,0:0:0:0:
469,192,115171,1,0,0:0:0:0:
384,192,115171,1,0,0:0:0:0:
128,192,115291,1,0,0:0:0:0:
42,192,115291,1,0,0:0:0:0:
298,192,115291,1,0,0:0:0:0:
213,192,115411,1,0,0:0:0:0:
298,192,115411,1,0,0:0:0:0:
469,192,115411,1,0,0:0:0:0:
128,192,115531,1,0,0:0:0:0:
42,192,115531,1,0,0:0:0:0:
384,192,115531,1,0,0:0:0:0:
128,192,115651,1,0,0:0:0:0:
298,192,115651,1,0,0:0:0:0:
384,192,115651,1,0,0:0:0:0:
213,192,115771,1,0,0:0:0:0:
298,192,115771,1,0,0:0:0:0:
42,192,115771,1,0,0:0:0:0:
469,192,115771,1,0,0:0:0:0:
384,192,115831,1,0,0:0:0:0:
128,192,115891,1,0,0:0:0:0:
469,192,115891,1,0,0:0:0:0:
298,192,115951,1,0,0:0:0:0:
128,192,116012,1,0,0:0:0:0:
42,192,116012,1,0,0:0:0:0:
384,192,116012,1,0,0:0:0:0:
298,192,116132,1,0,0:0:0:0:
128,192,116132,1,0,0:0:0:0:
42,192,116132,1,0,0:0:0:0:
213,192,116252,1,0,0:0:0:0:
42,192,116252,1,0,0:0:0:0:
469,192,116252,1,0,0:0:0:0:
384,192,116252,1,0,0:0:0:0:
213,192,116372,1,0,0:0:0:0:
384,192,116372,1,0,0:0:0:0:
469,192,116372,1,0,0:0:0:0:
384,192,116492,1,0,0:0:0:0:
298,192,116492,1,0,0:0:0:0:
128,192,116492,1,0,0:0:0:0:
298,192,116612,1,0,0:0:0:0:
213,192,116612,1,0,0:0:0:0:
42,192,116612,1,0,0:0:0:0:
42,192,116732,1,0,0:0:0:0:
469,192,116732,1,0,0:0:0:0:
128,192,116732,1,0,0:0:0:0:
384,192,116732,1,0,0:0:0:0:
42,192,116852,1,0,0:0:0:0:
298,192,116852,1,0,0:0:0:0:
128,192,116972,1,0,0:0:0:0:
469,192,116972,1,0,0:0:0:0:
213,192,116972,1,0,0:0:0:0:
384,192,116972,1,0,0:0:0:0:
469,192,117093,1,0,0:0:0:0:
213,192,117093,1,0,0:0:0:0:
384,192,117213,1,0,0:0:0:0:
42,192,117213,1,0,0:0:0:0:
128,192,117213,1,0,0:0:0:0:
213,192,117273,1,0,0:0:0:0:
469,192,117273,1,0,0:0:0:0:
298,192,117333,1,0,0:0:0:0:
42,192,117333,1,0,0:0:0:0:
128,192,117393,1,0,0:0:0:0:
384,192,117393,1,0,0:0:0:0:
213,192,117453,1,0,0:0:0:0:
469,192,117453,1,0,0:0:0:0:
384,192,117513,1,0,0:0:0:0:
128,192,117513,1,0,0:0:0:0:
42,192,117573,1,0,0:0:0:0:
298,192,117573,1,0,0:0:0:0:
213,192,117633,1,0,0:0:0:0:
469,192,117633,1,0,0:0:0:0:
128,192,117693,1,0,0:0:0:0:
42,192,117693,1,0,0:0:0:0:
384,192,117693,1,0,0:0:0:0:
298,192,117753,1,0,0:0:0:0:
213,192,117813,1,0,0:0:0:0:
128,192,117813,1,0,0:0:0:0:
384,192,117813,1,0,0:0:0:0:
42,192,117873,1,0,0:0:0:0:
298,192,117933,1,0,0:0:0:0:
213,192,117933,1,0,0:0:0:0:
469,192,117933,1,0,0:0:0:0:
42,192,117994,1,0,0:0:0:0:
128,192,118054,1,0,0:0:0:0:
298,192,118054,1,0,0:0:0:0:
384,192,118054,1,0,0:0:0:0:
213,192,118114,1,0,0:0:0:0:
128,192,118174,1,0,0:0:0:0:
42,192,118174,1,0,0:0:0:0:
384,192,118174,1,0,0:0:0:0:
469,192,118174,1,0,0:0:0:0:
298,192,118294,1,0,0:0:0:0:
298,192,118414,1,0,0:0:0:0:
469,192,118534,1,0,0:0:0:0:
298,192,118654,1,0,0:0:0:0:
298,192,118774,1,0,0:0:0:0:
42,192,118894,1,0,0:0:0:0:
298,192,119015,1,0,0:0:0:0:
298,192,119135,1,0,0:0:0:0:
128,192,119255,1,0,0:0:0:0:
298,192,119375,1,0,0:0:0:0:
298,192,119495,1,0,0:0:0:0:
