osu file format v14

[General]
AudioFilename: Y_19.mp3
AudioLeadIn: 0
PreviewTime: 76215
Countdown: 0
SampleSet: Normal
StackLeniency: 0.7
Mode: 3
LetterboxInBreaks: 0
SpecialStyle: 0
WidescreenStoryboard: 0

[Editor]
DistanceSpacing: 1
BeatDivisor: 4
GridSize: 8
TimelineZoom: 1.7

[Metadata]
Title:tyrcs' 6K Collection Pack
TitleUnicode:tyrcs' 6K Collection Pack
Artist:Various Artists
ArtistUnicode:Various Artists
Creator:tyrcs
Version:Oerba Tanaka Vanilla - Y [18]
Source:
Tags:BMS The Quick Brown Fox Break TQBF renard LeaF 失望Choco Shitsubou Choco goreshit slavik goblins Aitsuki Nakuru 藍月なくる Monochrome Butterfly 現実をカットアップしてみた yu^ta Genjitsu o Cut-up Shite Mita -45 Aci-L A c i - L Yoshikawa-45 cornandbeans {Blaze} 八大地獄邪魂転生狂葬散火歌 さかみりと Sakamirito Hachidaijigoku Jakontensei Kyousou Sanbika Sakamiya 一之瀬りと Rito Ichinose かめりあ feat. ななひら ベィスドロップ・フリークス Camellia feat. Nanahira Bassdrop Freaks DEAF KEV Invincible ueotan Mario Paint (Time Regression Mix for BMS) Oerba Tanaka Vanilla Y ヲルバ=田中・ヴァニラ Schwerkraft ROKINA ロキナ Silentroom Nhelv SHAGAN DAISHI KAKU P-MODEL 遮眼大師 核P-MODEL 平沢進 Susumu Hirasawa ああああ AAAA lifework LUZE LuzeriA ルゼ katagiri ch3rry cherry かたぎり Laur Sheriruth (Laur Remix) Team Grimoire vs. Laur Grievous Lady Getty vs. DJ DiA Ops Code Rapture Vicetone & Tony Igy Astronomia (Camellia Remix) Coffin Dance かめりあ Fastest Crash Cut Tatsh reunion Asymmetry Reol アシンメトリー れをる
BeatmapID:3507128
BeatmapSetID:1716337

[Difficulty]
HPDrainRate:8
CircleSize:6
OverallDifficulty:8
ApproachRate:5
SliderMultiplier:1.4
SliderTickRate:1

[Events]
//Background and Video events
0,0,"tyrcs' 6K Collection Pack_18.jpg",0,0
//Break Periods
//Storyboard Layer 0 (Background)
//Storyboard Layer 1 (Fail)
//Storyboard Layer 2 (Pass)
//Storyboard Layer 3 (Foreground)
//Storyboard Layer 4 (Overlay)
//Storyboard Sound Samples

[TimingPoints]
-20,352.941176470588,4,1,0,10,1,0

[HitObjects]
128,192,2627,5,0,0:0:0:0:
213,192,2685,1,0,0:0:0:0:
298,192,2744,1,0,0:0:0:0:
384,192,2803,1,0,0:0:0:0:
469,192,2803,1,0,0:0:0:0:
42,192,2803,1,0,0:0:0:0:
128,192,2921,1,0,0:0:0:0:
213,192,3038,1,0,0:0:0:0:
298,192,3156,1,0,0:0:0:0:
213,192,3274,1,0,0:0:0:0:
128,192,3391,1,0,0:0:0:0:
42,192,3509,1,0,0:0:0:0:
128,192,3627,1,0,0:0:0:0:
213,192,3744,1,0,0:0:0:0:
298,192,3862,1,0,0:0:0:0:
213,192,3979,1,0,0:0:0:0:
128,192,4097,1,0,0:0:0:0:
42,192,4215,1,0,0:0:0:0:
128,192,4332,1,0,0:0:0:0:
213,192,4450,1,0,0:0:0:0:
298,192,4568,1,0,0:0:0:0:
213,192,4685,1,0,0:0:0:0:
128,192,4803,1,0,0:0:0:0:
42,192,4921,1,0,0:0:0:0:
298,192,4921,1,0,0:0:0:0:
469,192,4921,1,0,0:0:0:0:
213,192,5038,1,0,0:0:0:0:
298,192,5156,1,0,0:0:0:0:
384,192,5274,1,0,0:0:0:0:
298,192,5391,1,0,0:0:0:0:
213,192,5509,1,0,0:0:0:0:
42,192,5627,1,0,0:0:0:0:
384,192,5627,1,0,0:0:0:0:
469,192,5627,1,0,0:0:0:0:
128,192,5744,1,0,0:0:0:0:
213,192,5862,1,0,0:0:0:0:
298,192,5979,1,0,0:0:0:0:
213,192,6097,1,0,0:0:0:0:
128,192,6215,1,0,0:0:0:0:
42,192,6332,1,0,0:0:0:0:
128,192,6450,1,0,0:0:0:0:
213,192,6568,1,0,0:0:0:0:
298,192,6685,1,0,0:0:0:0:
213,192,6803,1,0,0:0:0:0:
128,192,6921,1,0,0:0:0:0:
42,192,7038,1,0,0:0:0:0:
128,192,7156,1,0,0:0:0:0:
213,192,7274,1,0,0:0:0:0:
298,192,7391,1,0,0:0:0:0:
213,192,7509,1,0,0:0:0:0:
128,192,7627,1,0,0:0:0:0:
42,192,7744,1,0,0:0:0:0:
469,192,7744,1,0,0:0:0:0:
384,192,7744,1,0,0:0:0:0:
213,192,7862,1,0,0:0:0:0:
298,192,7979,1,0,0:0:0:0:
128,192,8097,1,0,0:0:0:0:
213,192,8215,1,0,0:0:0:0:
384,192,8215,1,0,0:0:0:0:
469,192,8274,1,0,0:0:0:0:
128,192,8332,1,0,0:0:0:0:
298,192,8332,1,0,0:0:0:0:
384,192,8391,1,0,0:0:0:0:
213,192,8450,1,0,0:0:0:0:
42,192,8450,1,0,0:0:0:0:
469,192,8450,1,0,0:0:0:0:
298,192,8538,1,0,0:0:0:0:
128,192,8568,1,0,0:0:0:0:
213,192,8685,1,0,0:0:0:0:
384,192,8715,1,0,0:0:0:0:
298,192,8803,1,0,0:0:0:0:
469,192,8803,1,0,0:0:0:0:
213,192,8921,1,0,0:0:0:0:
384,192,8979,1,0,0:0:0:0:
128,192,9038,1,0,0:0:0:0:
469,192,9068,1,0,0:0:0:0:
42,192,9156,1,0,0:0:0:0:
298,192,9156,1,0,0:0:0:0:
384,192,9244,1,0,0:0:0:0:
128,192,9274,1,0,0:0:0:0:
469,192,9332,1,0,0:0:0:0:
213,192,9391,1,0,0:0:0:0:
298,192,9509,1,0,0:0:0:0:
42,192,9509,1,0,0:0:0:0:
213,192,9627,1,0,0:0:0:0:
384,192,9685,1,0,0:0:0:0:
128,192,9744,1,0,0:0:0:0:
42,192,9862,1,0,0:0:0:0:
213,192,9862,1,0,0:0:0:0:
469,192,9862,1,0,0:0:0:0:
128,192,9979,1,0,0:0:0:0:
298,192,9979,1,0,0:0:0:0:
213,192,10097,1,0,0:0:0:0:
384,192,10097,1,0,0:0:0:0:
298,192,10215,1,0,0:0:0:0:
469,192,10215,1,0,0:0:0:0:
384,192,10303,1,0,0:0:0:0:
213,192,10332,1,0,0:0:0:0:
298,192,10391,1,0,0:0:0:0:
128,192,10450,1,0,0:0:0:0:
469,192,10450,1,0,0:0:0:0:
42,192,10568,1,0,0:0:0:0:
298,192,10568,1,0,0:0:0:0:
384,192,10656,1,0,0:0:0:0:
213,192,10685,1,0,0:0:0:0:
469,192,10744,1,0,0:0:0:0:
298,192,10803,1,0,0:0:0:0:
384,192,10921,1,0,0:0:0:0:
213,192,10921,1,0,0:0:0:0:
128,192,11009,1,0,0:0:0:0:
298,192,11038,1,0,0:0:0:0:
42,192,11097,1,0,0:0:0:0:
213,192,11156,1,0,0:0:0:0:
469,192,11274,1,0,0:0:0:0:
42,192,11274,1,0,0:0:0:0:
213,192,11274,1,0,0:0:0:0:
298,192,11362,1,0,0:0:0:0:
128,192,11391,1,0,0:0:0:0:
213,192,11509,1,0,0:0:0:0:
42,192,11538,1,0,0:0:0:0:
469,192,11627,1,0,0:0:0:0:
298,192,11627,1,0,0:0:0:0:
213,192,11744,1,0,0:0:0:0:
384,192,11803,1,0,0:0:0:0:
128,192,11862,1,0,0:0:0:0:
298,192,11891,1,0,0:0:0:0:
469,192,11979,1,0,0:0:0:0:
42,192,11979,1,0,0:0:0:0:
298,192,12068,1,0,0:0:0:0:
128,192,12097,1,0,0:0:0:0:
384,192,12156,1,0,0:0:0:0:
213,192,12215,1,0,0:0:0:0:
469,192,12244,1,0,0:0:0:0:
42,192,12332,1,0,0:0:0:0:
298,192,12332,1,0,0:0:0:0:
384,192,12421,1,0,0:0:0:0:
213,192,12450,1,0,0:0:0:0:
469,192,12509,1,0,0:0:0:0:
128,192,12568,1,0,0:0:0:0:
213,192,12685,1,0,0:0:0:0:
42,192,12685,1,0,0:0:0:0:
469,192,12685,1,0,0:0:0:0:
298,192,12803,1,0,0:0:0:0:
128,192,12803,1,0,0:0:0:0:
384,192,12921,1,0,0:0:0:0:
213,192,12921,1,0,0:0:0:0:
469,192,13038,1,0,0:0:0:0:
298,192,13038,1,0,0:0:0:0:
384,192,13127,1,0,0:0:0:0:
213,192,13156,1,0,0:0:0:0:
298,192,13215,1,0,0:0:0:0:
128,192,13274,1,0,0:0:0:0:
384,192,13303,1,0,0:0:0:0:
298,192,13391,1,0,0:0:0:0:
42,192,13391,1,0,0:0:0:0:
469,192,13391,1,0,0:0:0:0:
213,192,13479,1,0,0:0:0:0:
384,192,13509,1,0,0:0:0:0:
128,192,13568,1,0,0:0:0:0:
42,192,13568,1,0,0:0:0:0:
469,192,13627,1,0,0:0:0:0:
213,192,13656,1,0,0:0:0:0:
128,192,13744,1,0,0:0:0:0:
42,192,13744,1,0,0:0:0:0:
298,192,13744,1,0,0:0:0:0:
213,192,13832,1,0,0:0:0:0:
384,192,13862,1,0,0:0:0:0:
128,192,13921,1,0,0:0:0:0:
42,192,13921,1,0,0:0:0:0:
469,192,13979,1,0,0:0:0:0:
213,192,14009,1,0,0:0:0:0:
298,192,14097,1,0,0:0:0:0:
128,192,14097,1,0,0:0:0:0:
42,192,14097,1,0,0:0:0:0:
384,192,14185,1,0,0:0:0:0:
213,192,14274,1,0,0:0:0:0:
469,192,14274,1,0,0:0:0:0:
128,192,14362,1,0,0:0:0:0:
384,192,14362,1,0,0:0:0:0:
298,192,14450,1,0,0:0:0:0:
42,192,14450,1,0,0:0:0:0:
469,192,14450,1,0,0:0:0:0:
213,192,14538,1,0,0:0:0:0:
128,192,14627,1,0,0:0:0:0:
384,192,14627,1,0,0:0:0:0:
42,192,14715,1,0,0:0:0:0:
298,192,14715,1,0,0:0:0:0:
213,192,14803,1,0,0:0:0:0:
384,192,14803,1,0,0:0:0:0:
469,192,14803,1,0,0:0:0:0:
128,192,14891,1,0,0:0:0:0:
42,192,14979,1,0,0:0:0:0:
298,192,14979,1,0,0:0:0:0:
128,192,15068,1,0,0:0:0:0:
384,192,15068,1,0,0:0:0:0:
469,192,15068,1,0,0:0:0:0:
213,192,15156,1,0,0:0:0:0:
42,192,15156,1,0,0:0:0:0:
298,192,15244,1,0,0:0:0:0:
384,192,15332,1,0,0:0:0:0:
128,192,15332,1,0,0:0:0:0:
469,192,15421,1,0,0:0:0:0:
213,192,15421,1,0,0:0:0:0:
298,192,15509,1,0,0:0:0:0:
128,192,15509,1,0,0:0:0:0:
42,192,15509,1,0,0:0:0:0:
384,192,15597,1,0,0:0:0:0:
469,192,15685,1,0,0:0:0:0:
213,192,15685,1,0,0:0:0:0:
128,192,15774,1,0,0:0:0:0:
384,192,15774,1,0,0:0:0:0:
298,192,15862,1,0,0:0:0:0:
469,192,15862,1,0,0:0:0:0:
42,192,15862,1,0,0:0:0:0:
213,192,15950,1,0,0:0:0:0:
128,192,16038,1,0,0:0:0:0:
384,192,16038,1,0,0:0:0:0:
298,192,16127,1,0,0:0:0:0:
42,192,16127,1,0,0:0:0:0:
128,192,16215,1,0,0:0:0:0:
384,192,16215,1,0,0:0:0:0:
469,192,16215,1,0,0:0:0:0:
298,192,16303,1,0,0:0:0:0:
213,192,16391,1,0,0:0:0:0:
469,192,16391,1,0,0:0:0:0:
128,192,16479,1,0,0:0:0:0:
42,192,16479,1,0,0:0:0:0:
384,192,16479,1,0,0:0:0:0:
298,192,16568,1,0,0:0:0:0:
469,192,16568,1,0,0:0:0:0:
42,192,16656,1,0,0:0:0:0:
384,192,16744,1,0,0:0:0:0:
128,192,16744,1,0,0:0:0:0:
298,192,16832,1,0,0:0:0:0:
42,192,16921,1,0,0:0:0:0:
469,192,16921,1,0,0:0:0:0:
213,192,16921,1,0,0:0:0:0:
128,192,17009,1,0,0:0:0:0:
42,192,17097,1,0,0:0:0:0:
298,192,17097,1,0,0:0:0:0:
128,192,17185,1,0,0:0:0:0:
384,192,17185,1,0,0:0:0:0:
213,192,17274,1,0,0:0:0:0:
469,192,17274,1,0,0:0:0:0:
42,192,17274,1,0,0:0:0:0:
298,192,17362,1,0,0:0:0:0:
384,192,17450,1,0,0:0:0:0:
128,192,17450,1,0,0:0:0:0:
469,192,17538,1,0,0:0:0:0:
213,192,17538,1,0,0:0:0:0:
128,192,17627,1,0,0:0:0:0:
42,192,17627,1,0,0:0:0:0:
298,192,17627,1,0,0:0:0:0:
384,192,17715,1,0,0:0:0:0:
469,192,17803,1,0,0:0:0:0:
213,192,17803,1,0,0:0:0:0:
384,192,17891,1,0,0:0:0:0:
128,192,17891,1,0,0:0:0:0:
42,192,17891,1,0,0:0:0:0:
298,192,17979,1,0,0:0:0:0:
469,192,17979,1,0,0:0:0:0:
213,192,18068,1,0,0:0:0:0:
128,192,18156,1,0,0:0:0:0:
384,192,18156,1,0,0:0:0:0:
42,192,18244,1,0,0:0:0:0:
298,192,18244,1,0,0:0:0:0:
213,192,18332,1,0,0:0:0:0:
384,192,18332,1,0,0:0:0:0:
469,192,18332,1,0,0:0:0:0:
128,192,18421,1,0,0:0:0:0:
42,192,18509,1,0,0:0:0:0:
298,192,18509,1,0,0:0:0:0:
128,192,18597,1,0,0:0:0:0:
384,192,18597,1,0,0:0:0:0:
213,192,18685,1,0,0:0:0:0:
42,192,18685,1,0,0:0:0:0:
469,192,18685,1,0,0:0:0:0:
298,192,18774,1,0,0:0:0:0:
384,192,18862,1,0,0:0:0:0:
128,192,18862,1,0,0:0:0:0:
469,192,18950,1,0,0:0:0:0:
213,192,18950,1,0,0:0:0:0:
298,192,19038,1,0,0:0:0:0:
128,192,19038,1,0,0:0:0:0:
42,192,19038,1,0,0:0:0:0:
384,192,19127,1,0,0:0:0:0:
469,192,19215,1,0,0:0:0:0:
213,192,19215,1,0,0:0:0:0:
42,192,19215,1,0,0:0:0:0:
128,192,19303,1,0,0:0:0:0:
298,192,19303,1,0,0:0:0:0:
384,192,19303,1,0,0:0:0:0:
213,192,19391,1,0,0:0:0:0:
42,192,19391,1,0,0:0:0:0:
384,192,19479,1,0,0:0:0:0:
469,192,19479,1,0,0:0:0:0:
298,192,19479,1,0,0:0:0:0:
213,192,19568,1,0,0:0:0:0:
128,192,19568,1,0,0:0:0:0:
42,192,19568,1,0,0:0:0:0:
298,192,19656,1,0,0:0:0:0:
384,192,19656,1,0,0:0:0:0:
469,192,19656,1,0,0:0:0:0:
213,192,19744,1,0,0:0:0:0:
128,192,19744,1,0,0:0:0:0:
42,192,19744,1,0,0:0:0:0:
298,192,19832,1,0,0:0:0:0:
128,192,19921,1,0,0:0:0:0:
384,192,19921,1,0,0:0:0:0:
469,192,19921,1,0,0:0:0:0:
213,192,20009,1,0,0:0:0:0:
42,192,20097,1,0,0:0:0:0:
298,192,20097,1,0,0:0:0:0:
469,192,20097,1,0,0:0:0:0:
213,192,20185,1,0,0:0:0:0:
128,192,20274,1,0,0:0:0:0:
384,192,20274,1,0,0:0:0:0:
42,192,20274,1,0,0:0:0:0:
298,192,20362,1,0,0:0:0:0:
213,192,20450,1,0,0:0:0:0:
384,192,20450,1,0,0:0:0:0:
469,192,20450,1,0,0:0:0:0:
128,192,20538,1,0,0:0:0:0:
42,192,20627,1,0,0:0:0:0:
298,192,20627,1,0,0:0:0:0:
469,192,20627,1,0,0:0:0:0:
213,192,20715,1,0,0:0:0:0:
128,192,20803,1,0,0:0:0:0:
42,192,20803,1,0,0:0:0:0:
384,192,20803,1,0,0:0:0:0:
469,192,20891,1,0,0:0:0:0:
213,192,20979,1,0,0:0:0:0:
42,192,20979,1,0,0:0:0:0:
298,192,20979,1,0,0:0:0:0:
469,192,21068,1,0,0:0:0:0:
384,192,21068,1,0,0:0:0:0:
128,192,21156,1,0,0:0:0:0:
42,192,21156,1,0,0:0:0:0:
298,192,21156,1,0,0:0:0:0:
213,192,21244,1,0,0:0:0:0:
42,192,21332,1,0,0:0:0:0:
298,192,21332,1,0,0:0:0:0:
469,192,21332,1,0,0:0:0:0:
128,192,21421,1,0,0:0:0:0:
213,192,21509,1,0,0:0:0:0:
469,192,21509,1,0,0:0:0:0:
384,192,21509,1,0,0:0:0:0:
298,192,21597,1,0,0:0:0:0:
42,192,21685,1,0,0:0:0:0:
469,192,21685,1,0,0:0:0:0:
128,192,21685,1,0,0:0:0:0:
213,192,21774,1,0,0:0:0:0:
128,192,21862,1,0,0:0:0:0:
298,192,21862,1,0,0:0:0:0:
384,192,21862,1,0,0:0:0:0:
42,192,21950,1,0,0:0:0:0:
213,192,22038,1,0,0:0:0:0:
384,192,22038,1,0,0:0:0:0:
469,192,22038,1,0,0:0:0:0:
128,192,22127,1,0,0:0:0:0:
298,192,22127,1,0,0:0:0:0:
42,192,22215,1,0,0:0:0:0:
469,192,22215,1,0,0:0:0:0:
213,192,22215,1,0,0:0:0:0:
298,192,22303,1,0,0:0:0:0:
384,192,22303,1,0,0:0:0:0:
128,192,22391,1,0,0:0:0:0:
42,192,22391,1,0,0:0:0:0:
213,192,22391,1,0,0:0:0:0:
298,192,22479,1,0,0:0:0:0:
469,192,22479,1,0,0:0:0:0:
384,192,22568,1,0,0:0:0:0:
213,192,22568,1,0,0:0:0:0:
42,192,22568,1,0,0:0:0:0:
298,192,22656,1,0,0:0:0:0:
128,192,22656,1,0,0:0:0:0:
42,192,22744,1,0,0:0:0:0:
213,192,22744,1,0,0:0:0:0:
469,192,22744,1,0,0:0:0:0:
384,192,22832,1,0,0:0:0:0:
128,192,22832,1,0,0:0:0:0:
42,192,22921,1,0,0:0:0:0:
298,192,22921,1,0,0:0:0:0:
469,192,22921,1,0,0:0:0:0:
384,192,23009,1,0,0:0:0:0:
213,192,23009,1,0,0:0:0:0:
298,192,23097,1,0,0:0:0:0:
128,192,23097,1,0,0:0:0:0:
469,192,23097,1,0,0:0:0:0:
213,192,23185,1,0,0:0:0:0:
42,192,23185,1,0,0:0:0:0:
128,192,23274,1,0,0:0:0:0:
298,192,23274,1,0,0:0:0:0:
469,192,23274,1,0,0:0:0:0:
384,192,23362,1,0,0:0:0:0:
213,192,23362,1,0,0:0:0:0:
298,192,23450,1,0,0:0:0:0:
42,192,23450,1,0,0:0:0:0:
469,192,23450,1,0,0:0:0:0:
128,192,23538,1,0,0:0:0:0:
384,192,23538,1,0,0:0:0:0:
213,192,23627,1,0,0:0:0:0:
42,192,23627,1,0,0:0:0:0:
469,192,23627,1,0,0:0:0:0:
128,192,23715,1,0,0:0:0:0:
298,192,23715,1,0,0:0:0:0:
213,192,23803,1,0,0:0:0:0:
384,192,23803,1,0,0:0:0:0:
42,192,23803,1,0,0:0:0:0:
298,192,23891,1,0,0:0:0:0:
469,192,23891,1,0,0:0:0:0:
128,192,23979,1,0,0:0:0:0:
42,192,23979,1,0,0:0:0:0:
213,192,23979,1,0,0:0:0:0:
298,192,24024,1,0,0:0:0:0:
384,192,24068,1,0,0:0:0:0:
469,192,24068,1,0,0:0:0:0:
213,192,24112,1,0,0:0:0:0:
128,192,24156,1,0,0:0:0:0:
42,192,24156,1,0,0:0:0:0:
298,192,24200,1,0,0:0:0:0:
384,192,24244,1,0,0:0:0:0:
469,192,24244,1,0,0:0:0:0:
128,192,24288,1,0,0:0:0:0:
213,192,24332,1,0,0:0:0:0:
42,192,24332,1,0,0:0:0:0:
384,192,24377,1,0,0:0:0:0:
298,192,24421,1,0,0:0:0:0:
469,192,24421,1,0,0:0:0:0:
128,192,24465,1,0,0:0:0:0:
213,192,24509,1,0,0:0:0:0:
42,192,24509,1,0,0:0:0:0:
384,192,24553,1,0,0:0:0:0:
298,192,24597,1,0,0:0:0:0:
469,192,24597,1,0,0:0:0:0:
213,192,24641,1,0,0:0:0:0:
42,192,24685,1,0,0:0:0:0:
128,192,24685,1,0,0:0:0:0:
469,192,24729,1,0,0:0:0:0:
298,192,24774,1,0,0:0:0:0:
384,192,24774,1,0,0:0:0:0:
213,192,24818,1,0,0:0:0:0:
128,192,24862,1,0,0:0:0:0:
42,192,24862,1,0,0:0:0:0:
469,192,24906,1,0,0:0:0:0:
298,192,24950,1,0,0:0:0:0:
384,192,24950,1,0,0:0:0:0:
42,192,24994,1,0,0:0:0:0:
213,192,25038,1,0,0:0:0:0:
128,192,25038,1,0,0:0:0:0:
298,192,25082,1,0,0:0:0:0:
469,192,25127,1,0,0:0:0:0:
384,192,25127,1,0,0:0:0:0:
42,192,25171,1,0,0:0:0:0:
213,192,25215,1,0,0:0:0:0:
128,192,25215,1,0,0:0:0:0:
298,192,25259,1,0,0:0:0:0:
384,192,25303,1,0,0:0:0:0:
469,192,25303,1,0,0:0:0:0:
213,192,25347,1,0,0:0:0:0:
128,192,25391,1,0,0:0:0:0:
42,192,25391,1,0,0:0:0:0:
298,192,25391,1,0,0:0:0:0:
469,192,25568,1,0,0:0:0:0:
384,192,25656,1,0,0:0:0:0:
298,192,25744,1,0,0:0:0:0:
213,192,25832,1,0,0:0:0:0:
128,192,25921,1,0,0:0:0:0:
42,192,26009,1,0,0:0:0:0:
213,192,26097,1,0,0:0:0:0:
298,192,26274,1,0,0:0:0:0:
384,192,26332,1,0,0:0:0:0:
298,192,26391,1,0,0:0:0:0:
213,192,26450,1,0,0:0:0:0:
128,192,26627,1,0,0:0:0:0:
213,192,26803,1,0,0:0:0:0:
42,192,26891,1,0,0:0:0:0:
213,192,26979,1,0,0:0:0:0:
298,192,27068,1,0,0:0:0:0:
384,192,27156,1,0,0:0:0:0:
298,192,27244,1,0,0:0:0:0:
213,192,27332,1,0,0:0:0:0:
128,192,27421,1,0,0:0:0:0:
213,192,27509,1,0,0:0:0:0:
469,192,27597,1,0,0:0:0:0:
384,192,27685,1,0,0:0:0:0:
298,192,27774,1,0,0:0:0:0:
213,192,27862,1,0,0:0:0:0:
298,192,27950,1,0,0:0:0:0:
213,192,28038,1,0,0:0:0:0:
42,192,28127,1,0,0:0:0:0:
128,192,28215,1,0,0:0:0:0:
384,192,28215,1,0,0:0:0:0:
469,192,28215,1,0,0:0:0:0:
298,192,28215,1,0,0:0:0:0:
213,192,28391,1,0,0:0:0:0:
42,192,28391,1,0,0:0:0:0:
469,192,28391,1,0,0:0:0:0:
298,192,28479,1,0,0:0:0:0:
384,192,28479,1,0,0:0:0:0:
128,192,28568,1,0,0:0:0:0:
42,192,28568,1,0,0:0:0:0:
469,192,28568,1,0,0:0:0:0:
213,192,28656,1,0,0:0:0:0:
469,192,28744,1,0,0:0:0:0:
128,192,28744,1,0,0:0:0:0:
298,192,28744,1,0,0:0:0:0:
384,192,28832,1,0,0:0:0:0:
213,192,28832,1,0,0:0:0:0:
42,192,28921,1,0,0:0:0:0:
469,192,28921,1,0,0:0:0:0:
298,192,28921,1,0,0:0:0:0:
42,192,29097,1,0,0:0:0:0:
213,192,29097,1,0,0:0:0:0:
469,192,29097,1,0,0:0:0:0:
384,192,29156,1,0,0:0:0:0:
128,192,29185,1,0,0:0:0:0:
298,192,29215,1,0,0:0:0:0:
469,192,29274,1,0,0:0:0:0:
42,192,29274,1,0,0:0:0:0:
213,192,29274,1,0,0:0:0:0:
128,192,29450,1,0,0:0:0:0:
298,192,29450,1,0,0:0:0:0:
469,192,29450,1,0,0:0:0:0:
384,192,29538,1,0,0:0:0:0:
213,192,29627,1,0,0:0:0:0:
42,192,29627,1,0,0:0:0:0:
298,192,29627,1,0,0:0:0:0:
128,192,29715,1,0,0:0:0:0:
213,192,29803,1,0,0:0:0:0:
469,192,29803,1,0,0:0:0:0:
42,192,29803,1,0,0:0:0:0:
298,192,29891,1,0,0:0:0:0:
384,192,29891,1,0,0:0:0:0:
42,192,29979,1,0,0:0:0:0:
128,192,29979,1,0,0:0:0:0:
213,192,29979,1,0,0:0:0:0:
384,192,30068,1,0,0:0:0:0:
469,192,30156,1,0,0:0:0:0:
298,192,30156,1,0,0:0:0:0:
128,192,30156,1,0,0:0:0:0:
213,192,30244,1,0,0:0:0:0:
384,192,30244,1,0,0:0:0:0:
42,192,30332,1,0,0:0:0:0:
298,192,30332,1,0,0:0:0:0:
128,192,30332,1,0,0:0:0:0:
469,192,30421,1,0,0:0:0:0:
384,192,30509,1,0,0:0:0:0:
42,192,30509,1,0,0:0:0:0:
128,192,30509,1,0,0:0:0:0:
298,192,30597,1,0,0:0:0:0:
213,192,30597,1,0,0:0:0:0:
469,192,30685,1,0,0:0:0:0:
128,192,30685,1,0,0:0:0:0:
384,192,30685,1,0,0:0:0:0:
213,192,30774,1,0,0:0:0:0:
469,192,30862,1,0,0:0:0:0:
384,192,30862,1,0,0:0:0:0:
298,192,30862,1,0,0:0:0:0:
42,192,30950,1,0,0:0:0:0:
128,192,30950,1,0,0:0:0:0:
298,192,31038,1,0,0:0:0:0:
213,192,31038,1,0,0:0:0:0:
469,192,31038,1,0,0:0:0:0:
128,192,31215,1,0,0:0:0:0:
42,192,31215,1,0,0:0:0:0:
384,192,31215,1,0,0:0:0:0:
213,192,31303,1,0,0:0:0:0:
128,192,31391,1,0,0:0:0:0:
298,192,31391,1,0,0:0:0:0:
42,192,31391,1,0,0:0:0:0:
384,192,31568,1,0,0:0:0:0:
469,192,31568,1,0,0:0:0:0:
128,192,31568,1,0,0:0:0:0:
298,192,31656,1,0,0:0:0:0:
213,192,31744,1,0,0:0:0:0:
469,192,31744,1,0,0:0:0:0:
384,192,31744,1,0,0:0:0:0:
298,192,31921,1,0,0:0:0:0:
128,192,31921,1,0,0:0:0:0:
42,192,31921,1,0,0:0:0:0:
213,192,32009,1,0,0:0:0:0:
42,192,32097,1,0,0:0:0:0:
128,192,32097,1,0,0:0:0:0:
384,192,32097,1,0,0:0:0:0:
213,192,32274,1,0,0:0:0:0:
384,192,32274,1,0,0:0:0:0:
469,192,32274,1,0,0:0:0:0:
298,192,32362,1,0,0:0:0:0:
384,192,32450,1,0,0:0:0:0:
469,192,32450,1,0,0:0:0:0:
42,192,32450,1,0,0:0:0:0:
42,192,32627,1,0,0:0:0:0:
298,192,32627,1,0,0:0:0:0:
384,192,32627,1,0,0:0:0:0:
213,192,32715,1,0,0:0:0:0:
42,192,32803,1,0,0:0:0:0:
469,192,32803,1,0,0:0:0:0:
298,192,32803,1,0,0:0:0:0:
213,192,32979,1,0,0:0:0:0:
128,192,32979,1,0,0:0:0:0:
469,192,33068,1,0,0:0:0:0:
384,192,33068,1,0,0:0:0:0:
213,192,33156,1,0,0:0:0:0:
42,192,33156,1,0,0:0:0:0:
128,192,33332,1,0,0:0:0:0:
298,192,33332,1,0,0:0:0:0:
469,192,33332,1,0,0:0:0:0:
384,192,33421,1,0,0:0:0:0:
298,192,33509,1,0,0:0:0:0:
128,192,33509,1,0,0:0:0:0:
42,192,33509,1,0,0:0:0:0:
213,192,33685,1,0,0:0:0:0:
384,192,33685,1,0,0:0:0:0:
42,192,33685,1,0,0:0:0:0:
128,192,33774,1,0,0:0:0:0:
213,192,33862,1,0,0:0:0:0:
384,192,33862,1,0,0:0:0:0:
469,192,33862,1,0,0:0:0:0:
42,192,33950,1,0,0:0:0:0:
213,192,34127,1,0,0:0:0:0:
42,192,34215,1,0,0:0:0:0:
469,192,34215,1,0,0:0:0:0:
128,192,34303,1,0,0:0:0:0:
213,192,34391,1,0,0:0:0:0:
298,192,34479,1,0,0:0:0:0:
213,192,34568,1,0,0:0:0:0:
469,192,34568,1,0,0:0:0:0:
128,192,34744,1,0,0:0:0:0:
42,192,34803,1,0,0:0:0:0:
469,192,34832,1,0,0:0:0:0:
128,192,34862,1,0,0:0:0:0:
213,192,34921,1,0,0:0:0:0:
469,192,35097,1,0,0:0:0:0:
298,192,35097,1,0,0:0:0:0:
42,192,35274,1,0,0:0:0:0:
384,192,35274,1,0,0:0:0:0:
213,192,35362,1,0,0:0:0:0:
298,192,35450,1,0,0:0:0:0:
384,192,35538,1,0,0:0:0:0:
42,192,35627,1,0,0:0:0:0:
469,192,35627,1,0,0:0:0:0:
384,192,35715,1,0,0:0:0:0:
298,192,35803,1,0,0:0:0:0:
213,192,35891,1,0,0:0:0:0:
42,192,35979,1,0,0:0:0:0:
298,192,35979,1,0,0:0:0:0:
469,192,36068,1,0,0:0:0:0:
384,192,36156,1,0,0:0:0:0:
213,192,36156,1,0,0:0:0:0:
298,192,36244,1,0,0:0:0:0:
42,192,36244,1,0,0:0:0:0:
128,192,36332,1,0,0:0:0:0:
213,192,36421,1,0,0:0:0:0:
42,192,36421,1,0,0:0:0:0:
298,192,36509,1,0,0:0:0:0:
469,192,36509,1,0,0:0:0:0:
384,192,36597,1,0,0:0:0:0:
42,192,36597,1,0,0:0:0:0:
128,192,36685,1,0,0:0:0:0:
298,192,36685,1,0,0:0:0:0:
469,192,36685,1,0,0:0:0:0:
213,192,36774,1,0,0:0:0:0:
128,192,36862,1,0,0:0:0:0:
42,192,36862,1,0,0:0:0:0:
384,192,36862,1,0,0:0:0:0:
298,192,36950,1,0,0:0:0:0:
469,192,36950,1,0,0:0:0:0:
213,192,37038,1,0,0:0:0:0:
42,192,37038,1,0,0:0:0:0:
384,192,37038,1,0,0:0:0:0:
128,192,37127,1,0,0:0:0:0:
42,192,37215,1,0,0:0:0:0:
298,192,37215,1,0,0:0:0:0:
469,192,37215,1,0,0:0:0:0:
384,192,37303,1,0,0:0:0:0:
213,192,37303,1,0,0:0:0:0:
298,192,37391,1,0,0:0:0:0:
128,192,37391,1,0,0:0:0:0:
42,192,37391,1,0,0:0:0:0:
128,192,37568,1,0,0:0:0:0:
384,192,37568,1,0,0:0:0:0:
469,192,37568,1,0,0:0:0:0:
298,192,37627,1,0,0:0:0:0:
213,192,37656,1,0,0:0:0:0:
384,192,37685,1,0,0:0:0:0:
469,192,37744,1,0,0:0:0:0:
128,192,37744,1,0,0:0:0:0:
42,192,37744,1,0,0:0:0:0:
213,192,37921,1,0,0:0:0:0:
384,192,37921,1,0,0:0:0:0:
128,192,37921,1,0,0:0:0:0:
298,192,38009,1,0,0:0:0:0:
42,192,38097,1,0,0:0:0:0:
384,192,38097,1,0,0:0:0:0:
469,192,38097,1,0,0:0:0:0:
213,192,38185,1,0,0:0:0:0:
128,192,38274,1,0,0:0:0:0:
42,192,38274,1,0,0:0:0:0:
298,192,38274,1,0,0:0:0:0:
213,192,38362,1,0,0:0:0:0:
384,192,38362,1,0,0:0:0:0:
298,192,38450,1,0,0:0:0:0:
469,192,38450,1,0,0:0:0:0:
128,192,38450,1,0,0:0:0:0:
42,192,38538,1,0,0:0:0:0:
384,192,38627,1,0,0:0:0:0:
213,192,38627,1,0,0:0:0:0:
469,192,38627,1,0,0:0:0:0:
298,192,38715,1,0,0:0:0:0:
128,192,38715,1,0,0:0:0:0:
213,192,38803,1,0,0:0:0:0:
42,192,38803,1,0,0:0:0:0:
469,192,38803,1,0,0:0:0:0:
384,192,38891,1,0,0:0:0:0:
298,192,38979,1,0,0:0:0:0:
128,192,38979,1,0,0:0:0:0:
42,192,38979,1,0,0:0:0:0:
213,192,39068,1,0,0:0:0:0:
384,192,39068,1,0,0:0:0:0:
469,192,39068,1,0,0:0:0:0:
42,192,39156,1,0,0:0:0:0:
128,192,39156,1,0,0:0:0:0:
298,192,39244,1,0,0:0:0:0:
384,192,39244,1,0,0:0:0:0:
469,192,39244,1,0,0:0:0:0:
213,192,39332,1,0,0:0:0:0:
128,192,39332,1,0,0:0:0:0:
42,192,39332,1,0,0:0:0:0:
298,192,39421,1,0,0:0:0:0:
384,192,39421,1,0,0:0:0:0:
469,192,39421,1,0,0:0:0:0:
213,192,39509,1,0,0:0:0:0:
128,192,39509,1,0,0:0:0:0:
42,192,39509,1,0,0:0:0:0:
384,192,39597,1,0,0:0:0:0:
469,192,39597,1,0,0:0:0:0:
298,192,39685,1,0,0:0:0:0:
213,192,39685,1,0,0:0:0:0:
128,192,39685,1,0,0:0:0:0:
42,192,39774,1,0,0:0:0:0:
469,192,39774,1,0,0:0:0:0:
384,192,39862,1,0,0:0:0:0:
298,192,39862,1,0,0:0:0:0:
213,192,39862,1,0,0:0:0:0:
128,192,39950,1,0,0:0:0:0:
42,192,39950,1,0,0:0:0:0:
384,192,40038,1,0,0:0:0:0:
469,192,40038,1,0,0:0:0:0:
298,192,40038,1,0,0:0:0:0:
128,192,40127,1,0,0:0:0:0:
213,192,40127,1,0,0:0:0:0:
42,192,40215,1,0,0:0:0:0:
384,192,40215,1,0,0:0:0:0:
469,192,40215,1,0,0:0:0:0:
213,192,40303,1,0,0:0:0:0:
298,192,40303,1,0,0:0:0:0:
128,192,40391,1,0,0:0:0:0:
42,192,40391,1,0,0:0:0:0:
469,192,40391,1,0,0:0:0:0:
384,192,40479,1,0,0:0:0:0:
298,192,40479,1,0,0:0:0:0:
128,192,40568,1,0,0:0:0:0:
42,192,40568,1,0,0:0:0:0:
213,192,40568,1,0,0:0:0:0:
384,192,40656,1,0,0:0:0:0:
469,192,40656,1,0,0:0:0:0:
298,192,40744,1,0,0:0:0:0:
213,192,40744,1,0,0:0:0:0:
128,192,40744,1,0,0:0:0:0:
384,192,40832,1,0,0:0:0:0:
469,192,40832,1,0,0:0:0:0:
213,192,40921,1,0,0:0:0:0:
128,192,40921,1,0,0:0:0:0:
42,192,40921,1,0,0:0:0:0:
128,192,41185,1,0,0:0:0:0:
213,192,41185,1,0,0:0:0:0:
298,192,41185,1,0,0:0:0:0:
213,192,41450,1,0,0:0:0:0:
298,192,41450,1,0,0:0:0:0:
384,192,41450,1,0,0:0:0:0:
298,192,41627,1,0,0:0:0:0:
384,192,41627,1,0,0:0:0:0:
469,192,41627,1,0,0:0:0:0:
384,192,41891,1,0,0:0:0:0:
298,192,41891,1,0,0:0:0:0:
213,192,41891,1,0,0:0:0:0:
298,192,42156,1,0,0:0:0:0:
213,192,42156,1,0,0:0:0:0:
128,192,42156,1,0,0:0:0:0:
42,192,42332,1,0,0:0:0:0:
213,192,42332,1,0,0:0:0:0:
384,192,42332,1,0,0:0:0:0:
42,192,42597,1,0,0:0:0:0:
298,192,42597,1,0,0:0:0:0:
469,192,42597,1,0,0:0:0:0:
213,192,42685,1,0,0:0:0:0:
42,192,43038,1,0,0:0:0:0:
213,192,43038,1,0,0:0:0:0:
384,192,43038,1,0,0:0:0:0:
42,192,43303,1,0,0:0:0:0:
384,192,43303,1,0,0:0:0:0:
469,192,43303,1,0,0:0:0:0:
213,192,43391,1,0,0:0:0:0:
42,192,43744,1,0,0:0:0:0:
213,192,43744,1,0,0:0:0:0:
384,192,43744,1,0,0:0:0:0:
42,192,44009,1,0,0:0:0:0:
384,192,44009,1,0,0:0:0:0:
469,192,44009,1,0,0:0:0:0:
213,192,44097,1,0,0:0:0:0:
42,192,44274,1,0,0:0:0:0:
384,192,44274,1,0,0:0:0:0:
469,192,44274,1,0,0:0:0:0:
298,192,44450,1,0,0:0:0:0:
469,192,44450,1,0,0:0:0:0:
42,192,44450,1,0,0:0:0:0:
42,192,44627,1,0,0:0:0:0:
213,192,44627,1,0,0:0:0:0:
384,192,44627,1,0,0:0:0:0:
298,192,44803,1,0,0:0:0:0:
128,192,44803,1,0,0:0:0:0:
42,192,44803,1,0,0:0:0:0:
213,192,44803,1,0,0:0:0:0:
128,192,44891,1,0,0:0:0:0:
42,192,44891,1,0,0:0:0:0:
469,192,44891,1,0,0:0:0:0:
213,192,45156,1,0,0:0:0:0:
384,192,45156,1,0,0:0:0:0:
42,192,45156,1,0,0:0:0:0:
42,192,45421,1,0,0:0:0:0:
298,192,45421,1,0,0:0:0:0:
469,192,45421,1,0,0:0:0:0:
213,192,45509,1,0,0:0:0:0:
42,192,45862,1,0,0:0:0:0:
213,192,45862,1,0,0:0:0:0:
384,192,45862,1,0,0:0:0:0:
42,192,46127,1,0,0:0:0:0:
384,192,46127,1,0,0:0:0:0:
469,192,46127,1,0,0:0:0:0:
213,192,46215,1,0,0:0:0:0:
213,192,46568,1,0,0:0:0:0:
42,192,46568,1,0,0:0:0:0:
384,192,46568,1,0,0:0:0:0:
42,192,46832,1,0,0:0:0:0:
384,192,46832,1,0,0:0:0:0:
469,192,46832,1,0,0:0:0:0:
213,192,46921,1,0,0:0:0:0:
42,192,47097,1,0,0:0:0:0:
469,192,47097,1,0,0:0:0:0:
384,192,47097,1,0,0:0:0:0:
298,192,47274,1,0,0:0:0:0:
469,192,47274,1,0,0:0:0:0:
42,192,47274,1,0,0:0:0:0:
42,192,47450,1,0,0:0:0:0:
213,192,47450,1,0,0:0:0:0:
384,192,47450,1,0,0:0:0:0:
213,192,47627,1,0,0:0:0:0:
128,192,47627,1,0,0:0:0:0:
42,192,47627,1,0,0:0:0:0:
469,192,47627,1,0,0:0:0:0:
42,192,47715,1,0,0:0:0:0:
128,192,47715,1,0,0:0:0:0:
298,192,47715,1,0,0:0:0:0:
213,192,47979,1,0,0:0:0:0:
42,192,47979,1,0,0:0:0:0:
384,192,47979,1,0,0:0:0:0:
128,192,48068,1,0,0:0:0:0:
213,192,48156,1,0,0:0:0:0:
42,192,48244,1,0,0:0:0:0:
469,192,48244,1,0,0:0:0:0:
298,192,48244,1,0,0:0:0:0:
128,192,48332,1,0,0:0:0:0:
384,192,48332,1,0,0:0:0:0:
213,192,48421,1,0,0:0:0:0:
298,192,48509,1,0,0:0:0:0:
128,192,48597,1,0,0:0:0:0:
213,192,48685,1,0,0:0:0:0:
42,192,48685,1,0,0:0:0:0:
384,192,48685,1,0,0:0:0:0:
128,192,48774,1,0,0:0:0:0:
213,192,48862,1,0,0:0:0:0:
42,192,48950,1,0,0:0:0:0:
384,192,48950,1,0,0:0:0:0:
469,192,48950,1,0,0:0:0:0:
298,192,49038,1,0,0:0:0:0:
128,192,49038,1,0,0:0:0:0:
213,192,49127,1,0,0:0:0:0:
384,192,49215,1,0,0:0:0:0:
298,192,49303,1,0,0:0:0:0:
213,192,49391,1,0,0:0:0:0:
42,192,49391,1,0,0:0:0:0:
384,192,49391,1,0,0:0:0:0:
128,192,49479,1,0,0:0:0:0:
213,192,49568,1,0,0:0:0:0:
42,192,49656,1,0,0:0:0:0:
384,192,49656,1,0,0:0:0:0:
469,192,49656,1,0,0:0:0:0:
298,192,49744,1,0,0:0:0:0:
128,192,49744,1,0,0:0:0:0:
213,192,49832,1,0,0:0:0:0:
42,192,49921,1,0,0:0:0:0:
384,192,49921,1,0,0:0:0:0:
469,192,49921,1,0,0:0:0:0:
213,192,50009,1,0,0:0:0:0:
42,192,50097,1,0,0:0:0:0:
298,192,50097,1,0,0:0:0:0:
469,192,50097,1,0,0:0:0:0:
128,192,50185,1,0,0:0:0:0:
42,192,50274,1,0,0:0:0:0:
213,192,50274,1,0,0:0:0:0:
384,192,50274,1,0,0:0:0:0:
469,192,50362,1,0,0:0:0:0:
298,192,50450,1,0,0:0:0:0:
213,192,50450,1,0,0:0:0:0:
128,192,50450,1,0,0:0:0:0:
42,192,50450,1,0,0:0:0:0:
42,192,50538,1,0,0:0:0:0:
128,192,50538,1,0,0:0:0:0:
384,192,50538,1,0,0:0:0:0:
298,192,50627,1,0,0:0:0:0:
213,192,50715,1,0,0:0:0:0:
42,192,50803,1,0,0:0:0:0:
128,192,50803,1,0,0:0:0:0:
384,192,50803,1,0,0:0:0:0:
469,192,50891,1,0,0:0:0:0:
128,192,50979,1,0,0:0:0:0:
42,192,50979,1,0,0:0:0:0:
298,192,50979,1,0,0:0:0:0:
213,192,51068,1,0,0:0:0:0:
384,192,51068,1,0,0:0:0:0:
469,192,51068,1,0,0:0:0:0:
42,192,51156,1,0,0:0:0:0:
128,192,51156,1,0,0:0:0:0:
298,192,51156,1,0,0:0:0:0:
213,192,51244,1,0,0:0:0:0:
128,192,51332,1,0,0:0:0:0:
384,192,51332,1,0,0:0:0:0:
469,192,51332,1,0,0:0:0:0:
298,192,51421,1,0,0:0:0:0:
213,192,51509,1,0,0:0:0:0:
42,192,51509,1,0,0:0:0:0:
469,192,51509,1,0,0:0:0:0:
128,192,51597,1,0,0:0:0:0:
213,192,51685,1,0,0:0:0:0:
384,192,51685,1,0,0:0:0:0:
469,192,51685,1,0,0:0:0:0:
298,192,51774,1,0,0:0:0:0:
128,192,51774,1,0,0:0:0:0:
42,192,51774,1,0,0:0:0:0:
213,192,51862,1,0,0:0:0:0:
469,192,51862,1,0,0:0:0:0:
384,192,51862,1,0,0:0:0:0:
42,192,51950,1,0,0:0:0:0:
128,192,52038,1,0,0:0:0:0:
298,192,52038,1,0,0:0:0:0:
384,192,52038,1,0,0:0:0:0:
213,192,52127,1,0,0:0:0:0:
128,192,52215,1,0,0:0:0:0:
42,192,52215,1,0,0:0:0:0:
469,192,52215,1,0,0:0:0:0:
384,192,52303,1,0,0:0:0:0:
298,192,52303,1,0,0:0:0:0:
128,192,52391,1,0,0:0:0:0:
42,192,52391,1,0,0:0:0:0:
213,192,52391,1,0,0:0:0:0:
298,192,52479,1,0,0:0:0:0:
384,192,52479,1,0,0:0:0:0:
469,192,52479,1,0,0:0:0:0:
128,192,52568,1,0,0:0:0:0:
42,192,52568,1,0,0:0:0:0:
213,192,52568,1,0,0:0:0:0:
298,192,52656,1,0,0:0:0:0:
469,192,52656,1,0,0:0:0:0:
128,192,52744,1,0,0:0:0:0:
42,192,52744,1,0,0:0:0:0:
384,192,52744,1,0,0:0:0:0:
213,192,52832,1,0,0:0:0:0:
298,192,52832,1,0,0:0:0:0:
128,192,52921,1,0,0:0:0:0:
42,192,52921,1,0,0:0:0:0:
384,192,52921,1,0,0:0:0:0:
469,192,52921,1,0,0:0:0:0:
384,192,53097,1,0,0:0:0:0:
298,192,53097,1,0,0:0:0:0:
128,192,53097,1,0,0:0:0:0:
42,192,53097,1,0,0:0:0:0:
42,192,53274,1,0,0:0:0:0:
469,192,53274,1,0,0:0:0:0:
213,192,53274,1,0,0:0:0:0:
298,192,53362,1,0,0:0:0:0:
128,192,53362,1,0,0:0:0:0:
384,192,53450,1,0,0:0:0:0:
42,192,53450,1,0,0:0:0:0:
213,192,53450,1,0,0:0:0:0:
298,192,53538,1,0,0:0:0:0:
469,192,53538,1,0,0:0:0:0:
384,192,53627,1,0,0:0:0:0:
128,192,53627,1,0,0:0:0:0:
42,192,53627,1,0,0:0:0:0:
213,192,53627,1,0,0:0:0:0:
298,192,53715,1,0,0:0:0:0:
42,192,53803,1,0,0:0:0:0:
213,192,53803,1,0,0:0:0:0:
384,192,53891,1,0,0:0:0:0:
469,192,53891,1,0,0:0:0:0:
128,192,53891,1,0,0:0:0:0:
213,192,53979,1,0,0:0:0:0:
42,192,53979,1,0,0:0:0:0:
298,192,54068,1,0,0:0:0:0:
128,192,54156,1,0,0:0:0:0:
469,192,54156,1,0,0:0:0:0:
384,192,54156,1,0,0:0:0:0:
298,192,54244,1,0,0:0:0:0:
42,192,54244,1,0,0:0:0:0:
213,192,54332,1,0,0:0:0:0:
469,192,54332,1,0,0:0:0:0:
384,192,54421,1,0,0:0:0:0:
128,192,54421,1,0,0:0:0:0:
42,192,54509,1,0,0:0:0:0:
298,192,54509,1,0,0:0:0:0:
213,192,54597,1,0,0:0:0:0:
384,192,54597,1,0,0:0:0:0:
42,192,54685,1,0,0:0:0:0:
128,192,54685,1,0,0:0:0:0:
469,192,54685,1,0,0:0:0:0:
298,192,54774,1,0,0:0:0:0:
213,192,54862,1,0,0:0:0:0:
42,192,54862,1,0,0:0:0:0:
469,192,54862,1,0,0:0:0:0:
128,192,54950,1,0,0:0:0:0:
384,192,54950,1,0,0:0:0:0:
42,192,55038,1,0,0:0:0:0:
298,192,55038,1,0,0:0:0:0:
469,192,55038,1,0,0:0:0:0:
213,192,55038,1,0,0:0:0:0:
128,192,55127,1,0,0:0:0:0:
298,192,55215,1,0,0:0:0:0:
469,192,55215,1,0,0:0:0:0:
384,192,55303,1,0,0:0:0:0:
213,192,55303,1,0,0:0:0:0:
42,192,55303,1,0,0:0:0:0:
128,192,55391,1,0,0:0:0:0:
298,192,55391,1,0,0:0:0:0:
469,192,55479,1,0,0:0:0:0:
42,192,55568,1,0,0:0:0:0:
128,192,55568,1,0,0:0:0:0:
213,192,55568,1,0,0:0:0:0:
384,192,55568,1,0,0:0:0:0:
298,192,55656,1,0,0:0:0:0:
469,192,55656,1,0,0:0:0:0:
42,192,55744,1,0,0:0:0:0:
128,192,55744,1,0,0:0:0:0:
213,192,55832,1,0,0:0:0:0:
469,192,55832,1,0,0:0:0:0:
128,192,55921,1,0,0:0:0:0:
384,192,55921,1,0,0:0:0:0:
298,192,56009,1,0,0:0:0:0:
42,192,56009,1,0,0:0:0:0:
213,192,56097,1,0,0:0:0:0:
384,192,56097,1,0,0:0:0:0:
469,192,56097,1,0,0:0:0:0:
128,192,56097,1,0,0:0:0:0:
298,192,56185,1,0,0:0:0:0:
128,192,56274,1,0,0:0:0:0:
42,192,56274,1,0,0:0:0:0:
384,192,56274,1,0,0:0:0:0:
213,192,56362,1,0,0:0:0:0:
298,192,56362,1,0,0:0:0:0:
128,192,56450,1,0,0:0:0:0:
42,192,56450,1,0,0:0:0:0:
384,192,56450,1,0,0:0:0:0:
469,192,56450,1,0,0:0:0:0:
298,192,56538,1,0,0:0:0:0:
213,192,56627,1,0,0:0:0:0:
469,192,56627,1,0,0:0:0:0:
42,192,56715,1,0,0:0:0:0:
128,192,56715,1,0,0:0:0:0:
384,192,56715,1,0,0:0:0:0:
298,192,56803,1,0,0:0:0:0:
469,192,56803,1,0,0:0:0:0:
213,192,56891,1,0,0:0:0:0:
42,192,56979,1,0,0:0:0:0:
384,192,56979,1,0,0:0:0:0:
469,192,56979,1,0,0:0:0:0:
128,192,56979,1,0,0:0:0:0:
213,192,57068,1,0,0:0:0:0:
298,192,57068,1,0,0:0:0:0:
128,192,57156,1,0,0:0:0:0:
42,192,57156,1,0,0:0:0:0:
384,192,57156,1,0,0:0:0:0:
298,192,57244,1,0,0:0:0:0:
469,192,57244,1,0,0:0:0:0:
213,192,57332,1,0,0:0:0:0:
42,192,57332,1,0,0:0:0:0:
128,192,57421,1,0,0:0:0:0:
384,192,57421,1,0,0:0:0:0:
469,192,57421,1,0,0:0:0:0:
298,192,57509,1,0,0:0:0:0:
213,192,57509,1,0,0:0:0:0:
42,192,57509,1,0,0:0:0:0:
384,192,57597,1,0,0:0:0:0:
128,192,57685,1,0,0:0:0:0:
42,192,57685,1,0,0:0:0:0:
213,192,57685,1,0,0:0:0:0:
469,192,57685,1,0,0:0:0:0:
298,192,57774,1,0,0:0:0:0:
384,192,57774,1,0,0:0:0:0:
213,192,57862,1,0,0:0:0:0:
128,192,57862,1,0,0:0:0:0:
42,192,57862,1,0,0:0:0:0:
469,192,57862,1,0,0:0:0:0:
298,192,57950,1,0,0:0:0:0:
128,192,58038,1,0,0:0:0:0:
384,192,58038,1,0,0:0:0:0:
42,192,58127,1,0,0:0:0:0:
213,192,58127,1,0,0:0:0:0:
298,192,58127,1,0,0:0:0:0:
469,192,58127,1,0,0:0:0:0:
128,192,58215,1,0,0:0:0:0:
384,192,58215,1,0,0:0:0:0:
213,192,58303,1,0,0:0:0:0:
128,192,58391,1,0,0:0:0:0:
42,192,58391,1,0,0:0:0:0:
298,192,58391,1,0,0:0:0:0:
469,192,58391,1,0,0:0:0:0:
213,192,58479,1,0,0:0:0:0:
384,192,58479,1,0,0:0:0:0:
128,192,58568,1,0,0:0:0:0:
42,192,58568,1,0,0:0:0:0:
298,192,58656,1,0,0:0:0:0:
469,192,58656,1,0,0:0:0:0:
213,192,58744,1,0,0:0:0:0:
42,192,58744,1,0,0:0:0:0:
384,192,58832,1,0,0:0:0:0:
469,192,58832,1,0,0:0:0:0:
298,192,58921,1,0,0:0:0:0:
128,192,58921,1,0,0:0:0:0:
42,192,58921,1,0,0:0:0:0:
213,192,59009,1,0,0:0:0:0:
469,192,59009,1,0,0:0:0:0:
128,192,59097,1,0,0:0:0:0:
42,192,59097,1,0,0:0:0:0:
298,192,59097,1,0,0:0:0:0:
213,192,59185,1,0,0:0:0:0:
384,192,59185,1,0,0:0:0:0:
298,192,59274,1,0,0:0:0:0:
128,192,59274,1,0,0:0:0:0:
42,192,59274,1,0,0:0:0:0:
469,192,59274,1,0,0:0:0:0:
213,192,59362,1,0,0:0:0:0:
128,192,59450,1,0,0:0:0:0:
384,192,59450,1,0,0:0:0:0:
298,192,59538,1,0,0:0:0:0:
42,192,59538,1,0,0:0:0:0:
469,192,59538,1,0,0:0:0:0:
384,192,59627,1,0,0:0:0:0:
213,192,59627,1,0,0:0:0:0:
128,192,59715,1,0,0:0:0:0:
298,192,59803,1,0,0:0:0:0:
384,192,59803,1,0,0:0:0:0:
469,192,59803,1,0,0:0:0:0:
213,192,59891,1,0,0:0:0:0:
42,192,59891,1,0,0:0:0:0:
128,192,59979,1,0,0:0:0:0:
384,192,59979,1,0,0:0:0:0:
213,192,60068,1,0,0:0:0:0:
469,192,60068,1,0,0:0:0:0:
298,192,60156,1,0,0:0:0:0:
42,192,60156,1,0,0:0:0:0:
128,192,60244,1,0,0:0:0:0:
384,192,60244,1,0,0:0:0:0:
213,192,60332,1,0,0:0:0:0:
42,192,60332,1,0,0:0:0:0:
469,192,60332,1,0,0:0:0:0:
298,192,60421,1,0,0:0:0:0:
128,192,60509,1,0,0:0:0:0:
42,192,60509,1,0,0:0:0:0:
384,192,60509,1,0,0:0:0:0:
213,192,60597,1,0,0:0:0:0:
469,192,60597,1,0,0:0:0:0:
128,192,60685,1,0,0:0:0:0:
42,192,60685,1,0,0:0:0:0:
298,192,60685,1,0,0:0:0:0:
384,192,60685,1,0,0:0:0:0:
213,192,60774,1,0,0:0:0:0:
128,192,60862,1,0,0:0:0:0:
384,192,60862,1,0,0:0:0:0:
469,192,60950,1,0,0:0:0:0:
42,192,60950,1,0,0:0:0:0:
298,192,60950,1,0,0:0:0:0:
213,192,61038,1,0,0:0:0:0:
384,192,61038,1,0,0:0:0:0:
128,192,61127,1,0,0:0:0:0:
42,192,61215,1,0,0:0:0:0:
213,192,61215,1,0,0:0:0:0:
384,192,61215,1,0,0:0:0:0:
469,192,61215,1,0,0:0:0:0:
298,192,61303,1,0,0:0:0:0:
128,192,61303,1,0,0:0:0:0:
213,192,61391,1,0,0:0:0:0:
469,192,61391,1,0,0:0:0:0:
384,192,61479,1,0,0:0:0:0:
128,192,61479,1,0,0:0:0:0:
42,192,61568,1,0,0:0:0:0:
298,192,61568,1,0,0:0:0:0:
213,192,61656,1,0,0:0:0:0:
469,192,61656,1,0,0:0:0:0:
384,192,61744,1,0,0:0:0:0:
128,192,61744,1,0,0:0:0:0:
42,192,61744,1,0,0:0:0:0:
298,192,61744,1,0,0:0:0:0:
213,192,61832,1,0,0:0:0:0:
384,192,61921,1,0,0:0:0:0:
469,192,61921,1,0,0:0:0:0:
128,192,61921,1,0,0:0:0:0:
298,192,62009,1,0,0:0:0:0:
213,192,62097,1,0,0:0:0:0:
42,192,62097,1,0,0:0:0:0:
469,192,62097,1,0,0:0:0:0:
384,192,62097,1,0,0:0:0:0:
128,192,62185,1,0,0:0:0:0:
213,192,62274,1,0,0:0:0:0:
469,192,62274,1,0,0:0:0:0:
42,192,62362,1,0,0:0:0:0:
128,192,62362,1,0,0:0:0:0:
298,192,62362,1,0,0:0:0:0:
384,192,62450,1,0,0:0:0:0:
469,192,62450,1,0,0:0:0:0:
298,192,62538,1,0,0:0:0:0:
213,192,62627,1,0,0:0:0:0:
384,192,62627,1,0,0:0:0:0:
469,192,62627,1,0,0:0:0:0:
42,192,62627,1,0,0:0:0:0:
298,192,62715,1,0,0:0:0:0:
128,192,62715,1,0,0:0:0:0:
213,192,62803,1,0,0:0:0:0:
384,192,62803,1,0,0:0:0:0:
42,192,62803,1,0,0:0:0:0:
469,192,62891,1,0,0:0:0:0:
128,192,62891,1,0,0:0:0:0:
42,192,62979,1,0,0:0:0:0:
213,192,62979,1,0,0:0:0:0:
384,192,63068,1,0,0:0:0:0:
469,192,63068,1,0,0:0:0:0:
298,192,63068,1,0,0:0:0:0:
42,192,63156,1,0,0:0:0:0:
128,192,63156,1,0,0:0:0:0:
213,192,63156,1,0,0:0:0:0:
298,192,63244,1,0,0:0:0:0:
42,192,63332,1,0,0:0:0:0:
128,192,63332,1,0,0:0:0:0:
469,192,63332,1,0,0:0:0:0:
384,192,63332,1,0,0:0:0:0:
213,192,63391,1,0,0:0:0:0:
298,192,63450,1,0,0:0:0:0:
128,192,63509,1,0,0:0:0:0:
42,192,63509,1,0,0:0:0:0:
384,192,63509,1,0,0:0:0:0:
469,192,63509,1,0,0:0:0:0:
213,192,63597,1,0,0:0:0:0:
298,192,63685,1,0,0:0:0:0:
42,192,63685,1,0,0:0:0:0:
128,192,63774,1,0,0:0:0:0:
213,192,63774,1,0,0:0:0:0:
384,192,63774,1,0,0:0:0:0:
469,192,63774,1,0,0:0:0:0:
298,192,63862,1,0,0:0:0:0:
213,192,63950,1,0,0:0:0:0:
384,192,63950,1,0,0:0:0:0:
298,192,64038,1,0,0:0:0:0:
42,192,64038,1,0,0:0:0:0:
128,192,64038,1,0,0:0:0:0:
469,192,64038,1,0,0:0:0:0:
213,192,64127,1,0,0:0:0:0:
384,192,64215,1,0,0:0:0:0:
469,192,64215,1,0,0:0:0:0:
298,192,64303,1,0,0:0:0:0:
213,192,64303,1,0,0:0:0:0:
128,192,64303,1,0,0:0:0:0:
42,192,64303,1,0,0:0:0:0:
384,192,64391,1,0,0:0:0:0:
128,192,64479,1,0,0:0:0:0:
42,192,64479,1,0,0:0:0:0:
213,192,64568,1,0,0:0:0:0:
384,192,64568,1,0,0:0:0:0:
469,192,64568,1,0,0:0:0:0:
298,192,64568,1,0,0:0:0:0:
128,192,64744,1,0,0:0:0:0:
298,192,64744,1,0,0:0:0:0:
384,192,64744,1,0,0:0:0:0:
213,192,64744,1,0,0:0:0:0:
213,192,64921,1,0,0:0:0:0:
42,192,64921,1,0,0:0:0:0:
469,192,64921,1,0,0:0:0:0:
384,192,65009,1,0,0:0:0:0:
213,192,65097,1,0,0:0:0:0:
298,192,65185,1,0,0:0:0:0:
384,192,65274,1,0,0:0:0:0:
469,192,65274,1,0,0:0:0:0:
42,192,65274,1,0,0:0:0:0:
128,192,65274,1,0,0:0:0:0:
213,192,65362,1,0,0:0:0:0:
128,192,65450,1,0,0:0:0:0:
298,192,65450,1,0,0:0:0:0:
42,192,65450,1,0,0:0:0:0:
384,192,65509,1,0,0:0:0:0:
213,192,65538,1,0,0:0:0:0:
469,192,65568,1,0,0:0:0:0:
128,192,65627,1,0,0:0:0:0:
42,192,65627,1,0,0:0:0:0:
298,192,65627,1,0,0:0:0:0:
384,192,65715,1,0,0:0:0:0:
213,192,65803,1,0,0:0:0:0:
469,192,65803,1,0,0:0:0:0:
298,192,65891,1,0,0:0:0:0:
128,192,65891,1,0,0:0:0:0:
42,192,65891,1,0,0:0:0:0:
213,192,65979,1,0,0:0:0:0:
384,192,65979,1,0,0:0:0:0:
128,192,66068,1,0,0:0:0:0:
42,192,66156,1,0,0:0:0:0:
298,192,66156,1,0,0:0:0:0:
469,192,66156,1,0,0:0:0:0:
384,192,66244,1,0,0:0:0:0:
213,192,66244,1,0,0:0:0:0:
298,192,66332,1,0,0:0:0:0:
469,192,66332,1,0,0:0:0:0:
128,192,66332,1,0,0:0:0:0:
213,192,66421,1,0,0:0:0:0:
42,192,66421,1,0,0:0:0:0:
384,192,66509,1,0,0:0:0:0:
469,192,66509,1,0,0:0:0:0:
298,192,66509,1,0,0:0:0:0:
213,192,66597,1,0,0:0:0:0:
128,192,66597,1,0,0:0:0:0:
42,192,66597,1,0,0:0:0:0:
384,192,66685,1,0,0:0:0:0:
469,192,66685,1,0,0:0:0:0:
213,192,66774,1,0,0:0:0:0:
42,192,66862,1,0,0:0:0:0:
298,192,66862,1,0,0:0:0:0:
469,192,66862,1,0,0:0:0:0:
128,192,66950,1,0,0:0:0:0:
384,192,66950,1,0,0:0:0:0:
213,192,67038,1,0,0:0:0:0:
42,192,67038,1,0,0:0:0:0:
298,192,67038,1,0,0:0:0:0:
469,192,67127,1,0,0:0:0:0:
384,192,67127,1,0,0:0:0:0:
213,192,67215,1,0,0:0:0:0:
128,192,67215,1,0,0:0:0:0:
42,192,67215,1,0,0:0:0:0:
298,192,67303,1,0,0:0:0:0:
384,192,67303,1,0,0:0:0:0:
469,192,67303,1,0,0:0:0:0:
213,192,67391,1,0,0:0:0:0:
128,192,67391,1,0,0:0:0:0:
42,192,67391,1,0,0:0:0:0:
298,192,67479,1,0,0:0:0:0:
469,192,67479,1,0,0:0:0:0:
213,192,67568,1,0,0:0:0:0:
42,192,67568,1,0,0:0:0:0:
384,192,67568,1,0,0:0:0:0:
128,192,67656,1,0,0:0:0:0:
298,192,67656,1,0,0:0:0:0:
469,192,67656,1,0,0:0:0:0:
213,192,67744,1,0,0:0:0:0:
42,192,67744,1,0,0:0:0:0:
384,192,67744,1,0,0:0:0:0:
298,192,67832,1,0,0:0:0:0:
128,192,67832,1,0,0:0:0:0:
213,192,67921,1,0,0:0:0:0:
384,192,67921,1,0,0:0:0:0:
469,192,67921,1,0,0:0:0:0:
298,192,68009,1,0,0:0:0:0:
128,192,68009,1,0,0:0:0:0:
42,192,68009,1,0,0:0:0:0:
213,192,68097,1,0,0:0:0:0:
384,192,68097,1,0,0:0:0:0:
469,192,68097,1,0,0:0:0:0:
128,192,68185,1,0,0:0:0:0:
42,192,68185,1,0,0:0:0:0:
298,192,68274,1,0,0:0:0:0:
384,192,68274,1,0,0:0:0:0:
469,192,68274,1,0,0:0:0:0:
213,192,68362,1,0,0:0:0:0:
128,192,68362,1,0,0:0:0:0:
42,192,68362,1,0,0:0:0:0:
469,192,68450,1,0,0:0:0:0:
384,192,68450,1,0,0:0:0:0:
298,192,68450,1,0,0:0:0:0:
213,192,68538,1,0,0:0:0:0:
42,192,68538,1,0,0:0:0:0:
128,192,68627,1,0,0:0:0:0:
298,192,68627,1,0,0:0:0:0:
469,192,68627,1,0,0:0:0:0:
384,192,68715,1,0,0:0:0:0:
213,192,68715,1,0,0:0:0:0:
42,192,68715,1,0,0:0:0:0:
298,192,68803,1,0,0:0:0:0:
128,192,68803,1,0,0:0:0:0:
469,192,68803,1,0,0:0:0:0:
213,192,68891,1,0,0:0:0:0:
384,192,68891,1,0,0:0:0:0:
298,192,68979,1,0,0:0:0:0:
128,192,68979,1,0,0:0:0:0:
42,192,68979,1,0,0:0:0:0:
213,192,69068,1,0,0:0:0:0:
384,192,69068,1,0,0:0:0:0:
469,192,69068,1,0,0:0:0:0:
469,192,69156,1,0,0:0:0:0:
298,192,69156,1,0,0:0:0:0:
128,192,69156,1,0,0:0:0:0:
42,192,69156,1,0,0:0:0:0:
213,192,69244,1,0,0:0:0:0:
384,192,69244,1,0,0:0:0:0:
128,192,69332,1,0,0:0:0:0:
298,192,69332,1,0,0:0:0:0:
213,192,69421,1,0,0:0:0:0:
42,192,69421,1,0,0:0:0:0:
469,192,69421,1,0,0:0:0:0:
384,192,69421,1,0,0:0:0:0:
298,192,69509,1,0,0:0:0:0:
128,192,69597,1,0,0:0:0:0:
42,192,69597,1,0,0:0:0:0:
298,192,69685,1,0,0:0:0:0:
213,192,69685,1,0,0:0:0:0:
384,192,69685,1,0,0:0:0:0:
469,192,69685,1,0,0:0:0:0:
128,192,69774,1,0,0:0:0:0:
42,192,69862,1,0,0:0:0:0:
298,192,69862,1,0,0:0:0:0:
384,192,69862,1,0,0:0:0:0:
469,192,69862,1,0,0:0:0:0:
384,192,69979,1,0,0:0:0:0:
298,192,69979,1,0,0:0:0:0:
213,192,69979,1,0,0:0:0:0:
42,192,69979,1,0,0:0:0:0:
42,192,70097,1,0,0:0:0:0:
128,192,70097,1,0,0:0:0:0:
213,192,70097,1,0,0:0:0:0:
298,192,70097,1,0,0:0:0:0:
213,192,70215,1,0,0:0:0:0:
128,192,70215,1,0,0:0:0:0:
42,192,70215,1,0,0:0:0:0:
469,192,70215,1,0,0:0:0:0:
128,192,70332,1,0,0:0:0:0:
213,192,70332,1,0,0:0:0:0:
298,192,70332,1,0,0:0:0:0:
469,192,70332,1,0,0:0:0:0:
213,192,70450,1,0,0:0:0:0:
298,192,70450,1,0,0:0:0:0:
384,192,70450,1,0,0:0:0:0:
469,192,70450,1,0,0:0:0:0:
128,192,70568,1,0,0:0:0:0:
42,192,70568,1,0,0:0:0:0:
298,192,70568,1,0,0:0:0:0:
469,192,70568,1,0,0:0:0:0:
128,192,70685,1,0,0:0:0:0:
213,192,70685,1,0,0:0:0:0:
384,192,70685,1,0,0:0:0:0:
213,192,70803,1,0,0:0:0:0:
298,192,70803,1,0,0:0:0:0:
469,192,70803,1,0,0:0:0:0:
128,192,70921,1,0,0:0:0:0:
42,192,70921,1,0,0:0:0:0:
298,192,70921,1,0,0:0:0:0:
469,192,70921,1,0,0:0:0:0:
128,192,71038,1,0,0:0:0:0:
213,192,71038,1,0,0:0:0:0:
384,192,71038,1,0,0:0:0:0:
213,192,71156,1,0,0:0:0:0:
298,192,71156,1,0,0:0:0:0:
469,192,71156,1,0,0:0:0:0:
469,192,71274,1,0,0:0:0:0:
384,192,71274,1,0,0:0:0:0:
213,192,71274,1,0,0:0:0:0:
42,192,71274,1,0,0:0:0:0:
128,192,71391,1,0,0:0:0:0:
298,192,71391,1,0,0:0:0:0:
384,192,71391,1,0,0:0:0:0:
298,192,71509,1,0,0:0:0:0:
213,192,71509,1,0,0:0:0:0:
42,192,71509,1,0,0:0:0:0:
42,192,71627,1,0,0:0:0:0:
213,192,71627,1,0,0:0:0:0:
384,192,71627,1,0,0:0:0:0:
469,192,71627,1,0,0:0:0:0:
384,192,71744,1,0,0:0:0:0:
298,192,71744,1,0,0:0:0:0:
128,192,71744,1,0,0:0:0:0:
213,192,71862,1,0,0:0:0:0:
42,192,71862,1,0,0:0:0:0:
298,192,71862,1,0,0:0:0:0:
128,192,71979,1,0,0:0:0:0:
42,192,71979,1,0,0:0:0:0:
469,192,71979,1,0,0:0:0:0:
384,192,72068,1,0,0:0:0:0:
213,192,72068,1,0,0:0:0:0:
42,192,72156,1,0,0:0:0:0:
298,192,72156,1,0,0:0:0:0:
469,192,72156,1,0,0:0:0:0:
128,192,72244,1,0,0:0:0:0:
384,192,72244,1,0,0:0:0:0:
213,192,72332,1,0,0:0:0:0:
42,192,72332,1,0,0:0:0:0:
469,192,72332,1,0,0:0:0:0:
128,192,72421,1,0,0:0:0:0:
298,192,72421,1,0,0:0:0:0:
213,192,72509,1,0,0:0:0:0:
42,192,72509,1,0,0:0:0:0:
384,192,72509,1,0,0:0:0:0:
298,192,72597,1,0,0:0:0:0:
469,192,72597,1,0,0:0:0:0:
384,192,72685,1,0,0:0:0:0:
128,192,72685,1,0,0:0:0:0:
42,192,72685,1,0,0:0:0:0:
213,192,72774,1,0,0:0:0:0:
298,192,72774,1,0,0:0:0:0:
469,192,72862,1,0,0:0:0:0:
384,192,72862,1,0,0:0:0:0:
42,192,72862,1,0,0:0:0:0:
213,192,72950,1,0,0:0:0:0:
128,192,72950,1,0,0:0:0:0:
469,192,73038,1,0,0:0:0:0:
384,192,73038,1,0,0:0:0:0:
298,192,73038,1,0,0:0:0:0:
128,192,73127,1,0,0:0:0:0:
42,192,73127,1,0,0:0:0:0:
384,192,73215,1,0,0:0:0:0:
298,192,73215,1,0,0:0:0:0:
213,192,73215,1,0,0:0:0:0:
42,192,73303,1,0,0:0:0:0:
128,192,73303,1,0,0:0:0:0:
298,192,73391,1,0,0:0:0:0:
384,192,73391,1,0,0:0:0:0:
469,192,73391,1,0,0:0:0:0:
213,192,73479,1,0,0:0:0:0:
42,192,73479,1,0,0:0:0:0:
128,192,73479,1,0,0:0:0:0:
213,192,73568,1,0,0:0:0:0:
128,192,73568,1,0,0:0:0:0:
42,192,73568,1,0,0:0:0:0:
298,192,73656,1,0,0:0:0:0:
384,192,73656,1,0,0:0:0:0:
469,192,73656,1,0,0:0:0:0:
298,192,73744,1,0,0:0:0:0:
384,192,73744,1,0,0:0:0:0:
469,192,73744,1,0,0:0:0:0:
213,192,73832,1,0,0:0:0:0:
128,192,73832,1,0,0:0:0:0:
42,192,73832,1,0,0:0:0:0:
298,192,73921,1,0,0:0:0:0:
384,192,73921,1,0,0:0:0:0:
469,192,73921,1,0,0:0:0:0:
298,192,74009,1,0,0:0:0:0:
128,192,74009,1,0,0:0:0:0:
42,192,74009,1,0,0:0:0:0:
213,192,74097,1,0,0:0:0:0:
384,192,74097,1,0,0:0:0:0:
469,192,74097,1,0,0:0:0:0:
128,192,74185,1,0,0:0:0:0:
42,192,74185,1,0,0:0:0:0:
298,192,74185,1,0,0:0:0:0:
298,192,74274,1,0,0:0:0:0:
128,192,74274,1,0,0:0:0:0:
42,192,74274,1,0,0:0:0:0:
213,192,74362,1,0,0:0:0:0:
384,192,74362,1,0,0:0:0:0:
469,192,74362,1,0,0:0:0:0:
213,192,74450,1,0,0:0:0:0:
384,192,74450,1,0,0:0:0:0:
469,192,74450,1,0,0:0:0:0:
298,192,74538,1,0,0:0:0:0:
128,192,74538,1,0,0:0:0:0:
42,192,74538,1,0,0:0:0:0:
213,192,74627,1,0,0:0:0:0:
384,192,74627,1,0,0:0:0:0:
469,192,74627,1,0,0:0:0:0:
42,192,74715,1,0,0:0:0:0:
213,192,74715,1,0,0:0:0:0:
128,192,74715,1,0,0:0:0:0:
213,192,74891,1,0,0:0:0:0:
42,192,74891,1,0,0:0:0:0:
384,192,74891,1,0,0:0:0:0:
469,192,74891,1,0,0:0:0:0:
213,192,75156,1,0,0:0:0:0:
42,192,75156,1,0,0:0:0:0:
384,192,75156,1,0,0:0:0:0:
469,192,75156,1,0,0:0:0:0:
298,192,75421,1,0,0:0:0:0:
384,192,75421,1,0,0:0:0:0:
128,192,75421,1,0,0:0:0:0:
42,192,75421,1,0,0:0:0:0:
42,192,75685,1,0,0:0:0:0:
128,192,75685,1,0,0:0:0:0:
298,192,75685,1,0,0:0:0:0:
384,192,75685,1,0,0:0:0:0:
298,192,76038,1,0,0:0:0:0:
384,192,76127,1,0,0:0:0:0:
213,192,76215,1,0,0:0:0:0:
42,192,76215,1,0,0:0:0:0:
469,192,76215,1,0,0:0:0:0:
128,192,76303,1,0,0:0:0:0:
298,192,76303,1,0,0:0:0:0:
213,192,76391,1,0,0:0:0:0:
42,192,76391,1,0,0:0:0:0:
384,192,76391,1,0,0:0:0:0:
298,192,76479,1,0,0:0:0:0:
469,192,76479,1,0,0:0:0:0:
384,192,76568,1,0,0:0:0:0:
128,192,76568,1,0,0:0:0:0:
42,192,76568,1,0,0:0:0:0:
298,192,76744,1,0,0:0:0:0:
469,192,76744,1,0,0:0:0:0:
42,192,76744,1,0,0:0:0:0:
213,192,76832,1,0,0:0:0:0:
384,192,76832,1,0,0:0:0:0:
298,192,76921,1,0,0:0:0:0:
128,192,76921,1,0,0:0:0:0:
469,192,76921,1,0,0:0:0:0:
213,192,77009,1,0,0:0:0:0:
42,192,77009,1,0,0:0:0:0:
128,192,77097,1,0,0:0:0:0:
384,192,77097,1,0,0:0:0:0:
469,192,77097,1,0,0:0:0:0:
213,192,77274,1,0,0:0:0:0:
42,192,77274,1,0,0:0:0:0:
469,192,77274,1,0,0:0:0:0:
298,192,77362,1,0,0:0:0:0:
128,192,77362,1,0,0:0:0:0:
42,192,77450,1,0,0:0:0:0:
213,192,77450,1,0,0:0:0:0:
384,192,77450,1,0,0:0:0:0:
298,192,77538,1,0,0:0:0:0:
469,192,77538,1,0,0:0:0:0:
384,192,77627,1,0,0:0:0:0:
42,192,77627,1,0,0:0:0:0:
128,192,77627,1,0,0:0:0:0:
213,192,77715,1,0,0:0:0:0:
469,192,77715,1,0,0:0:0:0:
298,192,77803,1,0,0:0:0:0:
42,192,77803,1,0,0:0:0:0:
384,192,77803,1,0,0:0:0:0:
128,192,77891,1,0,0:0:0:0:
469,192,77891,1,0,0:0:0:0:
213,192,77979,1,0,0:0:0:0:
42,192,77979,1,0,0:0:0:0:
384,192,77979,1,0,0:0:0:0:
128,192,78068,1,0,0:0:0:0:
298,192,78068,1,0,0:0:0:0:
213,192,78156,1,0,0:0:0:0:
42,192,78156,1,0,0:0:0:0:
469,192,78156,1,0,0:0:0:0:
384,192,78244,1,0,0:0:0:0:
128,192,78244,1,0,0:0:0:0:
298,192,78332,1,0,0:0:0:0:
42,192,78332,1,0,0:0:0:0:
469,192,78332,1,0,0:0:0:0:
384,192,78421,1,0,0:0:0:0:
213,192,78421,1,0,0:0:0:0:
128,192,78509,1,0,0:0:0:0:
298,192,78509,1,0,0:0:0:0:
469,192,78509,1,0,0:0:0:0:
213,192,78597,1,0,0:0:0:0:
42,192,78597,1,0,0:0:0:0:
128,192,78685,1,0,0:0:0:0:
469,192,78685,1,0,0:0:0:0:
384,192,78685,1,0,0:0:0:0:
298,192,78774,1,0,0:0:0:0:
42,192,78774,1,0,0:0:0:0:
213,192,78862,1,0,0:0:0:0:
384,192,78862,1,0,0:0:0:0:
469,192,78862,1,0,0:0:0:0:
298,192,78950,1,0,0:0:0:0:
128,192,78950,1,0,0:0:0:0:
213,192,79038,1,0,0:0:0:0:
42,192,79038,1,0,0:0:0:0:
469,192,79038,1,0,0:0:0:0:
128,192,79127,1,0,0:0:0:0:
384,192,79127,1,0,0:0:0:0:
298,192,79215,1,0,0:0:0:0:
42,192,79215,1,0,0:0:0:0:
469,192,79215,1,0,0:0:0:0:
213,192,79303,1,0,0:0:0:0:
384,192,79303,1,0,0:0:0:0:
298,192,79391,1,0,0:0:0:0:
128,192,79391,1,0,0:0:0:0:
42,192,79391,1,0,0:0:0:0:
42,192,79568,1,0,0:0:0:0:
298,192,79568,1,0,0:0:0:0:
469,192,79568,1,0,0:0:0:0:
128,192,79656,1,0,0:0:0:0:
384,192,79656,1,0,0:0:0:0:
213,192,79744,1,0,0:0:0:0:
42,192,79744,1,0,0:0:0:0:
469,192,79744,1,0,0:0:0:0:
298,192,79832,1,0,0:0:0:0:
128,192,79832,1,0,0:0:0:0:
213,192,79921,1,0,0:0:0:0:
469,192,79921,1,0,0:0:0:0:
384,192,79921,1,0,0:0:0:0:
469,192,80097,1,0,0:0:0:0:
42,192,80097,1,0,0:0:0:0:
213,192,80097,1,0,0:0:0:0:
128,192,80185,1,0,0:0:0:0:
384,192,80185,1,0,0:0:0:0:
298,192,80274,1,0,0:0:0:0:
469,192,80274,1,0,0:0:0:0:
42,192,80274,1,0,0:0:0:0:
213,192,80362,1,0,0:0:0:0:
384,192,80362,1,0,0:0:0:0:
298,192,80450,1,0,0:0:0:0:
128,192,80450,1,0,0:0:0:0:
42,192,80450,1,0,0:0:0:0:
213,192,80538,1,0,0:0:0:0:
469,192,80538,1,0,0:0:0:0:
384,192,80627,1,0,0:0:0:0:
128,192,80627,1,0,0:0:0:0:
42,192,80627,1,0,0:0:0:0:
213,192,80715,1,0,0:0:0:0:
469,192,80715,1,0,0:0:0:0:
298,192,80803,1,0,0:0:0:0:
384,192,80803,1,0,0:0:0:0:
128,192,80803,1,0,0:0:0:0:
42,192,80891,1,0,0:0:0:0:
213,192,80891,1,0,0:0:0:0:
128,192,80979,1,0,0:0:0:0:
298,192,80979,1,0,0:0:0:0:
469,192,80979,1,0,0:0:0:0:
213,192,81068,1,0,0:0:0:0:
384,192,81068,1,0,0:0:0:0:
42,192,81156,1,0,0:0:0:0:
128,192,81156,1,0,0:0:0:0:
298,192,81156,1,0,0:0:0:0:
384,192,81244,1,0,0:0:0:0:
469,192,81244,1,0,0:0:0:0:
42,192,81332,1,0,0:0:0:0:
213,192,81332,1,0,0:0:0:0:
128,192,81332,1,0,0:0:0:0:
384,192,81421,1,0,0:0:0:0:
298,192,81421,1,0,0:0:0:0:
128,192,81509,1,0,0:0:0:0:
42,192,81509,1,0,0:0:0:0:
469,192,81509,1,0,0:0:0:0:
213,192,81597,1,0,0:0:0:0:
298,192,81597,1,0,0:0:0:0:
384,192,81685,1,0,0:0:0:0:
469,192,81685,1,0,0:0:0:0:
42,192,81685,1,0,0:0:0:0:
128,192,81774,1,0,0:0:0:0:
213,192,81774,1,0,0:0:0:0:
42,192,81862,1,0,0:0:0:0:
384,192,81862,1,0,0:0:0:0:
469,192,81862,1,0,0:0:0:0:
128,192,81950,1,0,0:0:0:0:
298,192,81950,1,0,0:0:0:0:
213,192,82038,1,0,0:0:0:0:
42,192,82038,1,0,0:0:0:0:
384,192,82038,1,0,0:0:0:0:
298,192,82127,1,0,0:0:0:0:
469,192,82127,1,0,0:0:0:0:
384,192,82215,1,0,0:0:0:0:
128,192,82215,1,0,0:0:0:0:
42,192,82215,1,0,0:0:0:0:
42,192,82391,1,0,0:0:0:0:
469,192,82391,1,0,0:0:0:0:
128,192,82391,1,0,0:0:0:0:
213,192,82479,1,0,0:0:0:0:
384,192,82479,1,0,0:0:0:0:
298,192,82568,1,0,0:0:0:0:
469,192,82568,1,0,0:0:0:0:
128,192,82568,1,0,0:0:0:0:
42,192,82656,1,0,0:0:0:0:
213,192,82656,1,0,0:0:0:0:
128,192,82744,1,0,0:0:0:0:
384,192,82744,1,0,0:0:0:0:
469,192,82744,1,0,0:0:0:0:
384,192,82921,1,0,0:0:0:0:
469,192,82921,1,0,0:0:0:0:
42,192,82921,1,0,0:0:0:0:
128,192,83009,1,0,0:0:0:0:
298,192,83009,1,0,0:0:0:0:
213,192,83097,1,0,0:0:0:0:
384,192,83097,1,0,0:0:0:0:
42,192,83097,1,0,0:0:0:0:
298,192,83185,1,0,0:0:0:0:
469,192,83185,1,0,0:0:0:0:
384,192,83274,1,0,0:0:0:0:
128,192,83274,1,0,0:0:0:0:
42,192,83274,1,0,0:0:0:0:
213,192,83362,1,0,0:0:0:0:
469,192,83362,1,0,0:0:0:0:
298,192,83450,1,0,0:0:0:0:
42,192,83450,1,0,0:0:0:0:
128,192,83450,1,0,0:0:0:0:
213,192,83538,1,0,0:0:0:0:
384,192,83538,1,0,0:0:0:0:
128,192,83627,1,0,0:0:0:0:
298,192,83627,1,0,0:0:0:0:
469,192,83627,1,0,0:0:0:0:
213,192,83715,1,0,0:0:0:0:
42,192,83715,1,0,0:0:0:0:
128,192,83803,1,0,0:0:0:0:
298,192,83803,1,0,0:0:0:0:
469,192,83803,1,0,0:0:0:0:
213,192,83891,1,0,0:0:0:0:
384,192,83891,1,0,0:0:0:0:
42,192,83979,1,0,0:0:0:0:
298,192,83979,1,0,0:0:0:0:
469,192,83979,1,0,0:0:0:0:
128,192,84068,1,0,0:0:0:0:
384,192,84068,1,0,0:0:0:0:
213,192,84156,1,0,0:0:0:0:
42,192,84156,1,0,0:0:0:0:
469,192,84156,1,0,0:0:0:0:
128,192,84244,1,0,0:0:0:0:
298,192,84244,1,0,0:0:0:0:
213,192,84332,1,0,0:0:0:0:
384,192,84332,1,0,0:0:0:0:
42,192,84332,1,0,0:0:0:0:
298,192,84421,1,0,0:0:0:0:
469,192,84421,1,0,0:0:0:0:
384,192,84509,1,0,0:0:0:0:
128,192,84509,1,0,0:0:0:0:
42,192,84509,1,0,0:0:0:0:
213,192,84597,1,0,0:0:0:0:
298,192,84597,1,0,0:0:0:0:
42,192,84685,1,0,0:0:0:0:
469,192,84685,1,0,0:0:0:0:
384,192,84685,1,0,0:0:0:0:
128,192,84774,1,0,0:0:0:0:
213,192,84774,1,0,0:0:0:0:
298,192,84862,1,0,0:0:0:0:
469,192,84862,1,0,0:0:0:0:
213,192,84950,1,0,0:0:0:0:
384,192,84950,1,0,0:0:0:0:
128,192,85038,1,0,0:0:0:0:
42,192,85038,1,0,0:0:0:0:
469,192,85038,1,0,0:0:0:0:
298,192,85127,1,0,0:0:0:0:
384,192,85127,1,0,0:0:0:0:
213,192,85215,1,0,0:0:0:0:
42,192,85215,1,0,0:0:0:0:
128,192,85303,1,0,0:0:0:0:
298,192,85303,1,0,0:0:0:0:
213,192,85391,1,0,0:0:0:0:
42,192,85391,1,0,0:0:0:0:
469,192,85391,1,0,0:0:0:0:
298,192,85479,1,0,0:0:0:0:
384,192,85479,1,0,0:0:0:0:
42,192,85568,1,0,0:0:0:0:
128,192,85568,1,0,0:0:0:0:
469,192,85568,1,0,0:0:0:0:
298,192,85656,1,0,0:0:0:0:
384,192,85656,1,0,0:0:0:0:
42,192,85744,1,0,0:0:0:0:
469,192,85744,1,0,0:0:0:0:
128,192,85744,1,0,0:0:0:0:
298,192,85832,1,0,0:0:0:0:
213,192,85832,1,0,0:0:0:0:
42,192,85921,1,0,0:0:0:0:
384,192,85921,1,0,0:0:0:0:
469,192,85921,1,0,0:0:0:0:
298,192,86009,1,0,0:0:0:0:
213,192,86009,1,0,0:0:0:0:
128,192,86097,1,0,0:0:0:0:
384,192,86097,1,0,0:0:0:0:
469,192,86097,1,0,0:0:0:0:
298,192,86185,1,0,0:0:0:0:
42,192,86185,1,0,0:0:0:0:
213,192,86274,1,0,0:0:0:0:
384,192,86274,1,0,0:0:0:0:
128,192,86274,1,0,0:0:0:0:
298,192,86362,1,0,0:0:0:0:
469,192,86362,1,0,0:0:0:0:
384,192,86450,1,0,0:0:0:0:
128,192,86450,1,0,0:0:0:0:
42,192,86450,1,0,0:0:0:0:
213,192,86538,1,0,0:0:0:0:
469,192,86538,1,0,0:0:0:0:
298,192,86627,1,0,0:0:0:0:
384,192,86627,1,0,0:0:0:0:
42,192,86627,1,0,0:0:0:0:
128,192,86715,1,0,0:0:0:0:
213,192,86715,1,0,0:0:0:0:
42,192,86803,1,0,0:0:0:0:
384,192,86803,1,0,0:0:0:0:
469,192,86803,1,0,0:0:0:0:
298,192,86891,1,0,0:0:0:0:
213,192,86891,1,0,0:0:0:0:
128,192,86979,1,0,0:0:0:0:
42,192,86979,1,0,0:0:0:0:
469,192,86979,1,0,0:0:0:0:
213,192,87068,1,0,0:0:0:0:
384,192,87068,1,0,0:0:0:0:
128,192,87156,1,0,0:0:0:0:
298,192,87156,1,0,0:0:0:0:
469,192,87156,1,0,0:0:0:0:
213,192,87244,1,0,0:0:0:0:
42,192,87244,1,0,0:0:0:0:
384,192,87332,1,0,0:0:0:0:
469,192,87332,1,0,0:0:0:0:
128,192,87332,1,0,0:0:0:0:
213,192,87377,1,0,0:0:0:0:
298,192,87421,1,0,0:0:0:0:
384,192,87465,1,0,0:0:0:0:
128,192,87509,1,0,0:0:0:0:
213,192,87509,1,0,0:0:0:0:
42,192,87509,1,0,0:0:0:0:
298,192,87597,1,0,0:0:0:0:
469,192,87597,1,0,0:0:0:0:
384,192,87685,1,0,0:0:0:0:
213,192,87685,1,0,0:0:0:0:
42,192,87685,1,0,0:0:0:0:
128,192,87774,1,0,0:0:0:0:
298,192,87774,1,0,0:0:0:0:
42,192,87862,1,0,0:0:0:0:
213,192,87862,1,0,0:0:0:0:
469,192,87862,1,0,0:0:0:0:
298,192,88038,1,0,0:0:0:0:
384,192,88038,1,0,0:0:0:0:
469,192,88038,1,0,0:0:0:0:
213,192,88127,1,0,0:0:0:0:
42,192,88127,1,0,0:0:0:0:
128,192,88215,1,0,0:0:0:0:
298,192,88215,1,0,0:0:0:0:
469,192,88215,1,0,0:0:0:0:
384,192,88303,1,0,0:0:0:0:
213,192,88303,1,0,0:0:0:0:
298,192,88391,1,0,0:0:0:0:
469,192,88391,1,0,0:0:0:0:
42,192,88391,1,0,0:0:0:0:
213,192,88568,1,0,0:0:0:0:
128,192,88568,1,0,0:0:0:0:
42,192,88568,1,0,0:0:0:0:
298,192,88656,1,0,0:0:0:0:
469,192,88656,1,0,0:0:0:0:
384,192,88744,1,0,0:0:0:0:
213,192,88744,1,0,0:0:0:0:
42,192,88744,1,0,0:0:0:0:
128,192,88832,1,0,0:0:0:0:
298,192,88832,1,0,0:0:0:0:
213,192,88921,1,0,0:0:0:0:
42,192,88921,1,0,0:0:0:0:
469,192,88921,1,0,0:0:0:0:
384,192,89009,1,0,0:0:0:0:
128,192,89009,1,0,0:0:0:0:
42,192,89097,1,0,0:0:0:0:
298,192,89097,1,0,0:0:0:0:
469,192,89097,1,0,0:0:0:0:
384,192,89185,1,0,0:0:0:0:
213,192,89185,1,0,0:0:0:0:
298,192,89274,1,0,0:0:0:0:
128,192,89274,1,0,0:0:0:0:
469,192,89274,1,0,0:0:0:0:
42,192,89362,1,0,0:0:0:0:
213,192,89362,1,0,0:0:0:0:
128,192,89450,1,0,0:0:0:0:
469,192,89450,1,0,0:0:0:0:
298,192,89450,1,0,0:0:0:0:
384,192,89538,1,0,0:0:0:0:
213,192,89538,1,0,0:0:0:0:
298,192,89627,1,0,0:0:0:0:
469,192,89627,1,0,0:0:0:0:
42,192,89627,1,0,0:0:0:0:
128,192,89715,1,0,0:0:0:0:
384,192,89715,1,0,0:0:0:0:
213,192,89803,1,0,0:0:0:0:
42,192,89803,1,0,0:0:0:0:
469,192,89803,1,0,0:0:0:0:
128,192,89891,1,0,0:0:0:0:
298,192,89891,1,0,0:0:0:0:
213,192,89979,1,0,0:0:0:0:
384,192,89979,1,0,0:0:0:0:
42,192,89979,1,0,0:0:0:0:
298,192,90068,1,0,0:0:0:0:
469,192,90068,1,0,0:0:0:0:
384,192,90156,1,0,0:0:0:0:
213,192,90156,1,0,0:0:0:0:
42,192,90156,1,0,0:0:0:0:
128,192,90244,1,0,0:0:0:0:
298,192,90244,1,0,0:0:0:0:
213,192,90332,1,0,0:0:0:0:
42,192,90332,1,0,0:0:0:0:
469,192,90332,1,0,0:0:0:0:
384,192,90421,1,0,0:0:0:0:
298,192,90421,1,0,0:0:0:0:
128,192,90509,1,0,0:0:0:0:
42,192,90509,1,0,0:0:0:0:
469,192,90509,1,0,0:0:0:0:
213,192,90597,1,0,0:0:0:0:
384,192,90597,1,0,0:0:0:0:
128,192,90685,1,0,0:0:0:0:
298,192,90685,1,0,0:0:0:0:
469,192,90685,1,0,0:0:0:0:
42,192,90862,1,0,0:0:0:0:
298,192,90862,1,0,0:0:0:0:
469,192,90862,1,0,0:0:0:0:
213,192,90950,1,0,0:0:0:0:
128,192,90950,1,0,0:0:0:0:
42,192,91038,1,0,0:0:0:0:
469,192,91038,1,0,0:0:0:0:
384,192,91038,1,0,0:0:0:0:
128,192,91127,1,0,0:0:0:0:
298,192,91127,1,0,0:0:0:0:
213,192,91215,1,0,0:0:0:0:
42,192,91215,1,0,0:0:0:0:
384,192,91215,1,0,0:0:0:0:
213,192,91391,1,0,0:0:0:0:
128,192,91391,1,0,0:0:0:0:
469,192,91391,1,0,0:0:0:0:
298,192,91479,1,0,0:0:0:0:
384,192,91479,1,0,0:0:0:0:
128,192,91568,1,0,0:0:0:0:
42,192,91568,1,0,0:0:0:0:
469,192,91568,1,0,0:0:0:0:
384,192,91656,1,0,0:0:0:0:
213,192,91656,1,0,0:0:0:0:
42,192,91744,1,0,0:0:0:0:
298,192,91744,1,0,0:0:0:0:
469,192,91744,1,0,0:0:0:0:
384,192,91832,1,0,0:0:0:0:
128,192,91832,1,0,0:0:0:0:
469,192,91921,1,0,0:0:0:0:
42,192,91921,1,0,0:0:0:0:
213,192,91921,1,0,0:0:0:0:
128,192,92009,1,0,0:0:0:0:
298,192,92009,1,0,0:0:0:0:
213,192,92097,1,0,0:0:0:0:
384,192,92097,1,0,0:0:0:0:
42,192,92097,1,0,0:0:0:0:
298,192,92185,1,0,0:0:0:0:
469,192,92185,1,0,0:0:0:0:
384,192,92274,1,0,0:0:0:0:
213,192,92274,1,0,0:0:0:0:
42,192,92274,1,0,0:0:0:0:
128,192,92362,1,0,0:0:0:0:
298,192,92362,1,0,0:0:0:0:
213,192,92450,1,0,0:0:0:0:
42,192,92450,1,0,0:0:0:0:
469,192,92450,1,0,0:0:0:0:
384,192,92538,1,0,0:0:0:0:
128,192,92538,1,0,0:0:0:0:
42,192,92627,1,0,0:0:0:0:
298,192,92627,1,0,0:0:0:0:
469,192,92627,1,0,0:0:0:0:
384,192,92715,1,0,0:0:0:0:
213,192,92715,1,0,0:0:0:0:
298,192,92803,1,0,0:0:0:0:
128,192,92803,1,0,0:0:0:0:
469,192,92803,1,0,0:0:0:0:
213,192,92891,1,0,0:0:0:0:
42,192,92891,1,0,0:0:0:0:
128,192,92979,1,0,0:0:0:0:
298,192,92979,1,0,0:0:0:0:
469,192,92979,1,0,0:0:0:0:
384,192,93068,1,0,0:0:0:0:
213,192,93068,1,0,0:0:0:0:
298,192,93156,1,0,0:0:0:0:
469,192,93156,1,0,0:0:0:0:
128,192,93156,1,0,0:0:0:0:
42,192,93156,1,0,0:0:0:0:
213,192,93244,1,0,0:0:0:0:
384,192,93244,1,0,0:0:0:0:
298,192,93332,1,0,0:0:0:0:
128,192,93332,1,0,0:0:0:0:
469,192,93332,1,0,0:0:0:0:
213,192,93421,1,0,0:0:0:0:
42,192,93421,1,0,0:0:0:0:
384,192,93509,1,0,0:0:0:0:
298,192,93509,1,0,0:0:0:0:
42,192,93685,1,0,0:0:0:0:
213,192,93685,1,0,0:0:0:0:
384,192,93685,1,0,0:0:0:0:
298,192,93774,1,0,0:0:0:0:
128,192,93774,1,0,0:0:0:0:
213,192,93862,1,0,0:0:0:0:
384,192,93862,1,0,0:0:0:0:
469,192,93950,1,0,0:0:0:0:
298,192,93950,1,0,0:0:0:0:
213,192,94038,1,0,0:0:0:0:
128,192,94038,1,0,0:0:0:0:
42,192,94038,1,0,0:0:0:0:
128,192,94215,1,0,0:0:0:0:
298,192,94215,1,0,0:0:0:0:
213,192,94303,1,0,0:0:0:0:
384,192,94303,1,0,0:0:0:0:
298,192,94391,1,0,0:0:0:0:
469,192,94391,1,0,0:0:0:0:
128,192,94391,1,0,0:0:0:0:
213,192,94479,1,0,0:0:0:0:
42,192,94479,1,0,0:0:0:0:
384,192,94568,1,0,0:0:0:0:
469,192,94568,1,0,0:0:0:0:
298,192,94568,1,0,0:0:0:0:
128,192,94612,1,0,0:0:0:0:
42,192,94656,1,0,0:0:0:0:
213,192,94656,1,0,0:0:0:0:
298,192,94700,1,0,0:0:0:0:
384,192,94744,1,0,0:0:0:0:
469,192,94744,1,0,0:0:0:0:
213,192,94788,1,0,0:0:0:0:
128,192,94832,1,0,0:0:0:0:
42,192,94832,1,0,0:0:0:0:
384,192,94877,1,0,0:0:0:0:
469,192,94921,1,0,0:0:0:0:
298,192,94921,1,0,0:0:0:0:
213,192,94965,1,0,0:0:0:0:
128,192,95009,1,0,0:0:0:0:
42,192,95009,1,0,0:0:0:0:
298,192,95053,1,0,0:0:0:0:
384,192,95097,1,0,0:0:0:0:
469,192,95097,1,0,0:0:0:0:
128,192,95141,1,0,0:0:0:0:
42,192,95185,1,0,0:0:0:0:
213,192,95185,1,0,0:0:0:0:
298,192,95229,1,0,0:0:0:0:
384,192,95274,1,0,0:0:0:0:
469,192,95274,1,0,0:0:0:0:
213,192,95318,1,0,0:0:0:0:
128,192,95362,1,0,0:0:0:0:
42,192,95362,1,0,0:0:0:0:
384,192,95406,1,0,0:0:0:0:
298,192,95450,1,0,0:0:0:0:
469,192,95450,1,0,0:0:0:0:
213,192,95494,1,0,0:0:0:0:
128,192,95538,1,0,0:0:0:0:
42,192,95538,1,0,0:0:0:0:
298,192,95582,1,0,0:0:0:0:
384,192,95627,1,0,0:0:0:0:
469,192,95627,1,0,0:0:0:0:
128,192,95671,1,0,0:0:0:0:
42,192,95715,1,0,0:0:0:0:
213,192,95715,1,0,0:0:0:0:
298,192,95759,1,0,0:0:0:0:
384,192,95803,1,0,0:0:0:0:
469,192,95803,1,0,0:0:0:0:
213,192,95847,1,0,0:0:0:0:
128,192,95891,1,0,0:0:0:0:
42,192,95891,1,0,0:0:0:0:
298,192,95935,1,0,0:0:0:0:
213,192,95979,1,0,0:0:0:0:
384,192,95979,1,0,0:0:0:0:
469,192,95979,1,0,0:0:0:0:
128,192,96068,1,0,0:0:0:0:
298,192,96068,1,0,0:0:0:0:
213,192,96156,1,0,0:0:0:0:
42,192,96156,1,0,0:0:0:0:
384,192,96156,1,0,0:0:0:0:
298,192,96244,1,0,0:0:0:0:
469,192,96244,1,0,0:0:0:0:
213,192,96332,1,0,0:0:0:0:
384,192,96332,1,0,0:0:0:0:
42,192,96332,1,0,0:0:0:0:
128,192,96421,1,0,0:0:0:0:
298,192,96421,1,0,0:0:0:0:
42,192,96509,1,0,0:0:0:0:
213,192,96509,1,0,0:0:0:0:
384,192,96509,1,0,0:0:0:0:
298,192,96597,1,0,0:0:0:0:
469,192,96597,1,0,0:0:0:0:
384,192,96685,1,0,0:0:0:0:
128,192,96685,1,0,0:0:0:0:
42,192,96685,1,0,0:0:0:0:
469,192,96774,1,0,0:0:0:0:
213,192,96774,1,0,0:0:0:0:
128,192,96862,1,0,0:0:0:0:
42,192,96862,1,0,0:0:0:0:
298,192,96862,1,0,0:0:0:0:
213,192,96950,1,0,0:0:0:0:
384,192,96950,1,0,0:0:0:0:
128,192,97038,1,0,0:0:0:0:
298,192,97038,1,0,0:0:0:0:
469,192,97038,1,0,0:0:0:0:
213,192,97127,1,0,0:0:0:0:
42,192,97127,1,0,0:0:0:0:
384,192,97215,1,0,0:0:0:0:
469,192,97215,1,0,0:0:0:0:
128,192,97215,1,0,0:0:0:0:
213,192,97303,1,0,0:0:0:0:
42,192,97303,1,0,0:0:0:0:
298,192,97391,1,0,0:0:0:0:
469,192,97391,1,0,0:0:0:0:
384,192,97391,1,0,0:0:0:0:
213,192,97479,1,0,0:0:0:0:
128,192,97479,1,0,0:0:0:0:
42,192,97479,1,0,0:0:0:0:
469,192,97568,1,0,0:0:0:0:
298,192,97568,1,0,0:0:0:0:
384,192,97568,1,0,0:0:0:0:
213,192,97656,1,0,0:0:0:0:
128,192,97656,1,0,0:0:0:0:
42,192,97656,1,0,0:0:0:0:
298,192,97744,1,0,0:0:0:0:
384,192,97744,1,0,0:0:0:0:
469,192,97744,1,0,0:0:0:0:
213,192,97832,1,0,0:0:0:0:
128,192,97832,1,0,0:0:0:0:
42,192,97832,1,0,0:0:0:0:
298,192,97921,1,0,0:0:0:0:
469,192,97921,1,0,0:0:0:0:
384,192,97921,1,0,0:0:0:0:
213,192,98009,1,0,0:0:0:0:
128,192,98009,1,0,0:0:0:0:
42,192,98009,1,0,0:0:0:0:
298,192,98097,1,0,0:0:0:0:
384,192,98097,1,0,0:0:0:0:
469,192,98097,1,0,0:0:0:0:
42,192,98185,1,0,0:0:0:0:
128,192,98274,1,0,0:0:0:0:
384,192,98274,1,0,0:0:0:0:
213,192,98362,1,0,0:0:0:0:
42,192,98362,1,0,0:0:0:0:
469,192,98362,1,0,0:0:0:0:
298,192,98450,1,0,0:0:0:0:
213,192,98538,1,0,0:0:0:0:
128,192,98627,1,0,0:0:0:0:
42,192,98627,1,0,0:0:0:0:
384,192,98627,1,0,0:0:0:0:
298,192,98671,1,0,0:0:0:0:
213,192,98715,1,0,0:0:0:0:
128,192,98759,1,0,0:0:0:0:
298,192,98803,1,0,0:0:0:0:
384,192,98803,1,0,0:0:0:0:
469,192,98803,1,0,0:0:0:0:
42,192,98979,1,0,0:0:0:0:
128,192,98979,1,0,0:0:0:0:
298,192,99068,1,0,0:0:0:0:
42,192,99156,1,0,0:0:0:0:
213,192,99156,1,0,0:0:0:0:
42,192,99332,1,0,0:0:0:0:
384,192,99332,1,0,0:0:0:0:
128,192,99332,1,0,0:0:0:0:
42,192,99421,1,0,0:0:0:0:
213,192,99509,1,0,0:0:0:0:
42,192,99597,1,0,0:0:0:0:
384,192,99597,1,0,0:0:0:0:
128,192,99685,1,0,0:0:0:0:
213,192,99774,1,0,0:0:0:0:
42,192,99862,1,0,0:0:0:0:
469,192,99862,1,0,0:0:0:0:
213,192,99862,1,0,0:0:0:0:
42,192,100038,1,0,0:0:0:0:
128,192,100038,1,0,0:0:0:0:
213,192,100215,1,0,0:0:0:0:
42,192,100215,1,0,0:0:0:0:
298,192,100215,1,0,0:0:0:0:
42,192,100391,1,0,0:0:0:0:
128,192,100391,1,0,0:0:0:0:
298,192,100479,1,0,0:0:0:0:
42,192,100568,1,0,0:0:0:0:
213,192,100568,1,0,0:0:0:0:
42,192,100744,1,0,0:0:0:0:
384,192,100744,1,0,0:0:0:0:
128,192,100744,1,0,0:0:0:0:
42,192,100832,1,0,0:0:0:0:
213,192,100921,1,0,0:0:0:0:
42,192,101009,1,0,0:0:0:0:
384,192,101009,1,0,0:0:0:0:
128,192,101097,1,0,0:0:0:0:
213,192,101185,1,0,0:0:0:0:
42,192,101274,1,0,0:0:0:0:
213,192,101274,1,0,0:0:0:0:
469,192,101274,1,0,0:0:0:0:
42,192,101450,1,0,0:0:0:0:
469,192,101450,1,0,0:0:0:0:
128,192,101450,1,0,0:0:0:0:
213,192,101627,1,0,0:0:0:0:
298,192,101627,1,0,0:0:0:0:
42,192,101627,1,0,0:0:0:0:
42,192,101803,1,0,0:0:0:0:
128,192,101803,1,0,0:0:0:0:
298,192,101891,1,0,0:0:0:0:
213,192,101979,1,0,0:0:0:0:
42,192,101979,1,0,0:0:0:0:
42,192,102156,1,0,0:0:0:0:
384,192,102156,1,0,0:0:0:0:
128,192,102156,1,0,0:0:0:0:
42,192,102244,1,0,0:0:0:0:
213,192,102332,1,0,0:0:0:0:
42,192,102421,1,0,0:0:0:0:
384,192,102421,1,0,0:0:0:0:
128,192,102509,1,0,0:0:0:0:
213,192,102597,1,0,0:0:0:0:
42,192,102685,1,0,0:0:0:0:
213,192,102685,1,0,0:0:0:0:
469,192,102685,1,0,0:0:0:0:
42,192,102862,1,0,0:0:0:0:
128,192,102862,1,0,0:0:0:0:
213,192,103038,1,0,0:0:0:0:
469,192,103038,1,0,0:0:0:0:
469,192,103215,1,0,0:0:0:0:
128,192,103215,1,0,0:0:0:0:
213,192,103391,1,0,0:0:0:0:
298,192,103391,1,0,0:0:0:0:
298,192,103479,1,0,0:0:0:0:
128,192,103568,1,0,0:0:0:0:
469,192,103656,1,0,0:0:0:0:
298,192,103744,1,0,0:0:0:0:
213,192,103744,1,0,0:0:0:0:
469,192,103832,1,0,0:0:0:0:
128,192,103921,1,0,0:0:0:0:
42,192,103921,1,0,0:0:0:0:
42,192,104009,1,0,0:0:0:0:
213,192,104097,1,0,0:0:0:0:
42,192,104097,1,0,0:0:0:0:
469,192,104097,1,0,0:0:0:0:
128,192,104274,1,0,0:0:0:0:
298,192,104450,1,0,0:0:0:0:
469,192,104450,1,0,0:0:0:0:
42,192,104450,1,0,0:0:0:0:
469,192,104627,1,0,0:0:0:0:
384,192,104627,1,0,0:0:0:0:
42,192,104715,1,0,0:0:0:0:
469,192,104803,1,0,0:0:0:0:
298,192,104803,1,0,0:0:0:0:
469,192,104979,1,0,0:0:0:0:
128,192,104979,1,0,0:0:0:0:
384,192,104979,1,0,0:0:0:0:
469,192,105068,1,0,0:0:0:0:
298,192,105156,1,0,0:0:0:0:
469,192,105244,1,0,0:0:0:0:
128,192,105244,1,0,0:0:0:0:
384,192,105332,1,0,0:0:0:0:
298,192,105421,1,0,0:0:0:0:
469,192,105509,1,0,0:0:0:0:
213,192,105509,1,0,0:0:0:0:
298,192,105509,1,0,0:0:0:0:
469,192,105685,1,0,0:0:0:0:
384,192,105685,1,0,0:0:0:0:
298,192,105862,1,0,0:0:0:0:
469,192,105862,1,0,0:0:0:0:
42,192,105862,1,0,0:0:0:0:
469,192,106038,1,0,0:0:0:0:
384,192,106038,1,0,0:0:0:0:
42,192,106127,1,0,0:0:0:0:
469,192,106215,1,0,0:0:0:0:
298,192,106215,1,0,0:0:0:0:
469,192,106391,1,0,0:0:0:0:
128,192,106391,1,0,0:0:0:0:
384,192,106391,1,0,0:0:0:0:
469,192,106479,1,0,0:0:0:0:
298,192,106568,1,0,0:0:0:0:
469,192,106656,1,0,0:0:0:0:
128,192,106656,1,0,0:0:0:0:
384,192,106744,1,0,0:0:0:0:
298,192,106832,1,0,0:0:0:0:
469,192,106921,1,0,0:0:0:0:
298,192,106921,1,0,0:0:0:0:
213,192,106921,1,0,0:0:0:0:
469,192,107097,1,0,0:0:0:0:
213,192,107097,1,0,0:0:0:0:
384,192,107097,1,0,0:0:0:0:
298,192,107274,1,0,0:0:0:0:
42,192,107274,1,0,0:0:0:0:
469,192,107274,1,0,0:0:0:0:
469,192,107450,1,0,0:0:0:0:
384,192,107450,1,0,0:0:0:0:
42,192,107538,1,0,0:0:0:0:
298,192,107627,1,0,0:0:0:0:
469,192,107627,1,0,0:0:0:0:
469,192,107803,1,0,0:0:0:0:
128,192,107803,1,0,0:0:0:0:
384,192,107803,1,0,0:0:0:0:
469,192,107891,1,0,0:0:0:0:
298,192,107979,1,0,0:0:0:0:
469,192,108068,1,0,0:0:0:0:
128,192,108068,1,0,0:0:0:0:
384,192,108156,1,0,0:0:0:0:
298,192,108244,1,0,0:0:0:0:
469,192,108332,1,0,0:0:0:0:
298,192,108332,1,0,0:0:0:0:
213,192,108332,1,0,0:0:0:0:
469,192,108509,1,0,0:0:0:0:
384,192,108509,1,0,0:0:0:0:
298,192,108685,1,0,0:0:0:0:
384,192,108862,1,0,0:0:0:0:
213,192,108862,1,0,0:0:0:0:
42,192,108862,1,0,0:0:0:0:
298,192,109038,1,0,0:0:0:0:
213,192,109038,1,0,0:0:0:0:
42,192,109038,1,0,0:0:0:0:
384,192,109215,1,0,0:0:0:0:
213,192,109215,1,0,0:0:0:0:
42,192,109215,1,0,0:0:0:0:
298,192,109391,1,0,0:0:0:0:
213,192,109391,1,0,0:0:0:0:
42,192,109391,1,0,0:0:0:0:
384,192,109568,1,0,0:0:0:0:
128,192,109568,1,0,0:0:0:0:
42,192,109568,1,0,0:0:0:0:
42,192,109744,1,0,0:0:0:0:
469,192,109744,1,0,0:0:0:0:
213,192,109744,1,0,0:0:0:0:
42,192,110097,1,0,0:0:0:0:
128,192,110097,1,0,0:0:0:0:
298,192,110097,1,0,0:0:0:0:
469,192,110097,1,0,0:0:0:0:
42,192,110274,1,0,0:0:0:0:
128,192,110274,1,0,0:0:0:0:
469,192,110274,1,0,0:0:0:0:
384,192,110274,1,0,0:0:0:0:
213,192,110362,1,0,0:0:0:0:
42,192,110450,1,0,0:0:0:0:
128,192,110450,1,0,0:0:0:0:
469,192,110450,1,0,0:0:0:0:
298,192,110450,1,0,0:0:0:0:
42,192,110627,1,0,0:0:0:0:
128,192,110627,1,0,0:0:0:0:
213,192,110627,1,0,0:0:0:0:
384,192,110627,1,0,0:0:0:0:
128,192,110715,1,0,0:0:0:0:
298,192,110803,1,0,0:0:0:0:
42,192,110803,1,0,0:0:0:0:
469,192,110803,1,0,0:0:0:0:
384,192,110891,1,0,0:0:0:0:
213,192,110891,1,0,0:0:0:0:
298,192,110979,1,0,0:0:0:0:
469,192,110979,1,0,0:0:0:0:
128,192,110979,1,0,0:0:0:0:
213,192,111068,1,0,0:0:0:0:
42,192,111156,1,0,0:0:0:0:
298,192,111156,1,0,0:0:0:0:
469,192,111156,1,0,0:0:0:0:
213,192,111156,1,0,0:0:0:0:
128,192,111332,1,0,0:0:0:0:
384,192,111332,1,0,0:0:0:0:
42,192,111509,1,0,0:0:0:0:
128,192,111509,1,0,0:0:0:0:
298,192,111509,1,0,0:0:0:0:
469,192,111509,1,0,0:0:0:0:
42,192,111685,1,0,0:0:0:0:
128,192,111685,1,0,0:0:0:0:
469,192,111685,1,0,0:0:0:0:
384,192,111685,1,0,0:0:0:0:
213,192,111774,1,0,0:0:0:0:
42,192,111862,1,0,0:0:0:0:
128,192,111862,1,0,0:0:0:0:
469,192,111862,1,0,0:0:0:0:
298,192,111862,1,0,0:0:0:0:
42,192,112038,1,0,0:0:0:0:
128,192,112038,1,0,0:0:0:0:
213,192,112038,1,0,0:0:0:0:
384,192,112038,1,0,0:0:0:0:
128,192,112127,1,0,0:0:0:0:
298,192,112215,1,0,0:0:0:0:
42,192,112215,1,0,0:0:0:0:
469,192,112215,1,0,0:0:0:0:
384,192,112303,1,0,0:0:0:0:
213,192,112303,1,0,0:0:0:0:
298,192,112391,1,0,0:0:0:0:
469,192,112391,1,0,0:0:0:0:
128,192,112391,1,0,0:0:0:0:
213,192,112479,1,0,0:0:0:0:
42,192,112568,1,0,0:0:0:0:
298,192,112568,1,0,0:0:0:0:
469,192,112568,1,0,0:0:0:0:
213,192,112568,1,0,0:0:0:0:
128,192,112744,1,0,0:0:0:0:
384,192,112744,1,0,0:0:0:0:
298,192,112744,1,0,0:0:0:0:
298,192,112921,1,0,0:0:0:0:
469,192,112921,1,0,0:0:0:0:
42,192,112921,1,0,0:0:0:0:
128,192,112921,1,0,0:0:0:0:
469,192,113097,1,0,0:0:0:0:
384,192,113097,1,0,0:0:0:0:
42,192,113097,1,0,0:0:0:0:
128,192,113097,1,0,0:0:0:0:
213,192,113185,1,0,0:0:0:0:
469,192,113274,1,0,0:0:0:0:
298,192,113274,1,0,0:0:0:0:
42,192,113274,1,0,0:0:0:0:
128,192,113274,1,0,0:0:0:0:
213,192,113450,1,0,0:0:0:0:
384,192,113450,1,0,0:0:0:0:
42,192,113450,1,0,0:0:0:0:
128,192,113450,1,0,0:0:0:0:
469,192,113450,1,0,0:0:0:0:
128,192,113538,1,0,0:0:0:0:
469,192,113627,1,0,0:0:0:0:
42,192,113627,1,0,0:0:0:0:
298,192,113627,1,0,0:0:0:0:
213,192,113715,1,0,0:0:0:0:
384,192,113715,1,0,0:0:0:0:
128,192,113803,1,0,0:0:0:0:
469,192,113803,1,0,0:0:0:0:
298,192,113803,1,0,0:0:0:0:
213,192,113891,1,0,0:0:0:0:
469,192,113979,1,0,0:0:0:0:
213,192,113979,1,0,0:0:0:0:
42,192,113979,1,0,0:0:0:0:
298,192,113979,1,0,0:0:0:0:
384,192,114156,1,0,0:0:0:0:
128,192,114156,1,0,0:0:0:0:
42,192,114156,1,0,0:0:0:0:
469,192,114332,1,0,0:0:0:0:
213,192,114332,1,0,0:0:0:0:
298,192,114332,1,0,0:0:0:0:
469,192,114509,1,0,0:0:0:0:
128,192,114509,1,0,0:0:0:0:
42,192,114509,1,0,0:0:0:0:
469,192,114685,1,0,0:0:0:0:
213,192,114685,1,0,0:0:0:0:
42,192,114685,1,0,0:0:0:0:
298,192,114774,1,0,0:0:0:0:
128,192,114862,1,0,0:0:0:0:
42,192,114862,1,0,0:0:0:0:
469,192,114950,1,0,0:0:0:0:
298,192,115038,1,0,0:0:0:0:
213,192,115038,1,0,0:0:0:0:
42,192,115038,1,0,0:0:0:0:
469,192,115127,1,0,0:0:0:0:
128,192,115215,1,0,0:0:0:0:
42,192,115215,1,0,0:0:0:0:
384,192,115215,1,0,0:0:0:0:
42,192,115303,1,0,0:0:0:0:
42,192,115391,1,0,0:0:0:0:
213,192,115391,1,0,0:0:0:0:
469,192,115391,1,0,0:0:0:0:
128,192,115568,1,0,0:0:0:0:
298,192,115568,1,0,0:0:0:0:
469,192,115744,1,0,0:0:0:0:
384,192,115744,1,0,0:0:0:0:
42,192,115744,1,0,0:0:0:0:
213,192,115744,1,0,0:0:0:0:
469,192,115921,1,0,0:0:0:0:
384,192,115921,1,0,0:0:0:0:
128,192,115921,1,0,0:0:0:0:
42,192,115921,1,0,0:0:0:0:
213,192,116009,1,0,0:0:0:0:
469,192,116097,1,0,0:0:0:0:
128,192,116097,1,0,0:0:0:0:
298,192,116097,1,0,0:0:0:0:
42,192,116097,1,0,0:0:0:0:
384,192,116274,1,0,0:0:0:0:
469,192,116274,1,0,0:0:0:0:
298,192,116274,1,0,0:0:0:0:
128,192,116274,1,0,0:0:0:0:
384,192,116362,1,0,0:0:0:0:
469,192,116450,1,0,0:0:0:0:
42,192,116450,1,0,0:0:0:0:
213,192,116450,1,0,0:0:0:0:
298,192,116538,1,0,0:0:0:0:
128,192,116538,1,0,0:0:0:0:
42,192,116627,1,0,0:0:0:0:
384,192,116627,1,0,0:0:0:0:
213,192,116627,1,0,0:0:0:0:
298,192,116715,1,0,0:0:0:0:
469,192,116803,1,0,0:0:0:0:
298,192,116803,1,0,0:0:0:0:
213,192,116803,1,0,0:0:0:0:
42,192,116803,1,0,0:0:0:0:
384,192,116979,1,0,0:0:0:0:
128,192,116979,1,0,0:0:0:0:
469,192,117156,1,0,0:0:0:0:
384,192,117156,1,0,0:0:0:0:
42,192,117156,1,0,0:0:0:0:
213,192,117156,1,0,0:0:0:0:
469,192,117332,1,0,0:0:0:0:
384,192,117332,1,0,0:0:0:0:
128,192,117332,1,0,0:0:0:0:
42,192,117332,1,0,0:0:0:0:
213,192,117421,1,0,0:0:0:0:
469,192,117509,1,0,0:0:0:0:
128,192,117509,1,0,0:0:0:0:
298,192,117509,1,0,0:0:0:0:
42,192,117509,1,0,0:0:0:0:
384,192,117685,1,0,0:0:0:0:
469,192,117685,1,0,0:0:0:0:
298,192,117685,1,0,0:0:0:0:
128,192,117685,1,0,0:0:0:0:
384,192,117774,1,0,0:0:0:0:
469,192,117862,1,0,0:0:0:0:
42,192,117862,1,0,0:0:0:0:
213,192,117862,1,0,0:0:0:0:
298,192,117950,1,0,0:0:0:0:
128,192,117950,1,0,0:0:0:0:
42,192,118038,1,0,0:0:0:0:
384,192,118038,1,0,0:0:0:0:
213,192,118038,1,0,0:0:0:0:
298,192,118127,1,0,0:0:0:0:
469,192,118215,1,0,0:0:0:0:
298,192,118215,1,0,0:0:0:0:
213,192,118215,1,0,0:0:0:0:
42,192,118215,1,0,0:0:0:0:
384,192,118391,1,0,0:0:0:0:
128,192,118391,1,0,0:0:0:0:
213,192,118391,1,0,0:0:0:0:
298,192,118568,1,0,0:0:0:0:
42,192,118568,1,0,0:0:0:0:
469,192,118568,1,0,0:0:0:0:
213,192,118744,1,0,0:0:0:0:
128,192,118744,1,0,0:0:0:0:
42,192,118744,1,0,0:0:0:0:
298,192,118803,1,0,0:0:0:0:
384,192,118803,1,0,0:0:0:0:
469,192,118803,1,0,0:0:0:0:
213,192,118862,1,0,0:0:0:0:
128,192,118862,1,0,0:0:0:0:
42,192,118862,1,0,0:0:0:0:
298,192,118921,1,0,0:0:0:0:
384,192,118921,1,0,0:0:0:0:
469,192,118921,1,0,0:0:0:0:
298,192,119097,1,0,0:0:0:0:
384,192,119097,1,0,0:0:0:0:
469,192,119097,1,0,0:0:0:0:
213,192,119156,1,0,0:0:0:0:
42,192,119156,1,0,0:0:0:0:
128,192,119156,1,0,0:0:0:0:
298,192,119215,1,0,0:0:0:0:
384,192,119215,1,0,0:0:0:0:
469,192,119215,1,0,0:0:0:0:
213,192,119274,1,0,0:0:0:0:
128,192,119274,1,0,0:0:0:0:
42,192,119274,1,0,0:0:0:0:
213,192,119450,1,0,0:0:0:0:
128,192,119450,1,0,0:0:0:0:
42,192,119450,1,0,0:0:0:0:
298,192,119509,1,0,0:0:0:0:
384,192,119509,1,0,0:0:0:0:
469,192,119509,1,0,0:0:0:0:
213,192,119568,1,0,0:0:0:0:
128,192,119568,1,0,0:0:0:0:
42,192,119568,1,0,0:0:0:0:
298,192,119627,1,0,0:0:0:0:
384,192,119627,1,0,0:0:0:0:
469,192,119627,1,0,0:0:0:0:
298,192,119803,1,0,0:0:0:0:
384,192,119803,1,0,0:0:0:0:
469,192,119803,1,0,0:0:0:0:
213,192,119862,1,0,0:0:0:0:
128,192,119862,1,0,0:0:0:0:
42,192,119862,1,0,0:0:0:0:
384,192,119921,1,0,0:0:0:0:
469,192,119921,1,0,0:0:0:0:
298,192,119921,1,0,0:0:0:0:
213,192,119979,1,0,0:0:0:0:
128,192,119979,1,0,0:0:0:0:
42,192,119979,1,0,0:0:0:0:
298,192,120068,1,0,0:0:0:0:
469,192,120068,1,0,0:0:0:0:
213,192,120156,1,0,0:0:0:0:
42,192,120156,1,0,0:0:0:0:
384,192,120244,1,0,0:0:0:0:
213,192,120332,1,0,0:0:0:0:
42,192,120332,1,0,0:0:0:0:
384,192,120421,1,0,0:0:0:0:
213,192,120509,1,0,0:0:0:0:
42,192,120509,1,0,0:0:0:0:
384,192,120597,1,0,0:0:0:0:
213,192,120685,1,0,0:0:0:0:
42,192,120685,1,0,0:0:0:0:
298,192,120774,1,0,0:0:0:0:
213,192,120862,1,0,0:0:0:0:
469,192,120862,1,0,0:0:0:0:
384,192,120950,1,0,0:0:0:0:
128,192,120950,1,0,0:0:0:0:
42,192,121038,1,0,0:0:0:0:
298,192,121038,1,0,0:0:0:0:
469,192,121038,1,0,0:0:0:0:
213,192,121215,1,0,0:0:0:0:
298,192,121303,1,0,0:0:0:0:
42,192,121479,1,0,0:0:0:0:
128,192,121479,1,0,0:0:0:0:
213,192,121479,1,0,0:0:0:0:
384,192,121479,1,0,0:0:0:0:
213,192,121744,1,0,0:0:0:0:
384,192,121744,1,0,0:0:0:0:
128,192,121744,1,0,0:0:0:0:
42,192,121744,1,0,0:0:0:0:
42,192,122009,1,0,0:0:0:0:
128,192,122009,1,0,0:0:0:0:
298,192,122009,1,0,0:0:0:0:
469,192,122009,1,0,0:0:0:0:
298,192,122274,1,0,0:0:0:0:
469,192,122274,1,0,0:0:0:0:
128,192,122274,1,0,0:0:0:0:
42,192,122274,1,0,0:0:0:0:
42,192,122891,1,0,0:0:0:0:
213,192,122891,1,0,0:0:0:0:
298,192,122891,1,0,0:0:0:0:
384,192,122891,1,0,0:0:0:0:
384,192,123156,1,0,0:0:0:0:
298,192,123156,1,0,0:0:0:0:
213,192,123156,1,0,0:0:0:0:
42,192,123156,1,0,0:0:0:0:
42,192,123421,1,0,0:0:0:0:
213,192,123421,1,0,0:0:0:0:
384,192,123421,1,0,0:0:0:0:
469,192,123421,1,0,0:0:0:0:
469,192,123685,1,0,0:0:0:0:
384,192,123685,1,0,0:0:0:0:
213,192,123685,1,0,0:0:0:0:
42,192,123685,1,0,0:0:0:0:
128,192,124215,1,0,0:0:0:0:
42,192,124215,1,0,0:0:0:0:
298,192,124215,1,0,0:0:0:0:
384,192,124303,1,0,0:0:0:0:
469,192,124303,1,0,0:0:0:0:
213,192,124303,1,0,0:0:0:0:
128,192,124391,1,0,0:0:0:0:
42,192,124391,1,0,0:0:0:0:
298,192,124391,1,0,0:0:0:0:
213,192,124479,1,0,0:0:0:0:
384,192,124479,1,0,0:0:0:0:
469,192,124479,1,0,0:0:0:0:
298,192,124568,1,0,0:0:0:0:
128,192,124568,1,0,0:0:0:0:
42,192,124568,1,0,0:0:0:0:
128,192,124744,1,0,0:0:0:0:
298,192,124744,1,0,0:0:0:0:
469,192,124744,1,0,0:0:0:0:
384,192,124832,1,0,0:0:0:0:
213,192,124832,1,0,0:0:0:0:
42,192,124832,1,0,0:0:0:0:
128,192,124921,1,0,0:0:0:0:
298,192,124921,1,0,0:0:0:0:
469,192,124921,1,0,0:0:0:0:
384,192,125009,1,0,0:0:0:0:
213,192,125009,1,0,0:0:0:0:
42,192,125009,1,0,0:0:0:0:
128,192,125097,1,0,0:0:0:0:
298,192,125097,1,0,0:0:0:0:
469,192,125097,1,0,0:0:0:0:
298,192,125274,1,0,0:0:0:0:
384,192,125274,1,0,0:0:0:0:
469,192,125274,1,0,0:0:0:0:
213,192,125362,1,0,0:0:0:0:
128,192,125362,1,0,0:0:0:0:
42,192,125362,1,0,0:0:0:0:
298,192,125450,1,0,0:0:0:0:
384,192,125450,1,0,0:0:0:0:
469,192,125450,1,0,0:0:0:0:
128,192,125538,1,0,0:0:0:0:
213,192,125538,1,0,0:0:0:0:
42,192,125538,1,0,0:0:0:0:
298,192,125627,1,0,0:0:0:0:
469,192,125627,1,0,0:0:0:0:
384,192,125627,1,0,0:0:0:0:
213,192,125715,1,0,0:0:0:0:
42,192,125715,1,0,0:0:0:0:
128,192,125803,1,0,0:0:0:0:
298,192,125803,1,0,0:0:0:0:
469,192,125803,1,0,0:0:0:0:
384,192,125891,1,0,0:0:0:0:
213,192,125891,1,0,0:0:0:0:
298,192,125979,1,0,0:0:0:0:
128,192,125979,1,0,0:0:0:0:
42,192,125979,1,0,0:0:0:0:
213,192,126068,1,0,0:0:0:0:
469,192,126068,1,0,0:0:0:0:
384,192,126156,1,0,0:0:0:0:
128,192,126156,1,0,0:0:0:0:
42,192,126156,1,0,0:0:0:0:
213,192,126244,1,0,0:0:0:0:
469,192,126244,1,0,0:0:0:0:
298,192,126332,1,0,0:0:0:0:
128,192,126332,1,0,0:0:0:0:
42,192,126332,1,0,0:0:0:0:
469,192,126421,1,0,0:0:0:0:
384,192,126421,1,0,0:0:0:0:
128,192,126509,1,0,0:0:0:0:
213,192,126509,1,0,0:0:0:0:
42,192,126509,1,0,0:0:0:0:
298,192,126597,1,0,0:0:0:0:
469,192,126597,1,0,0:0:0:0:
384,192,126685,1,0,0:0:0:0:
213,192,126685,1,0,0:0:0:0:
42,192,126685,1,0,0:0:0:0:
128,192,126774,1,0,0:0:0:0:
298,192,126774,1,0,0:0:0:0:
213,192,126862,1,0,0:0:0:0:
42,192,126862,1,0,0:0:0:0:
469,192,126862,1,0,0:0:0:0:
384,192,126950,1,0,0:0:0:0:
128,192,126950,1,0,0:0:0:0:
42,192,127038,1,0,0:0:0:0:
298,192,127038,1,0,0:0:0:0:
469,192,127038,1,0,0:0:0:0:
213,192,127127,1,0,0:0:0:0:
384,192,127127,1,0,0:0:0:0:
298,192,127215,1,0,0:0:0:0:
128,192,127215,1,0,0:0:0:0:
469,192,127215,1,0,0:0:0:0:
213,192,127303,1,0,0:0:0:0:
42,192,127303,1,0,0:0:0:0:
128,192,127391,1,0,0:0:0:0:
384,192,127391,1,0,0:0:0:0:
469,192,127391,1,0,0:0:0:0:
213,192,127568,1,0,0:0:0:0:
42,192,127568,1,0,0:0:0:0:
469,192,127568,1,0,0:0:0:0:
128,192,127656,1,0,0:0:0:0:
298,192,127656,1,0,0:0:0:0:
213,192,127744,1,0,0:0:0:0:
42,192,127744,1,0,0:0:0:0:
384,192,127744,1,0,0:0:0:0:
298,192,127832,1,0,0:0:0:0:
469,192,127832,1,0,0:0:0:0:
384,192,127921,1,0,0:0:0:0:
128,192,127921,1,0,0:0:0:0:
42,192,127921,1,0,0:0:0:0:
298,192,128097,1,0,0:0:0:0:
469,192,128097,1,0,0:0:0:0:
42,192,128097,1,0,0:0:0:0:
213,192,128185,1,0,0:0:0:0:
384,192,128185,1,0,0:0:0:0:
298,192,128274,1,0,0:0:0:0:
128,192,128274,1,0,0:0:0:0:
469,192,128274,1,0,0:0:0:0:
213,192,128362,1,0,0:0:0:0:
42,192,128362,1,0,0:0:0:0:
128,192,128450,1,0,0:0:0:0:
384,192,128450,1,0,0:0:0:0:
469,192,128450,1,0,0:0:0:0:
298,192,128538,1,0,0:0:0:0:
42,192,128538,1,0,0:0:0:0:
213,192,128627,1,0,0:0:0:0:
384,192,128627,1,0,0:0:0:0:
469,192,128627,1,0,0:0:0:0:
298,192,128715,1,0,0:0:0:0:
128,192,128715,1,0,0:0:0:0:
213,192,128803,1,0,0:0:0:0:
42,192,128803,1,0,0:0:0:0:
469,192,128803,1,0,0:0:0:0:
128,192,128891,1,0,0:0:0:0:
384,192,128891,1,0,0:0:0:0:
42,192,128979,1,0,0:0:0:0:
298,192,128979,1,0,0:0:0:0:
469,192,128979,1,0,0:0:0:0:
128,192,129068,1,0,0:0:0:0:
384,192,129068,1,0,0:0:0:0:
213,192,129156,1,0,0:0:0:0:
42,192,129156,1,0,0:0:0:0:
469,192,129156,1,0,0:0:0:0:
298,192,129244,1,0,0:0:0:0:
384,192,129244,1,0,0:0:0:0:
42,192,129332,1,0,0:0:0:0:
128,192,129332,1,0,0:0:0:0:
469,192,129332,1,0,0:0:0:0:
298,192,129421,1,0,0:0:0:0:
213,192,129421,1,0,0:0:0:0:
42,192,129509,1,0,0:0:0:0:
384,192,129509,1,0,0:0:0:0:
469,192,129509,1,0,0:0:0:0:
213,192,129597,1,0,0:0:0:0:
128,192,129597,1,0,0:0:0:0:
42,192,129685,1,0,0:0:0:0:
298,192,129685,1,0,0:0:0:0:
469,192,129685,1,0,0:0:0:0:
384,192,129774,1,0,0:0:0:0:
213,192,129774,1,0,0:0:0:0:
128,192,129862,1,0,0:0:0:0:
42,192,129862,1,0,0:0:0:0:
298,192,129862,1,0,0:0:0:0:
213,192,129950,1,0,0:0:0:0:
469,192,129950,1,0,0:0:0:0:
384,192,130038,1,0,0:0:0:0:
42,192,130038,1,0,0:0:0:0:
298,192,130038,1,0,0:0:0:0:
128,192,130127,1,0,0:0:0:0:
469,192,130127,1,0,0:0:0:0:
213,192,130215,1,0,0:0:0:0:
42,192,130215,1,0,0:0:0:0:
298,192,130215,1,0,0:0:0:0:
213,192,130391,1,0,0:0:0:0:
384,192,130391,1,0,0:0:0:0:
469,192,130391,1,0,0:0:0:0:
298,192,130479,1,0,0:0:0:0:
42,192,130479,1,0,0:0:0:0:
213,192,130568,1,0,0:0:0:0:
128,192,130568,1,0,0:0:0:0:
469,192,130568,1,0,0:0:0:0:
42,192,130656,1,0,0:0:0:0:
384,192,130656,1,0,0:0:0:0:
213,192,130744,1,0,0:0:0:0:
298,192,130744,1,0,0:0:0:0:
469,192,130744,1,0,0:0:0:0:
128,192,130921,1,0,0:0:0:0:
42,192,130921,1,0,0:0:0:0:
298,192,130921,1,0,0:0:0:0:
213,192,131009,1,0,0:0:0:0:
469,192,131009,1,0,0:0:0:0:
384,192,131097,1,0,0:0:0:0:
298,192,131097,1,0,0:0:0:0:
42,192,131097,1,0,0:0:0:0:
128,192,131185,1,0,0:0:0:0:
469,192,131185,1,0,0:0:0:0:
384,192,131274,1,0,0:0:0:0:
213,192,131274,1,0,0:0:0:0:
42,192,131274,1,0,0:0:0:0:
128,192,131362,1,0,0:0:0:0:
298,192,131362,1,0,0:0:0:0:
213,192,131450,1,0,0:0:0:0:
384,192,131450,1,0,0:0:0:0:
469,192,131450,1,0,0:0:0:0:
298,192,131538,1,0,0:0:0:0:
42,192,131538,1,0,0:0:0:0:
128,192,131627,1,0,0:0:0:0:
213,192,131627,1,0,0:0:0:0:
469,192,131627,1,0,0:0:0:0:
384,192,131715,1,0,0:0:0:0:
42,192,131715,1,0,0:0:0:0:
213,192,131803,1,0,0:0:0:0:
298,192,131803,1,0,0:0:0:0:
469,192,131803,1,0,0:0:0:0:
384,192,131891,1,0,0:0:0:0:
128,192,131891,1,0,0:0:0:0:
213,192,131979,1,0,0:0:0:0:
42,192,131979,1,0,0:0:0:0:
469,192,131979,1,0,0:0:0:0:
128,192,132068,1,0,0:0:0:0:
298,192,132068,1,0,0:0:0:0:
213,192,132156,1,0,0:0:0:0:
384,192,132156,1,0,0:0:0:0:
42,192,132156,1,0,0:0:0:0:
298,192,132244,1,0,0:0:0:0:
469,192,132244,1,0,0:0:0:0:
384,192,132332,1,0,0:0:0:0:
42,192,132332,1,0,0:0:0:0:
213,192,132332,1,0,0:0:0:0:
128,192,132421,1,0,0:0:0:0:
298,192,132421,1,0,0:0:0:0:
213,192,132509,1,0,0:0:0:0:
42,192,132509,1,0,0:0:0:0:
469,192,132509,1,0,0:0:0:0:
384,192,132597,1,0,0:0:0:0:
128,192,132597,1,0,0:0:0:0:
42,192,132685,1,0,0:0:0:0:
298,192,132685,1,0,0:0:0:0:
469,192,132685,1,0,0:0:0:0:
128,192,132774,1,0,0:0:0:0:
213,192,132774,1,0,0:0:0:0:
298,192,132862,1,0,0:0:0:0:
469,192,132862,1,0,0:0:0:0:
128,192,132950,1,0,0:0:0:0:
384,192,132950,1,0,0:0:0:0:
42,192,133038,1,0,0:0:0:0:
469,192,133038,1,0,0:0:0:0:
213,192,133038,1,0,0:0:0:0:
298,192,133127,1,0,0:0:0:0:
384,192,133127,1,0,0:0:0:0:
213,192,133215,1,0,0:0:0:0:
42,192,133215,1,0,0:0:0:0:
128,192,133303,1,0,0:0:0:0:
384,192,133303,1,0,0:0:0:0:
298,192,133391,1,0,0:0:0:0:
469,192,133391,1,0,0:0:0:0:
42,192,133391,1,0,0:0:0:0:
213,192,133479,1,0,0:0:0:0:
128,192,133479,1,0,0:0:0:0:
42,192,133568,1,0,0:0:0:0:
469,192,133568,1,0,0:0:0:0:
298,192,133568,1,0,0:0:0:0:
128,192,133656,1,0,0:0:0:0:
213,192,133656,1,0,0:0:0:0:
42,192,133744,1,0,0:0:0:0:
384,192,133744,1,0,0:0:0:0:
469,192,133744,1,0,0:0:0:0:
298,192,133832,1,0,0:0:0:0:
213,192,133832,1,0,0:0:0:0:
42,192,133921,1,0,0:0:0:0:
469,192,133921,1,0,0:0:0:0:
128,192,133921,1,0,0:0:0:0:
298,192,134009,1,0,0:0:0:0:
213,192,134009,1,0,0:0:0:0:
42,192,134097,1,0,0:0:0:0:
128,192,134097,1,0,0:0:0:0:
469,192,134097,1,0,0:0:0:0:
384,192,134185,1,0,0:0:0:0:
213,192,134185,1,0,0:0:0:0:
42,192,134274,1,0,0:0:0:0:
298,192,134274,1,0,0:0:0:0:
469,192,134274,1,0,0:0:0:0:
384,192,134362,1,0,0:0:0:0:
128,192,134362,1,0,0:0:0:0:
213,192,134450,1,0,0:0:0:0:
469,192,134450,1,0,0:0:0:0:
298,192,134450,1,0,0:0:0:0:
128,192,134538,1,0,0:0:0:0:
42,192,134538,1,0,0:0:0:0:
298,192,134627,1,0,0:0:0:0:
469,192,134627,1,0,0:0:0:0:
384,192,134627,1,0,0:0:0:0:
213,192,134715,1,0,0:0:0:0:
128,192,134715,1,0,0:0:0:0:
298,192,134803,1,0,0:0:0:0:
469,192,134803,1,0,0:0:0:0:
42,192,134803,1,0,0:0:0:0:
213,192,134891,1,0,0:0:0:0:
128,192,134891,1,0,0:0:0:0:
469,192,134979,1,0,0:0:0:0:
384,192,134979,1,0,0:0:0:0:
42,192,134979,1,0,0:0:0:0:
298,192,135068,1,0,0:0:0:0:
213,192,135068,1,0,0:0:0:0:
469,192,135156,1,0,0:0:0:0:
42,192,135156,1,0,0:0:0:0:
128,192,135156,1,0,0:0:0:0:
298,192,135244,1,0,0:0:0:0:
213,192,135244,1,0,0:0:0:0:
384,192,135332,1,0,0:0:0:0:
128,192,135332,1,0,0:0:0:0:
42,192,135332,1,0,0:0:0:0:
298,192,135377,1,0,0:0:0:0:
213,192,135421,1,0,0:0:0:0:
128,192,135465,1,0,0:0:0:0:
298,192,135509,1,0,0:0:0:0:
384,192,135509,1,0,0:0:0:0:
469,192,135509,1,0,0:0:0:0:
213,192,135597,1,0,0:0:0:0:
42,192,135597,1,0,0:0:0:0:
128,192,135685,1,0,0:0:0:0:
298,192,135685,1,0,0:0:0:0:
469,192,135685,1,0,0:0:0:0:
384,192,135774,1,0,0:0:0:0:
213,192,135774,1,0,0:0:0:0:
298,192,135862,1,0,0:0:0:0:
128,192,135862,1,0,0:0:0:0:
42,192,135862,1,0,0:0:0:0:
213,192,136038,1,0,0:0:0:0:
128,192,136038,1,0,0:0:0:0:
42,192,136038,1,0,0:0:0:0:
298,192,136127,1,0,0:0:0:0:
469,192,136127,1,0,0:0:0:0:
384,192,136215,1,0,0:0:0:0:
213,192,136215,1,0,0:0:0:0:
42,192,136215,1,0,0:0:0:0:
128,192,136303,1,0,0:0:0:0:
298,192,136303,1,0,0:0:0:0:
213,192,136391,1,0,0:0:0:0:
384,192,136391,1,0,0:0:0:0:
469,192,136391,1,0,0:0:0:0:
298,192,136568,1,0,0:0:0:0:
384,192,136568,1,0,0:0:0:0:
469,192,136568,1,0,0:0:0:0:
213,192,136656,1,0,0:0:0:0:
42,192,136656,1,0,0:0:0:0:
128,192,136744,1,0,0:0:0:0:
298,192,136744,1,0,0:0:0:0:
469,192,136744,1,0,0:0:0:0:
384,192,136832,1,0,0:0:0:0:
213,192,136832,1,0,0:0:0:0:
298,192,136921,1,0,0:0:0:0:
42,192,136921,1,0,0:0:0:0:
469,192,136921,1,0,0:0:0:0:
384,192,137009,1,0,0:0:0:0:
128,192,137009,1,0,0:0:0:0:
213,192,137097,1,0,0:0:0:0:
42,192,137097,1,0,0:0:0:0:
469,192,137097,1,0,0:0:0:0:
298,192,137185,1,0,0:0:0:0:
128,192,137185,1,0,0:0:0:0:
42,192,137274,1,0,0:0:0:0:
213,192,137274,1,0,0:0:0:0:
384,192,137274,1,0,0:0:0:0:
298,192,137362,1,0,0:0:0:0:
469,192,137362,1,0,0:0:0:0:
384,192,137450,1,0,0:0:0:0:
213,192,137450,1,0,0:0:0:0:
42,192,137450,1,0,0:0:0:0:
128,192,137538,1,0,0:0:0:0:
298,192,137538,1,0,0:0:0:0:
213,192,137627,1,0,0:0:0:0:
42,192,137627,1,0,0:0:0:0:
469,192,137627,1,0,0:0:0:0:
384,192,137715,1,0,0:0:0:0:
128,192,137715,1,0,0:0:0:0:
42,192,137803,1,0,0:0:0:0:
298,192,137803,1,0,0:0:0:0:
469,192,137803,1,0,0:0:0:0:
384,192,137891,1,0,0:0:0:0:
213,192,137891,1,0,0:0:0:0:
298,192,137979,1,0,0:0:0:0:
128,192,137979,1,0,0:0:0:0:
469,192,137979,1,0,0:0:0:0:
213,192,138068,1,0,0:0:0:0:
42,192,138068,1,0,0:0:0:0:
128,192,138156,1,0,0:0:0:0:
298,192,138156,1,0,0:0:0:0:
469,192,138156,1,0,0:0:0:0:
213,192,138244,1,0,0:0:0:0:
384,192,138244,1,0,0:0:0:0:
298,192,138332,1,0,0:0:0:0:
128,192,138332,1,0,0:0:0:0:
42,192,138332,1,0,0:0:0:0:
213,192,138421,1,0,0:0:0:0:
469,192,138421,1,0,0:0:0:0:
42,192,138509,1,0,0:0:0:0:
128,192,138509,1,0,0:0:0:0:
298,192,138509,1,0,0:0:0:0:
384,192,138597,1,0,0:0:0:0:
213,192,138597,1,0,0:0:0:0:
128,192,138685,1,0,0:0:0:0:
469,192,138685,1,0,0:0:0:0:
298,192,138685,1,0,0:0:0:0:
213,192,138862,1,0,0:0:0:0:
384,192,138862,1,0,0:0:0:0:
469,192,138862,1,0,0:0:0:0:
298,192,138950,1,0,0:0:0:0:
42,192,138950,1,0,0:0:0:0:
213,192,139038,1,0,0:0:0:0:
384,192,139038,1,0,0:0:0:0:
469,192,139038,1,0,0:0:0:0:
298,192,139127,1,0,0:0:0:0:
128,192,139127,1,0,0:0:0:0:
213,192,139215,1,0,0:0:0:0:
42,192,139215,1,0,0:0:0:0:
384,192,139215,1,0,0:0:0:0:
128,192,139391,1,0,0:0:0:0:
42,192,139391,1,0,0:0:0:0:
298,192,139391,1,0,0:0:0:0:
213,192,139479,1,0,0:0:0:0:
469,192,139479,1,0,0:0:0:0:
128,192,139568,1,0,0:0:0:0:
42,192,139568,1,0,0:0:0:0:
298,192,139568,1,0,0:0:0:0:
213,192,139656,1,0,0:0:0:0:
384,192,139656,1,0,0:0:0:0:
298,192,139744,1,0,0:0:0:0:
469,192,139744,1,0,0:0:0:0:
42,192,139744,1,0,0:0:0:0:
128,192,139832,1,0,0:0:0:0:
384,192,139832,1,0,0:0:0:0:
213,192,139921,1,0,0:0:0:0:
42,192,139921,1,0,0:0:0:0:
469,192,139921,1,0,0:0:0:0:
128,192,140009,1,0,0:0:0:0:
298,192,140009,1,0,0:0:0:0:
213,192,140097,1,0,0:0:0:0:
42,192,140097,1,0,0:0:0:0:
384,192,140097,1,0,0:0:0:0:
298,192,140185,1,0,0:0:0:0:
469,192,140185,1,0,0:0:0:0:
384,192,140274,1,0,0:0:0:0:
213,192,140274,1,0,0:0:0:0:
42,192,140274,1,0,0:0:0:0:
298,192,140362,1,0,0:0:0:0:
128,192,140362,1,0,0:0:0:0:
42,192,140450,1,0,0:0:0:0:
213,192,140450,1,0,0:0:0:0:
469,192,140450,1,0,0:0:0:0:
128,192,140538,1,0,0:0:0:0:
384,192,140538,1,0,0:0:0:0:
42,192,140627,1,0,0:0:0:0:
298,192,140627,1,0,0:0:0:0:
469,192,140627,1,0,0:0:0:0:
384,192,140715,1,0,0:0:0:0:
213,192,140715,1,0,0:0:0:0:
298,192,140803,1,0,0:0:0:0:
128,192,140803,1,0,0:0:0:0:
469,192,140803,1,0,0:0:0:0:
213,192,140891,1,0,0:0:0:0:
42,192,140891,1,0,0:0:0:0:
128,192,140979,1,0,0:0:0:0:
298,192,140979,1,0,0:0:0:0:
469,192,140979,1,0,0:0:0:0:
384,192,141068,1,0,0:0:0:0:
213,192,141068,1,0,0:0:0:0:
298,192,141156,1,0,0:0:0:0:
469,192,141156,1,0,0:0:0:0:
42,192,141156,1,0,0:0:0:0:
128,192,141156,1,0,0:0:0:0:
213,192,141244,1,0,0:0:0:0:
384,192,141244,1,0,0:0:0:0:
298,192,141332,1,0,0:0:0:0:
128,192,141332,1,0,0:0:0:0:
42,192,141332,1,0,0:0:0:0:
213,192,141421,1,0,0:0:0:0:
384,192,141421,1,0,0:0:0:0:
298,192,141509,1,0,0:0:0:0:
469,192,141509,1,0,0:0:0:0:
213,192,141685,1,0,0:0:0:0:
384,192,141685,1,0,0:0:0:0:
469,192,141685,1,0,0:0:0:0:
128,192,141774,1,0,0:0:0:0:
298,192,141774,1,0,0:0:0:0:
213,192,141862,1,0,0:0:0:0:
384,192,141862,1,0,0:0:0:0:
298,192,141950,1,0,0:0:0:0:
128,192,141950,1,0,0:0:0:0:
213,192,142038,1,0,0:0:0:0:
42,192,142038,1,0,0:0:0:0:
469,192,142038,1,0,0:0:0:0:
128,192,142215,1,0,0:0:0:0:
298,192,142215,1,0,0:0:0:0:
213,192,142303,1,0,0:0:0:0:
384,192,142303,1,0,0:0:0:0:
298,192,142391,1,0,0:0:0:0:
128,192,142391,1,0,0:0:0:0:
42,192,142391,1,0,0:0:0:0:
384,192,142479,1,0,0:0:0:0:
469,192,142479,1,0,0:0:0:0:
128,192,142568,1,0,0:0:0:0:
42,192,142568,1,0,0:0:0:0:
213,192,142568,1,0,0:0:0:0:
384,192,142612,1,0,0:0:0:0:
469,192,142656,1,0,0:0:0:0:
298,192,142656,1,0,0:0:0:0:
213,192,142700,1,0,0:0:0:0:
42,192,142744,1,0,0:0:0:0:
128,192,142744,1,0,0:0:0:0:
298,192,142788,1,0,0:0:0:0:
469,192,142832,1,0,0:0:0:0:
384,192,142832,1,0,0:0:0:0:
128,192,142877,1,0,0:0:0:0:
42,192,142921,1,0,0:0:0:0:
213,192,142921,1,0,0:0:0:0:
298,192,142965,1,0,0:0:0:0:
469,192,143009,1,0,0:0:0:0:
384,192,143009,1,0,0:0:0:0:
213,192,143053,1,0,0:0:0:0:
128,192,143097,1,0,0:0:0:0:
42,192,143097,1,0,0:0:0:0:
384,192,143141,1,0,0:0:0:0:
298,192,143185,1,0,0:0:0:0:
469,192,143185,1,0,0:0:0:0:
213,192,143229,1,0,0:0:0:0:
128,192,143274,1,0,0:0:0:0:
42,192,143274,1,0,0:0:0:0:
298,192,143318,1,0,0:0:0:0:
384,192,143362,1,0,0:0:0:0:
469,192,143362,1,0,0:0:0:0:
128,192,143406,1,0,0:0:0:0:
213,192,143450,1,0,0:0:0:0:
42,192,143450,1,0,0:0:0:0:
298,192,143494,1,0,0:0:0:0:
384,192,143538,1,0,0:0:0:0:
469,192,143538,1,0,0:0:0:0:
213,192,143582,1,0,0:0:0:0:
128,192,143627,1,0,0:0:0:0:
42,192,143627,1,0,0:0:0:0:
384,192,143671,1,0,0:0:0:0:
298,192,143715,1,0,0:0:0:0:
469,192,143715,1,0,0:0:0:0:
213,192,143759,1,0,0:0:0:0:
128,192,143803,1,0,0:0:0:0:
42,192,143803,1,0,0:0:0:0:
298,192,143847,1,0,0:0:0:0:
384,192,143891,1,0,0:0:0:0:
469,192,143891,1,0,0:0:0:0:
213,192,143935,1,0,0:0:0:0:
128,192,143979,1,0,0:0:0:0:
42,192,143979,1,0,0:0:0:0:
298,192,143979,1,0,0:0:0:0:
384,192,144068,1,0,0:0:0:0:
213,192,144068,1,0,0:0:0:0:
42,192,144156,1,0,0:0:0:0:
298,192,144156,1,0,0:0:0:0:
469,192,144156,1,0,0:0:0:0:
128,192,144244,1,0,0:0:0:0:
384,192,144244,1,0,0:0:0:0:
213,192,144332,1,0,0:0:0:0:
42,192,144332,1,0,0:0:0:0:
469,192,144332,1,0,0:0:0:0:
128,192,144421,1,0,0:0:0:0:
298,192,144421,1,0,0:0:0:0:
42,192,144509,1,0,0:0:0:0:
213,192,144509,1,0,0:0:0:0:
469,192,144509,1,0,0:0:0:0:
128,192,144597,1,0,0:0:0:0:
384,192,144597,1,0,0:0:0:0:
298,192,144685,1,0,0:0:0:0:
42,192,144685,1,0,0:0:0:0:
469,192,144685,1,0,0:0:0:0:
384,192,144774,1,0,0:0:0:0:
213,192,144774,1,0,0:0:0:0:
298,192,144862,1,0,0:0:0:0:
128,192,144862,1,0,0:0:0:0:
42,192,144862,1,0,0:0:0:0:
213,192,144950,1,0,0:0:0:0:
469,192,144950,1,0,0:0:0:0:
384,192,145038,1,0,0:0:0:0:
128,192,145038,1,0,0:0:0:0:
42,192,145038,1,0,0:0:0:0:
213,192,145127,1,0,0:0:0:0:
298,192,145127,1,0,0:0:0:0:
42,192,145215,1,0,0:0:0:0:
128,192,145215,1,0,0:0:0:0:
469,192,145215,1,0,0:0:0:0:
384,192,145303,1,0,0:0:0:0:
298,192,145303,1,0,0:0:0:0:
213,192,145391,1,0,0:0:0:0:
128,192,145391,1,0,0:0:0:0:
42,192,145391,1,0,0:0:0:0:
298,192,145479,1,0,0:0:0:0:
384,192,145479,1,0,0:0:0:0:
469,192,145479,1,0,0:0:0:0:
213,192,145568,1,0,0:0:0:0:
128,192,145568,1,0,0:0:0:0:
42,192,145568,1,0,0:0:0:0:
298,192,145656,1,0,0:0:0:0:
384,192,145656,1,0,0:0:0:0:
469,192,145656,1,0,0:0:0:0:
213,192,145744,1,0,0:0:0:0:
128,192,145744,1,0,0:0:0:0:
42,192,145744,1,0,0:0:0:0:
298,192,145832,1,0,0:0:0:0:
384,192,145832,1,0,0:0:0:0:
469,192,145832,1,0,0:0:0:0:
213,192,145921,1,0,0:0:0:0:
128,192,145921,1,0,0:0:0:0:
42,192,145921,1,0,0:0:0:0:
298,192,146009,1,0,0:0:0:0:
384,192,146009,1,0,0:0:0:0:
469,192,146009,1,0,0:0:0:0:
128,192,146097,1,0,0:0:0:0:
42,192,146097,1,0,0:0:0:0:
213,192,146097,1,0,0:0:0:0:
298,192,146185,1,0,0:0:0:0:
384,192,146274,1,0,0:0:0:0:
469,192,146274,1,0,0:0:0:0:
42,192,146362,1,0,0:0:0:0:
128,192,146362,1,0,0:0:0:0:
298,192,146362,1,0,0:0:0:0:
213,192,146450,1,0,0:0:0:0:
42,192,146538,1,0,0:0:0:0:
384,192,146627,1,0,0:0:0:0:
469,192,146627,1,0,0:0:0:0:
128,192,146627,1,0,0:0:0:0:
213,192,146671,1,0,0:0:0:0:
298,192,146715,1,0,0:0:0:0:
384,192,146759,1,0,0:0:0:0:
213,192,146803,1,0,0:0:0:0:
128,192,146803,1,0,0:0:0:0:
42,192,146803,1,0,0:0:0:0:
