osu file format v14

[General]
AudioFilename: Sheriruth (Laur Remix)_11.mp3
AudioLeadIn: 0
PreviewTime: 39608
Countdown: 0
SampleSet: Normal
StackLeniency: 0.7
Mode: 3
LetterboxInBreaks: 0
SpecialStyle: 0
WidescreenStoryboard: 0

[Editor]
Bookmarks: 66008,99608
DistanceSpacing: 0.8
BeatDivisor: 4
GridSize: 4
TimelineZoom: 2.9

[Metadata]
Title:tyrcs' 6K Collection Pack
TitleUnicode:tyrcs' 6K Collection Pack
Artist:Various Artists
ArtistUnicode:Various Artists
Creator:tyrcs
Version:Laur - Sheriruth (Laur Remix) [19]
Source:
Tags:BMS The Quick Brown Fox Break TQBF renard LeaF 失望Choco Shitsubou Choco goreshit slavik goblins Aitsuki Nakuru 藍月なくる Monochrome Butterfly 現実をカットアップしてみた yu^ta Genjitsu o Cut-up Shite Mita -45 Aci-L A c i - L Yoshikawa-45 cornandbeans {Blaze} 八大地獄邪魂転生狂葬散火歌 さかみりと Sakamirito Hachidaijigoku Jakontensei Kyousou Sanbika Sakamiya 一之瀬りと Rito Ichinose かめりあ feat. ななひら ベィスドロップ・フリークス Camellia feat. Nanahira Bassdrop Freaks DEAF KEV Invincible ueotan Mario Paint (Time Regression Mix for BMS) Oerba Tanaka Vanilla Y ヲルバ=田中・ヴァニラ Schwerkraft ROKINA ロキナ Silentroom Nhelv SHAGAN DAISHI KAKU P-MODEL 遮眼大師 核P-MODEL 平沢進 Susumu Hirasawa ああああ AAAA lifework LUZE LuzeriA ルゼ katagiri ch3rry cherry かたぎり Laur Sheriruth (Laur Remix) Team Grimoire vs. Laur Grievous Lady Getty vs. DJ DiA Ops Code Rapture Vicetone & Tony Igy Astronomia (Camellia Remix) Coffin Dance かめりあ Fastest Crash Cut Tatsh reunion Asymmetry Reol アシンメトリー れをる
BeatmapID:3507119
BeatmapSetID:1716337

[Difficulty]
HPDrainRate:8
CircleSize:6
OverallDifficulty:8
ApproachRate:5
SliderMultiplier:1.4
SliderTickRate:1

[Events]
//Background and Video events
0,0,"tyrcs' 6K Collection Pack_10.jpg",0,0
//Break Periods
//Storyboard Layer 0 (Background)
//Storyboard Layer 1 (Fail)
//Storyboard Layer 2 (Pass)
//Storyboard Layer 3 (Foreground)
//Storyboard Layer 4 (Overlay)
//Storyboard Sound Samples

[TimingPoints]
8,300,4,1,0,5,1,0

[HitObjects]
384,192,83,128,0,1208:0:0:0:0:
213,192,1208,1,0,0:0:0:0:
128,192,1208,128,0,1283:0:0:0:0:
42,192,1208,128,0,1283:0:0:0:0:
469,192,1208,128,0,1358:0:0:0:0:
213,192,1358,128,0,1433:0:0:0:0:
298,192,1358,128,0,1433:0:0:0:0:
384,192,1508,128,0,1583:0:0:0:0:
469,192,1508,128,0,1583:0:0:0:0:
213,192,1658,128,0,1733:0:0:0:0:
128,192,1658,128,0,1733:0:0:0:0:
213,192,1958,128,0,2033:0:0:0:0:
298,192,1958,128,0,2033:0:0:0:0:
298,192,2258,128,0,2333:0:0:0:0:
384,192,2258,128,0,2333:0:0:0:0:
128,192,2408,128,0,2483:0:0:0:0:
42,192,2408,128,0,2483:0:0:0:0:
213,192,2558,128,0,2633:0:0:0:0:
298,192,2558,128,0,2633:0:0:0:0:
384,192,2708,128,0,2783:0:0:0:0:
469,192,2708,128,0,2783:0:0:0:0:
213,192,2858,128,0,2933:0:0:0:0:
42,192,2858,128,0,2933:0:0:0:0:
298,192,3158,128,0,3233:0:0:0:0:
469,192,3158,128,0,3233:0:0:0:0:
384,192,3458,128,0,3533:0:0:0:0:
128,192,3458,128,0,3533:0:0:0:0:
128,192,3608,128,0,3683:0:0:0:0:
42,192,3608,128,0,3683:0:0:0:0:
298,192,3608,1,0,0:0:0:0:
469,192,3608,128,0,3758:0:0:0:0:
213,192,3758,128,0,3833:0:0:0:0:
298,192,3758,128,0,3833:0:0:0:0:
128,192,3758,1,0,0:0:0:0:
42,192,3833,1,0,0:0:0:0:
384,192,3908,128,0,3983:0:0:0:0:
469,192,3908,128,0,3983:0:0:0:0:
213,192,3908,1,0,0:0:0:0:
128,192,4058,128,0,4133:0:0:0:0:
213,192,4058,128,0,4133:0:0:0:0:
42,192,4058,1,0,0:0:0:0:
469,192,4058,1,0,0:0:0:0:
213,192,4358,128,0,4433:0:0:0:0:
298,192,4358,128,0,4433:0:0:0:0:
42,192,4358,1,0,0:0:0:0:
469,192,4358,1,0,0:0:0:0:
128,192,4433,1,0,0:0:0:0:
42,192,4508,1,0,0:0:0:0:
213,192,4583,1,0,0:0:0:0:
298,192,4658,128,0,4733:0:0:0:0:
384,192,4658,128,0,4733:0:0:0:0:
128,192,4658,1,0,0:0:0:0:
213,192,4733,1,0,0:0:0:0:
42,192,4808,1,0,0:0:0:0:
298,192,4808,1,0,0:0:0:0:
384,192,4808,128,0,4883:0:0:0:0:
469,192,4808,128,0,4883:0:0:0:0:
213,192,4958,1,0,0:0:0:0:
128,192,5033,1,0,0:0:0:0:
384,192,5108,128,0,5183:0:0:0:0:
469,192,5108,128,0,5183:0:0:0:0:
42,192,5108,1,0,0:0:0:0:
298,192,5108,1,0,0:0:0:0:
298,192,5258,128,0,5333:0:0:0:0:
384,192,5258,128,0,5333:0:0:0:0:
213,192,5258,1,0,0:0:0:0:
42,192,5258,1,0,0:0:0:0:
128,192,5408,1,0,0:0:0:0:
213,192,5483,1,0,0:0:0:0:
298,192,5558,128,0,5633:0:0:0:0:
384,192,5558,128,0,5633:0:0:0:0:
128,192,5558,1,0,0:0:0:0:
42,192,5558,1,0,0:0:0:0:
128,192,5708,1,0,0:0:0:0:
213,192,5783,1,0,0:0:0:0:
298,192,5858,128,0,5933:0:0:0:0:
384,192,5858,128,0,5933:0:0:0:0:
128,192,5858,1,0,0:0:0:0:
42,192,5858,1,0,0:0:0:0:
213,192,5933,1,0,0:0:0:0:
128,192,6008,128,0,6083:0:0:0:0:
42,192,6008,128,0,6083:0:0:0:0:
298,192,6008,1,0,0:0:0:0:
469,192,6008,128,0,6158:0:0:0:0:
213,192,6158,128,0,6233:0:0:0:0:
298,192,6158,128,0,6233:0:0:0:0:
384,192,6308,128,0,6383:0:0:0:0:
469,192,6308,128,0,6383:0:0:0:0:
213,192,6458,128,0,6533:0:0:0:0:
128,192,6458,128,0,6533:0:0:0:0:
213,192,6758,128,0,6833:0:0:0:0:
298,192,6758,128,0,6833:0:0:0:0:
298,192,7058,128,0,7133:0:0:0:0:
384,192,7058,128,0,7133:0:0:0:0:
128,192,7208,128,0,7283:0:0:0:0:
42,192,7208,128,0,7283:0:0:0:0:
213,192,7358,128,0,7433:0:0:0:0:
298,192,7358,128,0,7433:0:0:0:0:
384,192,7508,128,0,7583:0:0:0:0:
469,192,7508,128,0,7583:0:0:0:0:
213,192,7658,128,0,7733:0:0:0:0:
42,192,7658,128,0,7733:0:0:0:0:
298,192,7958,128,0,8033:0:0:0:0:
469,192,7958,128,0,8033:0:0:0:0:
384,192,8258,128,0,8333:0:0:0:0:
128,192,8258,128,0,8333:0:0:0:0:
128,192,8408,128,0,8483:0:0:0:0:
42,192,8408,128,0,8483:0:0:0:0:
298,192,8408,1,0,0:0:0:0:
469,192,8408,128,0,8558:0:0:0:0:
213,192,8558,128,0,8633:0:0:0:0:
298,192,8558,128,0,8633:0:0:0:0:
128,192,8558,1,0,0:0:0:0:
42,192,8633,1,0,0:0:0:0:
384,192,8708,128,0,8783:0:0:0:0:
469,192,8708,128,0,8783:0:0:0:0:
213,192,8708,1,0,0:0:0:0:
128,192,8858,128,0,8933:0:0:0:0:
213,192,8858,128,0,8933:0:0:0:0:
42,192,8858,1,0,0:0:0:0:
469,192,8858,1,0,0:0:0:0:
213,192,9158,128,0,9233:0:0:0:0:
298,192,9158,128,0,9233:0:0:0:0:
42,192,9158,1,0,0:0:0:0:
469,192,9158,1,0,0:0:0:0:
128,192,9233,1,0,0:0:0:0:
42,192,9308,1,0,0:0:0:0:
213,192,9383,1,0,0:0:0:0:
298,192,9458,128,0,9533:0:0:0:0:
384,192,9458,128,0,9533:0:0:0:0:
128,192,9458,1,0,0:0:0:0:
213,192,9533,1,0,0:0:0:0:
42,192,9608,1,0,0:0:0:0:
298,192,9608,1,0,0:0:0:0:
384,192,9608,128,0,9683:0:0:0:0:
469,192,9608,128,0,9683:0:0:0:0:
213,192,9758,1,0,0:0:0:0:
128,192,9833,1,0,0:0:0:0:
384,192,9908,128,0,9983:0:0:0:0:
469,192,9908,128,0,9983:0:0:0:0:
42,192,9908,1,0,0:0:0:0:
298,192,9908,1,0,0:0:0:0:
298,192,10058,128,0,10133:0:0:0:0:
384,192,10058,128,0,10133:0:0:0:0:
213,192,10058,1,0,0:0:0:0:
42,192,10058,1,0,0:0:0:0:
128,192,10208,1,0,0:0:0:0:
213,192,10283,1,0,0:0:0:0:
298,192,10358,128,0,10433:0:0:0:0:
384,192,10358,128,0,10433:0:0:0:0:
128,192,10358,1,0,0:0:0:0:
42,192,10358,1,0,0:0:0:0:
128,192,10508,1,0,0:0:0:0:
213,192,10583,1,0,0:0:0:0:
298,192,10658,128,0,10733:0:0:0:0:
384,192,10658,128,0,10733:0:0:0:0:
128,192,10658,1,0,0:0:0:0:
42,192,10658,1,0,0:0:0:0:
213,192,10733,1,0,0:0:0:0:
42,192,10808,1,0,0:0:0:0:
298,192,10808,1,0,0:0:0:0:
384,192,10808,1,0,0:0:0:0:
469,192,10808,1,0,0:0:0:0:
213,192,10958,1,0,0:0:0:0:
42,192,11108,1,0,0:0:0:0:
469,192,11258,1,0,0:0:0:0:
298,192,11258,1,0,0:0:0:0:
384,192,11558,1,0,0:0:0:0:
298,192,11858,1,0,0:0:0:0:
384,192,12008,1,0,0:0:0:0:
213,192,12158,1,0,0:0:0:0:
469,192,12158,1,0,0:0:0:0:
128,192,12308,1,0,0:0:0:0:
384,192,12308,1,0,0:0:0:0:
42,192,12458,1,0,0:0:0:0:
298,192,12458,1,0,0:0:0:0:
128,192,12758,1,0,0:0:0:0:
384,192,12758,1,0,0:0:0:0:
213,192,13058,1,0,0:0:0:0:
469,192,13058,1,0,0:0:0:0:
298,192,13208,1,0,0:0:0:0:
42,192,13208,1,0,0:0:0:0:
128,192,13358,1,0,0:0:0:0:
298,192,13508,1,0,0:0:0:0:
128,192,13658,1,0,0:0:0:0:
469,192,13658,1,0,0:0:0:0:
384,192,13958,1,0,0:0:0:0:
42,192,14108,1,0,0:0:0:0:
298,192,14258,1,0,0:0:0:0:
469,192,14408,1,0,0:0:0:0:
128,192,14408,1,0,0:0:0:0:
298,192,14483,1,0,0:0:0:0:
469,192,14558,1,0,0:0:0:0:
42,192,14558,1,0,0:0:0:0:
298,192,14633,1,0,0:0:0:0:
469,192,14708,1,0,0:0:0:0:
128,192,14708,1,0,0:0:0:0:
384,192,14783,1,0,0:0:0:0:
298,192,14858,1,0,0:0:0:0:
42,192,14858,1,0,0:0:0:0:
213,192,14933,1,0,0:0:0:0:
384,192,15008,1,0,0:0:0:0:
469,192,15008,1,0,0:0:0:0:
298,192,15083,1,0,0:0:0:0:
213,192,15158,1,0,0:0:0:0:
384,192,15158,1,0,0:0:0:0:
128,192,15233,1,0,0:0:0:0:
42,192,15308,1,0,0:0:0:0:
298,192,15308,1,0,0:0:0:0:
213,192,15383,1,0,0:0:0:0:
42,192,15458,1,0,0:0:0:0:
298,192,15458,1,0,0:0:0:0:
213,192,15533,1,0,0:0:0:0:
128,192,15608,1,0,0:0:0:0:
384,192,15608,1,0,0:0:0:0:
469,192,15608,1,0,0:0:0:0:
298,192,15683,1,0,0:0:0:0:
213,192,15758,1,0,0:0:0:0:
42,192,15758,1,0,0:0:0:0:
298,192,15833,1,0,0:0:0:0:
469,192,15908,1,0,0:0:0:0:
128,192,15908,1,0,0:0:0:0:
298,192,15983,1,0,0:0:0:0:
213,192,16058,1,0,0:0:0:0:
42,192,16058,1,0,0:0:0:0:
298,192,16133,1,0,0:0:0:0:
469,192,16208,1,0,0:0:0:0:
384,192,16283,1,0,0:0:0:0:
213,192,16358,1,0,0:0:0:0:
42,192,16358,1,0,0:0:0:0:
384,192,16433,1,0,0:0:0:0:
469,192,16508,1,0,0:0:0:0:
213,192,16508,1,0,0:0:0:0:
384,192,16583,1,0,0:0:0:0:
298,192,16658,1,0,0:0:0:0:
128,192,16658,1,0,0:0:0:0:
42,192,16658,1,0,0:0:0:0:
384,192,16733,1,0,0:0:0:0:
469,192,16808,1,0,0:0:0:0:
213,192,16808,1,0,0:0:0:0:
42,192,16808,1,0,0:0:0:0:
128,192,16883,1,0,0:0:0:0:
213,192,16958,1,0,0:0:0:0:
384,192,16958,1,0,0:0:0:0:
128,192,17033,1,0,0:0:0:0:
42,192,17108,1,0,0:0:0:0:
298,192,17108,1,0,0:0:0:0:
128,192,17183,1,0,0:0:0:0:
298,192,17258,1,0,0:0:0:0:
469,192,17258,1,0,0:0:0:0:
384,192,17258,1,0,0:0:0:0:
128,192,17333,1,0,0:0:0:0:
42,192,17408,1,0,0:0:0:0:
213,192,17483,1,0,0:0:0:0:
298,192,17558,1,0,0:0:0:0:
469,192,17558,1,0,0:0:0:0:
213,192,17633,1,0,0:0:0:0:
42,192,17708,1,0,0:0:0:0:
213,192,17783,1,0,0:0:0:0:
298,192,17858,1,0,0:0:0:0:
128,192,17858,1,0,0:0:0:0:
469,192,17858,1,0,0:0:0:0:
213,192,17933,1,0,0:0:0:0:
42,192,17933,1,0,0:0:0:0:
128,192,18008,1,0,0:0:0:0:
469,192,18008,1,0,0:0:0:0:
384,192,18008,1,0,0:0:0:0:
298,192,18083,1,0,0:0:0:0:
213,192,18158,1,0,0:0:0:0:
42,192,18158,1,0,0:0:0:0:
469,192,18158,1,0,0:0:0:0:
384,192,18233,1,0,0:0:0:0:
298,192,18308,1,0,0:0:0:0:
128,192,18308,1,0,0:0:0:0:
42,192,18308,1,0,0:0:0:0:
384,192,18383,1,0,0:0:0:0:
469,192,18458,1,0,0:0:0:0:
128,192,18458,1,0,0:0:0:0:
213,192,18458,1,0,0:0:0:0:
384,192,18533,1,0,0:0:0:0:
298,192,18608,1,0,0:0:0:0:
213,192,18608,1,0,0:0:0:0:
42,192,18608,1,0,0:0:0:0:
128,192,18683,1,0,0:0:0:0:
213,192,18758,1,0,0:0:0:0:
384,192,18758,1,0,0:0:0:0:
469,192,18758,1,0,0:0:0:0:
128,192,18833,1,0,0:0:0:0:
42,192,18908,1,0,0:0:0:0:
298,192,18908,1,0,0:0:0:0:
384,192,18908,1,0,0:0:0:0:
128,192,18983,1,0,0:0:0:0:
213,192,19058,1,0,0:0:0:0:
298,192,19058,1,0,0:0:0:0:
469,192,19058,1,0,0:0:0:0:
128,192,19133,1,0,0:0:0:0:
384,192,19133,1,0,0:0:0:0:
298,192,19208,1,0,0:0:0:0:
42,192,19208,1,0,0:0:0:0:
469,192,19245,1,0,0:0:0:0:
384,192,19283,1,0,0:0:0:0:
213,192,19283,1,0,0:0:0:0:
298,192,19358,1,0,0:0:0:0:
128,192,19358,1,0,0:0:0:0:
213,192,19433,1,0,0:0:0:0:
42,192,19433,1,0,0:0:0:0:
128,192,19508,1,0,0:0:0:0:
384,192,19508,1,0,0:0:0:0:
469,192,19545,1,0,0:0:0:0:
298,192,19583,1,0,0:0:0:0:
42,192,19583,1,0,0:0:0:0:
213,192,19658,1,0,0:0:0:0:
469,192,19658,1,0,0:0:0:0:
384,192,19733,1,0,0:0:0:0:
128,192,19733,1,0,0:0:0:0:
298,192,19808,1,0,0:0:0:0:
42,192,19808,1,0,0:0:0:0:
469,192,19845,1,0,0:0:0:0:
213,192,19883,1,0,0:0:0:0:
128,192,19920,1,0,0:0:0:0:
298,192,19958,1,0,0:0:0:0:
384,192,19995,1,0,0:0:0:0:
213,192,20033,1,0,0:0:0:0:
42,192,20070,1,0,0:0:0:0:
469,192,20108,1,0,0:0:0:0:
298,192,20145,1,0,0:0:0:0:
128,192,20183,1,0,0:0:0:0:
213,192,20220,1,0,0:0:0:0:
384,192,20258,1,0,0:0:0:0:
298,192,20295,1,0,0:0:0:0:
42,192,20333,1,0,0:0:0:0:
213,192,20370,1,0,0:0:0:0:
128,192,20408,1,0,0:0:0:0:
469,192,20408,1,0,0:0:0:0:
384,192,20408,1,0,0:0:0:0:
298,192,20483,1,0,0:0:0:0:
42,192,20520,1,0,0:0:0:0:
213,192,20558,1,0,0:0:0:0:
128,192,20633,1,0,0:0:0:0:
469,192,20708,1,0,0:0:0:0:
298,192,20708,1,0,0:0:0:0:
213,192,20783,1,0,0:0:0:0:
42,192,20858,1,0,0:0:0:0:
128,192,20933,1,0,0:0:0:0:
298,192,21008,1,0,0:0:0:0:
469,192,21008,1,0,0:0:0:0:
298,192,21083,1,0,0:0:0:0:
213,192,21158,1,0,0:0:0:0:
128,192,21233,1,0,0:0:0:0:
469,192,21308,1,0,0:0:0:0:
298,192,21308,1,0,0:0:0:0:
213,192,21383,1,0,0:0:0:0:
384,192,21458,1,0,0:0:0:0:
128,192,21495,1,0,0:0:0:0:
213,192,21533,1,0,0:0:0:0:
384,192,21608,1,0,0:0:0:0:
469,192,21608,1,0,0:0:0:0:
42,192,21683,1,0,0:0:0:0:
298,192,21758,1,0,0:0:0:0:
213,192,21833,1,0,0:0:0:0:
469,192,21908,1,0,0:0:0:0:
128,192,21908,1,0,0:0:0:0:
298,192,21945,1,0,0:0:0:0:
128,192,21983,1,0,0:0:0:0:
128,192,22058,1,0,0:0:0:0:
128,192,22133,1,0,0:0:0:0:
469,192,22208,1,0,0:0:0:0:
384,192,22208,1,0,0:0:0:0:
298,192,22283,1,0,0:0:0:0:
213,192,22358,1,0,0:0:0:0:
384,192,22433,1,0,0:0:0:0:
213,192,22508,1,0,0:0:0:0:
469,192,22508,1,0,0:0:0:0:
298,192,22583,1,0,0:0:0:0:
128,192,22620,1,0,0:0:0:0:
42,192,22658,1,0,0:0:0:0:
42,192,22733,1,0,0:0:0:0:
469,192,22808,1,0,0:0:0:0:
128,192,22883,1,0,0:0:0:0:
213,192,22958,1,0,0:0:0:0:
298,192,23033,1,0,0:0:0:0:
469,192,23108,1,0,0:0:0:0:
42,192,23108,1,0,0:0:0:0:
213,192,23158,1,0,0:0:0:0:
42,192,23208,1,0,0:0:0:0:
213,192,23258,1,0,0:0:0:0:
42,192,23308,1,0,0:0:0:0:
213,192,23358,1,0,0:0:0:0:
469,192,23408,1,0,0:0:0:0:
128,192,23408,1,0,0:0:0:0:
213,192,23483,1,0,0:0:0:0:
298,192,23558,1,0,0:0:0:0:
384,192,23633,1,0,0:0:0:0:
213,192,23708,1,0,0:0:0:0:
469,192,23708,1,0,0:0:0:0:
42,192,23783,1,0,0:0:0:0:
384,192,23858,1,0,0:0:0:0:
213,192,23933,1,0,0:0:0:0:
128,192,24008,1,0,0:0:0:0:
469,192,24008,1,0,0:0:0:0:
298,192,24008,1,0,0:0:0:0:
384,192,24083,1,0,0:0:0:0:
298,192,24158,1,0,0:0:0:0:
42,192,24158,1,0,0:0:0:0:
384,192,24233,1,0,0:0:0:0:
42,192,24233,1,0,0:0:0:0:
298,192,24308,1,0,0:0:0:0:
469,192,24308,1,0,0:0:0:0:
128,192,24308,1,0,0:0:0:0:
384,192,24383,1,0,0:0:0:0:
213,192,24383,1,0,0:0:0:0:
298,192,24458,1,0,0:0:0:0:
128,192,24458,1,0,0:0:0:0:
213,192,24533,1,0,0:0:0:0:
384,192,24533,1,0,0:0:0:0:
298,192,24608,1,0,0:0:0:0:
469,192,24608,1,0,0:0:0:0:
42,192,24608,1,0,0:0:0:0:
128,192,24683,1,0,0:0:0:0:
384,192,24683,1,0,0:0:0:0:
469,192,24758,1,0,0:0:0:0:
213,192,24758,1,0,0:0:0:0:
42,192,24833,1,0,0:0:0:0:
298,192,24833,1,0,0:0:0:0:
128,192,24908,1,0,0:0:0:0:
384,192,24908,1,0,0:0:0:0:
469,192,24908,1,0,0:0:0:0:
213,192,24983,1,0,0:0:0:0:
42,192,24983,1,0,0:0:0:0:
298,192,25058,1,0,0:0:0:0:
469,192,25058,1,0,0:0:0:0:
384,192,25133,1,0,0:0:0:0:
128,192,25133,1,0,0:0:0:0:
298,192,25208,1,0,0:0:0:0:
469,192,25208,1,0,0:0:0:0:
42,192,25208,1,0,0:0:0:0:
213,192,25283,1,0,0:0:0:0:
298,192,25358,1,0,0:0:0:0:
213,192,25433,1,0,0:0:0:0:
42,192,25508,1,0,0:0:0:0:
384,192,25508,1,0,0:0:0:0:
298,192,25583,1,0,0:0:0:0:
213,192,25658,1,0,0:0:0:0:
469,192,25695,1,0,0:0:0:0:
128,192,25733,1,0,0:0:0:0:
384,192,25770,1,0,0:0:0:0:
42,192,25808,1,0,0:0:0:0:
213,192,25808,1,0,0:0:0:0:
298,192,25883,1,0,0:0:0:0:
469,192,25958,1,0,0:0:0:0:
298,192,26033,1,0,0:0:0:0:
384,192,26108,1,0,0:0:0:0:
42,192,26108,1,0,0:0:0:0:
128,192,26183,1,0,0:0:0:0:
384,192,26258,1,0,0:0:0:0:
213,192,26333,1,0,0:0:0:0:
42,192,26408,1,0,0:0:0:0:
298,192,26408,1,0,0:0:0:0:
469,192,26483,1,0,0:0:0:0:
384,192,26558,1,0,0:0:0:0:
469,192,26633,1,0,0:0:0:0:
213,192,26708,1,0,0:0:0:0:
42,192,26708,1,0,0:0:0:0:
384,192,26745,1,0,0:0:0:0:
469,192,26783,1,0,0:0:0:0:
128,192,26820,1,0,0:0:0:0:
213,192,26858,1,0,0:0:0:0:
384,192,26895,1,0,0:0:0:0:
469,192,26933,1,0,0:0:0:0:
128,192,26970,1,0,0:0:0:0:
42,192,27008,1,0,0:0:0:0:
298,192,27008,1,0,0:0:0:0:
384,192,27083,1,0,0:0:0:0:
469,192,27158,1,0,0:0:0:0:
213,192,27233,1,0,0:0:0:0:
42,192,27308,1,0,0:0:0:0:
384,192,27308,1,0,0:0:0:0:
128,192,27383,1,0,0:0:0:0:
298,192,27458,1,0,0:0:0:0:
298,192,27533,1,0,0:0:0:0:
213,192,27608,1,0,0:0:0:0:
42,192,27608,1,0,0:0:0:0:
469,192,27683,1,0,0:0:0:0:
298,192,27758,1,0,0:0:0:0:
384,192,27833,1,0,0:0:0:0:
42,192,27908,1,0,0:0:0:0:
213,192,27908,1,0,0:0:0:0:
469,192,27983,1,0,0:0:0:0:
384,192,28020,1,0,0:0:0:0:
128,192,28058,1,0,0:0:0:0:
213,192,28133,1,0,0:0:0:0:
42,192,28208,1,0,0:0:0:0:
384,192,28208,1,0,0:0:0:0:
298,192,28283,1,0,0:0:0:0:
128,192,28358,1,0,0:0:0:0:
213,192,28395,1,0,0:0:0:0:
384,192,28433,1,0,0:0:0:0:
128,192,28508,1,0,0:0:0:0:
42,192,28508,1,0,0:0:0:0:
298,192,28545,1,0,0:0:0:0:
384,192,28583,1,0,0:0:0:0:
213,192,28658,1,0,0:0:0:0:
298,192,28695,1,0,0:0:0:0:
469,192,28733,1,0,0:0:0:0:
42,192,28808,1,0,0:0:0:0:
213,192,28808,1,0,0:0:0:0:
384,192,28808,1,0,0:0:0:0:
128,192,28883,1,0,0:0:0:0:
213,192,28958,1,0,0:0:0:0:
469,192,28958,1,0,0:0:0:0:
128,192,29033,1,0,0:0:0:0:
384,192,29033,1,0,0:0:0:0:
42,192,29108,1,0,0:0:0:0:
213,192,29108,1,0,0:0:0:0:
298,192,29108,1,0,0:0:0:0:
128,192,29183,1,0,0:0:0:0:
384,192,29183,1,0,0:0:0:0:
213,192,29258,1,0,0:0:0:0:
298,192,29258,1,0,0:0:0:0:
128,192,29333,1,0,0:0:0:0:
384,192,29333,1,0,0:0:0:0:
298,192,29408,1,0,0:0:0:0:
42,192,29408,1,0,0:0:0:0:
469,192,29408,1,0,0:0:0:0:
213,192,29483,1,0,0:0:0:0:
384,192,29483,1,0,0:0:0:0:
298,192,29558,1,0,0:0:0:0:
469,192,29558,1,0,0:0:0:0:
128,192,29595,1,0,0:0:0:0:
384,192,29633,1,0,0:0:0:0:
213,192,29633,1,0,0:0:0:0:
469,192,29708,1,0,0:0:0:0:
128,192,29708,1,0,0:0:0:0:
42,192,29708,128,0,29745:0:0:0:0:
298,192,29783,128,0,29820:0:0:0:0:
128,192,29858,128,0,29895:0:0:0:0:
213,192,29933,128,0,29970:0:0:0:0:
42,192,30008,1,0,0:0:0:0:
469,192,30008,1,0,0:0:0:0:
384,192,30008,1,0,0:0:0:0:
128,192,30045,1,0,0:0:0:0:
213,192,30083,1,0,0:0:0:0:
298,192,30120,1,0,0:0:0:0:
384,192,30158,1,0,0:0:0:0:
213,192,30195,1,0,0:0:0:0:
298,192,30233,1,0,0:0:0:0:
384,192,30270,1,0,0:0:0:0:
469,192,30308,1,0,0:0:0:0:
42,192,30308,1,0,0:0:0:0:
213,192,30383,1,0,0:0:0:0:
42,192,30383,1,0,0:0:0:0:
298,192,30458,1,0,0:0:0:0:
469,192,30458,1,0,0:0:0:0:
298,192,30533,1,0,0:0:0:0:
128,192,30533,1,0,0:0:0:0:
42,192,30608,1,0,0:0:0:0:
469,192,30608,1,0,0:0:0:0:
384,192,30645,1,0,0:0:0:0:
213,192,30683,1,0,0:0:0:0:
128,192,30720,1,0,0:0:0:0:
384,192,30758,1,0,0:0:0:0:
298,192,30795,1,0,0:0:0:0:
128,192,30833,1,0,0:0:0:0:
42,192,30870,1,0,0:0:0:0:
213,192,30908,1,0,0:0:0:0:
469,192,30908,1,0,0:0:0:0:
298,192,30983,1,0,0:0:0:0:
469,192,30983,1,0,0:0:0:0:
298,192,31058,1,0,0:0:0:0:
42,192,31058,1,0,0:0:0:0:
128,192,31095,1,0,0:0:0:0:
213,192,31133,1,0,0:0:0:0:
384,192,31170,1,0,0:0:0:0:
42,192,31208,1,0,0:0:0:0:
469,192,31208,1,0,0:0:0:0:
128,192,31258,1,0,0:0:0:0:
298,192,31283,1,0,0:0:0:0:
213,192,31320,1,0,0:0:0:0:
42,192,31358,1,0,0:0:0:0:
384,192,31395,1,0,0:0:0:0:
298,192,31433,1,0,0:0:0:0:
128,192,31470,1,0,0:0:0:0:
213,192,31508,1,0,0:0:0:0:
469,192,31508,1,0,0:0:0:0:
384,192,31508,1,0,0:0:0:0:
213,192,31583,1,0,0:0:0:0:
469,192,31583,1,0,0:0:0:0:
298,192,31658,1,0,0:0:0:0:
42,192,31658,1,0,0:0:0:0:
42,192,31733,1,0,0:0:0:0:
298,192,31733,1,0,0:0:0:0:
213,192,31808,1,0,0:0:0:0:
469,192,31808,1,0,0:0:0:0:
128,192,31883,1,0,0:0:0:0:
42,192,31883,1,0,0:0:0:0:
298,192,31958,1,0,0:0:0:0:
469,192,31958,1,0,0:0:0:0:
298,192,32033,1,0,0:0:0:0:
469,192,32033,1,0,0:0:0:0:
213,192,32108,1,0,0:0:0:0:
42,192,32108,1,0,0:0:0:0:
384,192,32183,1,0,0:0:0:0:
298,192,32220,1,0,0:0:0:0:
213,192,32258,1,0,0:0:0:0:
128,192,32283,1,0,0:0:0:0:
384,192,32308,1,0,0:0:0:0:
298,192,32333,1,0,0:0:0:0:
213,192,32358,1,0,0:0:0:0:
128,192,32383,1,0,0:0:0:0:
42,192,32408,1,0,0:0:0:0:
469,192,32408,1,0,0:0:0:0:
298,192,32483,1,0,0:0:0:0:
384,192,32483,1,0,0:0:0:0:
213,192,32520,1,0,0:0:0:0:
42,192,32558,1,0,0:0:0:0:
384,192,32633,1,0,0:0:0:0:
469,192,32633,1,0,0:0:0:0:
298,192,32670,1,0,0:0:0:0:
42,192,32708,1,0,0:0:0:0:
128,192,32783,1,0,0:0:0:0:
213,192,32783,1,0,0:0:0:0:
213,192,32858,1,0,0:0:0:0:
298,192,32858,1,0,0:0:0:0:
298,192,32933,1,0,0:0:0:0:
384,192,32933,1,0,0:0:0:0:
469,192,33008,1,0,0:0:0:0:
42,192,33008,1,0,0:0:0:0:
298,192,33045,1,0,0:0:0:0:
128,192,33083,1,0,0:0:0:0:
213,192,33158,1,0,0:0:0:0:
42,192,33158,1,0,0:0:0:0:
469,192,33195,1,0,0:0:0:0:
128,192,33233,1,0,0:0:0:0:
298,192,33233,1,0,0:0:0:0:
213,192,33308,1,0,0:0:0:0:
384,192,33308,1,0,0:0:0:0:
469,192,33308,1,0,0:0:0:0:
42,192,33345,1,0,0:0:0:0:
298,192,33383,1,0,0:0:0:0:
469,192,33458,1,0,0:0:0:0:
128,192,33458,1,0,0:0:0:0:
384,192,33495,1,0,0:0:0:0:
213,192,33533,1,0,0:0:0:0:
42,192,33608,1,0,0:0:0:0:
298,192,33608,1,0,0:0:0:0:
469,192,33645,1,0,0:0:0:0:
213,192,33683,1,0,0:0:0:0:
384,192,33720,1,0,0:0:0:0:
298,192,33758,1,0,0:0:0:0:
469,192,33795,1,0,0:0:0:0:
213,192,33833,1,0,0:0:0:0:
384,192,33870,1,0,0:0:0:0:
298,192,33908,1,0,0:0:0:0:
42,192,33908,1,0,0:0:0:0:
128,192,33908,1,0,0:0:0:0:
213,192,33983,1,0,0:0:0:0:
469,192,33983,1,0,0:0:0:0:
384,192,34058,1,0,0:0:0:0:
128,192,34058,1,0,0:0:0:0:
213,192,34133,1,0,0:0:0:0:
469,192,34133,1,0,0:0:0:0:
298,192,34208,1,0,0:0:0:0:
128,192,34208,1,0,0:0:0:0:
42,192,34208,1,0,0:0:0:0:
213,192,34283,1,0,0:0:0:0:
469,192,34283,1,0,0:0:0:0:
128,192,34358,1,0,0:0:0:0:
384,192,34358,1,0,0:0:0:0:
42,192,34433,1,0,0:0:0:0:
298,192,34433,1,0,0:0:0:0:
469,192,34508,1,0,0:0:0:0:
213,192,34508,1,0,0:0:0:0:
384,192,34508,1,0,0:0:0:0:
298,192,34583,1,0,0:0:0:0:
128,192,34583,1,0,0:0:0:0:
213,192,34658,1,0,0:0:0:0:
384,192,34658,1,0,0:0:0:0:
298,192,34733,1,0,0:0:0:0:
128,192,34733,1,0,0:0:0:0:
42,192,34808,1,0,0:0:0:0:
213,192,34808,1,0,0:0:0:0:
469,192,34808,1,0,0:0:0:0:
384,192,34883,1,0,0:0:0:0:
298,192,34883,1,0,0:0:0:0:
213,192,34958,1,0,0:0:0:0:
298,192,34958,1,0,0:0:0:0:
213,192,35033,1,0,0:0:0:0:
128,192,35033,1,0,0:0:0:0:
469,192,35108,1,0,0:0:0:0:
384,192,35108,1,0,0:0:0:0:
42,192,35108,1,0,0:0:0:0:
384,192,35183,1,0,0:0:0:0:
469,192,35183,1,0,0:0:0:0:
213,192,35258,1,0,0:0:0:0:
128,192,35333,1,0,0:0:0:0:
42,192,35408,1,0,0:0:0:0:
469,192,35408,1,0,0:0:0:0:
298,192,35445,1,0,0:0:0:0:
213,192,35483,1,0,0:0:0:0:
42,192,35520,1,0,0:0:0:0:
384,192,35558,1,0,0:0:0:0:
128,192,35558,1,0,0:0:0:0:
213,192,35633,1,0,0:0:0:0:
469,192,35633,1,0,0:0:0:0:
42,192,35670,1,0,0:0:0:0:
128,192,35708,1,0,0:0:0:0:
298,192,35745,1,0,0:0:0:0:
384,192,35783,1,0,0:0:0:0:
42,192,35858,1,0,0:0:0:0:
213,192,35858,1,0,0:0:0:0:
469,192,35858,1,0,0:0:0:0:
298,192,35895,1,0,0:0:0:0:
469,192,35933,1,0,0:0:0:0:
384,192,36008,1,0,0:0:0:0:
128,192,36008,1,0,0:0:0:0:
42,192,36033,1,0,0:0:0:0:
298,192,36058,1,0,0:0:0:0:
213,192,36083,1,0,0:0:0:0:
128,192,36158,1,0,0:0:0:0:
469,192,36158,1,0,0:0:0:0:
384,192,36183,1,0,0:0:0:0:
298,192,36208,1,0,0:0:0:0:
213,192,36233,1,0,0:0:0:0:
42,192,36308,1,0,0:0:0:0:
469,192,36308,1,0,0:0:0:0:
128,192,36333,1,0,0:0:0:0:
298,192,36358,1,0,0:0:0:0:
384,192,36383,1,0,0:0:0:0:
128,192,36458,1,0,0:0:0:0:
42,192,36458,1,0,0:0:0:0:
213,192,36483,1,0,0:0:0:0:
384,192,36508,1,0,0:0:0:0:
469,192,36533,1,0,0:0:0:0:
42,192,36608,1,0,0:0:0:0:
298,192,36608,1,0,0:0:0:0:
128,192,36683,1,0,0:0:0:0:
384,192,36758,1,0,0:0:0:0:
213,192,36833,1,0,0:0:0:0:
298,192,36908,1,0,0:0:0:0:
42,192,36908,1,0,0:0:0:0:
128,192,36945,1,0,0:0:0:0:
469,192,36983,1,0,0:0:0:0:
384,192,37020,1,0,0:0:0:0:
128,192,37058,1,0,0:0:0:0:
213,192,37095,1,0,0:0:0:0:
384,192,37133,1,0,0:0:0:0:
298,192,37170,1,0,0:0:0:0:
42,192,37208,128,0,37245:0:0:0:0:
469,192,37208,128,0,37245:0:0:0:0:
213,192,37208,1,0,0:0:0:0:
213,192,37433,1,0,0:0:0:0:
42,192,37508,128,0,37583:0:0:0:0:
128,192,37583,128,0,37658:0:0:0:0:
213,192,37658,128,0,37733:0:0:0:0:
298,192,37733,128,0,37808:0:0:0:0:
469,192,37808,128,0,37958:0:0:0:0:
384,192,37883,128,0,38033:0:0:0:0:
298,192,37958,128,0,38108:0:0:0:0:
213,192,38033,128,0,38183:0:0:0:0:
384,192,38108,128,0,38258:0:0:0:0:
298,192,38183,128,0,38333:0:0:0:0:
213,192,38258,128,0,38408:0:0:0:0:
128,192,38333,128,0,38483:0:0:0:0:
42,192,38408,128,0,38633:0:0:0:0:
469,192,38408,1,0,0:0:0:0:
298,192,38483,1,0,0:0:0:0:
469,192,38558,1,0,0:0:0:0:
213,192,38558,128,0,38633:0:0:0:0:
298,192,38633,1,0,0:0:0:0:
128,192,38633,128,0,38858:0:0:0:0:
469,192,38708,1,0,0:0:0:0:
384,192,38783,1,0,0:0:0:0:
42,192,38783,128,0,38858:0:0:0:0:
298,192,38858,1,0,0:0:0:0:
469,192,38858,128,0,39008:0:0:0:0:
213,192,38933,1,0,0:0:0:0:
42,192,39008,1,0,0:0:0:0:
384,192,39008,128,0,39158:0:0:0:0:
128,192,39008,1,0,0:0:0:0:
298,192,39158,128,0,39233:0:0:0:0:
213,192,39158,1,0,0:0:0:0:
42,192,39158,1,0,0:0:0:0:
469,192,39233,128,0,39308:0:0:0:0:
42,192,39233,1,0,0:0:0:0:
213,192,39233,1,0,0:0:0:0:
128,192,39308,1,0,0:0:0:0:
298,192,39383,128,0,39458:0:0:0:0:
213,192,39383,1,0,0:0:0:0:
42,192,39383,1,0,0:0:0:0:
128,192,39458,1,0,0:0:0:0:
384,192,39458,128,0,39608:0:0:0:0:
213,192,39608,1,0,0:0:0:0:
469,192,39608,1,0,0:0:0:0:
298,192,39608,1,0,0:0:0:0:
42,192,39608,128,0,39683:0:0:0:0:
128,192,39683,128,0,39758:0:0:0:0:
42,192,39758,128,0,39833:0:0:0:0:
298,192,39758,1,0,0:0:0:0:
213,192,39833,128,0,39983:0:0:0:0:
298,192,39908,1,0,0:0:0:0:
384,192,39908,1,0,0:0:0:0:
469,192,39908,1,0,0:0:0:0:
42,192,39983,128,0,40058:0:0:0:0:
128,192,40058,128,0,40208:0:0:0:0:
384,192,40058,1,0,0:0:0:0:
213,192,40208,1,0,0:0:0:0:
42,192,40208,1,0,0:0:0:0:
469,192,40208,128,0,40283:0:0:0:0:
298,192,40208,1,0,0:0:0:0:
384,192,40283,128,0,40358:0:0:0:0:
298,192,40358,128,0,40433:0:0:0:0:
213,192,40358,1,0,0:0:0:0:
384,192,40433,128,0,40508:0:0:0:0:
469,192,40508,128,0,40583:0:0:0:0:
213,192,40508,1,0,0:0:0:0:
128,192,40508,1,0,0:0:0:0:
42,192,40508,1,0,0:0:0:0:
298,192,40583,128,0,40658:0:0:0:0:
469,192,40658,128,0,40733:0:0:0:0:
128,192,40658,1,0,0:0:0:0:
384,192,40733,128,0,40808:0:0:0:0:
298,192,40808,128,0,40958:0:0:0:0:
213,192,40808,1,0,0:0:0:0:
42,192,40808,1,0,0:0:0:0:
128,192,40808,1,0,0:0:0:0:
213,192,40958,128,0,41033:0:0:0:0:
469,192,40958,1,0,0:0:0:0:
128,192,41033,128,0,41108:0:0:0:0:
42,192,41108,128,0,41183:0:0:0:0:
469,192,41108,1,0,0:0:0:0:
384,192,41108,1,0,0:0:0:0:
298,192,41108,1,0,0:0:0:0:
128,192,41183,128,0,41258:0:0:0:0:
213,192,41258,128,0,41333:0:0:0:0:
384,192,41258,1,0,0:0:0:0:
42,192,41333,128,0,41408:0:0:0:0:
469,192,41408,128,0,41483:0:0:0:0:
298,192,41408,1,0,0:0:0:0:
213,192,41408,1,0,0:0:0:0:
128,192,41408,1,0,0:0:0:0:
384,192,41483,128,0,41558:0:0:0:0:
298,192,41558,128,0,41633:0:0:0:0:
128,192,41558,1,0,0:0:0:0:
213,192,41633,128,0,41708:0:0:0:0:
384,192,41708,128,0,41783:0:0:0:0:
128,192,41708,1,0,0:0:0:0:
42,192,41708,1,0,0:0:0:0:
469,192,41708,1,0,0:0:0:0:
298,192,41783,128,0,41858:0:0:0:0:
213,192,41858,128,0,41933:0:0:0:0:
42,192,41858,1,0,0:0:0:0:
469,192,41858,1,0,0:0:0:0:
384,192,41858,1,0,0:0:0:0:
128,192,41933,128,0,42008:0:0:0:0:
42,192,42008,128,0,42308:0:0:0:0:
298,192,42008,1,0,0:0:0:0:
384,192,42008,1,0,0:0:0:0:
469,192,42008,1,0,0:0:0:0:
298,192,42158,1,0,0:0:0:0:
213,192,42233,1,0,0:0:0:0:
128,192,42308,1,0,0:0:0:0:
384,192,42308,1,0,0:0:0:0:
469,192,42308,1,0,0:0:0:0:
213,192,42458,128,0,42758:0:0:0:0:
384,192,42458,1,0,0:0:0:0:
298,192,42533,1,0,0:0:0:0:
128,192,42608,1,0,0:0:0:0:
42,192,42608,1,0,0:0:0:0:
469,192,42608,1,0,0:0:0:0:
298,192,42758,1,0,0:0:0:0:
128,192,42833,1,0,0:0:0:0:
384,192,42908,128,0,43058:0:0:0:0:
42,192,42908,1,0,0:0:0:0:
298,192,42908,1,0,0:0:0:0:
469,192,42908,1,0,0:0:0:0:
128,192,43058,1,0,0:0:0:0:
213,192,43133,1,0,0:0:0:0:
42,192,43208,1,0,0:0:0:0:
298,192,43208,1,0,0:0:0:0:
384,192,43208,1,0,0:0:0:0:
469,192,43208,128,0,43508:0:0:0:0:
298,192,43358,1,0,0:0:0:0:
213,192,43433,1,0,0:0:0:0:
128,192,43508,1,0,0:0:0:0:
42,192,43508,1,0,0:0:0:0:
384,192,43508,1,0,0:0:0:0:
298,192,43658,128,0,43958:0:0:0:0:
128,192,43658,1,0,0:0:0:0:
213,192,43733,1,0,0:0:0:0:
42,192,43808,1,0,0:0:0:0:
384,192,43808,1,0,0:0:0:0:
469,192,43808,1,0,0:0:0:0:
42,192,43958,1,0,0:0:0:0:
128,192,44033,1,0,0:0:0:0:
298,192,44108,128,0,44258:0:0:0:0:
213,192,44108,1,0,0:0:0:0:
384,192,44108,1,0,0:0:0:0:
469,192,44108,1,0,0:0:0:0:
213,192,44258,1,0,0:0:0:0:
128,192,44258,1,0,0:0:0:0:
42,192,44258,1,0,0:0:0:0:
384,192,44333,1,0,0:0:0:0:
469,192,44333,1,0,0:0:0:0:
298,192,44408,1,0,0:0:0:0:
128,192,44408,1,0,0:0:0:0:
42,192,44408,128,0,44558:0:0:0:0:
213,192,44408,1,0,0:0:0:0:
213,192,44558,128,0,44633:0:0:0:0:
298,192,44558,1,0,0:0:0:0:
128,192,44633,128,0,44783:0:0:0:0:
384,192,44708,1,0,0:0:0:0:
469,192,44708,1,0,0:0:0:0:
42,192,44708,1,0,0:0:0:0:
298,192,44783,128,0,44858:0:0:0:0:
213,192,44858,128,0,45008:0:0:0:0:
128,192,44858,1,0,0:0:0:0:
298,192,45008,128,0,45083:0:0:0:0:
42,192,45008,1,0,0:0:0:0:
469,192,45008,1,0,0:0:0:0:
384,192,45008,1,0,0:0:0:0:
128,192,45083,128,0,45233:0:0:0:0:
384,192,45158,1,0,0:0:0:0:
213,192,45233,128,0,45308:0:0:0:0:
42,192,45308,128,0,45383:0:0:0:0:
298,192,45308,1,0,0:0:0:0:
469,192,45308,1,0,0:0:0:0:
128,192,45308,1,0,0:0:0:0:
213,192,45383,128,0,45458:0:0:0:0:
469,192,45458,1,0,0:0:0:0:
384,192,45458,128,0,45533:0:0:0:0:
298,192,45458,1,0,0:0:0:0:
128,192,45533,128,0,45608:0:0:0:0:
213,192,45533,1,0,0:0:0:0:
42,192,45533,1,0,0:0:0:0:
384,192,45608,1,0,0:0:0:0:
298,192,45608,1,0,0:0:0:0:
469,192,45608,128,0,45758:0:0:0:0:
128,192,45758,1,0,0:0:0:0:
42,192,45758,1,0,0:0:0:0:
469,192,45833,128,0,45983:0:0:0:0:
298,192,45833,1,0,0:0:0:0:
384,192,45833,1,0,0:0:0:0:
128,192,45983,1,0,0:0:0:0:
42,192,45983,1,0,0:0:0:0:
469,192,46058,128,0,46133:0:0:0:0:
384,192,46058,1,0,0:0:0:0:
298,192,46095,1,0,0:0:0:0:
213,192,46133,1,0,0:0:0:0:
128,192,46170,1,0,0:0:0:0:
42,192,46208,128,0,46358:0:0:0:0:
298,192,46208,1,0,0:0:0:0:
384,192,46208,1,0,0:0:0:0:
469,192,46208,1,0,0:0:0:0:
384,192,46358,1,0,0:0:0:0:
42,192,46433,128,0,46508:0:0:0:0:
213,192,46433,1,0,0:0:0:0:
469,192,46508,1,0,0:0:0:0:
298,192,46583,1,0,0:0:0:0:
42,192,46658,128,0,46733:0:0:0:0:
384,192,46658,1,0,0:0:0:0:
213,192,46733,1,0,0:0:0:0:
42,192,46808,128,0,46883:0:0:0:0:
298,192,46808,1,0,0:0:0:0:
384,192,46808,1,0,0:0:0:0:
469,192,46808,1,0,0:0:0:0:
128,192,46883,128,0,46958:0:0:0:0:
298,192,46958,128,0,47033:0:0:0:0:
384,192,46958,1,0,0:0:0:0:
213,192,47033,128,0,47108:0:0:0:0:
128,192,47108,128,0,47183:0:0:0:0:
42,192,47108,1,0,0:0:0:0:
384,192,47108,1,0,0:0:0:0:
469,192,47108,1,0,0:0:0:0:
213,192,47183,128,0,47258:0:0:0:0:
298,192,47258,128,0,47333:0:0:0:0:
42,192,47258,1,0,0:0:0:0:
384,192,47333,128,0,47408:0:0:0:0:
213,192,47408,128,0,47483:0:0:0:0:
128,192,47408,1,0,0:0:0:0:
42,192,47408,1,0,0:0:0:0:
298,192,47408,1,0,0:0:0:0:
469,192,47483,128,0,47558:0:0:0:0:
384,192,47558,128,0,47633:0:0:0:0:
128,192,47558,1,0,0:0:0:0:
298,192,47633,128,0,47708:0:0:0:0:
213,192,47708,128,0,47783:0:0:0:0:
42,192,47708,1,0,0:0:0:0:
384,192,47708,1,0,0:0:0:0:
469,192,47708,1,0,0:0:0:0:
128,192,47783,128,0,47858:0:0:0:0:
298,192,47858,128,0,47933:0:0:0:0:
469,192,47858,1,0,0:0:0:0:
213,192,47933,128,0,48008:0:0:0:0:
42,192,48008,128,0,48158:0:0:0:0:
384,192,48008,1,0,0:0:0:0:
469,192,48008,1,0,0:0:0:0:
128,192,48008,1,0,0:0:0:0:
213,192,48158,128,0,48233:0:0:0:0:
298,192,48158,1,0,0:0:0:0:
128,192,48233,128,0,48383:0:0:0:0:
298,192,48308,1,0,0:0:0:0:
384,192,48308,1,0,0:0:0:0:
469,192,48308,1,0,0:0:0:0:
42,192,48383,128,0,48458:0:0:0:0:
213,192,48458,128,0,48608:0:0:0:0:
384,192,48458,1,0,0:0:0:0:
298,192,48608,128,0,48758:0:0:0:0:
128,192,48608,1,0,0:0:0:0:
42,192,48608,1,0,0:0:0:0:
469,192,48608,1,0,0:0:0:0:
469,192,48758,128,0,48833:0:0:0:0:
213,192,48758,1,0,0:0:0:0:
128,192,48758,1,0,0:0:0:0:
42,192,48758,1,0,0:0:0:0:
384,192,48833,128,0,48983:0:0:0:0:
213,192,48908,1,0,0:0:0:0:
128,192,48908,1,0,0:0:0:0:
42,192,48908,1,0,0:0:0:0:
298,192,48983,128,0,49058:0:0:0:0:
469,192,49058,128,0,49208:0:0:0:0:
128,192,49058,1,0,0:0:0:0:
298,192,49208,1,0,0:0:0:0:
42,192,49208,128,0,49358:0:0:0:0:
213,192,49208,128,0,49358:0:0:0:0:
384,192,49208,1,0,0:0:0:0:
42,192,49508,128,0,49658:0:0:0:0:
213,192,49508,128,0,49658:0:0:0:0:
298,192,49508,1,0,0:0:0:0:
384,192,49508,1,0,0:0:0:0:
128,192,49808,128,0,49958:0:0:0:0:
298,192,49808,128,0,49958:0:0:0:0:
384,192,49808,1,0,0:0:0:0:
469,192,49808,1,0,0:0:0:0:
213,192,49958,128,0,50108:0:0:0:0:
42,192,49958,1,0,0:0:0:0:
384,192,49958,128,0,50108:0:0:0:0:
469,192,49958,1,0,0:0:0:0:
298,192,50258,128,0,50408:0:0:0:0:
469,192,50258,128,0,50408:0:0:0:0:
42,192,50258,1,0,0:0:0:0:
128,192,50295,1,0,0:0:0:0:
213,192,50333,1,0,0:0:0:0:
42,192,50370,1,0,0:0:0:0:
128,192,50408,1,0,0:0:0:0:
384,192,50408,1,0,0:0:0:0:
298,192,50558,1,0,0:0:0:0:
213,192,50633,1,0,0:0:0:0:
128,192,50708,1,0,0:0:0:0:
42,192,50708,1,0,0:0:0:0:
469,192,50708,1,0,0:0:0:0:
213,192,50858,1,0,0:0:0:0:
128,192,50933,1,0,0:0:0:0:
384,192,51008,1,0,0:0:0:0:
469,192,51008,1,0,0:0:0:0:
42,192,51008,128,0,51083:0:0:0:0:
298,192,51008,1,0,0:0:0:0:
128,192,51083,128,0,51158:0:0:0:0:
213,192,51158,128,0,51233:0:0:0:0:
384,192,51158,1,0,0:0:0:0:
298,192,51233,128,0,51308:0:0:0:0:
128,192,51308,128,0,51383:0:0:0:0:
42,192,51308,1,0,0:0:0:0:
384,192,51308,1,0,0:0:0:0:
469,192,51308,1,0,0:0:0:0:
213,192,51383,128,0,51458:0:0:0:0:
298,192,51458,128,0,51533:0:0:0:0:
42,192,51458,1,0,0:0:0:0:
128,192,51458,1,0,0:0:0:0:
384,192,51533,128,0,51608:0:0:0:0:
213,192,51533,1,0,0:0:0:0:
469,192,51608,128,0,52508:0:0:0:0:
128,192,51608,1,0,0:0:0:0:
42,192,51608,1,0,0:0:0:0:
298,192,51608,1,0,0:0:0:0:
298,192,51758,1,0,0:0:0:0:
213,192,51908,1,0,0:0:0:0:
128,192,51908,1,0,0:0:0:0:
42,192,51908,1,0,0:0:0:0:
42,192,52058,1,0,0:0:0:0:
298,192,52208,1,0,0:0:0:0:
384,192,52208,1,0,0:0:0:0:
213,192,52208,1,0,0:0:0:0:
384,192,52358,1,0,0:0:0:0:
298,192,52508,1,0,0:0:0:0:
213,192,52508,1,0,0:0:0:0:
128,192,52508,1,0,0:0:0:0:
128,192,52658,1,0,0:0:0:0:
42,192,52808,128,0,53408:0:0:0:0:
298,192,52808,1,0,0:0:0:0:
384,192,52808,1,0,0:0:0:0:
469,192,52808,1,0,0:0:0:0:
469,192,52958,1,0,0:0:0:0:
384,192,53108,1,0,0:0:0:0:
213,192,53108,1,0,0:0:0:0:
298,192,53108,1,0,0:0:0:0:
213,192,53258,1,0,0:0:0:0:
384,192,53408,128,0,53708:0:0:0:0:
298,192,53408,1,0,0:0:0:0:
213,192,53408,1,0,0:0:0:0:
128,192,53408,1,0,0:0:0:0:
128,192,53558,1,0,0:0:0:0:
213,192,53708,1,0,0:0:0:0:
128,192,53708,1,0,0:0:0:0:
42,192,53708,1,0,0:0:0:0:
469,192,53858,1,0,0:0:0:0:
298,192,53858,1,0,0:0:0:0:
42,192,53933,1,0,0:0:0:0:
213,192,53933,1,0,0:0:0:0:
128,192,54008,128,0,54533:0:0:0:0:
384,192,54008,1,0,0:0:0:0:
469,192,54008,1,0,0:0:0:0:
298,192,54008,1,0,0:0:0:0:
298,192,54158,1,0,0:0:0:0:
384,192,54158,1,0,0:0:0:0:
469,192,54158,1,0,0:0:0:0:
298,192,54308,1,0,0:0:0:0:
384,192,54308,1,0,0:0:0:0:
469,192,54308,1,0,0:0:0:0:
384,192,54458,1,0,0:0:0:0:
42,192,54608,1,0,0:0:0:0:
298,192,54608,1,0,0:0:0:0:
469,192,54608,1,0,0:0:0:0:
128,192,54608,1,0,0:0:0:0:
213,192,54683,1,0,0:0:0:0:
42,192,54758,1,0,0:0:0:0:
298,192,54758,1,0,0:0:0:0:
469,192,54758,1,0,0:0:0:0:
128,192,54758,1,0,0:0:0:0:
213,192,54833,1,0,0:0:0:0:
42,192,54908,1,0,0:0:0:0:
384,192,54908,1,0,0:0:0:0:
128,192,54908,1,0,0:0:0:0:
298,192,54983,1,0,0:0:0:0:
213,192,54983,1,0,0:0:0:0:
128,192,55058,1,0,0:0:0:0:
384,192,55058,1,0,0:0:0:0:
469,192,55058,1,0,0:0:0:0:
298,192,55133,1,0,0:0:0:0:
213,192,55133,1,0,0:0:0:0:
128,192,55208,1,0,0:0:0:0:
42,192,55208,1,0,0:0:0:0:
469,192,55208,1,0,0:0:0:0:
384,192,55283,1,0,0:0:0:0:
298,192,55283,1,0,0:0:0:0:
42,192,55358,1,0,0:0:0:0:
469,192,55358,1,0,0:0:0:0:
213,192,55358,1,0,0:0:0:0:
128,192,55433,1,0,0:0:0:0:
384,192,55433,1,0,0:0:0:0:
298,192,55508,1,0,0:0:0:0:
42,192,55508,1,0,0:0:0:0:
213,192,55545,1,0,0:0:0:0:
469,192,55545,1,0,0:0:0:0:
384,192,55583,1,0,0:0:0:0:
128,192,55583,1,0,0:0:0:0:
42,192,55620,1,0,0:0:0:0:
298,192,55620,1,0,0:0:0:0:
213,192,55658,1,0,0:0:0:0:
469,192,55658,1,0,0:0:0:0:
384,192,55733,1,0,0:0:0:0:
128,192,55733,1,0,0:0:0:0:
42,192,55808,1,0,0:0:0:0:
298,192,55808,1,0,0:0:0:0:
469,192,55808,1,0,0:0:0:0:
128,192,55958,1,0,0:0:0:0:
42,192,55958,1,0,0:0:0:0:
213,192,55958,1,0,0:0:0:0:
384,192,56033,1,0,0:0:0:0:
298,192,56033,1,0,0:0:0:0:
469,192,56033,1,0,0:0:0:0:
213,192,56108,1,0,0:0:0:0:
42,192,56108,1,0,0:0:0:0:
128,192,56108,128,0,56333:0:0:0:0:
42,192,56408,1,0,0:0:0:0:
213,192,56689,1,0,0:0:0:0:
469,192,56708,1,0,0:0:0:0:
384,192,56858,1,0,0:0:0:0:
42,192,57289,1,0,0:0:0:0:
298,192,57308,1,0,0:0:0:0:
128,192,57608,1,0,0:0:0:0:
42,192,58208,1,0,0:0:0:0:
42,192,58358,1,0,0:0:0:0:
128,192,58508,1,0,0:0:0:0:
213,192,58658,1,0,0:0:0:0:
298,192,58808,1,0,0:0:0:0:
128,192,59089,1,0,0:0:0:0:
384,192,59108,1,0,0:0:0:0:
42,192,59239,1,0,0:0:0:0:
298,192,59258,1,0,0:0:0:0:
213,192,59539,1,0,0:0:0:0:
384,192,59558,1,0,0:0:0:0:
298,192,59839,1,0,0:0:0:0:
469,192,59858,1,0,0:0:0:0:
213,192,60608,1,0,0:0:0:0:
384,192,60608,1,0,0:0:0:0:
298,192,60683,1,0,0:0:0:0:
469,192,60683,1,0,0:0:0:0:
384,192,60758,1,0,0:0:0:0:
298,192,60833,1,0,0:0:0:0:
213,192,60908,1,0,0:0:0:0:
298,192,60983,1,0,0:0:0:0:
213,192,61058,1,0,0:0:0:0:
128,192,61133,1,0,0:0:0:0:
42,192,61208,1,0,0:0:0:0:
298,192,61226,1,0,0:0:0:0:
213,192,61489,1,0,0:0:0:0:
469,192,61508,1,0,0:0:0:0:
384,192,61658,1,0,0:0:0:0:
469,192,61939,1,0,0:0:0:0:
213,192,61958,1,0,0:0:0:0:
213,192,62258,1,0,0:0:0:0:
42,192,62408,1,0,0:0:0:0:
128,192,62426,1,0,0:0:0:0:
213,192,62464,1,0,0:0:0:0:
128,192,62858,1,0,0:0:0:0:
469,192,62876,1,0,0:0:0:0:
384,192,62914,1,0,0:0:0:0:
213,192,63289,1,0,0:0:0:0:
298,192,63308,1,0,0:0:0:0:
469,192,63326,1,0,0:0:0:0:
42,192,63589,1,0,0:0:0:0:
128,192,63608,1,0,0:0:0:0:
298,192,63626,1,0,0:0:0:0:
213,192,63889,1,0,0:0:0:0:
384,192,63908,1,0,0:0:0:0:
469,192,63945,1,0,0:0:0:0:
128,192,64058,1,0,0:0:0:0:
298,192,64208,1,0,0:0:0:0:
469,192,64208,1,0,0:0:0:0:
469,192,64358,1,0,0:0:0:0:
128,192,64508,1,0,0:0:0:0:
298,192,64508,128,0,66008:0:0:0:0:
42,192,64808,1,0,0:0:0:0:
213,192,64826,1,0,0:0:0:0:
384,192,64845,1,0,0:0:0:0:
128,192,66008,1,0,0:0:0:0:
42,192,66008,1,0,0:0:0:0:
469,192,66008,1,0,0:0:0:0:
128,192,66158,1,0,0:0:0:0:
213,192,66233,1,0,0:0:0:0:
42,192,66308,1,0,0:0:0:0:
298,192,66308,1,0,0:0:0:0:
469,192,66308,1,0,0:0:0:0:
213,192,66458,1,0,0:0:0:0:
384,192,66458,1,0,0:0:0:0:
42,192,66608,1,0,0:0:0:0:
128,192,66608,1,0,0:0:0:0:
128,192,66758,1,0,0:0:0:0:
213,192,66833,1,0,0:0:0:0:
298,192,66908,1,0,0:0:0:0:
42,192,66908,1,0,0:0:0:0:
469,192,66908,1,0,0:0:0:0:
128,192,67058,1,0,0:0:0:0:
213,192,67133,1,0,0:0:0:0:
42,192,67208,1,0,0:0:0:0:
128,192,67208,1,0,0:0:0:0:
298,192,67208,1,0,0:0:0:0:
128,192,67358,1,0,0:0:0:0:
213,192,67433,1,0,0:0:0:0:
42,192,67508,1,0,0:0:0:0:
298,192,67508,1,0,0:0:0:0:
469,192,67508,1,0,0:0:0:0:
213,192,67658,1,0,0:0:0:0:
128,192,67733,1,0,0:0:0:0:
42,192,67808,1,0,0:0:0:0:
298,192,67808,1,0,0:0:0:0:
469,192,67808,1,0,0:0:0:0:
213,192,67883,1,0,0:0:0:0:
128,192,67958,1,0,0:0:0:0:
469,192,67958,1,0,0:0:0:0:
213,192,68033,1,0,0:0:0:0:
298,192,68108,1,0,0:0:0:0:
469,192,68108,1,0,0:0:0:0:
42,192,68108,1,0,0:0:0:0:
384,192,68108,1,0,0:0:0:0:
128,192,68183,1,0,0:0:0:0:
213,192,68258,1,0,0:0:0:0:
384,192,68258,1,0,0:0:0:0:
298,192,68333,1,0,0:0:0:0:
128,192,68408,1,0,0:0:0:0:
42,192,68408,1,0,0:0:0:0:
384,192,68408,1,0,0:0:0:0:
128,192,68558,1,0,0:0:0:0:
213,192,68633,1,0,0:0:0:0:
42,192,68708,1,0,0:0:0:0:
298,192,68708,1,0,0:0:0:0:
469,192,68708,1,0,0:0:0:0:
384,192,68708,1,0,0:0:0:0:
128,192,68783,1,0,0:0:0:0:
298,192,68858,1,0,0:0:0:0:
213,192,68933,1,0,0:0:0:0:
42,192,69008,1,0,0:0:0:0:
384,192,69008,1,0,0:0:0:0:
469,192,69008,1,0,0:0:0:0:
128,192,69158,1,0,0:0:0:0:
384,192,69158,1,0,0:0:0:0:
298,192,69233,1,0,0:0:0:0:
213,192,69308,1,0,0:0:0:0:
42,192,69308,1,0,0:0:0:0:
469,192,69308,1,0,0:0:0:0:
384,192,69383,1,0,0:0:0:0:
298,192,69458,1,0,0:0:0:0:
469,192,69458,1,0,0:0:0:0:
213,192,69533,1,0,0:0:0:0:
128,192,69608,1,0,0:0:0:0:
42,192,69608,1,0,0:0:0:0:
298,192,69758,1,0,0:0:0:0:
128,192,69833,1,0,0:0:0:0:
42,192,69908,1,0,0:0:0:0:
469,192,69908,1,0,0:0:0:0:
298,192,69908,1,0,0:0:0:0:
213,192,69983,1,0,0:0:0:0:
128,192,70058,1,0,0:0:0:0:
298,192,70133,1,0,0:0:0:0:
213,192,70208,1,0,0:0:0:0:
42,192,70208,1,0,0:0:0:0:
469,192,70208,1,0,0:0:0:0:
384,192,70283,1,0,0:0:0:0:
128,192,70283,1,0,0:0:0:0:
298,192,70358,1,0,0:0:0:0:
42,192,70358,1,0,0:0:0:0:
213,192,70433,1,0,0:0:0:0:
469,192,70433,1,0,0:0:0:0:
384,192,70508,1,0,0:0:0:0:
128,192,70508,1,0,0:0:0:0:
42,192,70508,1,0,0:0:0:0:
298,192,70583,1,0,0:0:0:0:
469,192,70583,1,0,0:0:0:0:
384,192,70658,1,0,0:0:0:0:
213,192,70658,1,0,0:0:0:0:
42,192,70658,1,0,0:0:0:0:
298,192,70733,1,0,0:0:0:0:
128,192,70733,1,0,0:0:0:0:
213,192,70808,1,0,0:0:0:0:
42,192,70808,1,0,0:0:0:0:
469,192,70808,1,0,0:0:0:0:
469,192,70958,1,0,0:0:0:0:
298,192,70958,1,0,0:0:0:0:
213,192,71033,1,0,0:0:0:0:
469,192,71108,1,0,0:0:0:0:
128,192,71108,1,0,0:0:0:0:
42,192,71108,1,0,0:0:0:0:
384,192,71108,1,0,0:0:0:0:
469,192,71258,1,0,0:0:0:0:
298,192,71258,1,0,0:0:0:0:
42,192,71258,1,0,0:0:0:0:
213,192,71333,1,0,0:0:0:0:
469,192,71408,1,0,0:0:0:0:
128,192,71408,1,0,0:0:0:0:
384,192,71408,1,0,0:0:0:0:
469,192,71558,1,0,0:0:0:0:
213,192,71558,1,0,0:0:0:0:
42,192,71558,1,0,0:0:0:0:
384,192,71633,1,0,0:0:0:0:
469,192,71708,1,0,0:0:0:0:
128,192,71708,1,0,0:0:0:0:
298,192,71708,1,0,0:0:0:0:
469,192,71858,1,0,0:0:0:0:
213,192,71858,1,0,0:0:0:0:
42,192,71858,1,0,0:0:0:0:
384,192,71933,1,0,0:0:0:0:
298,192,71933,1,0,0:0:0:0:
469,192,72008,1,0,0:0:0:0:
213,192,72008,1,0,0:0:0:0:
128,192,72008,1,0,0:0:0:0:
42,192,72008,1,0,0:0:0:0:
42,192,72158,1,0,0:0:0:0:
213,192,72158,1,0,0:0:0:0:
384,192,72158,1,0,0:0:0:0:
298,192,72233,1,0,0:0:0:0:
128,192,72308,1,0,0:0:0:0:
42,192,72308,1,0,0:0:0:0:
384,192,72308,1,0,0:0:0:0:
469,192,72308,1,0,0:0:0:0:
213,192,72458,1,0,0:0:0:0:
469,192,72458,1,0,0:0:0:0:
42,192,72458,1,0,0:0:0:0:
298,192,72533,1,0,0:0:0:0:
42,192,72608,1,0,0:0:0:0:
384,192,72608,1,0,0:0:0:0:
128,192,72608,1,0,0:0:0:0:
42,192,72758,1,0,0:0:0:0:
298,192,72758,1,0,0:0:0:0:
469,192,72758,1,0,0:0:0:0:
128,192,72833,1,0,0:0:0:0:
42,192,72908,1,0,0:0:0:0:
213,192,72908,1,0,0:0:0:0:
384,192,72908,1,0,0:0:0:0:
42,192,73058,1,0,0:0:0:0:
213,192,73058,1,0,0:0:0:0:
128,192,73058,1,0,0:0:0:0:
298,192,73133,1,0,0:0:0:0:
384,192,73133,1,0,0:0:0:0:
469,192,73133,1,0,0:0:0:0:
213,192,73208,1,0,0:0:0:0:
128,192,73208,1,0,0:0:0:0:
42,192,73208,1,0,0:0:0:0:
469,192,73283,1,0,0:0:0:0:
298,192,73358,1,0,0:0:0:0:
213,192,73358,1,0,0:0:0:0:
128,192,73358,1,0,0:0:0:0:
469,192,73433,1,0,0:0:0:0:
42,192,73433,1,0,0:0:0:0:
213,192,73508,1,0,0:0:0:0:
298,192,73508,1,0,0:0:0:0:
384,192,73508,1,0,0:0:0:0:
42,192,73583,1,0,0:0:0:0:
298,192,73658,1,0,0:0:0:0:
384,192,73658,1,0,0:0:0:0:
469,192,73658,1,0,0:0:0:0:
128,192,73733,1,0,0:0:0:0:
42,192,73808,1,0,0:0:0:0:
298,192,73808,1,0,0:0:0:0:
384,192,73808,1,0,0:0:0:0:
469,192,73808,1,0,0:0:0:0:
213,192,73883,1,0,0:0:0:0:
128,192,73958,1,0,0:0:0:0:
42,192,73958,1,0,0:0:0:0:
469,192,73958,1,0,0:0:0:0:
384,192,73958,1,0,0:0:0:0:
298,192,74033,1,0,0:0:0:0:
213,192,74108,1,0,0:0:0:0:
128,192,74108,1,0,0:0:0:0:
42,192,74108,1,0,0:0:0:0:
469,192,74108,1,0,0:0:0:0:
384,192,74183,1,0,0:0:0:0:
298,192,74258,1,0,0:0:0:0:
213,192,74258,1,0,0:0:0:0:
128,192,74258,1,0,0:0:0:0:
42,192,74258,1,0,0:0:0:0:
384,192,74333,1,0,0:0:0:0:
469,192,74333,1,0,0:0:0:0:
213,192,74408,1,0,0:0:0:0:
128,192,74408,1,0,0:0:0:0:
42,192,74408,1,0,0:0:0:0:
298,192,74483,1,0,0:0:0:0:
384,192,74483,1,0,0:0:0:0:
128,192,74558,1,0,0:0:0:0:
469,192,74558,1,0,0:0:0:0:
42,192,74558,1,0,0:0:0:0:
213,192,74633,1,0,0:0:0:0:
298,192,74633,1,0,0:0:0:0:
42,192,74708,1,0,0:0:0:0:
384,192,74708,1,0,0:0:0:0:
469,192,74708,1,0,0:0:0:0:
213,192,74783,1,0,0:0:0:0:
128,192,74783,1,0,0:0:0:0:
298,192,74858,1,0,0:0:0:0:
384,192,74858,1,0,0:0:0:0:
469,192,74858,1,0,0:0:0:0:
128,192,74933,1,0,0:0:0:0:
42,192,74933,1,0,0:0:0:0:
213,192,75008,1,0,0:0:0:0:
384,192,75008,1,0,0:0:0:0:
469,192,75045,1,0,0:0:0:0:
128,192,75083,1,0,0:0:0:0:
298,192,75120,1,0,0:0:0:0:
384,192,75158,1,0,0:0:0:0:
42,192,75195,1,0,0:0:0:0:
213,192,75233,1,0,0:0:0:0:
298,192,75270,1,0,0:0:0:0:
469,192,75308,1,0,0:0:0:0:
128,192,75345,1,0,0:0:0:0:
213,192,75383,1,0,0:0:0:0:
384,192,75420,1,0,0:0:0:0:
42,192,75458,1,0,0:0:0:0:
128,192,75495,1,0,0:0:0:0:
298,192,75533,1,0,0:0:0:0:
469,192,75570,1,0,0:0:0:0:
42,192,75608,1,0,0:0:0:0:
213,192,75608,128,0,76133:0:0:0:0:
213,192,76208,1,0,0:0:0:0:
213,192,76283,1,0,0:0:0:0:
213,192,76433,128,0,76508:0:0:0:0:
213,192,76658,128,0,76695:0:0:0:0:
42,192,76808,128,0,78008:0:0:0:0:
213,192,76808,128,0,77558:0:0:0:0:
298,192,76808,128,0,78008:0:0:0:0:
469,192,76808,128,0,78008:0:0:0:0:
128,192,78008,1,0,0:0:0:0:
384,192,78008,1,0,0:0:0:0:
213,192,78083,1,0,0:0:0:0:
298,192,78120,1,0,0:0:0:0:
384,192,78158,128,0,78645:0:0:0:0:
469,192,78608,1,0,0:0:0:0:
298,192,78608,128,0,78683:0:0:0:0:
213,192,78608,128,0,78758:0:0:0:0:
128,192,78608,128,0,78833:0:0:0:0:
42,192,78608,128,0,78908:0:0:0:0:
384,192,79058,1,0,0:0:0:0:
469,192,79058,1,0,0:0:0:0:
213,192,79133,1,0,0:0:0:0:
469,192,79208,1,0,0:0:0:0:
298,192,79208,1,0,0:0:0:0:
42,192,79208,1,0,0:0:0:0:
128,192,79283,1,0,0:0:0:0:
384,192,79358,1,0,0:0:0:0:
213,192,79358,1,0,0:0:0:0:
298,192,79433,1,0,0:0:0:0:
128,192,79433,1,0,0:0:0:0:
213,192,79508,1,0,0:0:0:0:
42,192,79508,1,0,0:0:0:0:
128,192,79583,1,0,0:0:0:0:
384,192,79583,1,0,0:0:0:0:
213,192,79658,1,0,0:0:0:0:
469,192,79658,1,0,0:0:0:0:
384,192,79733,1,0,0:0:0:0:
128,192,79733,1,0,0:0:0:0:
42,192,79808,1,0,0:0:0:0:
298,192,79808,128,0,79883:0:0:0:0:
469,192,79808,128,0,79958:0:0:0:0:
213,192,79883,128,0,79958:0:0:0:0:
128,192,79958,128,0,80108:0:0:0:0:
384,192,79958,128,0,80033:0:0:0:0:
298,192,80033,128,0,80183:0:0:0:0:
42,192,80033,128,0,80108:0:0:0:0:
384,192,80108,128,0,80258:0:0:0:0:
469,192,80108,128,0,80333:0:0:0:0:
213,192,80408,1,0,0:0:0:0:
42,192,80408,128,0,80483:0:0:0:0:
469,192,80408,1,0,0:0:0:0:
298,192,80483,1,0,0:0:0:0:
384,192,80558,1,0,0:0:0:0:
213,192,80595,1,0,0:0:0:0:
128,192,80633,1,0,0:0:0:0:
42,192,80670,1,0,0:0:0:0:
298,192,80708,1,0,0:0:0:0:
469,192,80708,128,0,80783:0:0:0:0:
128,192,80783,1,0,0:0:0:0:
384,192,80858,1,0,0:0:0:0:
213,192,80895,1,0,0:0:0:0:
128,192,80933,1,0,0:0:0:0:
42,192,80970,1,0,0:0:0:0:
298,192,81008,1,0,0:0:0:0:
469,192,81008,1,0,0:0:0:0:
384,192,81008,1,0,0:0:0:0:
128,192,81058,1,0,0:0:0:0:
384,192,81108,1,0,0:0:0:0:
128,192,81158,1,0,0:0:0:0:
298,192,81208,1,0,0:0:0:0:
128,192,81308,1,0,0:0:0:0:
42,192,81308,1,0,0:0:0:0:
384,192,81358,1,0,0:0:0:0:
128,192,81408,1,0,0:0:0:0:
384,192,81458,1,0,0:0:0:0:
213,192,81508,1,0,0:0:0:0:
298,192,81608,1,0,0:0:0:0:
384,192,81608,1,0,0:0:0:0:
469,192,81608,1,0,0:0:0:0:
128,192,81658,1,0,0:0:0:0:
384,192,81708,1,0,0:0:0:0:
128,192,81758,1,0,0:0:0:0:
298,192,81808,1,0,0:0:0:0:
42,192,81908,1,0,0:0:0:0:
213,192,81933,1,0,0:0:0:0:
298,192,81958,1,0,0:0:0:0:
384,192,81983,1,0,0:0:0:0:
128,192,82058,1,0,0:0:0:0:
42,192,82058,1,0,0:0:0:0:
298,192,82083,1,0,0:0:0:0:
384,192,82108,1,0,0:0:0:0:
469,192,82133,1,0,0:0:0:0:
128,192,82133,1,0,0:0:0:0:
42,192,82208,1,0,0:0:0:0:
213,192,82208,1,0,0:0:0:0:
384,192,82208,1,0,0:0:0:0:
298,192,82358,1,0,0:0:0:0:
469,192,82358,1,0,0:0:0:0:
298,192,82433,1,0,0:0:0:0:
128,192,82433,1,0,0:0:0:0:
469,192,82508,1,0,0:0:0:0:
213,192,82508,128,0,82658:0:0:0:0:
384,192,82508,128,0,82583:0:0:0:0:
42,192,82508,128,0,82808:0:0:0:0:
384,192,82808,1,0,0:0:0:0:
469,192,82808,1,0,0:0:0:0:
298,192,82808,1,0,0:0:0:0:
298,192,82883,1,0,0:0:0:0:
213,192,82883,1,0,0:0:0:0:
213,192,82958,1,0,0:0:0:0:
128,192,82958,1,0,0:0:0:0:
42,192,83033,1,0,0:0:0:0:
469,192,83033,1,0,0:0:0:0:
384,192,83033,1,0,0:0:0:0:
384,192,83108,1,0,0:0:0:0:
298,192,83108,1,0,0:0:0:0:
298,192,83183,1,0,0:0:0:0:
213,192,83183,1,0,0:0:0:0:
128,192,83258,1,0,0:0:0:0:
42,192,83258,1,0,0:0:0:0:
469,192,83258,1,0,0:0:0:0:
42,192,83333,1,0,0:0:0:0:
384,192,83333,1,0,0:0:0:0:
213,192,83408,1,0,0:0:0:0:
384,192,83408,1,0,0:0:0:0:
298,192,83408,128,0,83708:0:0:0:0:
469,192,83408,128,0,83708:0:0:0:0:
42,192,83708,1,0,0:0:0:0:
298,192,83783,1,0,0:0:0:0:
384,192,83783,1,0,0:0:0:0:
213,192,83858,1,0,0:0:0:0:
128,192,83858,1,0,0:0:0:0:
469,192,83933,1,0,0:0:0:0:
213,192,84008,1,0,0:0:0:0:
128,192,84008,1,0,0:0:0:0:
42,192,84008,1,0,0:0:0:0:
213,192,84083,1,0,0:0:0:0:
298,192,84083,1,0,0:0:0:0:
298,192,84158,1,0,0:0:0:0:
384,192,84158,1,0,0:0:0:0:
469,192,84233,1,0,0:0:0:0:
42,192,84233,1,0,0:0:0:0:
128,192,84233,1,0,0:0:0:0:
128,192,84308,1,0,0:0:0:0:
213,192,84308,1,0,0:0:0:0:
213,192,84383,1,0,0:0:0:0:
298,192,84383,1,0,0:0:0:0:
42,192,84458,1,0,0:0:0:0:
384,192,84458,1,0,0:0:0:0:
469,192,84458,1,0,0:0:0:0:
128,192,84533,1,0,0:0:0:0:
298,192,84608,1,0,0:0:0:0:
213,192,84608,1,0,0:0:0:0:
42,192,84608,1,0,0:0:0:0:
128,192,84608,1,0,0:0:0:0:
384,192,84645,1,0,0:0:0:0:
469,192,84683,1,0,0:0:0:0:
213,192,84720,1,0,0:0:0:0:
384,192,84758,1,0,0:0:0:0:
298,192,84795,1,0,0:0:0:0:
213,192,84833,1,0,0:0:0:0:
128,192,84870,1,0,0:0:0:0:
42,192,84908,1,0,0:0:0:0:
213,192,84945,1,0,0:0:0:0:
298,192,84983,1,0,0:0:0:0:
128,192,85020,1,0,0:0:0:0:
469,192,85058,1,0,0:0:0:0:
384,192,85095,1,0,0:0:0:0:
298,192,85133,1,0,0:0:0:0:
213,192,85170,1,0,0:0:0:0:
128,192,85208,1,0,0:0:0:0:
42,192,85208,1,0,0:0:0:0:
469,192,85208,1,0,0:0:0:0:
298,192,85283,128,0,85358:0:0:0:0:
128,192,85358,1,0,0:0:0:0:
128,192,85433,1,0,0:0:0:0:
213,192,85508,1,0,0:0:0:0:
384,192,85508,1,0,0:0:0:0:
469,192,85508,1,0,0:0:0:0:
128,192,85583,1,0,0:0:0:0:
42,192,85658,1,0,0:0:0:0:
128,192,85733,1,0,0:0:0:0:
213,192,85808,1,0,0:0:0:0:
298,192,85883,1,0,0:0:0:0:
128,192,85958,1,0,0:0:0:0:
469,192,85958,1,0,0:0:0:0:
298,192,86033,1,0,0:0:0:0:
213,192,86108,1,0,0:0:0:0:
42,192,86108,1,0,0:0:0:0:
469,192,86108,1,0,0:0:0:0:
384,192,86183,1,0,0:0:0:0:
298,192,86258,1,0,0:0:0:0:
213,192,86333,1,0,0:0:0:0:
42,192,86408,1,0,0:0:0:0:
384,192,86408,1,0,0:0:0:0:
128,192,86408,128,0,87608:0:0:0:0:
298,192,86483,1,0,0:0:0:0:
384,192,86558,1,0,0:0:0:0:
298,192,86633,1,0,0:0:0:0:
213,192,86708,1,0,0:0:0:0:
469,192,86708,1,0,0:0:0:0:
42,192,86708,1,0,0:0:0:0:
384,192,86783,1,0,0:0:0:0:
298,192,86858,1,0,0:0:0:0:
469,192,86858,1,0,0:0:0:0:
298,192,86933,1,0,0:0:0:0:
469,192,86933,1,0,0:0:0:0:
384,192,87008,1,0,0:0:0:0:
213,192,87008,1,0,0:0:0:0:
42,192,87008,1,0,0:0:0:0:
298,192,87158,1,0,0:0:0:0:
469,192,87158,1,0,0:0:0:0:
384,192,87233,1,0,0:0:0:0:
213,192,87233,1,0,0:0:0:0:
42,192,87233,1,0,0:0:0:0:
384,192,87383,1,0,0:0:0:0:
469,192,87383,1,0,0:0:0:0:
298,192,87458,1,0,0:0:0:0:
213,192,87458,1,0,0:0:0:0:
42,192,87458,1,0,0:0:0:0:
384,192,87533,1,0,0:0:0:0:
469,192,87533,1,0,0:0:0:0:
298,192,87608,1,0,0:0:0:0:
42,192,87608,1,0,0:0:0:0:
213,192,87608,128,0,87683:0:0:0:0:
469,192,87683,128,0,87758:0:0:0:0:
384,192,87758,128,0,87833:0:0:0:0:
298,192,87833,128,0,87908:0:0:0:0:
128,192,87908,128,0,87983:0:0:0:0:
42,192,87908,1,0,0:0:0:0:
384,192,87983,128,0,88058:0:0:0:0:
128,192,88058,128,0,88133:0:0:0:0:
213,192,88133,128,0,88208:0:0:0:0:
128,192,88208,128,0,88283:0:0:0:0:
469,192,88208,1,0,0:0:0:0:
42,192,88283,128,0,88358:0:0:0:0:
128,192,88358,128,0,88433:0:0:0:0:
213,192,88433,128,0,88508:0:0:0:0:
128,192,88508,128,0,88583:0:0:0:0:
469,192,88508,1,0,0:0:0:0:
213,192,88583,128,0,88658:0:0:0:0:
298,192,88658,128,0,88733:0:0:0:0:
384,192,88733,128,0,88808:0:0:0:0:
213,192,88808,128,0,88883:0:0:0:0:
128,192,88808,1,0,0:0:0:0:
469,192,88883,128,0,88958:0:0:0:0:
298,192,88958,128,0,89033:0:0:0:0:
469,192,89033,128,0,89108:0:0:0:0:
213,192,89108,128,0,89183:0:0:0:0:
128,192,89108,1,0,0:0:0:0:
42,192,89183,128,0,89258:0:0:0:0:
213,192,89258,128,0,89333:0:0:0:0:
298,192,89333,128,0,89408:0:0:0:0:
469,192,89408,128,0,89483:0:0:0:0:
42,192,89408,1,0,0:0:0:0:
384,192,89483,128,0,89558:0:0:0:0:
298,192,89558,128,0,89633:0:0:0:0:
213,192,89633,128,0,89708:0:0:0:0:
298,192,89708,128,0,89783:0:0:0:0:
469,192,89708,1,0,0:0:0:0:
213,192,89783,128,0,89858:0:0:0:0:
128,192,89858,128,0,89933:0:0:0:0:
469,192,89858,1,0,0:0:0:0:
42,192,89933,128,0,90008:0:0:0:0:
213,192,90008,128,0,90083:0:0:0:0:
384,192,90008,1,0,0:0:0:0:
298,192,90083,128,0,90158:0:0:0:0:
384,192,90158,128,0,90233:0:0:0:0:
128,192,90158,1,0,0:0:0:0:
469,192,90233,128,0,90308:0:0:0:0:
128,192,90308,128,0,90383:0:0:0:0:
42,192,90308,1,0,0:0:0:0:
213,192,90383,128,0,90458:0:0:0:0:
298,192,90458,128,0,90533:0:0:0:0:
128,192,90458,1,0,0:0:0:0:
384,192,90533,128,0,90608:0:0:0:0:
213,192,90608,128,0,90683:0:0:0:0:
42,192,90608,1,0,0:0:0:0:
298,192,90683,128,0,90758:0:0:0:0:
384,192,90758,128,0,90833:0:0:0:0:
213,192,90758,1,0,0:0:0:0:
469,192,90833,128,0,90908:0:0:0:0:
298,192,90908,128,0,90983:0:0:0:0:
128,192,90908,1,0,0:0:0:0:
384,192,90983,128,0,91058:0:0:0:0:
469,192,91058,128,0,91133:0:0:0:0:
213,192,91058,1,0,0:0:0:0:
384,192,91133,128,0,91208:0:0:0:0:
128,192,91208,1,0,0:0:0:0:
42,192,91208,1,0,0:0:0:0:
298,192,91208,128,0,91283:0:0:0:0:
213,192,91283,128,0,91358:0:0:0:0:
42,192,91358,1,0,0:0:0:0:
298,192,91358,128,0,91433:0:0:0:0:
384,192,91433,128,0,91508:0:0:0:0:
42,192,91508,128,0,91583:0:0:0:0:
298,192,91508,1,0,0:0:0:0:
469,192,91508,1,0,0:0:0:0:
128,192,91583,128,0,91658:0:0:0:0:
213,192,91658,128,0,91733:0:0:0:0:
384,192,91658,1,0,0:0:0:0:
42,192,91658,1,0,0:0:0:0:
298,192,91733,128,0,91808:0:0:0:0:
128,192,91733,1,0,0:0:0:0:
469,192,91733,1,0,0:0:0:0:
213,192,91808,1,0,0:0:0:0:
42,192,91808,128,0,92108:0:0:0:0:
384,192,91808,128,0,91958:0:0:0:0:
213,192,91958,1,0,0:0:0:0:
384,192,92033,1,0,0:0:0:0:
128,192,92108,1,0,0:0:0:0:
298,192,92108,128,0,92408:0:0:0:0:
213,192,92183,1,0,0:0:0:0:
469,192,92258,128,0,92408:0:0:0:0:
42,192,92258,1,0,0:0:0:0:
128,192,92333,1,0,0:0:0:0:
213,192,92408,1,0,0:0:0:0:
384,192,92408,1,0,0:0:0:0:
42,192,92408,128,0,92483:0:0:0:0:
298,192,92483,1,0,0:0:0:0:
128,192,92483,128,0,92558:0:0:0:0:
384,192,92558,1,0,0:0:0:0:
213,192,92558,128,0,92633:0:0:0:0:
298,192,92633,1,0,0:0:0:0:
42,192,92633,1,0,0:0:0:0:
469,192,92633,128,0,92708:0:0:0:0:
213,192,92708,1,0,0:0:0:0:
384,192,92708,128,0,92783:0:0:0:0:
128,192,92783,1,0,0:0:0:0:
298,192,92783,128,0,92858:0:0:0:0:
213,192,92858,1,0,0:0:0:0:
469,192,92858,1,0,0:0:0:0:
42,192,92858,128,0,92933:0:0:0:0:
298,192,92933,1,0,0:0:0:0:
128,192,92933,128,0,93008:0:0:0:0:
469,192,93008,1,0,0:0:0:0:
213,192,93008,1,0,0:0:0:0:
384,192,93008,1,0,0:0:0:0:
42,192,93045,1,0,0:0:0:0:
128,192,93083,1,0,0:0:0:0:
213,192,93120,1,0,0:0:0:0:
298,192,93158,1,0,0:0:0:0:
469,192,93158,1,0,0:0:0:0:
128,192,93195,1,0,0:0:0:0:
213,192,93233,1,0,0:0:0:0:
298,192,93270,1,0,0:0:0:0:
42,192,93308,1,0,0:0:0:0:
384,192,93308,1,0,0:0:0:0:
128,192,93345,1,0,0:0:0:0:
213,192,93383,1,0,0:0:0:0:
298,192,93420,1,0,0:0:0:0:
469,192,93458,1,0,0:0:0:0:
128,192,93458,1,0,0:0:0:0:
384,192,93495,1,0,0:0:0:0:
298,192,93533,1,0,0:0:0:0:
213,192,93570,1,0,0:0:0:0:
42,192,93608,1,0,0:0:0:0:
469,192,93608,128,0,93683:0:0:0:0:
128,192,93608,1,0,0:0:0:0:
213,192,93683,1,0,0:0:0:0:
384,192,93683,128,0,93758:0:0:0:0:
128,192,93758,1,0,0:0:0:0:
298,192,93758,128,0,93833:0:0:0:0:
213,192,93833,1,0,0:0:0:0:
469,192,93833,1,0,0:0:0:0:
42,192,93833,128,0,93908:0:0:0:0:
298,192,93908,1,0,0:0:0:0:
128,192,93908,128,0,93983:0:0:0:0:
384,192,93983,1,0,0:0:0:0:
213,192,93983,128,0,94058:0:0:0:0:
298,192,94058,1,0,0:0:0:0:
42,192,94058,1,0,0:0:0:0:
469,192,94058,128,0,94133:0:0:0:0:
213,192,94133,1,0,0:0:0:0:
384,192,94133,128,0,94208:0:0:0:0:
128,192,94208,1,0,0:0:0:0:
42,192,94208,1,0,0:0:0:0:
298,192,94208,1,0,0:0:0:0:
469,192,94245,1,0,0:0:0:0:
384,192,94283,1,0,0:0:0:0:
298,192,94320,1,0,0:0:0:0:
213,192,94358,1,0,0:0:0:0:
42,192,94358,1,0,0:0:0:0:
384,192,94395,1,0,0:0:0:0:
298,192,94433,1,0,0:0:0:0:
213,192,94470,1,0,0:0:0:0:
469,192,94508,1,0,0:0:0:0:
128,192,94508,1,0,0:0:0:0:
384,192,94545,1,0,0:0:0:0:
298,192,94583,1,0,0:0:0:0:
213,192,94620,1,0,0:0:0:0:
42,192,94658,1,0,0:0:0:0:
469,192,94658,1,0,0:0:0:0:
128,192,94695,1,0,0:0:0:0:
298,192,94733,1,0,0:0:0:0:
384,192,94770,1,0,0:0:0:0:
469,192,94808,1,0,0:0:0:0:
42,192,94808,1,0,0:0:0:0:
213,192,94808,1,0,0:0:0:0:
128,192,94883,1,0,0:0:0:0:
298,192,94883,1,0,0:0:0:0:
213,192,94958,1,0,0:0:0:0:
384,192,94958,1,0,0:0:0:0:
469,192,94958,1,0,0:0:0:0:
298,192,95033,1,0,0:0:0:0:
42,192,95033,1,0,0:0:0:0:
128,192,95108,1,0,0:0:0:0:
384,192,95108,1,0,0:0:0:0:
469,192,95108,1,0,0:0:0:0:
298,192,95183,1,0,0:0:0:0:
213,192,95183,1,0,0:0:0:0:
128,192,95258,1,0,0:0:0:0:
42,192,95258,1,0,0:0:0:0:
384,192,95258,1,0,0:0:0:0:
298,192,95333,1,0,0:0:0:0:
213,192,95408,1,0,0:0:0:0:
42,192,95408,1,0,0:0:0:0:
469,192,95408,1,0,0:0:0:0:
384,192,95483,1,0,0:0:0:0:
128,192,95483,1,0,0:0:0:0:
42,192,95558,1,0,0:0:0:0:
298,192,95558,1,0,0:0:0:0:
213,192,95558,1,0,0:0:0:0:
384,192,95633,1,0,0:0:0:0:
128,192,95633,1,0,0:0:0:0:
469,192,95633,1,0,0:0:0:0:
298,192,95708,1,0,0:0:0:0:
42,192,95708,1,0,0:0:0:0:
213,192,95708,1,0,0:0:0:0:
384,192,95783,1,0,0:0:0:0:
469,192,95783,1,0,0:0:0:0:
213,192,95858,1,0,0:0:0:0:
42,192,95858,1,0,0:0:0:0:
128,192,95858,1,0,0:0:0:0:
298,192,95933,1,0,0:0:0:0:
469,192,95933,1,0,0:0:0:0:
384,192,96008,1,0,0:0:0:0:
213,192,96008,1,0,0:0:0:0:
42,192,96008,1,0,0:0:0:0:
298,192,96083,1,0,0:0:0:0:
469,192,96083,1,0,0:0:0:0:
42,192,96158,1,0,0:0:0:0:
128,192,96158,1,0,0:0:0:0:
298,192,96233,1,0,0:0:0:0:
384,192,96233,1,0,0:0:0:0:
213,192,96308,1,0,0:0:0:0:
128,192,96308,1,0,0:0:0:0:
384,192,96383,1,0,0:0:0:0:
469,192,96383,1,0,0:0:0:0:
213,192,96458,1,0,0:0:0:0:
42,192,96458,1,0,0:0:0:0:
298,192,96533,1,0,0:0:0:0:
469,192,96533,1,0,0:0:0:0:
42,192,96608,1,0,0:0:0:0:
128,192,96608,1,0,0:0:0:0:
213,192,96645,1,0,0:0:0:0:
384,192,96683,1,0,0:0:0:0:
469,192,96683,1,0,0:0:0:0:
298,192,96720,1,0,0:0:0:0:
128,192,96758,1,0,0:0:0:0:
42,192,96758,1,0,0:0:0:0:
298,192,96833,1,0,0:0:0:0:
469,192,96833,1,0,0:0:0:0:
213,192,96908,1,0,0:0:0:0:
128,192,96908,1,0,0:0:0:0:
42,192,96945,1,0,0:0:0:0:
384,192,96983,1,0,0:0:0:0:
298,192,96983,1,0,0:0:0:0:
469,192,97020,1,0,0:0:0:0:
213,192,97058,1,0,0:0:0:0:
42,192,97058,1,0,0:0:0:0:
128,192,97095,1,0,0:0:0:0:
298,192,97133,1,0,0:0:0:0:
469,192,97133,1,0,0:0:0:0:
384,192,97170,1,0,0:0:0:0:
213,192,97208,1,0,0:0:0:0:
42,192,97208,128,0,97658:0:0:0:0:
213,192,97808,128,0,97958:0:0:0:0:
384,192,97808,1,0,0:0:0:0:
469,192,98108,128,0,98258:0:0:0:0:
298,192,98108,1,0,0:0:0:0:
384,192,98408,128,0,98858:0:0:0:0:
42,192,98408,1,0,0:0:0:0:
298,192,98408,1,0,0:0:0:0:
213,192,98483,1,0,0:0:0:0:
42,192,98558,1,0,0:0:0:0:
213,192,98633,1,0,0:0:0:0:
42,192,98708,1,0,0:0:0:0:
213,192,98783,1,0,0:0:0:0:
42,192,98858,1,0,0:0:0:0:
213,192,98933,1,0,0:0:0:0:
298,192,99008,128,0,99458:0:0:0:0:
469,192,99008,128,0,99458:0:0:0:0:
128,192,99008,1,0,0:0:0:0:
42,192,99008,1,0,0:0:0:0:
42,192,99158,1,0,0:0:0:0:
213,192,99158,1,0,0:0:0:0:
213,192,99233,1,0,0:0:0:0:
42,192,99233,1,0,0:0:0:0:
128,192,99308,1,0,0:0:0:0:
213,192,99383,1,0,0:0:0:0:
42,192,99383,1,0,0:0:0:0:
128,192,99458,1,0,0:0:0:0:
213,192,99533,1,0,0:0:0:0:
298,192,99608,1,0,0:0:0:0:
42,192,99608,1,0,0:0:0:0:
384,192,99608,128,0,99758:0:0:0:0:
469,192,99608,128,0,99833:0:0:0:0:
128,192,99608,1,0,0:0:0:0:
128,192,99758,128,0,99833:0:0:0:0:
42,192,99758,1,0,0:0:0:0:
213,192,99833,128,0,99908:0:0:0:0:
298,192,99908,128,0,99983:0:0:0:0:
128,192,99908,1,0,0:0:0:0:
384,192,99908,1,0,0:0:0:0:
469,192,99908,1,0,0:0:0:0:
42,192,99908,1,0,0:0:0:0:
213,192,99983,128,0,100058:0:0:0:0:
298,192,100058,128,0,100133:0:0:0:0:
128,192,100058,1,0,0:0:0:0:
384,192,100133,128,0,100208:0:0:0:0:
128,192,100208,128,0,100358:0:0:0:0:
42,192,100208,1,0,0:0:0:0:
298,192,100208,1,0,0:0:0:0:
213,192,100208,1,0,0:0:0:0:
469,192,100208,1,0,0:0:0:0:
298,192,100358,128,0,100433:0:0:0:0:
469,192,100358,1,0,0:0:0:0:
42,192,100433,128,0,100508:0:0:0:0:
213,192,100508,128,0,100658:0:0:0:0:
128,192,100508,1,0,0:0:0:0:
298,192,100508,1,0,0:0:0:0:
384,192,100508,1,0,0:0:0:0:
469,192,100508,1,0,0:0:0:0:
384,192,100658,128,0,100733:0:0:0:0:
298,192,100658,1,0,0:0:0:0:
128,192,100733,128,0,100808:0:0:0:0:
42,192,100808,128,0,100958:0:0:0:0:
298,192,100808,1,0,0:0:0:0:
213,192,100808,1,0,0:0:0:0:
384,192,100808,1,0,0:0:0:0:
469,192,100808,1,0,0:0:0:0:
213,192,100958,128,0,101033:0:0:0:0:
469,192,100958,1,0,0:0:0:0:
42,192,101033,128,0,101183:0:0:0:0:
298,192,101108,1,0,0:0:0:0:
128,192,101108,1,0,0:0:0:0:
384,192,101108,1,0,0:0:0:0:
469,192,101108,1,0,0:0:0:0:
213,192,101183,128,0,101258:0:0:0:0:
42,192,101258,128,0,101333:0:0:0:0:
384,192,101258,1,0,0:0:0:0:
213,192,101333,128,0,101408:0:0:0:0:
298,192,101408,1,0,0:0:0:0:
469,192,101408,1,0,0:0:0:0:
42,192,101408,1,0,0:0:0:0:
128,192,101408,1,0,0:0:0:0:
384,192,101408,128,0,101633:0:0:0:0:
128,192,101558,1,0,0:0:0:0:
469,192,101708,1,0,0:0:0:0:
298,192,101708,1,0,0:0:0:0:
213,192,101708,1,0,0:0:0:0:
42,192,101708,128,0,101783:0:0:0:0:
384,192,101708,1,0,0:0:0:0:
128,192,101783,128,0,101858:0:0:0:0:
213,192,101858,128,0,101933:0:0:0:0:
384,192,101858,1,0,0:0:0:0:
469,192,101858,1,0,0:0:0:0:
298,192,101933,128,0,102008:0:0:0:0:
213,192,102008,1,0,0:0:0:0:
128,192,102008,1,0,0:0:0:0:
42,192,102008,1,0,0:0:0:0:
384,192,102008,1,0,0:0:0:0:
469,192,102008,128,0,102233:0:0:0:0:
213,192,102158,1,0,0:0:0:0:
384,192,102308,128,0,102383:0:0:0:0:
298,192,102308,1,0,0:0:0:0:
213,192,102308,1,0,0:0:0:0:
42,192,102308,1,0,0:0:0:0:
469,192,102308,1,0,0:0:0:0:
128,192,102383,128,0,102458:0:0:0:0:
384,192,102458,128,0,102533:0:0:0:0:
213,192,102458,1,0,0:0:0:0:
128,192,102533,128,0,102608:0:0:0:0:
298,192,102608,128,0,102758:0:0:0:0:
213,192,102608,1,0,0:0:0:0:
42,192,102608,1,0,0:0:0:0:
384,192,102608,1,0,0:0:0:0:
469,192,102608,1,0,0:0:0:0:
42,192,102758,128,0,102833:0:0:0:0:
469,192,102758,1,0,0:0:0:0:
213,192,102833,128,0,102908:0:0:0:0:
384,192,102908,128,0,103058:0:0:0:0:
469,192,102908,1,0,0:0:0:0:
298,192,102908,1,0,0:0:0:0:
128,192,102908,1,0,0:0:0:0:
42,192,102908,1,0,0:0:0:0:
128,192,103058,128,0,103133:0:0:0:0:
42,192,103058,1,0,0:0:0:0:
213,192,103133,128,0,103208:0:0:0:0:
298,192,103208,128,0,103358:0:0:0:0:
128,192,103208,1,0,0:0:0:0:
42,192,103208,1,0,0:0:0:0:
384,192,103208,1,0,0:0:0:0:
469,192,103208,1,0,0:0:0:0:
469,192,103358,128,0,103433:0:0:0:0:
213,192,103358,1,0,0:0:0:0:
298,192,103433,128,0,103583:0:0:0:0:
128,192,103508,1,0,0:0:0:0:
42,192,103508,1,0,0:0:0:0:
213,192,103508,1,0,0:0:0:0:
384,192,103508,1,0,0:0:0:0:
469,192,103583,128,0,103658:0:0:0:0:
298,192,103658,128,0,103733:0:0:0:0:
128,192,103658,1,0,0:0:0:0:
469,192,103733,128,0,103808:0:0:0:0:
128,192,103808,128,0,104033:0:0:0:0:
213,192,103808,1,0,0:0:0:0:
42,192,103808,1,0,0:0:0:0:
384,192,103808,1,0,0:0:0:0:
298,192,103808,1,0,0:0:0:0:
298,192,103958,1,0,0:0:0:0:
384,192,103958,1,0,0:0:0:0:
469,192,103958,1,0,0:0:0:0:
469,192,104108,128,0,104183:0:0:0:0:
298,192,104108,1,0,0:0:0:0:
213,192,104108,1,0,0:0:0:0:
128,192,104108,1,0,0:0:0:0:
42,192,104108,1,0,0:0:0:0:
384,192,104183,128,0,104258:0:0:0:0:
298,192,104258,128,0,104333:0:0:0:0:
128,192,104258,1,0,0:0:0:0:
42,192,104258,1,0,0:0:0:0:
213,192,104333,128,0,104408:0:0:0:0:
128,192,104333,1,0,0:0:0:0:
42,192,104333,1,0,0:0:0:0:
42,192,104408,128,0,104633:0:0:0:0:
128,192,104408,1,0,0:0:0:0:
384,192,104408,1,0,0:0:0:0:
469,192,104408,1,0,0:0:0:0:
298,192,104408,1,0,0:0:0:0:
384,192,104558,1,0,0:0:0:0:
128,192,104708,128,0,104783:0:0:0:0:
298,192,104708,1,0,0:0:0:0:
384,192,104708,1,0,0:0:0:0:
469,192,104708,1,0,0:0:0:0:
42,192,104708,1,0,0:0:0:0:
213,192,104783,128,0,104858:0:0:0:0:
298,192,104858,128,0,104933:0:0:0:0:
42,192,104858,1,0,0:0:0:0:
384,192,104933,128,0,105008:0:0:0:0:
469,192,105008,128,0,105158:0:0:0:0:
213,192,105008,1,0,0:0:0:0:
128,192,105008,1,0,0:0:0:0:
42,192,105008,1,0,0:0:0:0:
298,192,105008,1,0,0:0:0:0:
128,192,105158,128,0,105233:0:0:0:0:
213,192,105158,1,0,0:0:0:0:
298,192,105233,128,0,105308:0:0:0:0:
384,192,105308,128,0,105458:0:0:0:0:
213,192,105308,1,0,0:0:0:0:
42,192,105308,1,0,0:0:0:0:
128,192,105308,1,0,0:0:0:0:
469,192,105308,1,0,0:0:0:0:
42,192,105458,128,0,105533:0:0:0:0:
298,192,105458,1,0,0:0:0:0:
213,192,105533,128,0,105608:0:0:0:0:
298,192,105608,128,0,105758:0:0:0:0:
128,192,105608,1,0,0:0:0:0:
42,192,105608,1,0,0:0:0:0:
384,192,105608,1,0,0:0:0:0:
469,192,105608,1,0,0:0:0:0:
128,192,105758,128,0,105833:0:0:0:0:
469,192,105758,1,0,0:0:0:0:
213,192,105833,128,0,105908:0:0:0:0:
384,192,105908,128,0,106058:0:0:0:0:
298,192,105908,1,0,0:0:0:0:
469,192,105908,1,0,0:0:0:0:
128,192,105908,1,0,0:0:0:0:
42,192,105908,1,0,0:0:0:0:
213,192,106058,128,0,106133:0:0:0:0:
42,192,106058,1,0,0:0:0:0:
128,192,106058,1,0,0:0:0:0:
298,192,106133,128,0,106208:0:0:0:0:
469,192,106208,128,0,106658:0:0:0:0:
213,192,106208,1,0,0:0:0:0:
42,192,106208,1,0,0:0:0:0:
128,192,106208,1,0,0:0:0:0:
384,192,106208,1,0,0:0:0:0:
298,192,106283,1,0,0:0:0:0:
213,192,106358,1,0,0:0:0:0:
128,192,106358,1,0,0:0:0:0:
42,192,106358,1,0,0:0:0:0:
298,192,106433,1,0,0:0:0:0:
213,192,106508,1,0,0:0:0:0:
128,192,106508,1,0,0:0:0:0:
42,192,106508,1,0,0:0:0:0:
384,192,106508,1,0,0:0:0:0:
298,192,106808,1,0,0:0:0:0:
469,192,106808,1,0,0:0:0:0:
42,192,106808,1,0,0:0:0:0:
128,192,106883,1,0,0:0:0:0:
213,192,106958,1,0,0:0:0:0:
298,192,107033,1,0,0:0:0:0:
128,192,107108,1,0,0:0:0:0:
213,192,107183,1,0,0:0:0:0:
298,192,107258,1,0,0:0:0:0:
384,192,107333,1,0,0:0:0:0:
469,192,107408,128,0,107558:0:0:0:0:
213,192,107558,1,0,0:0:0:0:
298,192,107633,1,0,0:0:0:0:
384,192,107708,128,0,107858:0:0:0:0:
42,192,107708,1,0,0:0:0:0:
128,192,107858,1,0,0:0:0:0:
213,192,107933,1,0,0:0:0:0:
469,192,108008,128,0,108158:0:0:0:0:
42,192,108008,1,0,0:0:0:0:
298,192,108008,1,0,0:0:0:0:
298,192,108158,1,0,0:0:0:0:
128,192,108158,1,0,0:0:0:0:
469,192,108233,128,0,108383:0:0:0:0:
42,192,108308,1,0,0:0:0:0:
298,192,108383,1,0,0:0:0:0:
469,192,108458,128,0,108533:0:0:0:0:
128,192,108458,1,0,0:0:0:0:
298,192,108533,128,0,108608:0:0:0:0:
128,192,108608,128,0,108758:0:0:0:0:
42,192,108608,1,0,0:0:0:0:
213,192,108608,1,0,0:0:0:0:
469,192,108608,1,0,0:0:0:0:
298,192,108758,1,0,0:0:0:0:
469,192,108758,1,0,0:0:0:0:
298,192,108833,1,0,0:0:0:0:
469,192,108833,1,0,0:0:0:0:
128,192,108908,1,0,0:0:0:0:
384,192,108908,1,0,0:0:0:0:
298,192,108983,1,0,0:0:0:0:
42,192,108983,1,0,0:0:0:0:
213,192,109058,1,0,0:0:0:0:
469,192,109058,1,0,0:0:0:0:
384,192,109133,1,0,0:0:0:0:
128,192,109133,1,0,0:0:0:0:
42,192,109208,128,0,109358:0:0:0:0:
213,192,109208,128,0,109358:0:0:0:0:
298,192,109208,1,0,0:0:0:0:
469,192,109208,1,0,0:0:0:0:
213,192,109508,128,0,109658:0:0:0:0:
42,192,109508,128,0,109658:0:0:0:0:
298,192,109508,1,0,0:0:0:0:
469,192,109508,1,0,0:0:0:0:
128,192,109808,128,0,109958:0:0:0:0:
298,192,109808,128,0,109958:0:0:0:0:
384,192,109808,1,0,0:0:0:0:
469,192,109808,1,0,0:0:0:0:
384,192,109883,1,0,0:0:0:0:
469,192,109883,1,0,0:0:0:0:
384,192,109958,128,0,110108:0:0:0:0:
213,192,109958,128,0,110108:0:0:0:0:
42,192,109958,1,0,0:0:0:0:
469,192,109958,1,0,0:0:0:0:
213,192,110258,1,0,0:0:0:0:
128,192,110258,1,0,0:0:0:0:
42,192,110258,1,0,0:0:0:0:
298,192,110258,128,0,110558:0:0:0:0:
469,192,110258,128,0,110558:0:0:0:0:
213,192,110408,1,0,0:0:0:0:
128,192,110408,1,0,0:0:0:0:
42,192,110408,1,0,0:0:0:0:
384,192,110408,1,0,0:0:0:0:
128,192,110558,1,0,0:0:0:0:
213,192,110708,1,0,0:0:0:0:
298,192,110708,1,0,0:0:0:0:
384,192,110708,1,0,0:0:0:0:
469,192,110708,1,0,0:0:0:0:
42,192,110708,128,0,110783:0:0:0:0:
128,192,110783,128,0,110858:0:0:0:0:
213,192,110858,128,0,110933:0:0:0:0:
384,192,110858,1,0,0:0:0:0:
298,192,110933,128,0,111008:0:0:0:0:
384,192,111008,128,0,111158:0:0:0:0:
128,192,111008,1,0,0:0:0:0:
42,192,111008,1,0,0:0:0:0:
213,192,111008,1,0,0:0:0:0:
469,192,111008,1,0,0:0:0:0:
128,192,111158,128,0,111233:0:0:0:0:
213,192,111158,1,0,0:0:0:0:
384,192,111233,128,0,111383:0:0:0:0:
298,192,111308,1,0,0:0:0:0:
213,192,111308,1,0,0:0:0:0:
42,192,111308,1,0,0:0:0:0:
469,192,111308,1,0,0:0:0:0:
128,192,111383,128,0,111458:0:0:0:0:
384,192,111458,128,0,111608:0:0:0:0:
298,192,111458,1,0,0:0:0:0:
42,192,111458,1,0,0:0:0:0:
469,192,111458,1,0,0:0:0:0:
42,192,111608,128,0,111833:0:0:0:0:
213,192,111608,1,0,0:0:0:0:
128,192,111608,1,0,0:0:0:0:
298,192,111608,1,0,0:0:0:0:
469,192,111608,1,0,0:0:0:0:
213,192,111758,1,0,0:0:0:0:
469,192,111908,128,0,111983:0:0:0:0:
128,192,111908,1,0,0:0:0:0:
42,192,111908,1,0,0:0:0:0:
213,192,111908,1,0,0:0:0:0:
298,192,111908,1,0,0:0:0:0:
384,192,111983,128,0,112058:0:0:0:0:
298,192,112058,128,0,112133:0:0:0:0:
128,192,112058,1,0,0:0:0:0:
213,192,112133,128,0,112208:0:0:0:0:
128,192,112208,128,0,112358:0:0:0:0:
42,192,112208,1,0,0:0:0:0:
384,192,112208,1,0,0:0:0:0:
469,192,112208,1,0,0:0:0:0:
298,192,112208,1,0,0:0:0:0:
384,192,112358,128,0,112433:0:0:0:0:
469,192,112358,1,0,0:0:0:0:
213,192,112433,128,0,112508:0:0:0:0:
42,192,112508,128,0,112658:0:0:0:0:
384,192,112508,1,0,0:0:0:0:
469,192,112508,1,0,0:0:0:0:
298,192,112508,1,0,0:0:0:0:
128,192,112508,1,0,0:0:0:0:
469,192,112658,128,0,112733:0:0:0:0:
213,192,112658,1,0,0:0:0:0:
298,192,112733,128,0,112808:0:0:0:0:
128,192,112808,128,0,112958:0:0:0:0:
42,192,112808,1,0,0:0:0:0:
213,192,112808,1,0,0:0:0:0:
384,192,112808,1,0,0:0:0:0:
469,192,112808,1,0,0:0:0:0:
384,192,112958,128,0,113033:0:0:0:0:
298,192,112958,1,0,0:0:0:0:
128,192,113033,128,0,113183:0:0:0:0:
298,192,113108,1,0,0:0:0:0:
213,192,113108,1,0,0:0:0:0:
42,192,113108,1,0,0:0:0:0:
469,192,113108,1,0,0:0:0:0:
384,192,113183,128,0,113258:0:0:0:0:
128,192,113258,128,0,113333:0:0:0:0:
213,192,113258,1,0,0:0:0:0:
384,192,113333,128,0,113408:0:0:0:0:
213,192,113408,128,0,113558:0:0:0:0:
42,192,113408,1,0,0:0:0:0:
298,192,113408,1,0,0:0:0:0:
128,192,113408,1,0,0:0:0:0:
469,192,113408,1,0,0:0:0:0:
42,192,113558,128,0,113633:0:0:0:0:
469,192,113558,1,0,0:0:0:0:
128,192,113633,128,0,113708:0:0:0:0:
213,192,113708,128,0,113783:0:0:0:0:
469,192,113708,1,0,0:0:0:0:
384,192,113708,1,0,0:0:0:0:
42,192,113708,1,0,0:0:0:0:
298,192,113708,1,0,0:0:0:0:
298,192,113783,128,0,113858:0:0:0:0:
384,192,113858,128,0,113933:0:0:0:0:
128,192,113858,1,0,0:0:0:0:
42,192,113858,1,0,0:0:0:0:
469,192,113933,128,0,114008:0:0:0:0:
128,192,113933,1,0,0:0:0:0:
42,192,113933,1,0,0:0:0:0:
42,192,114008,1,0,0:0:0:0:
384,192,114008,1,0,0:0:0:0:
213,192,114008,1,0,0:0:0:0:
298,192,114008,128,0,114158:0:0:0:0:
213,192,114158,128,0,114233:0:0:0:0:
384,192,114158,1,0,0:0:0:0:
469,192,114158,1,0,0:0:0:0:
42,192,114158,1,0,0:0:0:0:
128,192,114233,128,0,114308:0:0:0:0:
42,192,114308,128,0,114383:0:0:0:0:
384,192,114308,1,0,0:0:0:0:
298,192,114308,1,0,0:0:0:0:
469,192,114308,1,0,0:0:0:0:
128,192,114383,128,0,114458:0:0:0:0:
213,192,114458,128,0,114533:0:0:0:0:
42,192,114458,1,0,0:0:0:0:
384,192,114458,1,0,0:0:0:0:
469,192,114458,1,0,0:0:0:0:
298,192,114533,128,0,114608:0:0:0:0:
128,192,114533,1,0,0:0:0:0:
213,192,114608,1,0,0:0:0:0:
42,192,114608,1,0,0:0:0:0:
384,192,114608,128,0,114683:0:0:0:0:
469,192,114608,1,0,0:0:0:0:
298,192,114683,128,0,114758:0:0:0:0:
469,192,114758,128,0,114833:0:0:0:0:
213,192,114758,1,0,0:0:0:0:
128,192,114758,1,0,0:0:0:0:
42,192,114758,1,0,0:0:0:0:
384,192,114833,128,0,114908:0:0:0:0:
298,192,114908,128,0,114983:0:0:0:0:
213,192,114908,1,0,0:0:0:0:
42,192,114908,1,0,0:0:0:0:
128,192,114908,1,0,0:0:0:0:
469,192,114983,128,0,115058:0:0:0:0:
384,192,115058,128,0,115133:0:0:0:0:
213,192,115058,1,0,0:0:0:0:
128,192,115058,1,0,0:0:0:0:
42,192,115058,1,0,0:0:0:0:
298,192,115133,128,0,115208:0:0:0:0:
469,192,115133,1,0,0:0:0:0:
128,192,115208,1,0,0:0:0:0:
42,192,115208,1,0,0:0:0:0:
384,192,115208,1,0,0:0:0:0:
298,192,115283,1,0,0:0:0:0:
469,192,115283,1,0,0:0:0:0:
384,192,115358,1,0,0:0:0:0:
42,192,115358,1,0,0:0:0:0:
213,192,115358,1,0,0:0:0:0:
298,192,115433,1,0,0:0:0:0:
128,192,115433,1,0,0:0:0:0:
42,192,115508,1,0,0:0:0:0:
213,192,115508,1,0,0:0:0:0:
469,192,115508,1,0,0:0:0:0:
384,192,115583,1,0,0:0:0:0:
128,192,115583,1,0,0:0:0:0:
298,192,115658,1,0,0:0:0:0:
42,192,115658,1,0,0:0:0:0:
469,192,115658,1,0,0:0:0:0:
213,192,115733,1,0,0:0:0:0:
384,192,115733,1,0,0:0:0:0:
298,192,115808,1,0,0:0:0:0:
128,192,115808,1,0,0:0:0:0:
469,192,115845,1,0,0:0:0:0:
213,192,115883,1,0,0:0:0:0:
42,192,115883,1,0,0:0:0:0:
384,192,115920,1,0,0:0:0:0:
128,192,115958,1,0,0:0:0:0:
469,192,115958,1,0,0:0:0:0:
298,192,115995,1,0,0:0:0:0:
384,192,116033,1,0,0:0:0:0:
42,192,116033,1,0,0:0:0:0:
213,192,116070,1,0,0:0:0:0:
469,192,116108,1,0,0:0:0:0:
298,192,116108,1,0,0:0:0:0:
128,192,116145,1,0,0:0:0:0:
213,192,116183,1,0,0:0:0:0:
384,192,116183,1,0,0:0:0:0:
42,192,116220,1,0,0:0:0:0:
128,192,116258,1,0,0:0:0:0:
298,192,116258,1,0,0:0:0:0:
213,192,116295,1,0,0:0:0:0:
469,192,116295,1,0,0:0:0:0:
42,192,116333,1,0,0:0:0:0:
298,192,116333,1,0,0:0:0:0:
128,192,116370,1,0,0:0:0:0:
384,192,116370,1,0,0:0:0:0:
213,192,116408,1,0,0:0:0:0:
469,192,116408,128,0,116708:0:0:0:0:
128,192,116558,1,0,0:0:0:0:
42,192,116708,1,0,0:0:0:0:
298,192,116783,1,0,0:0:0:0:
469,192,116858,1,0,0:0:0:0:
213,192,116858,1,0,0:0:0:0:
298,192,116933,1,0,0:0:0:0:
469,192,117008,1,0,0:0:0:0:
298,192,117083,1,0,0:0:0:0:
469,192,117158,1,0,0:0:0:0:
128,192,117158,1,0,0:0:0:0:
298,192,117233,1,0,0:0:0:0:
469,192,117308,1,0,0:0:0:0:
298,192,117383,1,0,0:0:0:0:
469,192,117458,1,0,0:0:0:0:
42,192,117458,1,0,0:0:0:0:
298,192,117533,1,0,0:0:0:0:
384,192,117608,1,0,0:0:0:0:
213,192,117608,1,0,0:0:0:0:
298,192,117683,1,0,0:0:0:0:
384,192,117758,1,0,0:0:0:0:
128,192,117758,1,0,0:0:0:0:
298,192,117833,1,0,0:0:0:0:
42,192,117908,1,0,0:0:0:0:
213,192,118058,1,0,0:0:0:0:
469,192,118358,1,0,0:0:0:0:
298,192,118658,1,0,0:0:0:0:
469,192,118658,1,0,0:0:0:0:
469,192,118808,1,0,0:0:0:0:
298,192,118808,1,0,0:0:0:0:
128,192,118808,128,0,118883:0:0:0:0:
42,192,118808,128,0,118883:0:0:0:0:
213,192,118958,128,0,119033:0:0:0:0:
298,192,118958,128,0,119033:0:0:0:0:
42,192,118958,1,0,0:0:0:0:
128,192,119033,1,0,0:0:0:0:
384,192,119108,128,0,119183:0:0:0:0:
469,192,119108,128,0,119183:0:0:0:0:
42,192,119108,1,0,0:0:0:0:
213,192,119258,128,0,119333:0:0:0:0:
128,192,119258,128,0,119333:0:0:0:0:
469,192,119258,1,0,0:0:0:0:
298,192,119258,1,0,0:0:0:0:
213,192,119558,128,0,119633:0:0:0:0:
298,192,119558,128,0,119633:0:0:0:0:
42,192,119558,1,0,0:0:0:0:
469,192,119558,1,0,0:0:0:0:
128,192,119633,1,0,0:0:0:0:
42,192,119708,1,0,0:0:0:0:
213,192,119783,1,0,0:0:0:0:
298,192,119858,128,0,119933:0:0:0:0:
384,192,119858,128,0,119933:0:0:0:0:
128,192,119858,1,0,0:0:0:0:
469,192,119858,1,0,0:0:0:0:
213,192,119933,1,0,0:0:0:0:
384,192,120008,128,0,120083:0:0:0:0:
469,192,120008,128,0,120083:0:0:0:0:
128,192,120008,1,0,0:0:0:0:
42,192,120008,1,0,0:0:0:0:
213,192,120158,1,0,0:0:0:0:
128,192,120233,1,0,0:0:0:0:
384,192,120308,128,0,120383:0:0:0:0:
469,192,120308,128,0,120383:0:0:0:0:
42,192,120308,1,0,0:0:0:0:
298,192,120308,1,0,0:0:0:0:
298,192,120458,128,0,120533:0:0:0:0:
384,192,120458,128,0,120533:0:0:0:0:
213,192,120458,1,0,0:0:0:0:
42,192,120458,1,0,0:0:0:0:
128,192,120608,1,0,0:0:0:0:
213,192,120683,1,0,0:0:0:0:
298,192,120758,128,0,120833:0:0:0:0:
384,192,120758,128,0,120833:0:0:0:0:
128,192,120758,1,0,0:0:0:0:
42,192,120758,1,0,0:0:0:0:
128,192,120908,1,0,0:0:0:0:
213,192,120983,1,0,0:0:0:0:
384,192,121058,128,0,121133:0:0:0:0:
298,192,121058,128,0,121133:0:0:0:0:
128,192,121058,1,0,0:0:0:0:
42,192,121058,1,0,0:0:0:0:
298,192,121208,1,0,0:0:0:0:
213,192,121208,1,0,0:0:0:0:
42,192,121208,1,0,0:0:0:0:
469,192,121208,1,0,0:0:0:0:
128,192,121358,1,0,0:0:0:0:
384,192,121358,1,0,0:0:0:0:
128,192,121433,1,0,0:0:0:0:
298,192,121433,1,0,0:0:0:0:
213,192,121508,1,0,0:0:0:0:
384,192,121508,1,0,0:0:0:0:
128,192,121583,1,0,0:0:0:0:
384,192,121583,1,0,0:0:0:0:
213,192,121658,1,0,0:0:0:0:
298,192,121658,1,0,0:0:0:0:
42,192,121658,128,0,122408:0:0:0:0:
469,192,121658,128,0,122408:0:0:0:0:
