osu file format v14

[General]
AudioFilename: Shagan Daishi_9.mp3
AudioLeadIn: 0
PreviewTime: 20865
Countdown: 0
SampleSet: Normal
StackLeniency: 0.7
Mode: 3
LetterboxInBreaks: 0
SpecialStyle: 0
WidescreenStoryboard: 0

[Editor]
Bookmarks: 21065,33865,66665,92265,98665,111465,124265,126665,152265,158665,171465,177865,190665,197065
DistanceSpacing: 0.5
BeatDivisor: 4
GridSize: 4
TimelineZoom: 2.6

[Metadata]
Title:tyrcs' 6K Collection Pack
TitleUnicode:tyrcs' 6K Collection Pack
Artist:Various Artists
ArtistUnicode:Various Artists
Creator:tyrcs
Version:KAKU P-MODEL - SHAGAN DAISHI [21]
Source:
Tags:BMS The Quick Brown Fox Break TQBF renard LeaF 失望Choco Shitsubou Choco goreshit slavik goblins Aitsuki Nakuru 藍月なくる Monochrome Butterfly 現実をカットアップしてみた yu^ta Genjitsu o Cut-up Shite Mita -45 Aci-L A c i - L Yoshikawa-45 cornandbeans {Blaze} 八大地獄邪魂転生狂葬散火歌 さかみりと Sakamirito Hachidaijigoku Jakontensei Kyousou Sanbika Sakamiya 一之瀬りと Rito Ichinose かめりあ feat. ななひら ベィスドロップ・フリークス Camellia feat. Nanahira Bassdrop Freaks DEAF KEV Invincible ueotan Mario Paint (Time Regression Mix for BMS) Oerba Tanaka Vanilla Y ヲルバ=田中・ヴァニラ Schwerkraft ROKINA ロキナ Silentroom Nhelv SHAGAN DAISHI KAKU P-MODEL 遮眼大師 核P-MODEL 平沢進 Susumu Hirasawa ああああ AAAA lifework LUZE LuzeriA ルゼ katagiri ch3rry cherry かたぎり Laur Sheriruth (Laur Remix) Team Grimoire vs. Laur Grievous Lady Getty vs. DJ DiA Ops Code Rapture Vicetone & Tony Igy Astronomia (Camellia Remix) Coffin Dance かめりあ Fastest Crash Cut Tatsh reunion Asymmetry Reol アシンメトリー れをる
BeatmapID:3507117
BeatmapSetID:1716337

[Difficulty]
HPDrainRate:8
CircleSize:6
OverallDifficulty:8
ApproachRate:5
SliderMultiplier:1.4
SliderTickRate:1

[Events]
//Background and Video events
0,0,"tyrcs' 6K Collection Pack_8.png",0,0
//Break Periods
//Storyboard Layer 0 (Background)
//Storyboard Layer 1 (Fail)
//Storyboard Layer 2 (Pass)
//Storyboard Layer 3 (Foreground)
//Storyboard Layer 4 (Overlay)
//Storyboard Sound Samples

[TimingPoints]
1065,400,4,1,0,5,1,0
21065,400,4,1,0,5,1,0
66665,400,4,1,0,5,1,0
126665,400,4,1,0,5,1,0

[HitObjects]
128,192,1065,5,0,0:0:0:0:
213,192,1265,1,0,0:0:0:0:
128,192,1365,1,0,0:0:0:0:
384,192,1465,1,0,0:0:0:0:
128,192,1665,1,0,0:0:0:0:
469,192,1865,1,0,0:0:0:0:
42,192,2065,1,0,0:0:0:0:
128,192,2265,1,0,0:0:0:0:
384,192,2465,1,0,0:0:0:0:
42,192,2565,1,0,0:0:0:0:
213,192,2665,1,0,0:0:0:0:
469,192,2865,1,0,0:0:0:0:
213,192,3065,1,0,0:0:0:0:
213,192,3465,1,0,0:0:0:0:
469,192,3665,1,0,0:0:0:0:
213,192,3865,1,0,0:0:0:0:
128,192,4265,1,0,0:0:0:0:
213,192,4465,1,0,0:0:0:0:
128,192,4565,1,0,0:0:0:0:
384,192,4665,1,0,0:0:0:0:
128,192,4865,1,0,0:0:0:0:
469,192,5065,1,0,0:0:0:0:
42,192,5265,1,0,0:0:0:0:
128,192,5465,1,0,0:0:0:0:
384,192,5665,1,0,0:0:0:0:
42,192,5765,1,0,0:0:0:0:
213,192,5865,1,0,0:0:0:0:
469,192,6065,1,0,0:0:0:0:
213,192,6265,1,0,0:0:0:0:
213,192,6665,1,0,0:0:0:0:
469,192,6865,1,0,0:0:0:0:
213,192,7065,1,0,0:0:0:0:
469,192,7465,1,0,0:0:0:0:
128,192,7465,1,0,0:0:0:0:
42,192,7465,1,0,0:0:0:0:
213,192,7465,1,0,0:0:0:0:
213,192,7565,1,0,0:0:0:0:
128,192,7565,1,0,0:0:0:0:
298,192,7665,1,0,0:0:0:0:
384,192,7665,1,0,0:0:0:0:
469,192,7665,1,0,0:0:0:0:
213,192,7765,1,0,0:0:0:0:
128,192,7765,1,0,0:0:0:0:
42,192,7765,1,0,0:0:0:0:
42,192,7865,1,0,0:0:0:0:
298,192,7865,1,0,0:0:0:0:
384,192,7865,1,0,0:0:0:0:
469,192,7865,1,0,0:0:0:0:
384,192,7965,1,0,0:0:0:0:
128,192,7965,1,0,0:0:0:0:
298,192,8065,1,0,0:0:0:0:
213,192,8065,1,0,0:0:0:0:
469,192,8065,1,0,0:0:0:0:
128,192,8165,1,0,0:0:0:0:
384,192,8165,1,0,0:0:0:0:
213,192,8265,1,0,0:0:0:0:
42,192,8265,1,0,0:0:0:0:
298,192,8265,1,0,0:0:0:0:
469,192,8265,1,0,0:0:0:0:
42,192,8365,1,0,0:0:0:0:
298,192,8365,1,0,0:0:0:0:
128,192,8465,1,0,0:0:0:0:
469,192,8465,1,0,0:0:0:0:
384,192,8465,1,0,0:0:0:0:
213,192,8565,1,0,0:0:0:0:
469,192,8565,1,0,0:0:0:0:
384,192,8665,1,0,0:0:0:0:
298,192,8665,1,0,0:0:0:0:
128,192,8665,1,0,0:0:0:0:
42,192,8665,1,0,0:0:0:0:
42,192,8765,1,0,0:0:0:0:
298,192,8765,1,0,0:0:0:0:
213,192,8865,1,0,0:0:0:0:
128,192,8865,1,0,0:0:0:0:
384,192,8865,1,0,0:0:0:0:
469,192,8865,1,0,0:0:0:0:
213,192,8965,1,0,0:0:0:0:
384,192,8965,1,0,0:0:0:0:
469,192,8965,1,0,0:0:0:0:
298,192,9065,1,0,0:0:0:0:
213,192,9065,1,0,0:0:0:0:
128,192,9065,1,0,0:0:0:0:
42,192,9065,1,0,0:0:0:0:
128,192,9165,1,0,0:0:0:0:
384,192,9165,1,0,0:0:0:0:
298,192,9265,1,0,0:0:0:0:
213,192,9265,1,0,0:0:0:0:
469,192,9265,1,0,0:0:0:0:
298,192,9365,1,0,0:0:0:0:
42,192,9365,1,0,0:0:0:0:
213,192,9465,1,0,0:0:0:0:
128,192,9465,1,0,0:0:0:0:
384,192,9465,1,0,0:0:0:0:
469,192,9465,1,0,0:0:0:0:
128,192,9565,1,0,0:0:0:0:
42,192,9565,1,0,0:0:0:0:
298,192,9665,1,0,0:0:0:0:
384,192,9665,1,0,0:0:0:0:
469,192,9665,1,0,0:0:0:0:
298,192,9765,1,0,0:0:0:0:
213,192,9765,1,0,0:0:0:0:
213,192,9865,1,0,0:0:0:0:
128,192,9865,1,0,0:0:0:0:
42,192,9865,1,0,0:0:0:0:
469,192,9865,1,0,0:0:0:0:
384,192,9965,1,0,0:0:0:0:
128,192,9965,1,0,0:0:0:0:
298,192,10065,1,0,0:0:0:0:
213,192,10065,1,0,0:0:0:0:
469,192,10065,1,0,0:0:0:0:
298,192,10165,1,0,0:0:0:0:
42,192,10165,1,0,0:0:0:0:
213,192,10265,1,0,0:0:0:0:
128,192,10265,1,0,0:0:0:0:
384,192,10265,1,0,0:0:0:0:
469,192,10265,1,0,0:0:0:0:
128,192,10365,1,0,0:0:0:0:
42,192,10365,1,0,0:0:0:0:
298,192,10465,1,0,0:0:0:0:
384,192,10465,1,0,0:0:0:0:
469,192,10465,1,0,0:0:0:0:
384,192,10565,1,0,0:0:0:0:
213,192,10565,1,0,0:0:0:0:
298,192,10665,1,0,0:0:0:0:
213,192,10665,1,0,0:0:0:0:
128,192,10665,1,0,0:0:0:0:
42,192,10665,1,0,0:0:0:0:
213,192,10765,1,0,0:0:0:0:
128,192,10765,1,0,0:0:0:0:
298,192,10865,1,0,0:0:0:0:
384,192,10865,1,0,0:0:0:0:
469,192,10865,1,0,0:0:0:0:
213,192,10965,1,0,0:0:0:0:
128,192,10965,1,0,0:0:0:0:
42,192,10965,1,0,0:0:0:0:
42,192,11065,1,0,0:0:0:0:
384,192,11065,1,0,0:0:0:0:
469,192,11065,1,0,0:0:0:0:
298,192,11065,1,0,0:0:0:0:
128,192,11165,1,0,0:0:0:0:
384,192,11165,1,0,0:0:0:0:
298,192,11265,1,0,0:0:0:0:
213,192,11265,1,0,0:0:0:0:
42,192,11265,1,0,0:0:0:0:
213,192,11365,1,0,0:0:0:0:
298,192,11365,1,0,0:0:0:0:
128,192,11465,1,0,0:0:0:0:
42,192,11465,1,0,0:0:0:0:
384,192,11465,1,0,0:0:0:0:
469,192,11465,1,0,0:0:0:0:
213,192,11565,1,0,0:0:0:0:
384,192,11565,1,0,0:0:0:0:
469,192,11565,1,0,0:0:0:0:
298,192,11665,1,0,0:0:0:0:
128,192,11665,1,0,0:0:0:0:
42,192,11665,1,0,0:0:0:0:
128,192,11765,1,0,0:0:0:0:
384,192,11765,1,0,0:0:0:0:
298,192,11865,1,0,0:0:0:0:
213,192,11865,1,0,0:0:0:0:
42,192,11865,1,0,0:0:0:0:
469,192,11865,1,0,0:0:0:0:
384,192,11965,1,0,0:0:0:0:
298,192,11965,1,0,0:0:0:0:
213,192,12065,1,0,0:0:0:0:
128,192,12065,1,0,0:0:0:0:
42,192,12065,1,0,0:0:0:0:
469,192,12065,1,0,0:0:0:0:
128,192,12165,1,0,0:0:0:0:
213,192,12165,1,0,0:0:0:0:
384,192,12165,1,0,0:0:0:0:
298,192,12265,1,0,0:0:0:0:
384,192,12265,1,0,0:0:0:0:
469,192,12265,1,0,0:0:0:0:
42,192,12265,1,0,0:0:0:0:
298,192,12365,1,0,0:0:0:0:
128,192,12365,1,0,0:0:0:0:
213,192,12465,1,0,0:0:0:0:
384,192,12465,1,0,0:0:0:0:
469,192,12465,1,0,0:0:0:0:
128,192,12565,1,0,0:0:0:0:
469,192,12565,1,0,0:0:0:0:
298,192,12665,1,0,0:0:0:0:
213,192,12665,1,0,0:0:0:0:
42,192,12665,1,0,0:0:0:0:
128,192,12665,1,0,0:0:0:0:
384,192,12765,1,0,0:0:0:0:
298,192,12765,1,0,0:0:0:0:
469,192,12865,1,0,0:0:0:0:
384,192,12865,1,0,0:0:0:0:
128,192,12865,1,0,0:0:0:0:
213,192,12965,1,0,0:0:0:0:
128,192,12965,1,0,0:0:0:0:
42,192,13065,1,0,0:0:0:0:
298,192,13065,1,0,0:0:0:0:
384,192,13065,1,0,0:0:0:0:
469,192,13065,1,0,0:0:0:0:
298,192,13165,1,0,0:0:0:0:
128,192,13165,1,0,0:0:0:0:
213,192,13265,1,0,0:0:0:0:
384,192,13265,1,0,0:0:0:0:
469,192,13265,1,0,0:0:0:0:
469,192,13365,1,0,0:0:0:0:
128,192,13365,1,0,0:0:0:0:
298,192,13465,1,0,0:0:0:0:
213,192,13465,1,0,0:0:0:0:
42,192,13465,1,0,0:0:0:0:
128,192,13465,1,0,0:0:0:0:
298,192,13565,1,0,0:0:0:0:
384,192,13565,1,0,0:0:0:0:
384,192,13665,1,0,0:0:0:0:
469,192,13665,1,0,0:0:0:0:
128,192,13665,1,0,0:0:0:0:
213,192,13765,1,0,0:0:0:0:
128,192,13765,1,0,0:0:0:0:
42,192,13865,1,0,0:0:0:0:
384,192,13865,1,0,0:0:0:0:
469,192,13865,1,0,0:0:0:0:
298,192,13865,1,0,0:0:0:0:
298,192,13965,1,0,0:0:0:0:
384,192,13965,1,0,0:0:0:0:
213,192,14065,1,0,0:0:0:0:
128,192,14065,1,0,0:0:0:0:
42,192,14065,1,0,0:0:0:0:
298,192,14165,1,0,0:0:0:0:
384,192,14165,1,0,0:0:0:0:
469,192,14165,1,0,0:0:0:0:
469,192,14265,1,0,0:0:0:0:
213,192,14265,1,0,0:0:0:0:
128,192,14265,1,0,0:0:0:0:
42,192,14265,1,0,0:0:0:0:
128,192,14365,1,0,0:0:0:0:
384,192,14365,1,0,0:0:0:0:
213,192,14465,1,0,0:0:0:0:
298,192,14465,1,0,0:0:0:0:
42,192,14465,1,0,0:0:0:0:
384,192,14565,1,0,0:0:0:0:
128,192,14565,1,0,0:0:0:0:
298,192,14665,1,0,0:0:0:0:
469,192,14665,1,0,0:0:0:0:
213,192,14665,1,0,0:0:0:0:
42,192,14665,1,0,0:0:0:0:
469,192,14765,1,0,0:0:0:0:
213,192,14765,1,0,0:0:0:0:
384,192,14865,1,0,0:0:0:0:
42,192,14865,1,0,0:0:0:0:
128,192,14865,1,0,0:0:0:0:
298,192,14965,1,0,0:0:0:0:
42,192,14965,1,0,0:0:0:0:
128,192,15065,1,0,0:0:0:0:
213,192,15065,1,0,0:0:0:0:
384,192,15065,1,0,0:0:0:0:
469,192,15065,1,0,0:0:0:0:
469,192,15165,1,0,0:0:0:0:
213,192,15165,1,0,0:0:0:0:
298,192,15265,1,0,0:0:0:0:
384,192,15265,1,0,0:0:0:0:
128,192,15265,1,0,0:0:0:0:
42,192,15265,1,0,0:0:0:0:
298,192,15365,1,0,0:0:0:0:
128,192,15365,1,0,0:0:0:0:
42,192,15365,1,0,0:0:0:0:
213,192,15465,1,0,0:0:0:0:
298,192,15465,1,0,0:0:0:0:
384,192,15465,1,0,0:0:0:0:
469,192,15465,1,0,0:0:0:0:
384,192,15565,1,0,0:0:0:0:
128,192,15565,1,0,0:0:0:0:
213,192,15665,1,0,0:0:0:0:
298,192,15665,1,0,0:0:0:0:
42,192,15665,1,0,0:0:0:0:
213,192,15765,1,0,0:0:0:0:
469,192,15765,1,0,0:0:0:0:
298,192,15865,1,0,0:0:0:0:
384,192,15865,1,0,0:0:0:0:
128,192,15865,1,0,0:0:0:0:
42,192,15865,1,0,0:0:0:0:
384,192,15965,1,0,0:0:0:0:
469,192,15965,1,0,0:0:0:0:
213,192,16065,1,0,0:0:0:0:
128,192,16065,1,0,0:0:0:0:
42,192,16065,1,0,0:0:0:0:
213,192,16165,1,0,0:0:0:0:
298,192,16165,1,0,0:0:0:0:
298,192,16265,1,0,0:0:0:0:
384,192,16265,1,0,0:0:0:0:
469,192,16265,1,0,0:0:0:0:
42,192,16265,1,0,0:0:0:0:
128,192,16365,1,0,0:0:0:0:
384,192,16365,1,0,0:0:0:0:
213,192,16465,1,0,0:0:0:0:
298,192,16465,1,0,0:0:0:0:
42,192,16465,1,0,0:0:0:0:
213,192,16565,1,0,0:0:0:0:
469,192,16565,1,0,0:0:0:0:
298,192,16665,1,0,0:0:0:0:
384,192,16665,1,0,0:0:0:0:
128,192,16665,1,0,0:0:0:0:
42,192,16665,1,0,0:0:0:0:
384,192,16765,1,0,0:0:0:0:
469,192,16765,1,0,0:0:0:0:
213,192,16865,1,0,0:0:0:0:
128,192,16865,1,0,0:0:0:0:
42,192,16865,1,0,0:0:0:0:
128,192,16965,1,0,0:0:0:0:
298,192,16965,1,0,0:0:0:0:
213,192,17065,1,0,0:0:0:0:
298,192,17065,1,0,0:0:0:0:
384,192,17065,1,0,0:0:0:0:
469,192,17065,1,0,0:0:0:0:
298,192,17165,1,0,0:0:0:0:
384,192,17165,1,0,0:0:0:0:
213,192,17265,1,0,0:0:0:0:
128,192,17265,1,0,0:0:0:0:
42,192,17265,1,0,0:0:0:0:
298,192,17365,1,0,0:0:0:0:
384,192,17365,1,0,0:0:0:0:
469,192,17365,1,0,0:0:0:0:
469,192,17465,1,0,0:0:0:0:
128,192,17465,1,0,0:0:0:0:
42,192,17465,1,0,0:0:0:0:
213,192,17465,1,0,0:0:0:0:
384,192,17565,1,0,0:0:0:0:
128,192,17565,1,0,0:0:0:0:
213,192,17665,1,0,0:0:0:0:
298,192,17665,1,0,0:0:0:0:
469,192,17665,1,0,0:0:0:0:
298,192,17765,1,0,0:0:0:0:
213,192,17765,1,0,0:0:0:0:
384,192,17865,1,0,0:0:0:0:
469,192,17865,1,0,0:0:0:0:
128,192,17865,1,0,0:0:0:0:
42,192,17865,1,0,0:0:0:0:
298,192,17965,1,0,0:0:0:0:
128,192,17965,1,0,0:0:0:0:
42,192,17965,1,0,0:0:0:0:
213,192,18065,1,0,0:0:0:0:
384,192,18065,1,0,0:0:0:0:
469,192,18065,1,0,0:0:0:0:
384,192,18165,1,0,0:0:0:0:
128,192,18165,1,0,0:0:0:0:
213,192,18265,1,0,0:0:0:0:
298,192,18265,1,0,0:0:0:0:
469,192,18265,1,0,0:0:0:0:
42,192,18265,1,0,0:0:0:0:
128,192,18365,1,0,0:0:0:0:
213,192,18365,1,0,0:0:0:0:
298,192,18465,1,0,0:0:0:0:
384,192,18465,1,0,0:0:0:0:
469,192,18465,1,0,0:0:0:0:
42,192,18465,1,0,0:0:0:0:
384,192,18565,1,0,0:0:0:0:
298,192,18565,1,0,0:0:0:0:
128,192,18565,1,0,0:0:0:0:
213,192,18665,1,0,0:0:0:0:
128,192,18665,1,0,0:0:0:0:
42,192,18665,1,0,0:0:0:0:
469,192,18665,1,0,0:0:0:0:
213,192,18765,1,0,0:0:0:0:
384,192,18765,1,0,0:0:0:0:
298,192,18865,1,0,0:0:0:0:
128,192,18865,1,0,0:0:0:0:
42,192,18865,1,0,0:0:0:0:
384,192,18965,1,0,0:0:0:0:
42,192,18965,1,0,0:0:0:0:
213,192,19065,1,0,0:0:0:0:
298,192,19065,1,0,0:0:0:0:
469,192,19065,1,0,0:0:0:0:
384,192,19065,1,0,0:0:0:0:
128,192,19165,1,0,0:0:0:0:
213,192,19165,1,0,0:0:0:0:
42,192,19265,1,0,0:0:0:0:
128,192,19265,1,0,0:0:0:0:
384,192,19265,1,0,0:0:0:0:
298,192,19365,1,0,0:0:0:0:
384,192,19365,1,0,0:0:0:0:
213,192,19465,1,0,0:0:0:0:
128,192,19465,1,0,0:0:0:0:
42,192,19465,1,0,0:0:0:0:
469,192,19465,1,0,0:0:0:0:
128,192,19665,1,0,0:0:0:0:
384,192,19665,1,0,0:0:0:0:
298,192,19865,1,0,0:0:0:0:
42,192,19865,1,0,0:0:0:0:
469,192,20265,1,0,0:0:0:0:
213,192,20265,1,0,0:0:0:0:
384,192,20465,1,0,0:0:0:0:
128,192,20465,1,0,0:0:0:0:
298,192,20665,1,0,0:0:0:0:
42,192,20665,1,0,0:0:0:0:
128,192,20865,1,0,0:0:0:0:
384,192,20915,1,0,0:0:0:0:
128,192,20965,1,0,0:0:0:0:
384,192,21015,1,0,0:0:0:0:
213,192,21065,1,0,0:0:0:0:
128,192,21065,1,0,0:0:0:0:
42,192,21065,1,0,0:0:0:0:
469,192,21065,1,0,0:0:0:0:
298,192,21165,1,0,0:0:0:0:
42,192,21165,1,0,0:0:0:0:
213,192,21265,1,0,0:0:0:0:
384,192,21265,1,0,0:0:0:0:
469,192,21265,1,0,0:0:0:0:
128,192,21365,1,0,0:0:0:0:
384,192,21365,1,0,0:0:0:0:
469,192,21365,1,0,0:0:0:0:
298,192,21465,1,0,0:0:0:0:
213,192,21465,1,0,0:0:0:0:
128,192,21465,1,0,0:0:0:0:
42,192,21465,1,0,0:0:0:0:
42,192,21565,1,0,0:0:0:0:
469,192,21565,1,0,0:0:0:0:
384,192,21665,1,0,0:0:0:0:
298,192,21665,1,0,0:0:0:0:
213,192,21665,1,0,0:0:0:0:
469,192,21665,1,0,0:0:0:0:
128,192,21765,1,0,0:0:0:0:
298,192,21765,1,0,0:0:0:0:
384,192,21765,1,0,0:0:0:0:
128,192,21865,1,0,0:0:0:0:
42,192,21865,1,0,0:0:0:0:
213,192,21865,1,0,0:0:0:0:
469,192,21865,1,0,0:0:0:0:
298,192,21965,1,0,0:0:0:0:
469,192,21965,1,0,0:0:0:0:
128,192,22065,1,0,0:0:0:0:
42,192,22065,1,0,0:0:0:0:
298,192,22065,1,0,0:0:0:0:
384,192,22165,1,0,0:0:0:0:
128,192,22165,1,0,0:0:0:0:
42,192,22165,1,0,0:0:0:0:
213,192,22265,1,0,0:0:0:0:
298,192,22265,1,0,0:0:0:0:
384,192,22265,1,0,0:0:0:0:
469,192,22265,1,0,0:0:0:0:
298,192,22365,1,0,0:0:0:0:
42,192,22365,1,0,0:0:0:0:
213,192,22465,1,0,0:0:0:0:
128,192,22465,1,0,0:0:0:0:
469,192,22465,1,0,0:0:0:0:
42,192,22465,1,0,0:0:0:0:
384,192,22565,1,0,0:0:0:0:
213,192,22565,1,0,0:0:0:0:
128,192,22565,1,0,0:0:0:0:
42,192,22665,1,0,0:0:0:0:
298,192,22665,1,0,0:0:0:0:
384,192,22665,1,0,0:0:0:0:
469,192,22665,1,0,0:0:0:0:
128,192,22765,1,0,0:0:0:0:
298,192,22765,1,0,0:0:0:0:
213,192,22865,1,0,0:0:0:0:
384,192,22865,1,0,0:0:0:0:
469,192,22865,1,0,0:0:0:0:
384,192,22965,1,0,0:0:0:0:
469,192,22965,1,0,0:0:0:0:
128,192,22965,1,0,0:0:0:0:
298,192,23065,1,0,0:0:0:0:
213,192,23065,1,0,0:0:0:0:
128,192,23065,1,0,0:0:0:0:
42,192,23065,1,0,0:0:0:0:
384,192,23165,1,0,0:0:0:0:
469,192,23165,1,0,0:0:0:0:
298,192,23265,1,0,0:0:0:0:
213,192,23265,1,0,0:0:0:0:
42,192,23265,1,0,0:0:0:0:
128,192,23265,1,0,0:0:0:0:
213,192,23365,1,0,0:0:0:0:
298,192,23365,1,0,0:0:0:0:
469,192,23365,1,0,0:0:0:0:
384,192,23465,1,0,0:0:0:0:
469,192,23465,1,0,0:0:0:0:
128,192,23465,1,0,0:0:0:0:
42,192,23465,1,0,0:0:0:0:
42,192,23565,1,0,0:0:0:0:
213,192,23565,1,0,0:0:0:0:
298,192,23665,1,0,0:0:0:0:
384,192,23665,1,0,0:0:0:0:
469,192,23665,1,0,0:0:0:0:
384,192,23765,1,0,0:0:0:0:
298,192,23765,1,0,0:0:0:0:
128,192,23765,1,0,0:0:0:0:
213,192,23865,1,0,0:0:0:0:
128,192,23865,1,0,0:0:0:0:
42,192,23865,1,0,0:0:0:0:
469,192,23865,1,0,0:0:0:0:
298,192,23965,1,0,0:0:0:0:
469,192,23965,1,0,0:0:0:0:
213,192,24065,1,0,0:0:0:0:
128,192,24065,1,0,0:0:0:0:
42,192,24065,1,0,0:0:0:0:
298,192,24065,1,0,0:0:0:0:
128,192,24165,1,0,0:0:0:0:
213,192,24165,1,0,0:0:0:0:
384,192,24165,1,0,0:0:0:0:
298,192,24265,1,0,0:0:0:0:
384,192,24265,1,0,0:0:0:0:
469,192,24265,1,0,0:0:0:0:
42,192,24265,1,0,0:0:0:0:
213,192,24365,1,0,0:0:0:0:
42,192,24365,1,0,0:0:0:0:
128,192,24465,1,0,0:0:0:0:
469,192,24465,1,0,0:0:0:0:
384,192,24465,1,0,0:0:0:0:
298,192,24565,1,0,0:0:0:0:
128,192,24565,1,0,0:0:0:0:
384,192,24565,1,0,0:0:0:0:
298,192,24665,1,0,0:0:0:0:
213,192,24665,1,0,0:0:0:0:
42,192,24665,1,0,0:0:0:0:
469,192,24665,1,0,0:0:0:0:
213,192,24765,1,0,0:0:0:0:
469,192,24765,1,0,0:0:0:0:
42,192,24865,1,0,0:0:0:0:
128,192,24865,1,0,0:0:0:0:
298,192,24865,1,0,0:0:0:0:
384,192,24865,1,0,0:0:0:0:
213,192,24965,1,0,0:0:0:0:
128,192,24965,1,0,0:0:0:0:
384,192,24965,1,0,0:0:0:0:
298,192,25065,1,0,0:0:0:0:
213,192,25065,1,0,0:0:0:0:
42,192,25065,1,0,0:0:0:0:
469,192,25065,1,0,0:0:0:0:
298,192,25165,1,0,0:0:0:0:
42,192,25165,1,0,0:0:0:0:
128,192,25265,1,0,0:0:0:0:
213,192,25265,1,0,0:0:0:0:
384,192,25265,1,0,0:0:0:0:
384,192,25365,1,0,0:0:0:0:
298,192,25365,1,0,0:0:0:0:
469,192,25365,1,0,0:0:0:0:
384,192,25465,1,0,0:0:0:0:
128,192,25465,1,0,0:0:0:0:
42,192,25465,1,0,0:0:0:0:
469,192,25465,1,0,0:0:0:0:
213,192,25565,1,0,0:0:0:0:
128,192,25565,1,0,0:0:0:0:
298,192,25665,1,0,0:0:0:0:
213,192,25665,1,0,0:0:0:0:
469,192,25665,1,0,0:0:0:0:
384,192,25665,1,0,0:0:0:0:
384,192,25765,1,0,0:0:0:0:
298,192,25765,1,0,0:0:0:0:
128,192,25765,1,0,0:0:0:0:
213,192,25865,1,0,0:0:0:0:
128,192,25865,1,0,0:0:0:0:
42,192,25865,1,0,0:0:0:0:
469,192,25865,1,0,0:0:0:0:
384,192,25965,1,0,0:0:0:0:
42,192,25965,1,0,0:0:0:0:
298,192,26065,1,0,0:0:0:0:
213,192,26065,1,0,0:0:0:0:
469,192,26065,1,0,0:0:0:0:
384,192,26165,1,0,0:0:0:0:
213,192,26165,1,0,0:0:0:0:
128,192,26165,1,0,0:0:0:0:
128,192,26265,1,0,0:0:0:0:
42,192,26265,1,0,0:0:0:0:
298,192,26265,1,0,0:0:0:0:
469,192,26265,1,0,0:0:0:0:
213,192,26365,1,0,0:0:0:0:
469,192,26365,1,0,0:0:0:0:
384,192,26465,1,0,0:0:0:0:
298,192,26465,1,0,0:0:0:0:
42,192,26465,1,0,0:0:0:0:
128,192,26465,1,0,0:0:0:0:
298,192,26565,1,0,0:0:0:0:
213,192,26565,1,0,0:0:0:0:
42,192,26565,1,0,0:0:0:0:
213,192,26665,1,0,0:0:0:0:
128,192,26665,1,0,0:0:0:0:
384,192,26665,1,0,0:0:0:0:
469,192,26665,1,0,0:0:0:0:
384,192,26765,1,0,0:0:0:0:
42,192,26765,1,0,0:0:0:0:
298,192,26865,1,0,0:0:0:0:
213,192,26865,1,0,0:0:0:0:
469,192,26865,1,0,0:0:0:0:
213,192,26965,1,0,0:0:0:0:
128,192,26965,1,0,0:0:0:0:
384,192,26965,1,0,0:0:0:0:
298,192,27065,1,0,0:0:0:0:
469,192,27065,1,0,0:0:0:0:
128,192,27065,1,0,0:0:0:0:
42,192,27065,1,0,0:0:0:0:
213,192,27165,1,0,0:0:0:0:
469,192,27165,1,0,0:0:0:0:
384,192,27265,1,0,0:0:0:0:
298,192,27265,1,0,0:0:0:0:
42,192,27265,1,0,0:0:0:0:
213,192,27265,1,0,0:0:0:0:
128,192,27365,1,0,0:0:0:0:
469,192,27365,1,0,0:0:0:0:
384,192,27365,1,0,0:0:0:0:
298,192,27465,1,0,0:0:0:0:
213,192,27465,1,0,0:0:0:0:
42,192,27465,1,0,0:0:0:0:
469,192,27465,1,0,0:0:0:0:
298,192,27565,1,0,0:0:0:0:
42,192,27565,1,0,0:0:0:0:
213,192,27665,1,0,0:0:0:0:
384,192,27665,1,0,0:0:0:0:
469,192,27665,1,0,0:0:0:0:
128,192,27765,1,0,0:0:0:0:
384,192,27765,1,0,0:0:0:0:
469,192,27765,1,0,0:0:0:0:
298,192,27865,1,0,0:0:0:0:
213,192,27865,1,0,0:0:0:0:
128,192,27865,1,0,0:0:0:0:
42,192,27865,1,0,0:0:0:0:
42,192,27965,1,0,0:0:0:0:
384,192,27965,1,0,0:0:0:0:
384,192,28065,1,0,0:0:0:0:
298,192,28065,1,0,0:0:0:0:
213,192,28065,1,0,0:0:0:0:
469,192,28065,1,0,0:0:0:0:
128,192,28165,1,0,0:0:0:0:
298,192,28165,1,0,0:0:0:0:
384,192,28165,1,0,0:0:0:0:
128,192,28265,1,0,0:0:0:0:
42,192,28265,1,0,0:0:0:0:
213,192,28265,1,0,0:0:0:0:
469,192,28265,1,0,0:0:0:0:
298,192,28365,1,0,0:0:0:0:
469,192,28365,1,0,0:0:0:0:
128,192,28465,1,0,0:0:0:0:
42,192,28465,1,0,0:0:0:0:
384,192,28465,1,0,0:0:0:0:
298,192,28565,1,0,0:0:0:0:
128,192,28565,1,0,0:0:0:0:
42,192,28565,1,0,0:0:0:0:
213,192,28665,1,0,0:0:0:0:
298,192,28665,1,0,0:0:0:0:
384,192,28665,1,0,0:0:0:0:
469,192,28665,1,0,0:0:0:0:
384,192,28765,1,0,0:0:0:0:
42,192,28765,1,0,0:0:0:0:
213,192,28865,1,0,0:0:0:0:
128,192,28865,1,0,0:0:0:0:
298,192,28865,1,0,0:0:0:0:
42,192,28865,1,0,0:0:0:0:
384,192,28965,1,0,0:0:0:0:
213,192,28965,1,0,0:0:0:0:
128,192,28965,1,0,0:0:0:0:
42,192,29065,1,0,0:0:0:0:
298,192,29065,1,0,0:0:0:0:
384,192,29065,1,0,0:0:0:0:
469,192,29065,1,0,0:0:0:0:
213,192,29165,1,0,0:0:0:0:
298,192,29165,1,0,0:0:0:0:
128,192,29265,1,0,0:0:0:0:
384,192,29265,1,0,0:0:0:0:
469,192,29265,1,0,0:0:0:0:
384,192,29365,1,0,0:0:0:0:
469,192,29365,1,0,0:0:0:0:
213,192,29365,1,0,0:0:0:0:
298,192,29465,1,0,0:0:0:0:
213,192,29465,1,0,0:0:0:0:
128,192,29465,1,0,0:0:0:0:
42,192,29465,1,0,0:0:0:0:
384,192,29565,1,0,0:0:0:0:
469,192,29565,1,0,0:0:0:0:
298,192,29665,1,0,0:0:0:0:
213,192,29665,1,0,0:0:0:0:
42,192,29665,1,0,0:0:0:0:
128,192,29665,1,0,0:0:0:0:
213,192,29765,1,0,0:0:0:0:
298,192,29765,1,0,0:0:0:0:
469,192,29765,1,0,0:0:0:0:
384,192,29865,1,0,0:0:0:0:
469,192,29865,1,0,0:0:0:0:
128,192,29865,1,0,0:0:0:0:
42,192,29865,1,0,0:0:0:0:
42,192,29965,1,0,0:0:0:0:
213,192,29965,1,0,0:0:0:0:
298,192,30065,1,0,0:0:0:0:
384,192,30065,1,0,0:0:0:0:
469,192,30065,1,0,0:0:0:0:
384,192,30165,1,0,0:0:0:0:
298,192,30165,1,0,0:0:0:0:
128,192,30165,1,0,0:0:0:0:
213,192,30265,1,0,0:0:0:0:
128,192,30265,1,0,0:0:0:0:
42,192,30265,1,0,0:0:0:0:
469,192,30265,1,0,0:0:0:0:
298,192,30365,1,0,0:0:0:0:
469,192,30365,1,0,0:0:0:0:
213,192,30465,1,0,0:0:0:0:
128,192,30465,1,0,0:0:0:0:
42,192,30465,1,0,0:0:0:0:
384,192,30465,1,0,0:0:0:0:
128,192,30565,1,0,0:0:0:0:
213,192,30565,1,0,0:0:0:0:
298,192,30565,1,0,0:0:0:0:
298,192,30665,1,0,0:0:0:0:
384,192,30665,1,0,0:0:0:0:
469,192,30665,1,0,0:0:0:0:
42,192,30665,1,0,0:0:0:0:
213,192,30765,1,0,0:0:0:0:
42,192,30765,1,0,0:0:0:0:
128,192,30865,1,0,0:0:0:0:
469,192,30865,1,0,0:0:0:0:
384,192,30865,1,0,0:0:0:0:
298,192,30965,1,0,0:0:0:0:
128,192,30965,1,0,0:0:0:0:
384,192,30965,1,0,0:0:0:0:
298,192,31065,1,0,0:0:0:0:
213,192,31065,1,0,0:0:0:0:
42,192,31065,1,0,0:0:0:0:
469,192,31065,1,0,0:0:0:0:
213,192,31165,1,0,0:0:0:0:
469,192,31165,1,0,0:0:0:0:
42,192,31265,1,0,0:0:0:0:
128,192,31265,1,0,0:0:0:0:
298,192,31265,1,0,0:0:0:0:
384,192,31265,1,0,0:0:0:0:
213,192,31365,1,0,0:0:0:0:
128,192,31365,1,0,0:0:0:0:
384,192,31365,1,0,0:0:0:0:
298,192,31465,1,0,0:0:0:0:
213,192,31465,1,0,0:0:0:0:
42,192,31465,1,0,0:0:0:0:
469,192,31465,1,0,0:0:0:0:
298,192,31565,1,0,0:0:0:0:
42,192,31565,1,0,0:0:0:0:
128,192,31665,1,0,0:0:0:0:
213,192,31665,1,0,0:0:0:0:
384,192,31665,1,0,0:0:0:0:
384,192,31765,1,0,0:0:0:0:
298,192,31765,1,0,0:0:0:0:
469,192,31765,1,0,0:0:0:0:
384,192,31865,1,0,0:0:0:0:
128,192,31865,1,0,0:0:0:0:
42,192,31865,1,0,0:0:0:0:
469,192,31865,1,0,0:0:0:0:
213,192,31965,1,0,0:0:0:0:
128,192,31965,1,0,0:0:0:0:
298,192,32065,1,0,0:0:0:0:
213,192,32065,1,0,0:0:0:0:
469,192,32065,1,0,0:0:0:0:
42,192,32065,1,0,0:0:0:0:
384,192,32165,1,0,0:0:0:0:
298,192,32165,1,0,0:0:0:0:
128,192,32165,1,0,0:0:0:0:
213,192,32265,1,0,0:0:0:0:
128,192,32265,1,0,0:0:0:0:
42,192,32265,1,0,0:0:0:0:
469,192,32265,1,0,0:0:0:0:
384,192,32365,1,0,0:0:0:0:
42,192,32365,1,0,0:0:0:0:
298,192,32465,1,0,0:0:0:0:
213,192,32465,1,0,0:0:0:0:
469,192,32465,1,0,0:0:0:0:
384,192,32565,1,0,0:0:0:0:
213,192,32565,1,0,0:0:0:0:
128,192,32565,1,0,0:0:0:0:
128,192,32665,1,0,0:0:0:0:
42,192,32665,1,0,0:0:0:0:
298,192,32665,1,0,0:0:0:0:
469,192,32665,1,0,0:0:0:0:
213,192,32765,1,0,0:0:0:0:
469,192,32765,1,0,0:0:0:0:
384,192,32865,1,0,0:0:0:0:
298,192,32865,1,0,0:0:0:0:
42,192,32865,1,0,0:0:0:0:
128,192,32865,1,0,0:0:0:0:
298,192,32965,1,0,0:0:0:0:
213,192,32965,1,0,0:0:0:0:
42,192,32965,1,0,0:0:0:0:
213,192,33065,1,0,0:0:0:0:
128,192,33065,1,0,0:0:0:0:
384,192,33065,1,0,0:0:0:0:
469,192,33065,1,0,0:0:0:0:
384,192,33165,1,0,0:0:0:0:
42,192,33165,1,0,0:0:0:0:
298,192,33265,1,0,0:0:0:0:
213,192,33265,1,0,0:0:0:0:
469,192,33265,1,0,0:0:0:0:
213,192,33365,1,0,0:0:0:0:
128,192,33365,1,0,0:0:0:0:
384,192,33365,1,0,0:0:0:0:
298,192,33465,1,0,0:0:0:0:
469,192,33465,1,0,0:0:0:0:
128,192,33465,1,0,0:0:0:0:
42,192,33465,1,0,0:0:0:0:
213,192,33565,1,0,0:0:0:0:
469,192,33565,1,0,0:0:0:0:
384,192,33665,1,0,0:0:0:0:
298,192,33665,1,0,0:0:0:0:
42,192,33665,1,0,0:0:0:0:
128,192,33665,1,0,0:0:0:0:
128,192,33765,1,0,0:0:0:0:
469,192,33765,1,0,0:0:0:0:
384,192,33765,1,0,0:0:0:0:
298,192,33865,1,0,0:0:0:0:
213,192,33865,1,0,0:0:0:0:
42,192,33865,1,0,0:0:0:0:
469,192,33865,1,0,0:0:0:0:
298,192,33965,1,0,0:0:0:0:
42,192,33965,1,0,0:0:0:0:
128,192,34065,1,0,0:0:0:0:
384,192,34065,1,0,0:0:0:0:
469,192,34065,1,0,0:0:0:0:
213,192,34065,1,0,0:0:0:0:
128,192,34165,1,0,0:0:0:0:
384,192,34165,1,0,0:0:0:0:
469,192,34165,1,0,0:0:0:0:
298,192,34265,1,0,0:0:0:0:
213,192,34265,1,0,0:0:0:0:
128,192,34265,1,0,0:0:0:0:
42,192,34265,1,0,0:0:0:0:
213,192,34365,1,0,0:0:0:0:
469,192,34365,1,0,0:0:0:0:
384,192,34465,1,0,0:0:0:0:
298,192,34465,1,0,0:0:0:0:
42,192,34465,1,0,0:0:0:0:
128,192,34465,1,0,0:0:0:0:
42,192,34565,1,0,0:0:0:0:
384,192,34565,1,0,0:0:0:0:
298,192,34565,1,0,0:0:0:0:
213,192,34665,1,0,0:0:0:0:
128,192,34665,1,0,0:0:0:0:
384,192,34665,1,0,0:0:0:0:
469,192,34665,1,0,0:0:0:0:
298,192,34765,1,0,0:0:0:0:
42,192,34765,1,0,0:0:0:0:
128,192,34865,1,0,0:0:0:0:
384,192,34865,1,0,0:0:0:0:
469,192,34865,1,0,0:0:0:0:
213,192,34965,1,0,0:0:0:0:
384,192,34965,1,0,0:0:0:0:
469,192,34965,1,0,0:0:0:0:
298,192,35065,1,0,0:0:0:0:
213,192,35065,1,0,0:0:0:0:
128,192,35065,1,0,0:0:0:0:
42,192,35065,1,0,0:0:0:0:
298,192,35165,1,0,0:0:0:0:
384,192,35165,1,0,0:0:0:0:
384,192,35265,1,0,0:0:0:0:
128,192,35265,1,0,0:0:0:0:
42,192,35265,1,0,0:0:0:0:
469,192,35265,1,0,0:0:0:0:
128,192,35365,1,0,0:0:0:0:
42,192,35365,1,0,0:0:0:0:
213,192,35365,1,0,0:0:0:0:
128,192,35465,1,0,0:0:0:0:
384,192,35465,1,0,0:0:0:0:
469,192,35465,1,0,0:0:0:0:
298,192,35465,1,0,0:0:0:0:
469,192,35565,1,0,0:0:0:0:
298,192,35565,1,0,0:0:0:0:
213,192,35665,1,0,0:0:0:0:
128,192,35665,1,0,0:0:0:0:
42,192,35665,1,0,0:0:0:0:
384,192,35665,1,0,0:0:0:0:
213,192,35765,1,0,0:0:0:0:
128,192,35765,1,0,0:0:0:0:
384,192,35765,1,0,0:0:0:0:
298,192,35865,1,0,0:0:0:0:
384,192,35865,1,0,0:0:0:0:
469,192,35865,1,0,0:0:0:0:
42,192,35865,1,0,0:0:0:0:
213,192,35965,1,0,0:0:0:0:
298,192,35965,1,0,0:0:0:0:
128,192,36065,1,0,0:0:0:0:
42,192,36065,1,0,0:0:0:0:
384,192,36065,1,0,0:0:0:0:
298,192,36165,1,0,0:0:0:0:
128,192,36165,1,0,0:0:0:0:
42,192,36165,1,0,0:0:0:0:
213,192,36265,1,0,0:0:0:0:
298,192,36265,1,0,0:0:0:0:
384,192,36265,1,0,0:0:0:0:
469,192,36265,1,0,0:0:0:0:
384,192,36365,1,0,0:0:0:0:
42,192,36365,1,0,0:0:0:0:
213,192,36465,1,0,0:0:0:0:
128,192,36465,1,0,0:0:0:0:
298,192,36465,1,0,0:0:0:0:
469,192,36465,1,0,0:0:0:0:
384,192,36565,1,0,0:0:0:0:
128,192,36565,1,0,0:0:0:0:
42,192,36565,1,0,0:0:0:0:
298,192,36665,1,0,0:0:0:0:
213,192,36665,1,0,0:0:0:0:
384,192,36665,1,0,0:0:0:0:
469,192,36665,1,0,0:0:0:0:
128,192,36765,1,0,0:0:0:0:
298,192,36765,1,0,0:0:0:0:
213,192,36865,1,0,0:0:0:0:
42,192,36865,1,0,0:0:0:0:
384,192,36865,1,0,0:0:0:0:
469,192,36865,1,0,0:0:0:0:
384,192,36965,1,0,0:0:0:0:
128,192,36965,1,0,0:0:0:0:
298,192,36965,1,0,0:0:0:0:
298,192,37065,1,0,0:0:0:0:
213,192,37065,1,0,0:0:0:0:
42,192,37065,1,0,0:0:0:0:
469,192,37065,1,0,0:0:0:0:
213,192,37165,1,0,0:0:0:0:
42,192,37165,1,0,0:0:0:0:
128,192,37265,1,0,0:0:0:0:
298,192,37265,1,0,0:0:0:0:
384,192,37265,1,0,0:0:0:0:
469,192,37265,1,0,0:0:0:0:
384,192,37365,1,0,0:0:0:0:
213,192,37365,1,0,0:0:0:0:
298,192,37365,1,0,0:0:0:0:
128,192,37465,1,0,0:0:0:0:
42,192,37465,1,0,0:0:0:0:
298,192,37465,1,0,0:0:0:0:
469,192,37465,1,0,0:0:0:0:
213,192,37565,1,0,0:0:0:0:
42,192,37565,1,0,0:0:0:0:
384,192,37665,1,0,0:0:0:0:
469,192,37665,1,0,0:0:0:0:
298,192,37665,1,0,0:0:0:0:
213,192,37665,1,0,0:0:0:0:
384,192,37765,1,0,0:0:0:0:
469,192,37765,1,0,0:0:0:0:
128,192,37765,1,0,0:0:0:0:
298,192,37865,1,0,0:0:0:0:
469,192,37865,1,0,0:0:0:0:
42,192,37865,1,0,0:0:0:0:
213,192,37865,1,0,0:0:0:0:
42,192,37965,1,0,0:0:0:0:
213,192,37965,1,0,0:0:0:0:
384,192,38065,1,0,0:0:0:0:
298,192,38065,1,0,0:0:0:0:
469,192,38065,1,0,0:0:0:0:
384,192,38165,1,0,0:0:0:0:
298,192,38165,1,0,0:0:0:0:
128,192,38165,1,0,0:0:0:0:
213,192,38265,1,0,0:0:0:0:
128,192,38265,1,0,0:0:0:0:
42,192,38265,1,0,0:0:0:0:
469,192,38265,1,0,0:0:0:0:
42,192,38365,1,0,0:0:0:0:
298,192,38365,1,0,0:0:0:0:
213,192,38465,1,0,0:0:0:0:
128,192,38465,1,0,0:0:0:0:
384,192,38465,1,0,0:0:0:0:
469,192,38465,1,0,0:0:0:0:
384,192,38565,1,0,0:0:0:0:
213,192,38565,1,0,0:0:0:0:
128,192,38565,1,0,0:0:0:0:
128,192,38665,1,0,0:0:0:0:
42,192,38665,1,0,0:0:0:0:
298,192,38665,1,0,0:0:0:0:
469,192,38665,1,0,0:0:0:0:
213,192,38765,1,0,0:0:0:0:
469,192,38765,1,0,0:0:0:0:
384,192,38865,1,0,0:0:0:0:
298,192,38865,1,0,0:0:0:0:
128,192,38865,1,0,0:0:0:0:
42,192,38865,1,0,0:0:0:0:
128,192,38965,1,0,0:0:0:0:
42,192,38965,1,0,0:0:0:0:
213,192,38965,1,0,0:0:0:0:
213,192,39065,1,0,0:0:0:0:
298,192,39065,1,0,0:0:0:0:
384,192,39065,1,0,0:0:0:0:
469,192,39065,1,0,0:0:0:0:
469,192,39165,1,0,0:0:0:0:
298,192,39165,1,0,0:0:0:0:
213,192,39265,1,0,0:0:0:0:
128,192,39265,1,0,0:0:0:0:
42,192,39265,1,0,0:0:0:0:
213,192,39365,1,0,0:0:0:0:
128,192,39365,1,0,0:0:0:0:
384,192,39365,1,0,0:0:0:0:
42,192,39465,1,0,0:0:0:0:
298,192,39465,1,0,0:0:0:0:
384,192,39465,1,0,0:0:0:0:
469,192,39465,1,0,0:0:0:0:
298,192,39565,1,0,0:0:0:0:
213,192,39565,1,0,0:0:0:0:
128,192,39665,1,0,0:0:0:0:
42,192,39665,1,0,0:0:0:0:
384,192,39665,1,0,0:0:0:0:
469,192,39665,1,0,0:0:0:0:
384,192,39765,1,0,0:0:0:0:
298,192,39765,1,0,0:0:0:0:
128,192,39765,1,0,0:0:0:0:
298,192,39865,1,0,0:0:0:0:
213,192,39865,1,0,0:0:0:0:
42,192,39865,1,0,0:0:0:0:
469,192,39865,1,0,0:0:0:0:
213,192,39965,1,0,0:0:0:0:
128,192,39965,1,0,0:0:0:0:
128,192,40065,1,0,0:0:0:0:
42,192,40065,1,0,0:0:0:0:
469,192,40065,1,0,0:0:0:0:
384,192,40065,1,0,0:0:0:0:
384,192,40165,1,0,0:0:0:0:
298,192,40165,1,0,0:0:0:0:
213,192,40165,1,0,0:0:0:0:
298,192,40265,1,0,0:0:0:0:
42,192,40265,1,0,0:0:0:0:
469,192,40265,1,0,0:0:0:0:
128,192,40265,1,0,0:0:0:0:
213,192,40365,1,0,0:0:0:0:
469,192,40365,1,0,0:0:0:0:
384,192,40465,1,0,0:0:0:0:
128,192,40465,1,0,0:0:0:0:
42,192,40465,1,0,0:0:0:0:
298,192,40465,1,0,0:0:0:0:
384,192,40565,1,0,0:0:0:0:
128,192,40565,1,0,0:0:0:0:
42,192,40565,1,0,0:0:0:0:
213,192,40665,1,0,0:0:0:0:
298,192,40665,1,0,0:0:0:0:
384,192,40665,1,0,0:0:0:0:
469,192,40665,1,0,0:0:0:0:
298,192,40765,1,0,0:0:0:0:
42,192,40765,1,0,0:0:0:0:
128,192,40865,1,0,0:0:0:0:
213,192,40865,1,0,0:0:0:0:
469,192,40865,1,0,0:0:0:0:
384,192,40865,1,0,0:0:0:0:
469,192,40965,1,0,0:0:0:0:
128,192,40965,1,0,0:0:0:0:
213,192,40965,1,0,0:0:0:0:
298,192,41065,1,0,0:0:0:0:
384,192,41065,1,0,0:0:0:0:
128,192,41065,1,0,0:0:0:0:
42,192,41065,1,0,0:0:0:0:
213,192,41165,1,0,0:0:0:0:
469,192,41165,1,0,0:0:0:0:
384,192,41265,1,0,0:0:0:0:
128,192,41265,1,0,0:0:0:0:
42,192,41265,1,0,0:0:0:0:
298,192,41365,1,0,0:0:0:0:
128,192,41365,1,0,0:0:0:0:
42,192,41365,1,0,0:0:0:0:
213,192,41465,1,0,0:0:0:0:
298,192,41465,1,0,0:0:0:0:
384,192,41465,1,0,0:0:0:0:
469,192,41465,1,0,0:0:0:0:
213,192,41565,1,0,0:0:0:0:
128,192,41565,1,0,0:0:0:0:
128,192,41665,1,0,0:0:0:0:
384,192,41665,1,0,0:0:0:0:
469,192,41665,1,0,0:0:0:0:
42,192,41665,1,0,0:0:0:0:
384,192,41765,1,0,0:0:0:0:
469,192,41765,1,0,0:0:0:0:
298,192,41765,1,0,0:0:0:0:
384,192,41865,1,0,0:0:0:0:
128,192,41865,1,0,0:0:0:0:
42,192,41865,1,0,0:0:0:0:
213,192,41865,1,0,0:0:0:0:
42,192,41965,1,0,0:0:0:0:
213,192,41965,1,0,0:0:0:0:
298,192,42065,1,0,0:0:0:0:
384,192,42065,1,0,0:0:0:0:
469,192,42065,1,0,0:0:0:0:
128,192,42065,1,0,0:0:0:0:
298,192,42165,1,0,0:0:0:0:
384,192,42165,1,0,0:0:0:0:
128,192,42165,1,0,0:0:0:0:
213,192,42265,1,0,0:0:0:0:
128,192,42265,1,0,0:0:0:0:
42,192,42265,1,0,0:0:0:0:
469,192,42265,1,0,0:0:0:0:
298,192,42365,1,0,0:0:0:0:
213,192,42365,1,0,0:0:0:0:
384,192,42465,1,0,0:0:0:0:
469,192,42465,1,0,0:0:0:0:
128,192,42465,1,0,0:0:0:0:
213,192,42565,1,0,0:0:0:0:
384,192,42565,1,0,0:0:0:0:
469,192,42565,1,0,0:0:0:0:
298,192,42665,1,0,0:0:0:0:
213,192,42665,1,0,0:0:0:0:
128,192,42665,1,0,0:0:0:0:
42,192,42665,1,0,0:0:0:0:
128,192,42765,1,0,0:0:0:0:
469,192,42765,1,0,0:0:0:0:
298,192,42865,1,0,0:0:0:0:
384,192,42865,1,0,0:0:0:0:
213,192,42865,1,0,0:0:0:0:
42,192,42865,1,0,0:0:0:0:
128,192,42965,1,0,0:0:0:0:
384,192,42965,1,0,0:0:0:0:
469,192,42965,1,0,0:0:0:0:
213,192,43065,1,0,0:0:0:0:
298,192,43065,1,0,0:0:0:0:
128,192,43065,1,0,0:0:0:0:
42,192,43065,1,0,0:0:0:0:
384,192,43165,1,0,0:0:0:0:
213,192,43165,1,0,0:0:0:0:
298,192,43265,1,0,0:0:0:0:
469,192,43265,1,0,0:0:0:0:
128,192,43265,1,0,0:0:0:0:
42,192,43265,1,0,0:0:0:0:
128,192,43365,1,0,0:0:0:0:
384,192,43365,1,0,0:0:0:0:
213,192,43365,1,0,0:0:0:0:
213,192,43465,1,0,0:0:0:0:
298,192,43465,1,0,0:0:0:0:
469,192,43465,1,0,0:0:0:0:
42,192,43465,1,0,0:0:0:0:
298,192,43565,1,0,0:0:0:0:
469,192,43565,1,0,0:0:0:0:
384,192,43665,1,0,0:0:0:0:
213,192,43665,1,0,0:0:0:0:
128,192,43665,1,0,0:0:0:0:
42,192,43665,1,0,0:0:0:0:
128,192,43765,1,0,0:0:0:0:
298,192,43765,1,0,0:0:0:0:
213,192,43765,1,0,0:0:0:0:
384,192,43865,1,0,0:0:0:0:
469,192,43865,1,0,0:0:0:0:
213,192,43865,1,0,0:0:0:0:
42,192,43865,1,0,0:0:0:0:
298,192,43965,1,0,0:0:0:0:
469,192,43965,1,0,0:0:0:0:
128,192,44065,1,0,0:0:0:0:
42,192,44065,1,0,0:0:0:0:
213,192,44065,1,0,0:0:0:0:
298,192,44065,1,0,0:0:0:0:
128,192,44165,1,0,0:0:0:0:
42,192,44165,1,0,0:0:0:0:
384,192,44165,1,0,0:0:0:0:
213,192,44265,1,0,0:0:0:0:
42,192,44265,1,0,0:0:0:0:
469,192,44265,1,0,0:0:0:0:
298,192,44265,1,0,0:0:0:0:
469,192,44365,1,0,0:0:0:0:
298,192,44365,1,0,0:0:0:0:
128,192,44465,1,0,0:0:0:0:
213,192,44465,1,0,0:0:0:0:
42,192,44465,1,0,0:0:0:0:
128,192,44565,1,0,0:0:0:0:
213,192,44565,1,0,0:0:0:0:
384,192,44565,1,0,0:0:0:0:
298,192,44665,1,0,0:0:0:0:
384,192,44665,1,0,0:0:0:0:
469,192,44665,1,0,0:0:0:0:
42,192,44665,1,0,0:0:0:0:
469,192,44765,1,0,0:0:0:0:
213,192,44765,1,0,0:0:0:0:
298,192,44865,1,0,0:0:0:0:
384,192,44865,1,0,0:0:0:0:
128,192,44865,1,0,0:0:0:0:
42,192,44865,1,0,0:0:0:0:
128,192,44965,1,0,0:0:0:0:
298,192,44965,1,0,0:0:0:0:
384,192,44965,1,0,0:0:0:0:
384,192,45065,1,0,0:0:0:0:
469,192,45065,1,0,0:0:0:0:
213,192,45065,1,0,0:0:0:0:
42,192,45065,1,0,0:0:0:0:
298,192,45165,1,0,0:0:0:0:
42,192,45165,1,0,0:0:0:0:
128,192,45265,1,0,0:0:0:0:
213,192,45265,1,0,0:0:0:0:
384,192,45265,1,0,0:0:0:0:
469,192,45265,1,0,0:0:0:0:
384,192,45365,1,0,0:0:0:0:
469,192,45365,1,0,0:0:0:0:
298,192,45365,1,0,0:0:0:0:
298,192,45465,1,0,0:0:0:0:
213,192,45465,1,0,0:0:0:0:
128,192,45465,1,0,0:0:0:0:
42,192,45465,1,0,0:0:0:0:
42,192,45565,1,0,0:0:0:0:
213,192,45565,1,0,0:0:0:0:
298,192,45665,1,0,0:0:0:0:
384,192,45665,1,0,0:0:0:0:
469,192,45665,1,0,0:0:0:0:
298,192,45765,1,0,0:0:0:0:
384,192,45765,1,0,0:0:0:0:
128,192,45765,1,0,0:0:0:0:
469,192,45865,1,0,0:0:0:0:
213,192,45865,1,0,0:0:0:0:
128,192,45865,1,0,0:0:0:0:
42,192,45865,1,0,0:0:0:0:
213,192,45965,1,0,0:0:0:0:
298,192,45965,1,0,0:0:0:0:
384,192,46065,1,0,0:0:0:0:
469,192,46065,1,0,0:0:0:0:
128,192,46065,1,0,0:0:0:0:
42,192,46065,1,0,0:0:0:0:
128,192,46165,1,0,0:0:0:0:
213,192,46165,1,0,0:0:0:0:
384,192,46165,1,0,0:0:0:0:
213,192,46265,1,0,0:0:0:0:
298,192,46265,1,0,0:0:0:0:
469,192,46265,1,0,0:0:0:0:
42,192,46265,1,0,0:0:0:0:
298,192,46365,1,0,0:0:0:0:
384,192,46365,1,0,0:0:0:0:
384,192,46465,1,0,0:0:0:0:
469,192,46465,1,0,0:0:0:0:
42,192,46465,1,0,0:0:0:0:
128,192,46465,1,0,0:0:0:0:
42,192,46565,1,0,0:0:0:0:
213,192,46565,1,0,0:0:0:0:
298,192,46565,1,0,0:0:0:0:
298,192,46665,1,0,0:0:0:0:
42,192,46665,1,0,0:0:0:0:
42,192,48665,1,0,0:0:0:0:
298,192,48665,1,0,0:0:0:0:
298,192,50665,1,0,0:0:0:0:
42,192,50665,1,0,0:0:0:0:
298,192,52665,1,0,0:0:0:0:
42,192,52665,1,0,0:0:0:0:
42,192,53065,1,0,0:0:0:0:
384,192,53065,1,0,0:0:0:0:
469,192,53065,1,0,0:0:0:0:
213,192,53065,1,0,0:0:0:0:
298,192,53165,1,0,0:0:0:0:
42,192,53165,1,0,0:0:0:0:
384,192,53265,1,0,0:0:0:0:
469,192,53265,1,0,0:0:0:0:
213,192,53265,1,0,0:0:0:0:
384,192,53365,1,0,0:0:0:0:
298,192,53365,1,0,0:0:0:0:
128,192,53365,1,0,0:0:0:0:
298,192,53465,1,0,0:0:0:0:
213,192,53465,1,0,0:0:0:0:
42,192,53465,1,0,0:0:0:0:
469,192,53465,1,0,0:0:0:0:
384,192,53565,1,0,0:0:0:0:
42,192,53565,1,0,0:0:0:0:
213,192,53665,1,0,0:0:0:0:
128,192,53665,1,0,0:0:0:0:
469,192,53665,1,0,0:0:0:0:
213,192,53765,1,0,0:0:0:0:
298,192,53765,1,0,0:0:0:0:
469,192,53865,1,0,0:0:0:0:
128,192,53865,1,0,0:0:0:0:
42,192,53865,1,0,0:0:0:0:
384,192,53865,1,0,0:0:0:0:
298,192,53965,1,0,0:0:0:0:
42,192,53965,1,0,0:0:0:0:
213,192,54065,1,0,0:0:0:0:
384,192,54065,1,0,0:0:0:0:
469,192,54065,1,0,0:0:0:0:
384,192,54165,1,0,0:0:0:0:
128,192,54165,1,0,0:0:0:0:
298,192,54265,1,0,0:0:0:0:
213,192,54265,1,0,0:0:0:0:
42,192,54265,1,0,0:0:0:0:
469,192,54265,1,0,0:0:0:0:
42,192,54365,1,0,0:0:0:0:
128,192,54365,1,0,0:0:0:0:
469,192,54465,1,0,0:0:0:0:
384,192,54465,1,0,0:0:0:0:
298,192,54465,1,0,0:0:0:0:
42,192,54465,1,0,0:0:0:0:
469,192,54565,1,0,0:0:0:0:
128,192,54565,1,0,0:0:0:0:
213,192,54565,1,0,0:0:0:0:
384,192,54665,1,0,0:0:0:0:
42,192,54665,1,0,0:0:0:0:
298,192,54665,1,0,0:0:0:0:
469,192,54665,1,0,0:0:0:0:
298,192,54765,1,0,0:0:0:0:
42,192,54765,1,0,0:0:0:0:
213,192,54865,1,0,0:0:0:0:
128,192,54865,1,0,0:0:0:0:
384,192,54865,1,0,0:0:0:0:
298,192,54965,1,0,0:0:0:0:
128,192,54965,1,0,0:0:0:0:
213,192,55065,1,0,0:0:0:0:
298,192,55065,1,0,0:0:0:0:
384,192,55065,1,0,0:0:0:0:
469,192,55065,1,0,0:0:0:0:
384,192,55165,1,0,0:0:0:0:
42,192,55165,1,0,0:0:0:0:
213,192,55265,1,0,0:0:0:0:
469,192,55265,1,0,0:0:0:0:
298,192,55265,1,0,0:0:0:0:
384,192,55365,1,0,0:0:0:0:
128,192,55365,1,0,0:0:0:0:
42,192,55465,1,0,0:0:0:0:
298,192,55465,1,0,0:0:0:0:
469,192,55465,1,0,0:0:0:0:
213,192,55465,1,0,0:0:0:0:
298,192,55565,1,0,0:0:0:0:
42,192,55565,1,0,0:0:0:0:
128,192,55665,1,0,0:0:0:0:
384,192,55665,1,0,0:0:0:0:
213,192,55665,1,0,0:0:0:0:
128,192,55765,1,0,0:0:0:0:
298,192,55765,1,0,0:0:0:0:
213,192,55865,1,0,0:0:0:0:
298,192,55865,1,0,0:0:0:0:
384,192,55865,1,0,0:0:0:0:
469,192,55865,1,0,0:0:0:0:
384,192,55965,1,0,0:0:0:0:
42,192,55965,1,0,0:0:0:0:
213,192,56065,1,0,0:0:0:0:
298,192,56065,1,0,0:0:0:0:
469,192,56065,1,0,0:0:0:0:
128,192,56165,1,0,0:0:0:0:
384,192,56165,1,0,0:0:0:0:
469,192,56265,1,0,0:0:0:0:
128,192,56265,1,0,0:0:0:0:
42,192,56265,1,0,0:0:0:0:
298,192,56265,1,0,0:0:0:0:
213,192,56365,1,0,0:0:0:0:
469,192,56365,1,0,0:0:0:0:
128,192,56465,1,0,0:0:0:0:
42,192,56465,1,0,0:0:0:0:
298,192,56465,1,0,0:0:0:0:
128,192,56565,1,0,0:0:0:0:
213,192,56565,1,0,0:0:0:0:
384,192,56565,1,0,0:0:0:0:
213,192,56665,1,0,0:0:0:0:
298,192,56665,1,0,0:0:0:0:
469,192,56665,1,0,0:0:0:0:
42,192,56665,1,0,0:0:0:0:
128,192,56765,1,0,0:0:0:0:
469,192,56765,1,0,0:0:0:0:
298,192,56865,1,0,0:0:0:0:
384,192,56865,1,0,0:0:0:0:
42,192,56865,1,0,0:0:0:0:
298,192,56965,1,0,0:0:0:0:
213,192,56965,1,0,0:0:0:0:
42,192,57065,1,0,0:0:0:0:
384,192,57065,1,0,0:0:0:0:
469,192,57065,1,0,0:0:0:0:
128,192,57065,1,0,0:0:0:0:
213,192,57165,1,0,0:0:0:0:
469,192,57165,1,0,0:0:0:0:
298,192,57265,1,0,0:0:0:0:
128,192,57265,1,0,0:0:0:0:
42,192,57265,1,0,0:0:0:0:
128,192,57365,1,0,0:0:0:0:
384,192,57365,1,0,0:0:0:0:
213,192,57465,1,0,0:0:0:0:
298,192,57465,1,0,0:0:0:0:
469,192,57465,1,0,0:0:0:0:
42,192,57465,1,0,0:0:0:0:
469,192,57565,1,0,0:0:0:0:
384,192,57565,1,0,0:0:0:0:
42,192,57665,1,0,0:0:0:0:
128,192,57665,1,0,0:0:0:0:
213,192,57665,1,0,0:0:0:0:
469,192,57665,1,0,0:0:0:0:
42,192,57765,1,0,0:0:0:0:
384,192,57765,1,0,0:0:0:0:
298,192,57765,1,0,0:0:0:0:
298,192,57865,1,0,0:0:0:0:
469,192,57865,1,0,0:0:0:0:
128,192,57865,1,0,0:0:0:0:
42,192,57865,1,0,0:0:0:0:
213,192,57965,1,0,0:0:0:0:
469,192,57965,1,0,0:0:0:0:
298,192,58065,1,0,0:0:0:0:
384,192,58065,1,0,0:0:0:0:
128,192,58065,1,0,0:0:0:0:
213,192,58165,1,0,0:0:0:0:
384,192,58165,1,0,0:0:0:0:
298,192,58265,1,0,0:0:0:0:
213,192,58265,1,0,0:0:0:0:
128,192,58265,1,0,0:0:0:0:
42,192,58265,1,0,0:0:0:0:
128,192,58365,1,0,0:0:0:0:
469,192,58365,1,0,0:0:0:0:
298,192,58465,1,0,0:0:0:0:
42,192,58465,1,0,0:0:0:0:
213,192,58465,1,0,0:0:0:0:
128,192,58565,1,0,0:0:0:0:
384,192,58565,1,0,0:0:0:0:
469,192,58665,1,0,0:0:0:0:
213,192,58665,1,0,0:0:0:0:
42,192,58665,1,0,0:0:0:0:
298,192,58665,1,0,0:0:0:0:
213,192,58765,1,0,0:0:0:0:
469,192,58765,1,0,0:0:0:0:
384,192,58865,1,0,0:0:0:0:
128,192,58865,1,0,0:0:0:0:
298,192,58865,1,0,0:0:0:0:
384,192,58965,1,0,0:0:0:0:
213,192,58965,1,0,0:0:0:0:
298,192,59065,1,0,0:0:0:0:
213,192,59065,1,0,0:0:0:0:
128,192,59065,1,0,0:0:0:0:
42,192,59065,1,0,0:0:0:0:
128,192,59165,1,0,0:0:0:0:
469,192,59165,1,0,0:0:0:0:
298,192,59265,1,0,0:0:0:0:
213,192,59265,1,0,0:0:0:0:
42,192,59265,1,0,0:0:0:0:
384,192,59365,1,0,0:0:0:0:
128,192,59365,1,0,0:0:0:0:
298,192,59465,1,0,0:0:0:0:
213,192,59465,1,0,0:0:0:0:
42,192,59465,1,0,0:0:0:0:
469,192,59465,1,0,0:0:0:0:
469,192,59565,1,0,0:0:0:0:
213,192,59565,1,0,0:0:0:0:
298,192,59665,1,0,0:0:0:0:
128,192,59665,1,0,0:0:0:0:
42,192,59665,1,0,0:0:0:0:
298,192,59765,1,0,0:0:0:0:
384,192,59765,1,0,0:0:0:0:
469,192,59765,1,0,0:0:0:0:
213,192,59865,1,0,0:0:0:0:
128,192,59865,1,0,0:0:0:0:
42,192,59865,1,0,0:0:0:0:
469,192,59865,1,0,0:0:0:0:
298,192,59965,1,0,0:0:0:0:
42,192,59965,1,0,0:0:0:0:
128,192,60065,1,0,0:0:0:0:
469,192,60065,1,0,0:0:0:0:
384,192,60065,1,0,0:0:0:0:
213,192,60165,1,0,0:0:0:0:
384,192,60165,1,0,0:0:0:0:
298,192,60265,1,0,0:0:0:0:
213,192,60265,1,0,0:0:0:0:
128,192,60265,1,0,0:0:0:0:
42,192,60265,1,0,0:0:0:0:
128,192,60365,1,0,0:0:0:0:
213,192,60365,1,0,0:0:0:0:
469,192,60465,1,0,0:0:0:0:
384,192,60465,1,0,0:0:0:0:
42,192,60465,1,0,0:0:0:0:
298,192,60565,1,0,0:0:0:0:
213,192,60565,1,0,0:0:0:0:
42,192,60665,1,0,0:0:0:0:
384,192,60665,1,0,0:0:0:0:
469,192,60665,1,0,0:0:0:0:
213,192,60665,1,0,0:0:0:0:
469,192,60765,1,0,0:0:0:0:
128,192,60765,1,0,0:0:0:0:
298,192,60865,1,0,0:0:0:0:
469,192,60865,1,0,0:0:0:0:
213,192,60865,1,0,0:0:0:0:
42,192,60865,1,0,0:0:0:0:
298,192,60965,1,0,0:0:0:0:
128,192,60965,1,0,0:0:0:0:
384,192,60965,1,0,0:0:0:0:
213,192,61065,1,0,0:0:0:0:
42,192,61065,1,0,0:0:0:0:
469,192,61065,1,0,0:0:0:0:
298,192,61065,1,0,0:0:0:0:
42,192,61165,1,0,0:0:0:0:
384,192,61165,1,0,0:0:0:0:
128,192,61265,1,0,0:0:0:0:
213,192,61265,1,0,0:0:0:0:
469,192,61265,1,0,0:0:0:0:
42,192,61365,1,0,0:0:0:0:
384,192,61365,1,0,0:0:0:0:
213,192,61465,1,0,0:0:0:0:
128,192,61465,1,0,0:0:0:0:
42,192,61465,1,0,0:0:0:0:
298,192,61465,1,0,0:0:0:0:
213,192,61565,1,0,0:0:0:0:
469,192,61565,1,0,0:0:0:0:
128,192,61665,1,0,0:0:0:0:
42,192,61665,1,0,0:0:0:0:
298,192,61665,1,0,0:0:0:0:
213,192,61765,1,0,0:0:0:0:
384,192,61765,1,0,0:0:0:0:
213,192,61865,1,0,0:0:0:0:
128,192,61865,1,0,0:0:0:0:
42,192,61865,1,0,0:0:0:0:
469,192,61865,1,0,0:0:0:0:
42,192,61965,1,0,0:0:0:0:
298,192,61965,1,0,0:0:0:0:
128,192,62065,1,0,0:0:0:0:
213,192,62065,1,0,0:0:0:0:
384,192,62065,1,0,0:0:0:0:
42,192,62165,1,0,0:0:0:0:
298,192,62165,1,0,0:0:0:0:
213,192,62265,1,0,0:0:0:0:
128,192,62265,1,0,0:0:0:0:
42,192,62265,1,0,0:0:0:0:
469,192,62265,1,0,0:0:0:0:
213,192,62365,1,0,0:0:0:0:
384,192,62365,1,0,0:0:0:0:
128,192,62465,1,0,0:0:0:0:
42,192,62465,1,0,0:0:0:0:
298,192,62465,1,0,0:0:0:0:
213,192,62565,1,0,0:0:0:0:
384,192,62565,1,0,0:0:0:0:
128,192,62665,1,0,0:0:0:0:
298,192,62665,1,0,0:0:0:0:
469,192,62665,1,0,0:0:0:0:
42,192,62665,1,0,0:0:0:0:
42,192,62765,1,0,0:0:0:0:
298,192,62765,1,0,0:0:0:0:
213,192,62865,1,0,0:0:0:0:
384,192,62865,1,0,0:0:0:0:
469,192,62865,1,0,0:0:0:0:
213,192,62965,1,0,0:0:0:0:
128,192,62965,1,0,0:0:0:0:
42,192,62965,1,0,0:0:0:0:
298,192,63065,1,0,0:0:0:0:
384,192,63065,1,0,0:0:0:0:
469,192,63065,1,0,0:0:0:0:
42,192,63065,1,0,0:0:0:0:
213,192,63165,1,0,0:0:0:0:
469,192,63165,1,0,0:0:0:0:
384,192,63265,1,0,0:0:0:0:
42,192,63265,1,0,0:0:0:0:
128,192,63265,1,0,0:0:0:0:
298,192,63365,1,0,0:0:0:0:
128,192,63365,1,0,0:0:0:0:
213,192,63465,1,0,0:0:0:0:
298,192,63465,1,0,0:0:0:0:
384,192,63465,1,0,0:0:0:0:
469,192,63465,1,0,0:0:0:0:
384,192,63565,1,0,0:0:0:0:
298,192,63565,1,0,0:0:0:0:
42,192,63665,1,0,0:0:0:0:
128,192,63665,1,0,0:0:0:0:
469,192,63665,1,0,0:0:0:0:
213,192,63765,1,0,0:0:0:0:
298,192,63765,1,0,0:0:0:0:
469,192,63865,1,0,0:0:0:0:
128,192,63865,1,0,0:0:0:0:
42,192,63865,1,0,0:0:0:0:
298,192,63865,1,0,0:0:0:0:
42,192,63965,1,0,0:0:0:0:
384,192,63965,1,0,0:0:0:0:
213,192,64065,1,0,0:0:0:0:
42,192,64065,1,0,0:0:0:0:
298,192,64065,1,0,0:0:0:0:
469,192,64065,1,0,0:0:0:0:
213,192,64165,1,0,0:0:0:0:
384,192,64165,1,0,0:0:0:0:
128,192,64165,1,0,0:0:0:0:
298,192,64265,1,0,0:0:0:0:
213,192,64265,1,0,0:0:0:0:
469,192,64265,1,0,0:0:0:0:
42,192,64265,1,0,0:0:0:0:
469,192,64365,1,0,0:0:0:0:
128,192,64365,1,0,0:0:0:0:
384,192,64465,1,0,0:0:0:0:
298,192,64465,1,0,0:0:0:0:
42,192,64465,1,0,0:0:0:0:
469,192,64565,1,0,0:0:0:0:
128,192,64565,1,0,0:0:0:0:
298,192,64665,1,0,0:0:0:0:
384,192,64665,1,0,0:0:0:0:
469,192,64665,1,0,0:0:0:0:
213,192,64665,1,0,0:0:0:0:
298,192,64765,1,0,0:0:0:0:
42,192,64765,1,0,0:0:0:0:
384,192,64865,1,0,0:0:0:0:
469,192,64865,1,0,0:0:0:0:
213,192,64865,1,0,0:0:0:0:
298,192,64965,1,0,0:0:0:0:
128,192,64965,1,0,0:0:0:0:
213,192,65065,1,0,0:0:0:0:
42,192,65065,1,0,0:0:0:0:
384,192,65065,1,0,0:0:0:0:
469,192,65065,1,0,0:0:0:0:
384,192,65265,1,0,0:0:0:0:
128,192,65265,1,0,0:0:0:0:
213,192,65465,1,0,0:0:0:0:
469,192,65465,1,0,0:0:0:0:
298,192,65865,1,0,0:0:0:0:
42,192,65865,1,0,0:0:0:0:
128,192,66065,1,0,0:0:0:0:
384,192,66065,1,0,0:0:0:0:
213,192,66265,1,0,0:0:0:0:
469,192,66265,1,0,0:0:0:0:
213,192,66665,1,0,0:0:0:0:
128,192,66665,1,0,0:0:0:0:
42,192,66665,1,0,0:0:0:0:
469,192,66665,1,0,0:0:0:0:
128,192,66765,1,0,0:0:0:0:
213,192,66765,1,0,0:0:0:0:
384,192,66865,1,0,0:0:0:0:
469,192,66865,1,0,0:0:0:0:
298,192,66865,1,0,0:0:0:0:
384,192,66965,1,0,0:0:0:0:
298,192,66965,1,0,0:0:0:0:
213,192,66965,1,0,0:0:0:0:
213,192,67065,1,0,0:0:0:0:
128,192,67065,1,0,0:0:0:0:
42,192,67065,1,0,0:0:0:0:
469,192,67065,1,0,0:0:0:0:
128,192,67165,1,0,0:0:0:0:
42,192,67165,1,0,0:0:0:0:
213,192,67265,1,0,0:0:0:0:
298,192,67265,1,0,0:0:0:0:
384,192,67265,1,0,0:0:0:0:
469,192,67265,1,0,0:0:0:0:
298,192,67365,1,0,0:0:0:0:
213,192,67365,1,0,0:0:0:0:
128,192,67365,1,0,0:0:0:0:
128,192,67465,1,0,0:0:0:0:
42,192,67465,1,0,0:0:0:0:
384,192,67465,1,0,0:0:0:0:
469,192,67465,1,0,0:0:0:0:
469,192,67565,1,0,0:0:0:0:
384,192,67565,1,0,0:0:0:0:
213,192,67665,1,0,0:0:0:0:
128,192,67665,1,0,0:0:0:0:
298,192,67665,1,0,0:0:0:0:
128,192,67765,1,0,0:0:0:0:
42,192,67765,1,0,0:0:0:0:
469,192,67765,1,0,0:0:0:0:
213,192,67865,1,0,0:0:0:0:
298,192,67865,1,0,0:0:0:0:
384,192,67865,1,0,0:0:0:0:
469,192,67865,1,0,0:0:0:0:
384,192,67965,1,0,0:0:0:0:
298,192,67965,1,0,0:0:0:0:
128,192,68065,1,0,0:0:0:0:
42,192,68065,1,0,0:0:0:0:
298,192,68065,1,0,0:0:0:0:
213,192,68065,1,0,0:0:0:0:
384,192,68165,1,0,0:0:0:0:
469,192,68165,1,0,0:0:0:0:
128,192,68165,1,0,0:0:0:0:
298,192,68265,1,0,0:0:0:0:
213,192,68265,1,0,0:0:0:0:
42,192,68265,1,0,0:0:0:0:
469,192,68265,1,0,0:0:0:0:
298,192,68365,1,0,0:0:0:0:
42,192,68365,1,0,0:0:0:0:
128,192,68465,1,0,0:0:0:0:
384,192,68465,1,0,0:0:0:0:
469,192,68465,1,0,0:0:0:0:
298,192,68565,1,0,0:0:0:0:
213,192,68565,1,0,0:0:0:0:
42,192,68565,1,0,0:0:0:0:
128,192,68665,1,0,0:0:0:0:
384,192,68665,1,0,0:0:0:0:
469,192,68665,1,0,0:0:0:0:
42,192,68665,1,0,0:0:0:0:
128,192,68765,1,0,0:0:0:0:
384,192,68765,1,0,0:0:0:0:
469,192,68798,1,0,0:0:0:0:
298,192,68865,1,0,0:0:0:0:
42,192,68865,1,0,0:0:0:0:
213,192,68865,1,0,0:0:0:0:
469,192,68931,1,0,0:0:0:0:
298,192,68965,1,0,0:0:0:0:
384,192,68965,1,0,0:0:0:0:
469,192,69065,1,0,0:0:0:0:
128,192,69065,1,0,0:0:0:0:
213,192,69065,1,0,0:0:0:0:
42,192,69065,1,0,0:0:0:0:
213,192,69165,1,0,0:0:0:0:
469,192,69165,1,0,0:0:0:0:
128,192,69265,1,0,0:0:0:0:
42,192,69265,1,0,0:0:0:0:
298,192,69265,1,0,0:0:0:0:
469,192,69365,1,0,0:0:0:0:
42,192,69365,1,0,0:0:0:0:
298,192,69365,1,0,0:0:0:0:
128,192,69465,1,0,0:0:0:0:
469,192,69465,1,0,0:0:0:0:
213,192,69465,1,0,0:0:0:0:
384,192,69465,1,0,0:0:0:0:
128,192,69565,1,0,0:0:0:0:
384,192,69565,1,0,0:0:0:0:
298,192,69665,1,0,0:0:0:0:
213,192,69665,1,0,0:0:0:0:
469,192,69665,1,0,0:0:0:0:
42,192,69665,1,0,0:0:0:0:
298,192,69765,1,0,0:0:0:0:
213,192,69765,1,0,0:0:0:0:
128,192,69765,1,0,0:0:0:0:
128,192,69865,1,0,0:0:0:0:
42,192,69865,1,0,0:0:0:0:
384,192,69865,1,0,0:0:0:0:
469,192,69865,1,0,0:0:0:0:
213,192,69965,1,0,0:0:0:0:
384,192,69965,1,0,0:0:0:0:
469,192,69965,1,0,0:0:0:0:
298,192,70065,1,0,0:0:0:0:
42,192,70065,1,0,0:0:0:0:
128,192,70065,1,0,0:0:0:0:
298,192,70165,1,0,0:0:0:0:
384,192,70165,1,0,0:0:0:0:
213,192,70165,1,0,0:0:0:0:
42,192,70265,1,0,0:0:0:0:
384,192,70265,1,0,0:0:0:0:
469,192,70265,1,0,0:0:0:0:
128,192,70265,1,0,0:0:0:0:
128,192,70365,1,0,0:0:0:0:
42,192,70365,1,0,0:0:0:0:
298,192,70465,1,0,0:0:0:0:
384,192,70465,1,0,0:0:0:0:
469,192,70465,1,0,0:0:0:0:
213,192,70565,1,0,0:0:0:0:
128,192,70565,1,0,0:0:0:0:
42,192,70565,1,0,0:0:0:0:
42,192,70665,1,0,0:0:0:0:
298,192,70665,1,0,0:0:0:0:
384,192,70665,1,0,0:0:0:0:
469,192,70665,1,0,0:0:0:0:
384,192,70765,1,0,0:0:0:0:
298,192,70765,1,0,0:0:0:0:
128,192,70865,1,0,0:0:0:0:
42,192,70865,1,0,0:0:0:0:
213,192,70865,1,0,0:0:0:0:
298,192,70965,1,0,0:0:0:0:
42,192,70965,1,0,0:0:0:0:
469,192,70965,1,0,0:0:0:0:
213,192,71065,1,0,0:0:0:0:
128,192,71065,1,0,0:0:0:0:
384,192,71065,1,0,0:0:0:0:
469,192,71065,1,0,0:0:0:0:
213,192,71165,1,0,0:0:0:0:
128,192,71165,1,0,0:0:0:0:
213,192,71265,1,0,0:0:0:0:
384,192,71265,1,0,0:0:0:0:
469,192,71265,1,0,0:0:0:0:
42,192,71265,1,0,0:0:0:0:
384,192,71365,1,0,0:0:0:0:
128,192,71365,1,0,0:0:0:0:
298,192,71365,1,0,0:0:0:0:
213,192,71465,1,0,0:0:0:0:
42,192,71465,1,0,0:0:0:0:
469,192,71465,1,0,0:0:0:0:
384,192,71465,1,0,0:0:0:0:
42,192,71565,1,0,0:0:0:0:
213,192,71565,1,0,0:0:0:0:
128,192,71665,1,0,0:0:0:0:
298,192,71665,1,0,0:0:0:0:
384,192,71665,1,0,0:0:0:0:
213,192,71765,1,0,0:0:0:0:
384,192,71765,1,0,0:0:0:0:
469,192,71765,1,0,0:0:0:0:
469,192,71865,1,0,0:0:0:0:
298,192,71865,1,0,0:0:0:0:
128,192,71865,1,0,0:0:0:0:
42,192,71865,1,0,0:0:0:0:
128,192,71965,1,0,0:0:0:0:
298,192,71965,1,0,0:0:0:0:
469,192,71998,1,0,0:0:0:0:
213,192,72065,1,0,0:0:0:0:
384,192,72065,1,0,0:0:0:0:
42,192,72065,1,0,0:0:0:0:
469,192,72131,1,0,0:0:0:0:
298,192,72165,1,0,0:0:0:0:
128,192,72165,1,0,0:0:0:0:
469,192,72265,1,0,0:0:0:0:
213,192,72265,1,0,0:0:0:0:
42,192,72265,1,0,0:0:0:0:
384,192,72265,1,0,0:0:0:0:
213,192,72365,1,0,0:0:0:0:
384,192,72365,1,0,0:0:0:0:
298,192,72465,1,0,0:0:0:0:
128,192,72465,1,0,0:0:0:0:
42,192,72465,1,0,0:0:0:0:
213,192,72565,1,0,0:0:0:0:
384,192,72565,1,0,0:0:0:0:
128,192,72565,1,0,0:0:0:0:
298,192,72665,1,0,0:0:0:0:
469,192,72665,1,0,0:0:0:0:
42,192,72665,1,0,0:0:0:0:
213,192,72665,1,0,0:0:0:0:
298,192,72765,1,0,0:0:0:0:
469,192,72765,1,0,0:0:0:0:
384,192,72865,1,0,0:0:0:0:
213,192,72865,1,0,0:0:0:0:
128,192,72865,1,0,0:0:0:0:
42,192,72865,1,0,0:0:0:0:
42,192,72965,1,0,0:0:0:0:
213,192,72965,1,0,0:0:0:0:
469,192,72965,1,0,0:0:0:0:
298,192,73065,1,0,0:0:0:0:
384,192,73065,1,0,0:0:0:0:
469,192,73065,1,0,0:0:0:0:
128,192,73065,1,0,0:0:0:0:
384,192,73165,1,0,0:0:0:0:
298,192,73165,1,0,0:0:0:0:
128,192,73265,1,0,0:0:0:0:
42,192,73265,1,0,0:0:0:0:
213,192,73265,1,0,0:0:0:0:
128,192,73365,1,0,0:0:0:0:
213,192,73365,1,0,0:0:0:0:
298,192,73365,1,0,0:0:0:0:
298,192,73465,1,0,0:0:0:0:
384,192,73465,1,0,0:0:0:0:
469,192,73465,1,0,0:0:0:0:
42,192,73465,1,0,0:0:0:0:
384,192,73565,1,0,0:0:0:0:
469,192,73565,1,0,0:0:0:0:
298,192,73665,1,0,0:0:0:0:
213,192,73665,1,0,0:0:0:0:
128,192,73665,1,0,0:0:0:0:
42,192,73665,1,0,0:0:0:0:
213,192,73765,1,0,0:0:0:0:
298,192,73765,1,0,0:0:0:0:
384,192,73765,1,0,0:0:0:0:
384,192,73865,1,0,0:0:0:0:
469,192,73865,1,0,0:0:0:0:
128,192,73865,1,0,0:0:0:0:
42,192,73865,1,0,0:0:0:0:
42,192,73965,1,0,0:0:0:0:
128,192,73965,1,0,0:0:0:0:
298,192,74065,1,0,0:0:0:0:
384,192,74065,1,0,0:0:0:0:
213,192,74065,1,0,0:0:0:0:
384,192,74165,1,0,0:0:0:0:
469,192,74165,1,0,0:0:0:0:
42,192,74165,1,0,0:0:0:0:
298,192,74265,1,0,0:0:0:0:
213,192,74265,1,0,0:0:0:0:
128,192,74265,1,0,0:0:0:0:
42,192,74265,1,0,0:0:0:0:
128,192,74365,1,0,0:0:0:0:
213,192,74365,1,0,0:0:0:0:
384,192,74465,1,0,0:0:0:0:
469,192,74465,1,0,0:0:0:0:
213,192,74465,1,0,0:0:0:0:
298,192,74465,1,0,0:0:0:0:
128,192,74565,1,0,0:0:0:0:
42,192,74565,1,0,0:0:0:0:
384,192,74565,1,0,0:0:0:0:
213,192,74665,1,0,0:0:0:0:
298,192,74665,1,0,0:0:0:0:
469,192,74665,1,0,0:0:0:0:
42,192,74665,1,0,0:0:0:0:
213,192,74765,1,0,0:0:0:0:
469,192,74765,1,0,0:0:0:0:
384,192,74865,1,0,0:0:0:0:
128,192,74865,1,0,0:0:0:0:
42,192,74865,1,0,0:0:0:0:
213,192,74965,1,0,0:0:0:0:
298,192,74965,1,0,0:0:0:0:
469,192,74965,1,0,0:0:0:0:
384,192,75065,1,0,0:0:0:0:
128,192,75065,1,0,0:0:0:0:
42,192,75065,1,0,0:0:0:0:
469,192,75065,1,0,0:0:0:0:
384,192,75165,1,0,0:0:0:0:
128,192,75165,1,0,0:0:0:0:
42,192,75198,1,0,0:0:0:0:
213,192,75265,1,0,0:0:0:0:
469,192,75265,1,0,0:0:0:0:
298,192,75265,1,0,0:0:0:0:
42,192,75331,1,0,0:0:0:0:
213,192,75365,1,0,0:0:0:0:
128,192,75365,1,0,0:0:0:0:
42,192,75465,1,0,0:0:0:0:
384,192,75465,1,0,0:0:0:0:
298,192,75465,1,0,0:0:0:0:
469,192,75465,1,0,0:0:0:0:
298,192,75565,1,0,0:0:0:0:
42,192,75565,1,0,0:0:0:0:
384,192,75665,1,0,0:0:0:0:
469,192,75665,1,0,0:0:0:0:
213,192,75665,1,0,0:0:0:0:
42,192,75765,1,0,0:0:0:0:
469,192,75765,1,0,0:0:0:0:
213,192,75765,1,0,0:0:0:0:
384,192,75865,1,0,0:0:0:0:
42,192,75865,1,0,0:0:0:0:
298,192,75865,1,0,0:0:0:0:
128,192,75865,1,0,0:0:0:0:
384,192,75965,1,0,0:0:0:0:
128,192,75965,1,0,0:0:0:0:
213,192,76065,1,0,0:0:0:0:
298,192,76065,1,0,0:0:0:0:
42,192,76065,1,0,0:0:0:0:
469,192,76065,1,0,0:0:0:0:
213,192,76165,1,0,0:0:0:0:
298,192,76165,1,0,0:0:0:0:
384,192,76165,1,0,0:0:0:0:
384,192,76265,1,0,0:0:0:0:
469,192,76265,1,0,0:0:0:0:
128,192,76265,1,0,0:0:0:0:
42,192,76265,1,0,0:0:0:0:
298,192,76365,1,0,0:0:0:0:
128,192,76365,1,0,0:0:0:0:
42,192,76365,1,0,0:0:0:0:
213,192,76465,1,0,0:0:0:0:
469,192,76465,1,0,0:0:0:0:
384,192,76465,1,0,0:0:0:0:
213,192,76565,1,0,0:0:0:0:
128,192,76565,1,0,0:0:0:0:
298,192,76565,1,0,0:0:0:0:
469,192,76665,1,0,0:0:0:0:
128,192,76665,1,0,0:0:0:0:
42,192,76665,1,0,0:0:0:0:
384,192,76665,1,0,0:0:0:0:
384,192,76765,1,0,0:0:0:0:
469,192,76765,1,0,0:0:0:0:
213,192,76865,1,0,0:0:0:0:
128,192,76865,1,0,0:0:0:0:
42,192,76865,1,0,0:0:0:0:
298,192,76965,1,0,0:0:0:0:
384,192,76965,1,0,0:0:0:0:
469,192,76965,1,0,0:0:0:0:
469,192,77065,1,0,0:0:0:0:
213,192,77065,1,0,0:0:0:0:
128,192,77065,1,0,0:0:0:0:
42,192,77065,1,0,0:0:0:0:
128,192,77165,1,0,0:0:0:0:
213,192,77165,1,0,0:0:0:0:
384,192,77265,1,0,0:0:0:0:
469,192,77265,1,0,0:0:0:0:
298,192,77265,1,0,0:0:0:0:
213,192,77365,1,0,0:0:0:0:
469,192,77365,1,0,0:0:0:0:
42,192,77365,1,0,0:0:0:0:
298,192,77465,1,0,0:0:0:0:
384,192,77465,1,0,0:0:0:0:
128,192,77465,1,0,0:0:0:0:
42,192,77465,1,0,0:0:0:0:
298,192,77565,1,0,0:0:0:0:
384,192,77565,1,0,0:0:0:0:
298,192,77665,1,0,0:0:0:0:
128,192,77665,1,0,0:0:0:0:
42,192,77665,1,0,0:0:0:0:
469,192,77665,1,0,0:0:0:0:
128,192,77765,1,0,0:0:0:0:
384,192,77765,1,0,0:0:0:0:
213,192,77765,1,0,0:0:0:0:
298,192,77865,1,0,0:0:0:0:
469,192,77865,1,0,0:0:0:0:
42,192,77865,1,0,0:0:0:0:
128,192,77865,1,0,0:0:0:0:
469,192,77965,1,0,0:0:0:0:
298,192,77965,1,0,0:0:0:0:
384,192,78065,1,0,0:0:0:0:
213,192,78065,1,0,0:0:0:0:
128,192,78065,1,0,0:0:0:0:
298,192,78165,1,0,0:0:0:0:
128,192,78165,1,0,0:0:0:0:
42,192,78165,1,0,0:0:0:0:
42,192,78265,1,0,0:0:0:0:
213,192,78265,1,0,0:0:0:0:
384,192,78265,1,0,0:0:0:0:
469,192,78265,1,0,0:0:0:0:
384,192,78365,1,0,0:0:0:0:
213,192,78365,1,0,0:0:0:0:
42,192,78398,1,0,0:0:0:0:
298,192,78465,1,0,0:0:0:0:
128,192,78465,1,0,0:0:0:0:
469,192,78465,1,0,0:0:0:0:
42,192,78531,1,0,0:0:0:0:
213,192,78565,1,0,0:0:0:0:
384,192,78565,1,0,0:0:0:0:
42,192,78665,1,0,0:0:0:0:
298,192,78665,1,0,0:0:0:0:
469,192,78665,1,0,0:0:0:0:
128,192,78665,1,0,0:0:0:0:
298,192,78765,1,0,0:0:0:0:
128,192,78765,1,0,0:0:0:0:
213,192,78865,1,0,0:0:0:0:
384,192,78865,1,0,0:0:0:0:
469,192,78865,1,0,0:0:0:0:
298,192,78965,1,0,0:0:0:0:
128,192,78965,1,0,0:0:0:0:
384,192,78965,1,0,0:0:0:0:
213,192,79065,1,0,0:0:0:0:
42,192,79065,1,0,0:0:0:0:
469,192,79065,1,0,0:0:0:0:
298,192,79065,1,0,0:0:0:0:
213,192,79165,1,0,0:0:0:0:
42,192,79165,1,0,0:0:0:0:
128,192,79265,1,0,0:0:0:0:
298,192,79265,1,0,0:0:0:0:
384,192,79265,1,0,0:0:0:0:
469,192,79265,1,0,0:0:0:0:
384,192,79365,1,0,0:0:0:0:
213,192,79365,1,0,0:0:0:0:
128,192,79365,1,0,0:0:0:0:
298,192,79465,1,0,0:0:0:0:
213,192,79465,1,0,0:0:0:0:
42,192,79465,1,0,0:0:0:0:
469,192,79465,1,0,0:0:0:0:
298,192,79565,1,0,0:0:0:0:
42,192,79565,1,0,0:0:0:0:
128,192,79665,1,0,0:0:0:0:
384,192,79665,1,0,0:0:0:0:
469,192,79665,1,0,0:0:0:0:
213,192,79665,1,0,0:0:0:0:
128,192,79765,1,0,0:0:0:0:
384,192,79765,1,0,0:0:0:0:
469,192,79765,1,0,0:0:0:0:
298,192,79865,1,0,0:0:0:0:
213,192,79865,1,0,0:0:0:0:
128,192,79865,1,0,0:0:0:0:
42,192,79865,1,0,0:0:0:0:
213,192,79965,1,0,0:0:0:0:
469,192,79965,1,0,0:0:0:0:
384,192,80065,1,0,0:0:0:0:
298,192,80065,1,0,0:0:0:0:
42,192,80065,1,0,0:0:0:0:
128,192,80065,1,0,0:0:0:0:
42,192,80165,1,0,0:0:0:0:
384,192,80165,1,0,0:0:0:0:
128,192,80165,1,0,0:0:0:0:
213,192,80265,1,0,0:0:0:0:
128,192,80265,1,0,0:0:0:0:
384,192,80265,1,0,0:0:0:0:
469,192,80265,1,0,0:0:0:0:
298,192,80365,1,0,0:0:0:0:
42,192,80365,1,0,0:0:0:0:
128,192,80465,1,0,0:0:0:0:
384,192,80465,1,0,0:0:0:0:
469,192,80465,1,0,0:0:0:0:
213,192,80565,1,0,0:0:0:0:
384,192,80565,1,0,0:0:0:0:
469,192,80565,1,0,0:0:0:0:
298,192,80665,1,0,0:0:0:0:
213,192,80665,1,0,0:0:0:0:
128,192,80665,1,0,0:0:0:0:
42,192,80665,1,0,0:0:0:0:
298,192,80765,1,0,0:0:0:0:
384,192,80765,1,0,0:0:0:0:
384,192,80865,1,0,0:0:0:0:
128,192,80865,1,0,0:0:0:0:
42,192,80865,1,0,0:0:0:0:
469,192,80865,1,0,0:0:0:0:
128,192,80965,1,0,0:0:0:0:
42,192,80965,1,0,0:0:0:0:
213,192,80965,1,0,0:0:0:0:
128,192,81065,1,0,0:0:0:0:
384,192,81065,1,0,0:0:0:0:
469,192,81065,1,0,0:0:0:0:
298,192,81065,1,0,0:0:0:0:
469,192,81165,1,0,0:0:0:0:
298,192,81165,1,0,0:0:0:0:
213,192,81265,1,0,0:0:0:0:
128,192,81265,1,0,0:0:0:0:
42,192,81265,1,0,0:0:0:0:
384,192,81265,1,0,0:0:0:0:
128,192,81365,1,0,0:0:0:0:
384,192,81365,1,0,0:0:0:0:
213,192,81365,1,0,0:0:0:0:
298,192,81465,1,0,0:0:0:0:
384,192,81465,1,0,0:0:0:0:
469,192,81465,1,0,0:0:0:0:
42,192,81465,1,0,0:0:0:0:
213,192,81565,1,0,0:0:0:0:
469,192,81565,1,0,0:0:0:0:
298,192,81598,1,0,0:0:0:0:
128,192,81665,1,0,0:0:0:0:
42,192,81665,1,0,0:0:0:0:
384,192,81665,1,0,0:0:0:0:
298,192,81731,1,0,0:0:0:0:
128,192,81765,1,0,0:0:0:0:
42,192,81765,1,0,0:0:0:0:
213,192,81865,1,0,0:0:0:0:
298,192,81865,1,0,0:0:0:0:
384,192,81865,1,0,0:0:0:0:
469,192,81865,1,0,0:0:0:0:
384,192,81965,1,0,0:0:0:0:
42,192,81965,1,0,0:0:0:0:
213,192,82065,1,0,0:0:0:0:
128,192,82065,1,0,0:0:0:0:
298,192,82065,1,0,0:0:0:0:
469,192,82065,1,0,0:0:0:0:
384,192,82165,1,0,0:0:0:0:
128,192,82165,1,0,0:0:0:0:
42,192,82165,1,0,0:0:0:0:
298,192,82265,1,0,0:0:0:0:
213,192,82265,1,0,0:0:0:0:
384,192,82265,1,0,0:0:0:0:
469,192,82265,1,0,0:0:0:0:
128,192,82365,1,0,0:0:0:0:
298,192,82365,1,0,0:0:0:0:
213,192,82465,1,0,0:0:0:0:
42,192,82465,1,0,0:0:0:0:
384,192,82465,1,0,0:0:0:0:
469,192,82465,1,0,0:0:0:0:
384,192,82565,1,0,0:0:0:0:
128,192,82565,1,0,0:0:0:0:
298,192,82565,1,0,0:0:0:0:
298,192,82665,1,0,0:0:0:0:
213,192,82665,1,0,0:0:0:0:
42,192,82665,1,0,0:0:0:0:
469,192,82665,1,0,0:0:0:0:
213,192,82765,1,0,0:0:0:0:
42,192,82765,1,0,0:0:0:0:
128,192,82865,1,0,0:0:0:0:
298,192,82865,1,0,0:0:0:0:
384,192,82865,1,0,0:0:0:0:
469,192,82865,1,0,0:0:0:0:
384,192,82965,1,0,0:0:0:0:
213,192,82965,1,0,0:0:0:0:
298,192,82965,1,0,0:0:0:0:
128,192,83065,1,0,0:0:0:0:
42,192,83065,1,0,0:0:0:0:
298,192,83065,1,0,0:0:0:0:
469,192,83065,1,0,0:0:0:0:
213,192,83165,1,0,0:0:0:0:
42,192,83165,1,0,0:0:0:0:
384,192,83265,1,0,0:0:0:0:
469,192,83265,1,0,0:0:0:0:
298,192,83265,1,0,0:0:0:0:
213,192,83265,1,0,0:0:0:0:
384,192,83365,1,0,0:0:0:0:
469,192,83365,1,0,0:0:0:0:
128,192,83365,1,0,0:0:0:0:
298,192,83465,1,0,0:0:0:0:
469,192,83465,1,0,0:0:0:0:
42,192,83465,1,0,0:0:0:0:
128,192,83465,1,0,0:0:0:0:
42,192,83565,1,0,0:0:0:0:
298,192,83565,1,0,0:0:0:0:
213,192,83665,1,0,0:0:0:0:
128,192,83665,1,0,0:0:0:0:
469,192,83665,1,0,0:0:0:0:
213,192,83765,1,0,0:0:0:0:
384,192,83765,1,0,0:0:0:0:
128,192,83765,1,0,0:0:0:0:
384,192,83865,1,0,0:0:0:0:
298,192,83865,1,0,0:0:0:0:
42,192,83865,1,0,0:0:0:0:
469,192,83865,1,0,0:0:0:0:
213,192,83965,1,0,0:0:0:0:
298,192,83965,1,0,0:0:0:0:
42,192,84065,1,0,0:0:0:0:
128,192,84065,1,0,0:0:0:0:
384,192,84065,1,0,0:0:0:0:
469,192,84065,1,0,0:0:0:0:
384,192,84165,1,0,0:0:0:0:
42,192,84165,1,0,0:0:0:0:
128,192,84165,1,0,0:0:0:0:
298,192,84265,1,0,0:0:0:0:
213,192,84265,1,0,0:0:0:0:
384,192,84265,1,0,0:0:0:0:
469,192,84265,1,0,0:0:0:0:
213,192,84365,1,0,0:0:0:0:
469,192,84365,1,0,0:0:0:0:
384,192,84465,1,0,0:0:0:0:
298,192,84465,1,0,0:0:0:0:
128,192,84465,1,0,0:0:0:0:
42,192,84465,1,0,0:0:0:0:
384,192,84565,1,0,0:0:0:0:
128,192,84565,1,0,0:0:0:0:
42,192,84565,1,0,0:0:0:0:
384,192,84665,1,0,0:0:0:0:
469,192,84665,1,0,0:0:0:0:
298,192,84665,1,0,0:0:0:0:
213,192,84665,1,0,0:0:0:0:
42,192,84765,1,0,0:0:0:0:
298,192,84798,1,0,0:0:0:0:
469,192,84865,1,0,0:0:0:0:
384,192,84865,1,0,0:0:0:0:
213,192,84865,1,0,0:0:0:0:
298,192,84931,1,0,0:0:0:0:
469,192,84965,1,0,0:0:0:0:
128,192,84965,1,0,0:0:0:0:
42,192,85065,1,0,0:0:0:0:
298,192,85065,1,0,0:0:0:0:
384,192,85065,1,0,0:0:0:0:
128,192,85065,1,0,0:0:0:0:
298,192,85165,1,0,0:0:0:0:
213,192,85165,1,0,0:0:0:0:
42,192,85265,1,0,0:0:0:0:
384,192,85265,1,0,0:0:0:0:
469,192,85265,1,0,0:0:0:0:
128,192,85265,1,0,0:0:0:0:
469,192,85365,1,0,0:0:0:0:
128,192,85365,1,0,0:0:0:0:
213,192,85365,1,0,0:0:0:0:
384,192,85465,1,0,0:0:0:0:
213,192,85465,1,0,0:0:0:0:
42,192,85465,1,0,0:0:0:0:
298,192,85465,1,0,0:0:0:0:
42,192,85565,1,0,0:0:0:0:
384,192,85565,1,0,0:0:0:0:
213,192,85665,1,0,0:0:0:0:
128,192,85665,1,0,0:0:0:0:
469,192,85665,1,0,0:0:0:0:
298,192,85665,1,0,0:0:0:0:
384,192,85765,1,0,0:0:0:0:
128,192,85765,1,0,0:0:0:0:
213,192,85765,1,0,0:0:0:0:
128,192,85865,1,0,0:0:0:0:
298,192,85865,1,0,0:0:0:0:
469,192,85865,1,0,0:0:0:0:
42,192,85865,1,0,0:0:0:0:
213,192,85965,1,0,0:0:0:0:
469,192,85965,1,0,0:0:0:0:
384,192,86065,1,0,0:0:0:0:
128,192,86065,1,0,0:0:0:0:
42,192,86065,1,0,0:0:0:0:
298,192,86065,1,0,0:0:0:0:
384,192,86165,1,0,0:0:0:0:
128,192,86165,1,0,0:0:0:0:
42,192,86165,1,0,0:0:0:0:
213,192,86265,1,0,0:0:0:0:
298,192,86265,1,0,0:0:0:0:
384,192,86265,1,0,0:0:0:0:
469,192,86265,1,0,0:0:0:0:
298,192,86365,1,0,0:0:0:0:
42,192,86365,1,0,0:0:0:0:
128,192,86465,1,0,0:0:0:0:
213,192,86465,1,0,0:0:0:0:
469,192,86465,1,0,0:0:0:0:
384,192,86465,1,0,0:0:0:0:
469,192,86565,1,0,0:0:0:0:
128,192,86565,1,0,0:0:0:0:
384,192,86565,1,0,0:0:0:0:
298,192,86665,1,0,0:0:0:0:
384,192,86665,1,0,0:0:0:0:
128,192,86665,1,0,0:0:0:0:
42,192,86665,1,0,0:0:0:0:
213,192,86765,1,0,0:0:0:0:
469,192,86765,1,0,0:0:0:0:
384,192,86865,1,0,0:0:0:0:
128,192,86865,1,0,0:0:0:0:
42,192,86865,1,0,0:0:0:0:
298,192,86965,1,0,0:0:0:0:
128,192,86965,1,0,0:0:0:0:
42,192,86965,1,0,0:0:0:0:
213,192,87065,1,0,0:0:0:0:
298,192,87065,1,0,0:0:0:0:
384,192,87065,1,0,0:0:0:0:
469,192,87065,1,0,0:0:0:0:
213,192,87165,1,0,0:0:0:0:
128,192,87165,1,0,0:0:0:0:
128,192,87265,1,0,0:0:0:0:
384,192,87265,1,0,0:0:0:0:
469,192,87265,1,0,0:0:0:0:
42,192,87265,1,0,0:0:0:0:
384,192,87365,1,0,0:0:0:0:
469,192,87365,1,0,0:0:0:0:
298,192,87365,1,0,0:0:0:0:
384,192,87465,1,0,0:0:0:0:
128,192,87465,1,0,0:0:0:0:
42,192,87465,1,0,0:0:0:0:
213,192,87465,1,0,0:0:0:0:
42,192,87565,1,0,0:0:0:0:
213,192,87565,1,0,0:0:0:0:
298,192,87665,1,0,0:0:0:0:
384,192,87665,1,0,0:0:0:0:
469,192,87665,1,0,0:0:0:0:
128,192,87665,1,0,0:0:0:0:
384,192,87765,1,0,0:0:0:0:
128,192,87765,1,0,0:0:0:0:
298,192,87765,1,0,0:0:0:0:
213,192,87865,1,0,0:0:0:0:
128,192,87865,1,0,0:0:0:0:
42,192,87865,1,0,0:0:0:0:
469,192,87865,1,0,0:0:0:0:
298,192,87965,1,0,0:0:0:0:
42,192,87965,1,0,0:0:0:0:
213,192,87998,1,0,0:0:0:0:
384,192,88065,1,0,0:0:0:0:
469,192,88065,1,0,0:0:0:0:
128,192,88065,1,0,0:0:0:0:
213,192,88131,1,0,0:0:0:0:
384,192,88165,1,0,0:0:0:0:
469,192,88165,1,0,0:0:0:0:
298,192,88265,1,0,0:0:0:0:
213,192,88265,1,0,0:0:0:0:
128,192,88265,1,0,0:0:0:0:
42,192,88265,1,0,0:0:0:0:
128,192,88365,1,0,0:0:0:0:
469,192,88365,1,0,0:0:0:0:
298,192,88465,1,0,0:0:0:0:
384,192,88465,1,0,0:0:0:0:
213,192,88465,1,0,0:0:0:0:
42,192,88465,1,0,0:0:0:0:
128,192,88565,1,0,0:0:0:0:
384,192,88565,1,0,0:0:0:0:
469,192,88565,1,0,0:0:0:0:
213,192,88665,1,0,0:0:0:0:
298,192,88665,1,0,0:0:0:0:
128,192,88665,1,0,0:0:0:0:
42,192,88665,1,0,0:0:0:0:
384,192,88765,1,0,0:0:0:0:
213,192,88765,1,0,0:0:0:0:
298,192,88865,1,0,0:0:0:0:
469,192,88865,1,0,0:0:0:0:
128,192,88865,1,0,0:0:0:0:
42,192,88865,1,0,0:0:0:0:
128,192,88965,1,0,0:0:0:0:
384,192,88965,1,0,0:0:0:0:
213,192,88965,1,0,0:0:0:0:
213,192,89065,1,0,0:0:0:0:
298,192,89065,1,0,0:0:0:0:
469,192,89065,1,0,0:0:0:0:
42,192,89065,1,0,0:0:0:0:
298,192,89165,1,0,0:0:0:0:
469,192,89165,1,0,0:0:0:0:
384,192,89265,1,0,0:0:0:0:
213,192,89265,1,0,0:0:0:0:
128,192,89265,1,0,0:0:0:0:
42,192,89265,1,0,0:0:0:0:
128,192,89365,1,0,0:0:0:0:
298,192,89365,1,0,0:0:0:0:
213,192,89365,1,0,0:0:0:0:
384,192,89465,1,0,0:0:0:0:
469,192,89465,1,0,0:0:0:0:
213,192,89465,1,0,0:0:0:0:
42,192,89465,1,0,0:0:0:0:
298,192,89565,1,0,0:0:0:0:
469,192,89565,1,0,0:0:0:0:
128,192,89665,1,0,0:0:0:0:
42,192,89665,1,0,0:0:0:0:
213,192,89665,1,0,0:0:0:0:
298,192,89665,1,0,0:0:0:0:
128,192,89765,1,0,0:0:0:0:
42,192,89765,1,0,0:0:0:0:
384,192,89765,1,0,0:0:0:0:
213,192,89865,1,0,0:0:0:0:
42,192,89865,1,0,0:0:0:0:
469,192,89865,1,0,0:0:0:0:
384,192,89865,1,0,0:0:0:0:
469,192,89965,1,0,0:0:0:0:
213,192,89965,1,0,0:0:0:0:
298,192,90065,1,0,0:0:0:0:
384,192,90065,1,0,0:0:0:0:
42,192,90065,1,0,0:0:0:0:
298,192,90165,1,0,0:0:0:0:
128,192,90165,1,0,0:0:0:0:
384,192,90165,1,0,0:0:0:0:
128,192,90265,1,0,0:0:0:0:
213,192,90265,1,0,0:0:0:0:
469,192,90265,1,0,0:0:0:0:
42,192,90265,1,0,0:0:0:0:
298,192,90365,1,0,0:0:0:0:
213,192,90365,1,0,0:0:0:0:
469,192,90465,1,0,0:0:0:0:
384,192,90465,1,0,0:0:0:0:
128,192,90465,1,0,0:0:0:0:
42,192,90465,1,0,0:0:0:0:
128,192,90565,1,0,0:0:0:0:
469,192,90565,1,0,0:0:0:0:
384,192,90565,1,0,0:0:0:0:
213,192,90665,1,0,0:0:0:0:
298,192,90665,1,0,0:0:0:0:
128,192,90665,1,0,0:0:0:0:
42,192,90665,1,0,0:0:0:0:
298,192,90765,1,0,0:0:0:0:
42,192,90765,1,0,0:0:0:0:
128,192,90865,1,0,0:0:0:0:
213,192,90865,1,0,0:0:0:0:
384,192,90865,1,0,0:0:0:0:
469,192,90865,1,0,0:0:0:0:
128,192,90965,1,0,0:0:0:0:
384,192,90965,1,0,0:0:0:0:
469,192,90965,1,0,0:0:0:0:
128,192,91065,1,0,0:0:0:0:
42,192,91065,1,0,0:0:0:0:
213,192,91065,1,0,0:0:0:0:
298,192,91065,1,0,0:0:0:0:
469,192,91165,1,0,0:0:0:0:
213,192,91198,1,0,0:0:0:0:
42,192,91265,1,0,0:0:0:0:
128,192,91265,1,0,0:0:0:0:
298,192,91265,1,0,0:0:0:0:
213,192,91331,1,0,0:0:0:0:
42,192,91365,1,0,0:0:0:0:
384,192,91365,1,0,0:0:0:0:
469,192,91465,1,0,0:0:0:0:
213,192,91465,1,0,0:0:0:0:
128,192,91465,1,0,0:0:0:0:
384,192,91465,1,0,0:0:0:0:
213,192,91565,1,0,0:0:0:0:
298,192,91565,1,0,0:0:0:0:
469,192,91665,1,0,0:0:0:0:
128,192,91665,1,0,0:0:0:0:
42,192,91665,1,0,0:0:0:0:
384,192,91665,1,0,0:0:0:0:
42,192,91765,1,0,0:0:0:0:
384,192,91765,1,0,0:0:0:0:
298,192,91765,1,0,0:0:0:0:
128,192,91865,1,0,0:0:0:0:
298,192,91865,1,0,0:0:0:0:
469,192,91865,1,0,0:0:0:0:
213,192,91865,1,0,0:0:0:0:
469,192,91965,1,0,0:0:0:0:
128,192,91965,1,0,0:0:0:0:
298,192,92065,1,0,0:0:0:0:
384,192,92065,1,0,0:0:0:0:
42,192,92065,1,0,0:0:0:0:
213,192,92065,1,0,0:0:0:0:
128,192,92165,1,0,0:0:0:0:
42,192,92165,1,0,0:0:0:0:
298,192,92165,1,0,0:0:0:0:
213,192,92265,1,0,0:0:0:0:
469,192,92265,1,0,0:0:0:0:
213,192,94265,1,0,0:0:0:0:
469,192,94265,1,0,0:0:0:0:
213,192,96265,1,0,0:0:0:0:
469,192,96265,1,0,0:0:0:0:
213,192,98265,1,0,0:0:0:0:
469,192,98265,1,0,0:0:0:0:
213,192,98665,1,0,0:0:0:0:
128,192,98665,1,0,0:0:0:0:
42,192,98665,1,0,0:0:0:0:
469,192,98665,1,0,0:0:0:0:
298,192,98765,1,0,0:0:0:0:
42,192,98765,1,0,0:0:0:0:
469,192,98865,1,0,0:0:0:0:
213,192,98865,1,0,0:0:0:0:
384,192,98865,1,0,0:0:0:0:
384,192,98965,1,0,0:0:0:0:
469,192,98965,1,0,0:0:0:0:
128,192,98965,1,0,0:0:0:0:
298,192,99065,1,0,0:0:0:0:
213,192,99065,1,0,0:0:0:0:
42,192,99065,1,0,0:0:0:0:
469,192,99065,1,0,0:0:0:0:
213,192,99165,1,0,0:0:0:0:
42,192,99165,1,0,0:0:0:0:
128,192,99265,1,0,0:0:0:0:
298,192,99265,1,0,0:0:0:0:
384,192,99265,1,0,0:0:0:0:
469,192,99265,1,0,0:0:0:0:
384,192,99365,1,0,0:0:0:0:
298,192,99365,1,0,0:0:0:0:
213,192,99365,1,0,0:0:0:0:
128,192,99465,1,0,0:0:0:0:
42,192,99465,1,0,0:0:0:0:
298,192,99465,1,0,0:0:0:0:
469,192,99465,1,0,0:0:0:0:
42,192,99565,1,0,0:0:0:0:
128,192,99565,1,0,0:0:0:0:
384,192,99665,1,0,0:0:0:0:
469,192,99665,1,0,0:0:0:0:
213,192,99665,1,0,0:0:0:0:
384,192,99765,1,0,0:0:0:0:
469,192,99765,1,0,0:0:0:0:
128,192,99765,1,0,0:0:0:0:
298,192,99865,1,0,0:0:0:0:
42,192,99865,1,0,0:0:0:0:
469,192,99865,1,0,0:0:0:0:
213,192,99865,1,0,0:0:0:0:
213,192,99965,1,0,0:0:0:0:
42,192,99965,1,0,0:0:0:0:
128,192,100065,1,0,0:0:0:0:
384,192,100065,1,0,0:0:0:0:
469,192,100065,1,0,0:0:0:0:
298,192,100065,1,0,0:0:0:0:
213,192,100165,1,0,0:0:0:0:
298,192,100165,1,0,0:0:0:0:
384,192,100165,1,0,0:0:0:0:
298,192,100265,1,0,0:0:0:0:
469,192,100265,1,0,0:0:0:0:
128,192,100265,1,0,0:0:0:0:
42,192,100265,1,0,0:0:0:0:
213,192,100365,1,0,0:0:0:0:
128,192,100365,1,0,0:0:0:0:
213,192,100465,1,0,0:0:0:0:
298,192,100465,1,0,0:0:0:0:
42,192,100465,1,0,0:0:0:0:
128,192,100565,1,0,0:0:0:0:
384,192,100565,1,0,0:0:0:0:
298,192,100565,1,0,0:0:0:0:
213,192,100665,1,0,0:0:0:0:
42,192,100665,1,0,0:0:0:0:
384,192,100665,1,0,0:0:0:0:
469,192,100665,1,0,0:0:0:0:
128,192,100765,1,0,0:0:0:0:
42,192,100765,1,0,0:0:0:0:
213,192,100865,1,0,0:0:0:0:
128,192,100865,1,0,0:0:0:0:
298,192,100865,1,0,0:0:0:0:
384,192,100865,1,0,0:0:0:0:
384,192,100965,1,0,0:0:0:0:
469,192,100965,1,0,0:0:0:0:
298,192,100965,1,0,0:0:0:0:
213,192,101065,1,0,0:0:0:0:
128,192,101065,1,0,0:0:0:0:
42,192,101065,1,0,0:0:0:0:
469,192,101065,1,0,0:0:0:0:
298,192,101165,1,0,0:0:0:0:
213,192,101165,1,0,0:0:0:0:
298,192,101265,1,0,0:0:0:0:
384,192,101265,1,0,0:0:0:0:
42,192,101265,1,0,0:0:0:0:
128,192,101365,1,0,0:0:0:0:
384,192,101365,1,0,0:0:0:0:
469,192,101365,1,0,0:0:0:0:
298,192,101465,1,0,0:0:0:0:
213,192,101465,1,0,0:0:0:0:
42,192,101465,1,0,0:0:0:0:
469,192,101465,1,0,0:0:0:0:
213,192,101565,1,0,0:0:0:0:
128,192,101565,1,0,0:0:0:0:
128,192,101665,1,0,0:0:0:0:
42,192,101665,1,0,0:0:0:0:
384,192,101665,1,0,0:0:0:0:
469,192,101665,1,0,0:0:0:0:
384,192,101765,1,0,0:0:0:0:
298,192,101765,1,0,0:0:0:0:
469,192,101765,1,0,0:0:0:0:
213,192,101865,1,0,0:0:0:0:
128,192,101865,1,0,0:0:0:0:
42,192,101865,1,0,0:0:0:0:
298,192,101865,1,0,0:0:0:0:
128,192,101965,1,0,0:0:0:0:
42,192,101965,1,0,0:0:0:0:
469,192,102065,1,0,0:0:0:0:
213,192,102065,1,0,0:0:0:0:
298,192,102065,1,0,0:0:0:0:
298,192,102165,1,0,0:0:0:0:
384,192,102165,1,0,0:0:0:0:
128,192,102165,1,0,0:0:0:0:
384,192,102265,1,0,0:0:0:0:
213,192,102265,1,0,0:0:0:0:
42,192,102265,1,0,0:0:0:0:
469,192,102265,1,0,0:0:0:0:
213,192,102365,1,0,0:0:0:0:
42,192,102365,1,0,0:0:0:0:
128,192,102465,1,0,0:0:0:0:
298,192,102465,1,0,0:0:0:0:
384,192,102465,1,0,0:0:0:0:
469,192,102465,1,0,0:0:0:0:
384,192,102565,1,0,0:0:0:0:
298,192,102565,1,0,0:0:0:0:
213,192,102565,1,0,0:0:0:0:
128,192,102665,1,0,0:0:0:0:
42,192,102665,1,0,0:0:0:0:
298,192,102665,1,0,0:0:0:0:
469,192,102665,1,0,0:0:0:0:
42,192,102765,1,0,0:0:0:0:
128,192,102765,1,0,0:0:0:0:
384,192,102865,1,0,0:0:0:0:
469,192,102865,1,0,0:0:0:0:
213,192,102865,1,0,0:0:0:0:
384,192,102965,1,0,0:0:0:0:
298,192,102965,1,0,0:0:0:0:
128,192,102965,1,0,0:0:0:0:
298,192,103065,1,0,0:0:0:0:
42,192,103065,1,0,0:0:0:0:
469,192,103065,1,0,0:0:0:0:
213,192,103065,1,0,0:0:0:0:
213,192,103165,1,0,0:0:0:0:
42,192,103165,1,0,0:0:0:0:
128,192,103265,1,0,0:0:0:0:
384,192,103265,1,0,0:0:0:0:
469,192,103265,1,0,0:0:0:0:
298,192,103265,1,0,0:0:0:0:
213,192,103365,1,0,0:0:0:0:
298,192,103365,1,0,0:0:0:0:
384,192,103365,1,0,0:0:0:0:
298,192,103465,1,0,0:0:0:0:
469,192,103465,1,0,0:0:0:0:
128,192,103465,1,0,0:0:0:0:
42,192,103465,1,0,0:0:0:0:
213,192,103565,1,0,0:0:0:0:
128,192,103565,1,0,0:0:0:0:
213,192,103665,1,0,0:0:0:0:
298,192,103665,1,0,0:0:0:0:
42,192,103665,1,0,0:0:0:0:
128,192,103765,1,0,0:0:0:0:
384,192,103765,1,0,0:0:0:0:
298,192,103765,1,0,0:0:0:0:
213,192,103865,1,0,0:0:0:0:
42,192,103865,1,0,0:0:0:0:
384,192,103865,1,0,0:0:0:0:
469,192,103865,1,0,0:0:0:0:
128,192,103965,1,0,0:0:0:0:
42,192,103965,1,0,0:0:0:0:
213,192,104065,1,0,0:0:0:0:
128,192,104065,1,0,0:0:0:0:
298,192,104065,1,0,0:0:0:0:
469,192,104065,1,0,0:0:0:0:
384,192,104165,1,0,0:0:0:0:
469,192,104165,1,0,0:0:0:0:
298,192,104165,1,0,0:0:0:0:
213,192,104265,1,0,0:0:0:0:
128,192,104265,1,0,0:0:0:0:
42,192,104265,1,0,0:0:0:0:
469,192,104265,1,0,0:0:0:0:
298,192,104365,1,0,0:0:0:0:
213,192,104365,1,0,0:0:0:0:
298,192,104465,1,0,0:0:0:0:
384,192,104465,1,0,0:0:0:0:
42,192,104465,1,0,0:0:0:0:
128,192,104565,1,0,0:0:0:0:
384,192,104565,1,0,0:0:0:0:
469,192,104565,1,0,0:0:0:0:
298,192,104665,1,0,0:0:0:0:
213,192,104665,1,0,0:0:0:0:
42,192,104665,1,0,0:0:0:0:
469,192,104665,1,0,0:0:0:0:
213,192,104765,1,0,0:0:0:0:
128,192,104765,1,0,0:0:0:0:
128,192,104865,1,0,0:0:0:0:
42,192,104865,1,0,0:0:0:0:
384,192,104865,1,0,0:0:0:0:
469,192,104865,1,0,0:0:0:0:
384,192,104965,1,0,0:0:0:0:
298,192,104965,1,0,0:0:0:0:
213,192,104965,1,0,0:0:0:0:
298,192,105065,1,0,0:0:0:0:
128,192,105065,1,0,0:0:0:0:
42,192,105065,1,0,0:0:0:0:
469,192,105065,1,0,0:0:0:0:
128,192,105165,1,0,0:0:0:0:
42,192,105165,1,0,0:0:0:0:
213,192,105265,1,0,0:0:0:0:
298,192,105265,1,0,0:0:0:0:
384,192,105265,1,0,0:0:0:0:
469,192,105265,1,0,0:0:0:0:
128,192,105365,1,0,0:0:0:0:
384,192,105365,1,0,0:0:0:0:
298,192,105365,1,0,0:0:0:0:
213,192,105465,1,0,0:0:0:0:
384,192,105465,1,0,0:0:0:0:
469,192,105465,1,0,0:0:0:0:
298,192,105465,1,0,0:0:0:0:
42,192,105565,1,0,0:0:0:0:
469,192,105565,1,0,0:0:0:0:
128,192,105665,1,0,0:0:0:0:
213,192,105665,1,0,0:0:0:0:
384,192,105665,1,0,0:0:0:0:
42,192,105665,1,0,0:0:0:0:
213,192,105765,1,0,0:0:0:0:
128,192,105765,1,0,0:0:0:0:
298,192,105765,1,0,0:0:0:0:
213,192,105865,1,0,0:0:0:0:
128,192,105865,1,0,0:0:0:0:
469,192,105865,1,0,0:0:0:0:
42,192,105865,1,0,0:0:0:0:
298,192,105965,1,0,0:0:0:0:
469,192,105965,1,0,0:0:0:0:
384,192,106065,1,0,0:0:0:0:
128,192,106065,1,0,0:0:0:0:
42,192,106065,1,0,0:0:0:0:
128,192,106165,1,0,0:0:0:0:
298,192,106165,1,0,0:0:0:0:
384,192,106165,1,0,0:0:0:0:
298,192,106265,1,0,0:0:0:0:
213,192,106265,1,0,0:0:0:0:
42,192,106265,1,0,0:0:0:0:
469,192,106265,1,0,0:0:0:0:
384,192,106365,1,0,0:0:0:0:
128,192,106365,1,0,0:0:0:0:
298,192,106465,1,0,0:0:0:0:
213,192,106465,1,0,0:0:0:0:
42,192,106465,1,0,0:0:0:0:
469,192,106465,1,0,0:0:0:0:
213,192,106565,1,0,0:0:0:0:
128,192,106565,1,0,0:0:0:0:
384,192,106565,1,0,0:0:0:0:
42,192,106665,1,0,0:0:0:0:
298,192,106665,1,0,0:0:0:0:
469,192,106665,1,0,0:0:0:0:
128,192,106665,1,0,0:0:0:0:
298,192,106765,1,0,0:0:0:0:
42,192,106765,1,0,0:0:0:0:
213,192,106865,1,0,0:0:0:0:
384,192,106865,1,0,0:0:0:0:
469,192,106865,1,0,0:0:0:0:
384,192,106965,1,0,0:0:0:0:
298,192,106965,1,0,0:0:0:0:
128,192,106965,1,0,0:0:0:0:
298,192,107065,1,0,0:0:0:0:
213,192,107065,1,0,0:0:0:0:
42,192,107065,1,0,0:0:0:0:
469,192,107065,1,0,0:0:0:0:
128,192,107165,1,0,0:0:0:0:
384,192,107165,1,0,0:0:0:0:
298,192,107265,1,0,0:0:0:0:
213,192,107265,1,0,0:0:0:0:
42,192,107265,1,0,0:0:0:0:
469,192,107265,1,0,0:0:0:0:
298,192,107365,1,0,0:0:0:0:
384,192,107365,1,0,0:0:0:0:
128,192,107365,1,0,0:0:0:0:
213,192,107465,1,0,0:0:0:0:
42,192,107465,1,0,0:0:0:0:
384,192,107465,1,0,0:0:0:0:
469,192,107465,1,0,0:0:0:0:
213,192,107565,1,0,0:0:0:0:
469,192,107565,1,0,0:0:0:0:
298,192,107665,1,0,0:0:0:0:
128,192,107665,1,0,0:0:0:0:
42,192,107665,1,0,0:0:0:0:
213,192,107765,1,0,0:0:0:0:
384,192,107765,1,0,0:0:0:0:
128,192,107765,1,0,0:0:0:0:
298,192,107865,1,0,0:0:0:0:
213,192,107865,1,0,0:0:0:0:
42,192,107865,1,0,0:0:0:0:
469,192,107865,1,0,0:0:0:0:
384,192,107965,1,0,0:0:0:0:
128,192,107965,1,0,0:0:0:0:
298,192,108065,1,0,0:0:0:0:
213,192,108065,1,0,0:0:0:0:
42,192,108065,1,0,0:0:0:0:
469,192,108065,1,0,0:0:0:0:
298,192,108165,1,0,0:0:0:0:
213,192,108165,1,0,0:0:0:0:
42,192,108165,1,0,0:0:0:0:
128,192,108265,1,0,0:0:0:0:
384,192,108265,1,0,0:0:0:0:
469,192,108265,1,0,0:0:0:0:
42,192,108265,1,0,0:0:0:0:
298,192,108365,1,0,0:0:0:0:
384,192,108365,1,0,0:0:0:0:
298,192,108465,1,0,0:0:0:0:
213,192,108465,1,0,0:0:0:0:
128,192,108465,1,0,0:0:0:0:
42,192,108465,1,0,0:0:0:0:
128,192,108565,1,0,0:0:0:0:
42,192,108565,1,0,0:0:0:0:
469,192,108565,1,0,0:0:0:0:
298,192,108665,1,0,0:0:0:0:
128,192,108665,1,0,0:0:0:0:
42,192,108665,1,0,0:0:0:0:
384,192,108665,1,0,0:0:0:0:
298,192,108765,1,0,0:0:0:0:
213,192,108765,1,0,0:0:0:0:
384,192,108865,1,0,0:0:0:0:
469,192,108865,1,0,0:0:0:0:
213,192,108865,1,0,0:0:0:0:
128,192,108865,1,0,0:0:0:0:
384,192,108965,1,0,0:0:0:0:
469,192,108965,1,0,0:0:0:0:
42,192,108965,1,0,0:0:0:0:
384,192,109065,1,0,0:0:0:0:
469,192,109065,1,0,0:0:0:0:
213,192,109065,1,0,0:0:0:0:
298,192,109065,1,0,0:0:0:0:
298,192,109165,1,0,0:0:0:0:
42,192,109165,1,0,0:0:0:0:
213,192,109265,1,0,0:0:0:0:
384,192,109265,1,0,0:0:0:0:
469,192,109265,1,0,0:0:0:0:
128,192,109365,1,0,0:0:0:0:
384,192,109365,1,0,0:0:0:0:
298,192,109365,1,0,0:0:0:0:
298,192,109465,1,0,0:0:0:0:
213,192,109465,1,0,0:0:0:0:
42,192,109465,1,0,0:0:0:0:
469,192,109465,1,0,0:0:0:0:
128,192,109565,1,0,0:0:0:0:
384,192,109565,1,0,0:0:0:0:
298,192,109665,1,0,0:0:0:0:
213,192,109665,1,0,0:0:0:0:
42,192,109665,1,0,0:0:0:0:
469,192,109665,1,0,0:0:0:0:
213,192,109765,1,0,0:0:0:0:
128,192,109765,1,0,0:0:0:0:
384,192,109765,1,0,0:0:0:0:
298,192,109865,1,0,0:0:0:0:
128,192,109865,1,0,0:0:0:0:
42,192,109865,1,0,0:0:0:0:
469,192,109865,1,0,0:0:0:0:
384,192,109965,1,0,0:0:0:0:
213,192,109965,1,0,0:0:0:0:
128,192,110065,1,0,0:0:0:0:
42,192,110065,1,0,0:0:0:0:
213,192,110065,1,0,0:0:0:0:
469,192,110165,1,0,0:0:0:0:
384,192,110165,1,0,0:0:0:0:
298,192,110165,1,0,0:0:0:0:
128,192,110265,1,0,0:0:0:0:
213,192,110265,1,0,0:0:0:0:
42,192,110265,1,0,0:0:0:0:
469,192,110265,1,0,0:0:0:0:
128,192,110365,1,0,0:0:0:0:
384,192,110365,1,0,0:0:0:0:
298,192,110465,1,0,0:0:0:0:
384,192,110465,1,0,0:0:0:0:
469,192,110465,1,0,0:0:0:0:
42,192,110465,1,0,0:0:0:0:
213,192,110565,1,0,0:0:0:0:
128,192,110565,1,0,0:0:0:0:
42,192,110565,1,0,0:0:0:0:
42,192,110665,1,0,0:0:0:0:
298,192,110665,1,0,0:0:0:0:
384,192,110665,1,0,0:0:0:0:
469,192,110665,1,0,0:0:0:0:
128,192,110765,1,0,0:0:0:0:
384,192,110765,1,0,0:0:0:0:
298,192,110865,1,0,0:0:0:0:
384,192,110865,1,0,0:0:0:0:
469,192,110865,1,0,0:0:0:0:
213,192,110965,1,0,0:0:0:0:
128,192,110965,1,0,0:0:0:0:
42,192,110965,1,0,0:0:0:0:
298,192,111065,1,0,0:0:0:0:
384,192,111065,1,0,0:0:0:0:
469,192,111065,1,0,0:0:0:0:
42,192,111065,1,0,0:0:0:0:
128,192,111165,1,0,0:0:0:0:
384,192,111165,1,0,0:0:0:0:
213,192,111265,1,0,0:0:0:0:
128,192,111265,1,0,0:0:0:0:
42,192,111265,1,0,0:0:0:0:
469,192,111265,1,0,0:0:0:0:
298,192,111365,1,0,0:0:0:0:
384,192,111365,1,0,0:0:0:0:
469,192,111365,1,0,0:0:0:0:
469,192,111465,1,0,0:0:0:0:
213,192,111465,1,0,0:0:0:0:
128,192,111465,1,0,0:0:0:0:
42,192,111465,1,0,0:0:0:0:
128,192,111565,1,0,0:0:0:0:
213,192,111665,1,0,0:0:0:0:
128,192,111665,1,0,0:0:0:0:
42,192,111665,1,0,0:0:0:0:
298,192,111665,1,0,0:0:0:0:
298,192,111765,1,0,0:0:0:0:
213,192,111865,1,0,0:0:0:0:
128,192,111865,1,0,0:0:0:0:
298,192,111865,1,0,0:0:0:0:
469,192,111865,1,0,0:0:0:0:
384,192,111865,1,0,0:0:0:0:
42,192,111965,1,0,0:0:0:0:
213,192,112065,1,0,0:0:0:0:
298,192,112065,1,0,0:0:0:0:
469,192,112065,1,0,0:0:0:0:
384,192,112065,1,0,0:0:0:0:
384,192,112165,1,0,0:0:0:0:
384,192,112265,1,0,0:0:0:0:
298,192,112265,1,0,0:0:0:0:
213,192,112265,1,0,0:0:0:0:
128,192,112265,1,0,0:0:0:0:
298,192,112365,1,0,0:0:0:0:
213,192,112465,1,0,0:0:0:0:
128,192,112465,1,0,0:0:0:0:
42,192,112465,1,0,0:0:0:0:
469,192,112465,1,0,0:0:0:0:
384,192,112565,1,0,0:0:0:0:
298,192,112665,1,0,0:0:0:0:
213,192,112665,1,0,0:0:0:0:
128,192,112665,1,0,0:0:0:0:
384,192,112665,1,0,0:0:0:0:
469,192,112665,1,0,0:0:0:0:
128,192,112765,1,0,0:0:0:0:
298,192,112865,1,0,0:0:0:0:
213,192,112865,1,0,0:0:0:0:
128,192,112865,1,0,0:0:0:0:
42,192,112865,1,0,0:0:0:0:
298,192,112965,1,0,0:0:0:0:
128,192,113065,1,0,0:0:0:0:
42,192,113065,1,0,0:0:0:0:
384,192,113065,1,0,0:0:0:0:
469,192,113065,1,0,0:0:0:0:
298,192,113165,1,0,0:0:0:0:
213,192,113165,1,0,0:0:0:0:
128,192,113265,1,0,0:0:0:0:
42,192,113265,1,0,0:0:0:0:
384,192,113265,1,0,0:0:0:0:
469,192,113265,1,0,0:0:0:0:
298,192,113365,1,0,0:0:0:0:
128,192,113365,1,0,0:0:0:0:
128,192,113465,1,0,0:0:0:0:
42,192,113465,1,0,0:0:0:0:
384,192,113465,1,0,0:0:0:0:
469,192,113465,1,0,0:0:0:0:
213,192,113565,1,0,0:0:0:0:
298,192,113565,1,0,0:0:0:0:
384,192,113665,1,0,0:0:0:0:
469,192,113665,1,0,0:0:0:0:
42,192,113665,1,0,0:0:0:0:
128,192,113665,1,0,0:0:0:0:
213,192,113765,1,0,0:0:0:0:
384,192,113765,1,0,0:0:0:0:
42,192,113865,1,0,0:0:0:0:
128,192,113865,1,0,0:0:0:0:
384,192,113865,1,0,0:0:0:0:
469,192,113865,1,0,0:0:0:0:
298,192,113965,1,0,0:0:0:0:
213,192,113965,1,0,0:0:0:0:
128,192,114065,1,0,0:0:0:0:
42,192,114065,1,0,0:0:0:0:
384,192,114065,1,0,0:0:0:0:
469,192,114065,1,0,0:0:0:0:
298,192,114165,1,0,0:0:0:0:
128,192,114165,1,0,0:0:0:0:
213,192,114265,1,0,0:0:0:0:
298,192,114265,1,0,0:0:0:0:
384,192,114265,1,0,0:0:0:0:
469,192,114265,1,0,0:0:0:0:
42,192,114265,1,0,0:0:0:0:
384,192,114365,1,0,0:0:0:0:
384,192,114465,1,0,0:0:0:0:
298,192,114465,1,0,0:0:0:0:
128,192,114465,1,0,0:0:0:0:
213,192,114465,1,0,0:0:0:0:
128,192,114565,1,0,0:0:0:0:
128,192,114665,1,0,0:0:0:0:
42,192,114665,1,0,0:0:0:0:
213,192,114665,1,0,0:0:0:0:
298,192,114665,1,0,0:0:0:0:
469,192,114765,1,0,0:0:0:0:
384,192,114865,1,0,0:0:0:0:
298,192,114865,1,0,0:0:0:0:
213,192,114865,1,0,0:0:0:0:
128,192,114865,1,0,0:0:0:0:
213,192,114965,1,0,0:0:0:0:
213,192,115065,1,0,0:0:0:0:
128,192,115065,1,0,0:0:0:0:
42,192,115065,1,0,0:0:0:0:
298,192,115065,1,0,0:0:0:0:
469,192,115065,1,0,0:0:0:0:
469,192,115165,1,0,0:0:0:0:
213,192,115265,1,0,0:0:0:0:
128,192,115265,1,0,0:0:0:0:
42,192,115265,1,0,0:0:0:0:
384,192,115265,1,0,0:0:0:0:
128,192,115365,1,0,0:0:0:0:
298,192,115465,1,0,0:0:0:0:
384,192,115465,1,0,0:0:0:0:
469,192,115465,1,0,0:0:0:0:
128,192,115465,1,0,0:0:0:0:
469,192,115565,1,0,0:0:0:0:
469,192,115665,1,0,0:0:0:0:
42,192,115665,1,0,0:0:0:0:
213,192,115665,1,0,0:0:0:0:
384,192,115665,1,0,0:0:0:0:
128,192,115765,1,0,0:0:0:0:
213,192,115865,1,0,0:0:0:0:
42,192,115865,1,0,0:0:0:0:
298,192,115865,1,0,0:0:0:0:
469,192,115865,1,0,0:0:0:0:
128,192,115965,1,0,0:0:0:0:
384,192,115965,1,0,0:0:0:0:
298,192,116065,1,0,0:0:0:0:
213,192,116065,1,0,0:0:0:0:
42,192,116065,1,0,0:0:0:0:
469,192,116065,1,0,0:0:0:0:
298,192,116165,1,0,0:0:0:0:
128,192,116165,1,0,0:0:0:0:
213,192,116265,1,0,0:0:0:0:
42,192,116265,1,0,0:0:0:0:
298,192,116265,1,0,0:0:0:0:
469,192,116265,1,0,0:0:0:0:
384,192,116365,1,0,0:0:0:0:
128,192,116365,1,0,0:0:0:0:
213,192,116465,1,0,0:0:0:0:
42,192,116465,1,0,0:0:0:0:
298,192,116465,1,0,0:0:0:0:
469,192,116465,1,0,0:0:0:0:
213,192,116565,1,0,0:0:0:0:
384,192,116565,1,0,0:0:0:0:
213,192,116665,1,0,0:0:0:0:
298,192,116665,1,0,0:0:0:0:
469,192,116665,1,0,0:0:0:0:
42,192,116665,1,0,0:0:0:0:
128,192,116765,1,0,0:0:0:0:
384,192,116765,1,0,0:0:0:0:
298,192,116865,1,0,0:0:0:0:
213,192,116865,1,0,0:0:0:0:
42,192,116865,1,0,0:0:0:0:
469,192,116865,1,0,0:0:0:0:
298,192,116965,1,0,0:0:0:0:
42,192,116965,1,0,0:0:0:0:
213,192,117065,1,0,0:0:0:0:
298,192,117065,1,0,0:0:0:0:
384,192,117065,1,0,0:0:0:0:
469,192,117065,1,0,0:0:0:0:
128,192,117165,1,0,0:0:0:0:
213,192,117265,1,0,0:0:0:0:
128,192,117265,1,0,0:0:0:0:
42,192,117265,1,0,0:0:0:0:
298,192,117265,1,0,0:0:0:0:
298,192,117365,1,0,0:0:0:0:
298,192,117465,1,0,0:0:0:0:
213,192,117465,1,0,0:0:0:0:
128,192,117465,1,0,0:0:0:0:
384,192,117465,1,0,0:0:0:0:
469,192,117465,1,0,0:0:0:0:
42,192,117565,1,0,0:0:0:0:
213,192,117665,1,0,0:0:0:0:
298,192,117665,1,0,0:0:0:0:
384,192,117665,1,0,0:0:0:0:
469,192,117665,1,0,0:0:0:0:
384,192,117765,1,0,0:0:0:0:
384,192,117865,1,0,0:0:0:0:
298,192,117865,1,0,0:0:0:0:
213,192,117865,1,0,0:0:0:0:
128,192,117865,1,0,0:0:0:0:
128,192,117965,1,0,0:0:0:0:
128,192,118065,1,0,0:0:0:0:
42,192,118065,1,0,0:0:0:0:
213,192,118065,1,0,0:0:0:0:
469,192,118065,1,0,0:0:0:0:
384,192,118165,1,0,0:0:0:0:
384,192,118265,1,0,0:0:0:0:
213,192,118265,1,0,0:0:0:0:
128,192,118265,1,0,0:0:0:0:
298,192,118265,1,0,0:0:0:0:
469,192,118265,1,0,0:0:0:0:
213,192,118365,1,0,0:0:0:0:
42,192,118465,1,0,0:0:0:0:
298,192,118465,1,0,0:0:0:0:
384,192,118465,1,0,0:0:0:0:
469,192,118465,1,0,0:0:0:0:
128,192,118565,1,0,0:0:0:0:
128,192,118665,1,0,0:0:0:0:
42,192,118665,1,0,0:0:0:0:
384,192,118665,1,0,0:0:0:0:
469,192,118665,1,0,0:0:0:0:
298,192,118765,1,0,0:0:0:0:
213,192,118765,1,0,0:0:0:0:
128,192,118865,1,0,0:0:0:0:
42,192,118865,1,0,0:0:0:0:
384,192,118865,1,0,0:0:0:0:
469,192,118865,1,0,0:0:0:0:
213,192,118965,1,0,0:0:0:0:
469,192,118965,1,0,0:0:0:0:
128,192,119065,1,0,0:0:0:0:
42,192,119065,1,0,0:0:0:0:
384,192,119065,1,0,0:0:0:0:
469,192,119065,1,0,0:0:0:0:
213,192,119165,1,0,0:0:0:0:
298,192,119165,1,0,0:0:0:0:
384,192,119265,1,0,0:0:0:0:
469,192,119265,1,0,0:0:0:0:
42,192,119265,1,0,0:0:0:0:
128,192,119265,1,0,0:0:0:0:
42,192,119365,1,0,0:0:0:0:
298,192,119365,1,0,0:0:0:0:
42,192,119465,1,0,0:0:0:0:
128,192,119465,1,0,0:0:0:0:
384,192,119465,1,0,0:0:0:0:
469,192,119465,1,0,0:0:0:0:
298,192,119565,1,0,0:0:0:0:
213,192,119565,1,0,0:0:0:0:
128,192,119665,1,0,0:0:0:0:
42,192,119665,1,0,0:0:0:0:
384,192,119665,1,0,0:0:0:0:
469,192,119665,1,0,0:0:0:0:
469,192,119765,1,0,0:0:0:0:
213,192,119765,1,0,0:0:0:0:
298,192,119865,1,0,0:0:0:0:
469,192,119865,1,0,0:0:0:0:
42,192,119865,1,0,0:0:0:0:
128,192,119865,1,0,0:0:0:0:
384,192,119865,1,0,0:0:0:0:
128,192,119965,1,0,0:0:0:0:
128,192,120065,1,0,0:0:0:0:
213,192,120065,1,0,0:0:0:0:
298,192,120065,1,0,0:0:0:0:
384,192,120065,1,0,0:0:0:0:
384,192,120165,1,0,0:0:0:0:
384,192,120265,1,0,0:0:0:0:
298,192,120265,1,0,0:0:0:0:
128,192,120265,1,0,0:0:0:0:
42,192,120265,1,0,0:0:0:0:
42,192,120365,1,0,0:0:0:0:
213,192,120465,1,0,0:0:0:0:
298,192,120465,1,0,0:0:0:0:
384,192,120465,1,0,0:0:0:0:
469,192,120465,1,0,0:0:0:0:
128,192,120565,1,0,0:0:0:0:
42,192,120665,1,0,0:0:0:0:
128,192,120665,1,0,0:0:0:0:
213,192,120665,1,0,0:0:0:0:
298,192,120665,1,0,0:0:0:0:
384,192,120665,1,0,0:0:0:0:
298,192,120765,1,0,0:0:0:0:
298,192,120865,1,0,0:0:0:0:
384,192,120865,1,0,0:0:0:0:
469,192,120865,1,0,0:0:0:0:
128,192,120865,1,0,0:0:0:0:
128,192,120965,1,0,0:0:0:0:
213,192,121065,1,0,0:0:0:0:
128,192,121065,1,0,0:0:0:0:
469,192,121065,1,0,0:0:0:0:
42,192,121065,1,0,0:0:0:0:
469,192,121165,1,0,0:0:0:0:
298,192,121265,1,0,0:0:0:0:
213,192,121265,1,0,0:0:0:0:
42,192,121265,1,0,0:0:0:0:
469,192,121265,1,0,0:0:0:0:
128,192,121365,1,0,0:0:0:0:
213,192,121465,1,0,0:0:0:0:
42,192,121465,1,0,0:0:0:0:
298,192,121465,1,0,0:0:0:0:
469,192,121465,1,0,0:0:0:0:
128,192,121565,1,0,0:0:0:0:
384,192,121565,1,0,0:0:0:0:
298,192,121665,1,0,0:0:0:0:
213,192,121665,1,0,0:0:0:0:
42,192,121665,1,0,0:0:0:0:
469,192,121665,1,0,0:0:0:0:
469,192,121765,1,0,0:0:0:0:
128,192,121765,1,0,0:0:0:0:
213,192,121865,1,0,0:0:0:0:
42,192,121865,1,0,0:0:0:0:
298,192,121865,1,0,0:0:0:0:
469,192,121865,1,0,0:0:0:0:
384,192,121965,1,0,0:0:0:0:
128,192,121965,1,0,0:0:0:0:
213,192,122065,1,0,0:0:0:0:
42,192,122065,1,0,0:0:0:0:
298,192,122065,1,0,0:0:0:0:
469,192,122065,1,0,0:0:0:0:
42,192,122165,1,0,0:0:0:0:
384,192,122165,1,0,0:0:0:0:
213,192,122265,1,0,0:0:0:0:
298,192,122265,1,0,0:0:0:0:
469,192,122265,1,0,0:0:0:0:
42,192,122265,1,0,0:0:0:0:
128,192,122365,1,0,0:0:0:0:
384,192,122365,1,0,0:0:0:0:
298,192,122465,1,0,0:0:0:0:
213,192,122465,1,0,0:0:0:0:
42,192,122465,1,0,0:0:0:0:
469,192,122465,1,0,0:0:0:0:
298,192,122565,1,0,0:0:0:0:
469,192,122565,1,0,0:0:0:0:
384,192,122665,1,0,0:0:0:0:
213,192,122665,1,0,0:0:0:0:
128,192,122665,1,0,0:0:0:0:
42,192,122665,1,0,0:0:0:0:
128,192,122765,1,0,0:0:0:0:
128,192,122865,1,0,0:0:0:0:
298,192,122865,1,0,0:0:0:0:
384,192,122865,1,0,0:0:0:0:
469,192,122865,1,0,0:0:0:0:
469,192,122965,1,0,0:0:0:0:
469,192,123065,1,0,0:0:0:0:
384,192,123065,1,0,0:0:0:0:
298,192,123065,1,0,0:0:0:0:
42,192,123065,1,0,0:0:0:0:
213,192,123065,1,0,0:0:0:0:
128,192,123165,1,0,0:0:0:0:
42,192,123265,1,0,0:0:0:0:
128,192,123265,1,0,0:0:0:0:
298,192,123265,1,0,0:0:0:0:
384,192,123265,1,0,0:0:0:0:
298,192,123365,1,0,0:0:0:0:
298,192,123465,1,0,0:0:0:0:
213,192,123465,1,0,0:0:0:0:
128,192,123465,1,0,0:0:0:0:
469,192,123465,1,0,0:0:0:0:
469,192,123565,1,0,0:0:0:0:
469,192,123665,1,0,0:0:0:0:
384,192,123665,1,0,0:0:0:0:
213,192,123665,1,0,0:0:0:0:
42,192,123665,1,0,0:0:0:0:
213,192,123765,1,0,0:0:0:0:
213,192,123865,1,0,0:0:0:0:
128,192,123865,1,0,0:0:0:0:
42,192,123865,1,0,0:0:0:0:
298,192,123865,1,0,0:0:0:0:
469,192,123865,1,0,0:0:0:0:
128,192,123965,1,0,0:0:0:0:
213,192,124065,1,0,0:0:0:0:
298,192,124065,1,0,0:0:0:0:
384,192,124065,1,0,0:0:0:0:
469,192,124065,1,0,0:0:0:0:
128,192,124165,1,0,0:0:0:0:
298,192,124265,1,0,0:0:0:0:
42,192,124265,1,0,0:0:0:0:
128,192,124465,1,0,0:0:0:0:
384,192,124465,1,0,0:0:0:0:
213,192,124665,1,0,0:0:0:0:
469,192,124665,1,0,0:0:0:0:
298,192,125065,1,0,0:0:0:0:
42,192,125065,1,0,0:0:0:0:
128,192,125265,1,0,0:0:0:0:
384,192,125265,1,0,0:0:0:0:
213,192,125465,1,0,0:0:0:0:
469,192,125465,1,0,0:0:0:0:
298,192,125865,1,0,0:0:0:0:
42,192,125865,1,0,0:0:0:0:
128,192,126065,1,0,0:0:0:0:
384,192,126065,1,0,0:0:0:0:
213,192,126265,1,0,0:0:0:0:
469,192,126265,1,0,0:0:0:0:
128,192,126665,1,0,0:0:0:0:
42,192,126665,1,0,0:0:0:0:
298,192,126665,1,0,0:0:0:0:
469,192,126665,1,0,0:0:0:0:
128,192,126765,1,0,0:0:0:0:
42,192,126765,1,0,0:0:0:0:
298,192,126865,1,0,0:0:0:0:
384,192,126865,1,0,0:0:0:0:
469,192,126865,1,0,0:0:0:0:
213,192,126965,1,0,0:0:0:0:
128,192,126965,1,0,0:0:0:0:
298,192,126965,1,0,0:0:0:0:
469,192,127065,1,0,0:0:0:0:
128,192,127065,1,0,0:0:0:0:
42,192,127065,1,0,0:0:0:0:
384,192,127065,1,0,0:0:0:0:
384,192,127165,1,0,0:0:0:0:
469,192,127165,1,0,0:0:0:0:
298,192,127265,1,0,0:0:0:0:
213,192,127265,1,0,0:0:0:0:
128,192,127265,1,0,0:0:0:0:
42,192,127265,1,0,0:0:0:0:
298,192,127365,1,0,0:0:0:0:
384,192,127365,1,0,0:0:0:0:
469,192,127365,1,0,0:0:0:0:
213,192,127465,1,0,0:0:0:0:
128,192,127465,1,0,0:0:0:0:
42,192,127465,1,0,0:0:0:0:
469,192,127465,1,0,0:0:0:0:
213,192,127565,1,0,0:0:0:0:
128,192,127565,1,0,0:0:0:0:
298,192,127665,1,0,0:0:0:0:
384,192,127665,1,0,0:0:0:0:
469,192,127665,1,0,0:0:0:0:
213,192,127765,1,0,0:0:0:0:
42,192,127765,1,0,0:0:0:0:
128,192,127765,1,0,0:0:0:0:
42,192,127865,1,0,0:0:0:0:
298,192,127865,1,0,0:0:0:0:
384,192,127865,1,0,0:0:0:0:
469,192,127865,1,0,0:0:0:0:
298,192,127965,1,0,0:0:0:0:
384,192,127965,1,0,0:0:0:0:
298,192,128065,1,0,0:0:0:0:
213,192,128065,1,0,0:0:0:0:
469,192,128065,1,0,0:0:0:0:
42,192,128065,1,0,0:0:0:0:
213,192,128165,1,0,0:0:0:0:
128,192,128165,1,0,0:0:0:0:
384,192,128165,1,0,0:0:0:0:
469,192,128265,1,0,0:0:0:0:
128,192,128265,1,0,0:0:0:0:
42,192,128265,1,0,0:0:0:0:
213,192,128265,1,0,0:0:0:0:
298,192,128365,1,0,0:0:0:0:
469,192,128365,1,0,0:0:0:0:
384,192,128465,1,0,0:0:0:0:
42,192,128465,1,0,0:0:0:0:
128,192,128465,1,0,0:0:0:0:
213,192,128565,1,0,0:0:0:0:
128,192,128565,1,0,0:0:0:0:
469,192,128565,1,0,0:0:0:0:
384,192,128665,1,0,0:0:0:0:
298,192,128665,1,0,0:0:0:0:
213,192,128665,1,0,0:0:0:0:
42,192,128665,1,0,0:0:0:0:
42,192,128765,1,0,0:0:0:0:
384,192,128765,1,0,0:0:0:0:
213,192,128865,1,0,0:0:0:0:
128,192,128865,1,0,0:0:0:0:
469,192,128865,1,0,0:0:0:0:
384,192,128865,1,0,0:0:0:0:
298,192,128965,1,0,0:0:0:0:
213,192,128965,1,0,0:0:0:0:
469,192,128965,1,0,0:0:0:0:
384,192,129065,1,0,0:0:0:0:
298,192,129065,1,0,0:0:0:0:
128,192,129065,1,0,0:0:0:0:
42,192,129065,1,0,0:0:0:0:
469,192,129165,1,0,0:0:0:0:
128,192,129165,1,0,0:0:0:0:
298,192,129265,1,0,0:0:0:0:
213,192,129265,1,0,0:0:0:0:
42,192,129265,1,0,0:0:0:0:
128,192,129365,1,0,0:0:0:0:
298,192,129365,1,0,0:0:0:0:
384,192,129365,1,0,0:0:0:0:
213,192,129465,1,0,0:0:0:0:
42,192,129465,1,0,0:0:0:0:
384,192,129465,1,0,0:0:0:0:
469,192,129465,1,0,0:0:0:0:
298,192,129565,1,0,0:0:0:0:
42,192,129565,1,0,0:0:0:0:
128,192,129665,1,0,0:0:0:0:
213,192,129665,1,0,0:0:0:0:
384,192,129665,1,0,0:0:0:0:
469,192,129665,1,0,0:0:0:0:
298,192,129765,1,0,0:0:0:0:
213,192,129765,1,0,0:0:0:0:
469,192,129765,1,0,0:0:0:0:
298,192,129865,1,0,0:0:0:0:
384,192,129865,1,0,0:0:0:0:
128,192,129865,1,0,0:0:0:0:
42,192,129865,1,0,0:0:0:0:
128,192,129965,1,0,0:0:0:0:
42,192,129965,1,0,0:0:0:0:
298,192,130065,1,0,0:0:0:0:
384,192,130065,1,0,0:0:0:0:
469,192,130065,1,0,0:0:0:0:
213,192,130165,1,0,0:0:0:0:
128,192,130165,1,0,0:0:0:0:
42,192,130165,1,0,0:0:0:0:
42,192,130265,1,0,0:0:0:0:
469,192,130265,1,0,0:0:0:0:
384,192,130265,1,0,0:0:0:0:
298,192,130265,1,0,0:0:0:0:
384,192,130365,1,0,0:0:0:0:
298,192,130365,1,0,0:0:0:0:
213,192,130465,1,0,0:0:0:0:
128,192,130465,1,0,0:0:0:0:
42,192,130465,1,0,0:0:0:0:
469,192,130465,1,0,0:0:0:0:
384,192,130565,1,0,0:0:0:0:
298,192,130565,1,0,0:0:0:0:
42,192,130565,1,0,0:0:0:0:
213,192,130665,1,0,0:0:0:0:
128,192,130665,1,0,0:0:0:0:
384,192,130665,1,0,0:0:0:0:
469,192,130665,1,0,0:0:0:0:
213,192,130765,1,0,0:0:0:0:
128,192,130765,1,0,0:0:0:0:
298,192,130865,1,0,0:0:0:0:
384,192,130865,1,0,0:0:0:0:
469,192,130865,1,0,0:0:0:0:
213,192,130965,1,0,0:0:0:0:
42,192,130965,1,0,0:0:0:0:
128,192,130965,1,0,0:0:0:0:
42,192,131065,1,0,0:0:0:0:
298,192,131065,1,0,0:0:0:0:
469,192,131065,1,0,0:0:0:0:
384,192,131065,1,0,0:0:0:0:
384,192,131165,1,0,0:0:0:0:
469,192,131165,1,0,0:0:0:0:
128,192,131265,1,0,0:0:0:0:
384,192,131265,1,0,0:0:0:0:
213,192,131265,1,0,0:0:0:0:
298,192,131265,1,0,0:0:0:0:
128,192,131365,1,0,0:0:0:0:
42,192,131365,1,0,0:0:0:0:
213,192,131365,1,0,0:0:0:0:
42,192,131465,1,0,0:0:0:0:
384,192,131465,1,0,0:0:0:0:
469,192,131465,1,0,0:0:0:0:
128,192,131465,1,0,0:0:0:0:
384,192,131565,1,0,0:0:0:0:
298,192,131565,1,0,0:0:0:0:
298,192,131665,1,0,0:0:0:0:
213,192,131665,1,0,0:0:0:0:
469,192,131665,1,0,0:0:0:0:
128,192,131765,1,0,0:0:0:0:
42,192,131765,1,0,0:0:0:0:
384,192,131765,1,0,0:0:0:0:
384,192,131865,1,0,0:0:0:0:
298,192,131865,1,0,0:0:0:0:
42,192,131865,1,0,0:0:0:0:
469,192,131865,1,0,0:0:0:0:
298,192,131965,1,0,0:0:0:0:
213,192,131965,1,0,0:0:0:0:
213,192,132065,1,0,0:0:0:0:
128,192,132065,1,0,0:0:0:0:
384,192,132065,1,0,0:0:0:0:
469,192,132065,1,0,0:0:0:0:
384,192,132165,1,0,0:0:0:0:
469,192,132165,1,0,0:0:0:0:
42,192,132165,1,0,0:0:0:0:
298,192,132265,1,0,0:0:0:0:
213,192,132265,1,0,0:0:0:0:
42,192,132265,1,0,0:0:0:0:
469,192,132265,1,0,0:0:0:0:
213,192,132365,1,0,0:0:0:0:
128,192,132365,1,0,0:0:0:0:
128,192,132465,1,0,0:0:0:0:
42,192,132465,1,0,0:0:0:0:
298,192,132465,1,0,0:0:0:0:
213,192,132565,1,0,0:0:0:0:
469,192,132565,1,0,0:0:0:0:
384,192,132565,1,0,0:0:0:0:
42,192,132665,1,0,0:0:0:0:
128,192,132665,1,0,0:0:0:0:
298,192,132665,1,0,0:0:0:0:
384,192,132665,1,0,0:0:0:0:
298,192,132765,1,0,0:0:0:0:
213,192,132765,1,0,0:0:0:0:
213,192,132865,1,0,0:0:0:0:
128,192,132865,1,0,0:0:0:0:
384,192,132865,1,0,0:0:0:0:
469,192,132865,1,0,0:0:0:0:
128,192,132965,1,0,0:0:0:0:
298,192,132965,1,0,0:0:0:0:
42,192,132965,1,0,0:0:0:0:
384,192,133065,1,0,0:0:0:0:
469,192,133065,1,0,0:0:0:0:
213,192,133065,1,0,0:0:0:0:
42,192,133065,1,0,0:0:0:0:
384,192,133165,1,0,0:0:0:0:
469,192,133165,1,0,0:0:0:0:
213,192,133265,1,0,0:0:0:0:
128,192,133265,1,0,0:0:0:0:
42,192,133265,1,0,0:0:0:0:
298,192,133365,1,0,0:0:0:0:
384,192,133365,1,0,0:0:0:0:
213,192,133365,1,0,0:0:0:0:
42,192,133465,1,0,0:0:0:0:
384,192,133465,1,0,0:0:0:0:
469,192,133465,1,0,0:0:0:0:
128,192,133465,1,0,0:0:0:0:
128,192,133565,1,0,0:0:0:0:
42,192,133565,1,0,0:0:0:0:
213,192,133665,1,0,0:0:0:0:
298,192,133665,1,0,0:0:0:0:
384,192,133665,1,0,0:0:0:0:
469,192,133665,1,0,0:0:0:0:
213,192,133765,1,0,0:0:0:0:
128,192,133765,1,0,0:0:0:0:
42,192,133765,1,0,0:0:0:0:
298,192,133865,1,0,0:0:0:0:
384,192,133865,1,0,0:0:0:0:
469,192,133865,1,0,0:0:0:0:
42,192,133865,1,0,0:0:0:0:
298,192,133965,1,0,0:0:0:0:
384,192,133965,1,0,0:0:0:0:
213,192,134065,1,0,0:0:0:0:
128,192,134065,1,0,0:0:0:0:
42,192,134065,1,0,0:0:0:0:
298,192,134165,1,0,0:0:0:0:
469,192,134165,1,0,0:0:0:0:
384,192,134165,1,0,0:0:0:0:
469,192,134265,1,0,0:0:0:0:
213,192,134265,1,0,0:0:0:0:
128,192,134265,1,0,0:0:0:0:
42,192,134265,1,0,0:0:0:0:
213,192,134365,1,0,0:0:0:0:
128,192,134365,1,0,0:0:0:0:
213,192,134465,1,0,0:0:0:0:
298,192,134465,1,0,0:0:0:0:
42,192,134465,1,0,0:0:0:0:
469,192,134465,1,0,0:0:0:0:
298,192,134565,1,0,0:0:0:0:
384,192,134565,1,0,0:0:0:0:
128,192,134565,1,0,0:0:0:0:
42,192,134665,1,0,0:0:0:0:
384,192,134665,1,0,0:0:0:0:
469,192,134665,1,0,0:0:0:0:
298,192,134665,1,0,0:0:0:0:
213,192,134765,1,0,0:0:0:0:
42,192,134765,1,0,0:0:0:0:
128,192,134865,1,0,0:0:0:0:
469,192,134865,1,0,0:0:0:0:
384,192,134865,1,0,0:0:0:0:
298,192,134965,1,0,0:0:0:0:
384,192,134965,1,0,0:0:0:0:
42,192,134965,1,0,0:0:0:0:
128,192,135065,1,0,0:0:0:0:
213,192,135065,1,0,0:0:0:0:
298,192,135065,1,0,0:0:0:0:
469,192,135065,1,0,0:0:0:0:
469,192,135165,1,0,0:0:0:0:
128,192,135165,1,0,0:0:0:0:
298,192,135265,1,0,0:0:0:0:
384,192,135265,1,0,0:0:0:0:
42,192,135265,1,0,0:0:0:0:
128,192,135265,1,0,0:0:0:0:
213,192,135365,1,0,0:0:0:0:
298,192,135365,1,0,0:0:0:0:
42,192,135365,1,0,0:0:0:0:
128,192,135465,1,0,0:0:0:0:
213,192,135465,1,0,0:0:0:0:
384,192,135465,1,0,0:0:0:0:
469,192,135465,1,0,0:0:0:0:
42,192,135565,1,0,0:0:0:0:
384,192,135565,1,0,0:0:0:0:
213,192,135665,1,0,0:0:0:0:
298,192,135665,1,0,0:0:0:0:
469,192,135665,1,0,0:0:0:0:
384,192,135765,1,0,0:0:0:0:
213,192,135765,1,0,0:0:0:0:
128,192,135765,1,0,0:0:0:0:
298,192,135865,1,0,0:0:0:0:
469,192,135865,1,0,0:0:0:0:
128,192,135865,1,0,0:0:0:0:
42,192,135865,1,0,0:0:0:0:
213,192,135965,1,0,0:0:0:0:
469,192,135965,1,0,0:0:0:0:
384,192,136065,1,0,0:0:0:0:
298,192,136065,1,0,0:0:0:0:
128,192,136065,1,0,0:0:0:0:
42,192,136065,1,0,0:0:0:0:
213,192,136165,1,0,0:0:0:0:
298,192,136165,1,0,0:0:0:0:
42,192,136165,1,0,0:0:0:0:
213,192,136265,1,0,0:0:0:0:
128,192,136265,1,0,0:0:0:0:
384,192,136265,1,0,0:0:0:0:
469,192,136265,1,0,0:0:0:0:
384,192,136365,1,0,0:0:0:0:
469,192,136365,1,0,0:0:0:0:
213,192,136465,1,0,0:0:0:0:
128,192,136465,1,0,0:0:0:0:
42,192,136465,1,0,0:0:0:0:
298,192,136565,1,0,0:0:0:0:
384,192,136565,1,0,0:0:0:0:
469,192,136565,1,0,0:0:0:0:
469,192,136665,1,0,0:0:0:0:
42,192,136665,1,0,0:0:0:0:
128,192,136665,1,0,0:0:0:0:
213,192,136665,1,0,0:0:0:0:
128,192,136765,1,0,0:0:0:0:
213,192,136765,1,0,0:0:0:0:
298,192,136865,1,0,0:0:0:0:
384,192,136865,1,0,0:0:0:0:
469,192,136865,1,0,0:0:0:0:
42,192,136865,1,0,0:0:0:0:
128,192,136965,1,0,0:0:0:0:
213,192,136965,1,0,0:0:0:0:
469,192,136965,1,0,0:0:0:0:
298,192,137065,1,0,0:0:0:0:
384,192,137065,1,0,0:0:0:0:
128,192,137065,1,0,0:0:0:0:
42,192,137065,1,0,0:0:0:0:
298,192,137165,1,0,0:0:0:0:
384,192,137165,1,0,0:0:0:0:
213,192,137265,1,0,0:0:0:0:
128,192,137265,1,0,0:0:0:0:
42,192,137265,1,0,0:0:0:0:
298,192,137365,1,0,0:0:0:0:
469,192,137365,1,0,0:0:0:0:
384,192,137365,1,0,0:0:0:0:
469,192,137465,1,0,0:0:0:0:
213,192,137465,1,0,0:0:0:0:
42,192,137465,1,0,0:0:0:0:
128,192,137465,1,0,0:0:0:0:
128,192,137565,1,0,0:0:0:0:
42,192,137565,1,0,0:0:0:0:
384,192,137665,1,0,0:0:0:0:
128,192,137665,1,0,0:0:0:0:
298,192,137665,1,0,0:0:0:0:
213,192,137665,1,0,0:0:0:0:
384,192,137765,1,0,0:0:0:0:
469,192,137765,1,0,0:0:0:0:
298,192,137765,1,0,0:0:0:0:
469,192,137865,1,0,0:0:0:0:
128,192,137865,1,0,0:0:0:0:
42,192,137865,1,0,0:0:0:0:
384,192,137865,1,0,0:0:0:0:
128,192,137965,1,0,0:0:0:0:
213,192,137965,1,0,0:0:0:0:
213,192,138065,1,0,0:0:0:0:
298,192,138065,1,0,0:0:0:0:
42,192,138065,1,0,0:0:0:0:
384,192,138165,1,0,0:0:0:0:
469,192,138165,1,0,0:0:0:0:
128,192,138165,1,0,0:0:0:0:
128,192,138265,1,0,0:0:0:0:
213,192,138265,1,0,0:0:0:0:
469,192,138265,1,0,0:0:0:0:
42,192,138265,1,0,0:0:0:0:
213,192,138365,1,0,0:0:0:0:
298,192,138365,1,0,0:0:0:0:
298,192,138465,1,0,0:0:0:0:
384,192,138465,1,0,0:0:0:0:
128,192,138465,1,0,0:0:0:0:
42,192,138465,1,0,0:0:0:0:
128,192,138565,1,0,0:0:0:0:
42,192,138565,1,0,0:0:0:0:
469,192,138565,1,0,0:0:0:0:
213,192,138665,1,0,0:0:0:0:
298,192,138665,1,0,0:0:0:0:
469,192,138665,1,0,0:0:0:0:
42,192,138665,1,0,0:0:0:0:
298,192,138765,1,0,0:0:0:0:
384,192,138765,1,0,0:0:0:0:
384,192,138865,1,0,0:0:0:0:
469,192,138865,1,0,0:0:0:0:
213,192,138865,1,0,0:0:0:0:
298,192,138965,1,0,0:0:0:0:
42,192,138965,1,0,0:0:0:0:
128,192,138965,1,0,0:0:0:0:
469,192,139065,1,0,0:0:0:0:
384,192,139065,1,0,0:0:0:0:
213,192,139065,1,0,0:0:0:0:
128,192,139065,1,0,0:0:0:0:
213,192,139165,1,0,0:0:0:0:
298,192,139165,1,0,0:0:0:0:
298,192,139265,1,0,0:0:0:0:
384,192,139265,1,0,0:0:0:0:
128,192,139265,1,0,0:0:0:0:
42,192,139265,1,0,0:0:0:0:
128,192,139365,1,0,0:0:0:0:
213,192,139365,1,0,0:0:0:0:
469,192,139365,1,0,0:0:0:0:
298,192,139465,1,0,0:0:0:0:
213,192,139465,1,0,0:0:0:0:
42,192,139465,1,0,0:0:0:0:
469,192,139465,1,0,0:0:0:0:
384,192,139565,1,0,0:0:0:0:
128,192,139565,1,0,0:0:0:0:
213,192,139665,1,0,0:0:0:0:
298,192,139665,1,0,0:0:0:0:
42,192,139665,1,0,0:0:0:0:
469,192,139665,1,0,0:0:0:0:
384,192,139765,1,0,0:0:0:0:
298,192,139765,1,0,0:0:0:0:
128,192,139765,1,0,0:0:0:0:
213,192,139865,1,0,0:0:0:0:
42,192,139865,1,0,0:0:0:0:
469,192,139865,1,0,0:0:0:0:
384,192,139865,1,0,0:0:0:0:
298,192,139965,1,0,0:0:0:0:
42,192,139965,1,0,0:0:0:0:
384,192,140065,1,0,0:0:0:0:
469,192,140065,1,0,0:0:0:0:
128,192,140065,1,0,0:0:0:0:
298,192,140065,1,0,0:0:0:0:
213,192,140165,1,0,0:0:0:0:
128,192,140165,1,0,0:0:0:0:
42,192,140165,1,0,0:0:0:0:
128,192,140265,1,0,0:0:0:0:
42,192,140265,1,0,0:0:0:0:
298,192,140265,1,0,0:0:0:0:
469,192,140265,1,0,0:0:0:0:
213,192,140365,1,0,0:0:0:0:
469,192,140365,1,0,0:0:0:0:
384,192,140465,1,0,0:0:0:0:
298,192,140465,1,0,0:0:0:0:
42,192,140465,1,0,0:0:0:0:
128,192,140565,1,0,0:0:0:0:
384,192,140565,1,0,0:0:0:0:
469,192,140565,1,0,0:0:0:0:
298,192,140665,1,0,0:0:0:0:
213,192,140665,1,0,0:0:0:0:
42,192,140665,1,0,0:0:0:0:
469,192,140665,1,0,0:0:0:0:
384,192,140765,1,0,0:0:0:0:
298,192,140765,1,0,0:0:0:0:
213,192,140865,1,0,0:0:0:0:
128,192,140865,1,0,0:0:0:0:
42,192,140865,1,0,0:0:0:0:
469,192,140865,1,0,0:0:0:0:
42,192,140965,1,0,0:0:0:0:
298,192,140965,1,0,0:0:0:0:
128,192,140965,1,0,0:0:0:0:
213,192,141065,1,0,0:0:0:0:
298,192,141065,1,0,0:0:0:0:
469,192,141065,1,0,0:0:0:0:
384,192,141065,1,0,0:0:0:0:
384,192,141165,1,0,0:0:0:0:
128,192,141165,1,0,0:0:0:0:
298,192,141265,1,0,0:0:0:0:
213,192,141265,1,0,0:0:0:0:
128,192,141265,1,0,0:0:0:0:
42,192,141265,1,0,0:0:0:0:
213,192,141365,1,0,0:0:0:0:
469,192,141365,1,0,0:0:0:0:
298,192,141365,1,0,0:0:0:0:
384,192,141465,1,0,0:0:0:0:
469,192,141465,1,0,0:0:0:0:
128,192,141465,1,0,0:0:0:0:
42,192,141465,1,0,0:0:0:0:
42,192,141565,1,0,0:0:0:0:
298,192,141565,1,0,0:0:0:0:
213,192,141665,1,0,0:0:0:0:
384,192,141665,1,0,0:0:0:0:
469,192,141665,1,0,0:0:0:0:
384,192,141765,1,0,0:0:0:0:
298,192,141765,1,0,0:0:0:0:
128,192,141765,1,0,0:0:0:0:
298,192,141865,1,0,0:0:0:0:
213,192,141865,1,0,0:0:0:0:
469,192,141865,1,0,0:0:0:0:
42,192,141865,1,0,0:0:0:0:
42,192,141965,1,0,0:0:0:0:
384,192,141965,1,0,0:0:0:0:
213,192,142065,1,0,0:0:0:0:
128,192,142065,1,0,0:0:0:0:
384,192,142065,1,0,0:0:0:0:
469,192,142065,1,0,0:0:0:0:
298,192,142165,1,0,0:0:0:0:
42,192,142165,1,0,0:0:0:0:
213,192,142165,1,0,0:0:0:0:
42,192,142265,1,0,0:0:0:0:
469,192,142265,1,0,0:0:0:0:
384,192,142265,1,0,0:0:0:0:
128,192,142265,1,0,0:0:0:0:
213,192,142365,1,0,0:0:0:0:
469,192,142365,1,0,0:0:0:0:
384,192,142465,1,0,0:0:0:0:
298,192,142465,1,0,0:0:0:0:
128,192,142465,1,0,0:0:0:0:
42,192,142465,1,0,0:0:0:0:
128,192,142565,1,0,0:0:0:0:
213,192,142565,1,0,0:0:0:0:
384,192,142565,1,0,0:0:0:0:
298,192,142665,1,0,0:0:0:0:
213,192,142665,1,0,0:0:0:0:
42,192,142665,1,0,0:0:0:0:
469,192,142665,1,0,0:0:0:0:
298,192,142765,1,0,0:0:0:0:
42,192,142765,1,0,0:0:0:0:
213,192,142865,1,0,0:0:0:0:
128,192,142865,1,0,0:0:0:0:
469,192,142865,1,0,0:0:0:0:
384,192,142865,1,0,0:0:0:0:
213,192,142965,1,0,0:0:0:0:
384,192,142965,1,0,0:0:0:0:
469,192,142965,1,0,0:0:0:0:
298,192,143065,1,0,0:0:0:0:
469,192,143065,1,0,0:0:0:0:
128,192,143065,1,0,0:0:0:0:
42,192,143065,1,0,0:0:0:0:
42,192,143165,1,0,0:0:0:0:
298,192,143165,1,0,0:0:0:0:
213,192,143265,1,0,0:0:0:0:
128,192,143265,1,0,0:0:0:0:
384,192,143265,1,0,0:0:0:0:
469,192,143265,1,0,0:0:0:0:
298,192,143365,1,0,0:0:0:0:
128,192,143365,1,0,0:0:0:0:
42,192,143365,1,0,0:0:0:0:
213,192,143465,1,0,0:0:0:0:
298,192,143465,1,0,0:0:0:0:
384,192,143465,1,0,0:0:0:0:
469,192,143465,1,0,0:0:0:0:
384,192,143565,1,0,0:0:0:0:
128,192,143565,1,0,0:0:0:0:
42,192,143665,1,0,0:0:0:0:
213,192,143665,1,0,0:0:0:0:
298,192,143665,1,0,0:0:0:0:
128,192,143765,1,0,0:0:0:0:
384,192,143765,1,0,0:0:0:0:
469,192,143765,1,0,0:0:0:0:
42,192,143865,1,0,0:0:0:0:
128,192,143865,1,0,0:0:0:0:
213,192,143865,1,0,0:0:0:0:
298,192,143865,1,0,0:0:0:0:
213,192,143965,1,0,0:0:0:0:
384,192,143965,1,0,0:0:0:0:
298,192,144065,1,0,0:0:0:0:
384,192,144065,1,0,0:0:0:0:
469,192,144065,1,0,0:0:0:0:
42,192,144065,1,0,0:0:0:0:
128,192,144165,1,0,0:0:0:0:
298,192,144165,1,0,0:0:0:0:
42,192,144165,1,0,0:0:0:0:
384,192,144265,1,0,0:0:0:0:
213,192,144265,1,0,0:0:0:0:
469,192,144265,1,0,0:0:0:0:
128,192,144265,1,0,0:0:0:0:
213,192,144365,1,0,0:0:0:0:
469,192,144365,1,0,0:0:0:0:
384,192,144465,1,0,0:0:0:0:
298,192,144465,1,0,0:0:0:0:
128,192,144465,1,0,0:0:0:0:
42,192,144465,1,0,0:0:0:0:
128,192,144565,1,0,0:0:0:0:
384,192,144565,1,0,0:0:0:0:
213,192,144565,1,0,0:0:0:0:
298,192,144665,1,0,0:0:0:0:
213,192,144665,1,0,0:0:0:0:
42,192,144665,1,0,0:0:0:0:
469,192,144665,1,0,0:0:0:0:
298,192,144765,1,0,0:0:0:0:
42,192,144765,1,0,0:0:0:0:
128,192,144865,1,0,0:0:0:0:
384,192,144865,1,0,0:0:0:0:
469,192,144865,1,0,0:0:0:0:
298,192,144965,1,0,0:0:0:0:
213,192,144965,1,0,0:0:0:0:
384,192,144965,1,0,0:0:0:0:
213,192,145065,1,0,0:0:0:0:
128,192,145065,1,0,0:0:0:0:
42,192,145065,1,0,0:0:0:0:
469,192,145065,1,0,0:0:0:0:
128,192,145165,1,0,0:0:0:0:
42,192,145165,1,0,0:0:0:0:
213,192,145265,1,0,0:0:0:0:
298,192,145265,1,0,0:0:0:0:
384,192,145265,1,0,0:0:0:0:
469,192,145265,1,0,0:0:0:0:
128,192,145365,1,0,0:0:0:0:
384,192,145365,1,0,0:0:0:0:
469,192,145365,1,0,0:0:0:0:
298,192,145465,1,0,0:0:0:0:
213,192,145465,1,0,0:0:0:0:
42,192,145465,1,0,0:0:0:0:
128,192,145465,1,0,0:0:0:0:
213,192,145565,1,0,0:0:0:0:
128,192,145565,1,0,0:0:0:0:
42,192,145665,1,0,0:0:0:0:
298,192,145665,1,0,0:0:0:0:
384,192,145665,1,0,0:0:0:0:
469,192,145665,1,0,0:0:0:0:
298,192,145765,1,0,0:0:0:0:
384,192,145765,1,0,0:0:0:0:
213,192,145765,1,0,0:0:0:0:
213,192,145865,1,0,0:0:0:0:
298,192,145865,1,0,0:0:0:0:
469,192,145865,1,0,0:0:0:0:
42,192,145865,1,0,0:0:0:0:
128,192,145965,1,0,0:0:0:0:
384,192,145965,1,0,0:0:0:0:
298,192,146065,1,0,0:0:0:0:
213,192,146065,1,0,0:0:0:0:
469,192,146065,1,0,0:0:0:0:
42,192,146065,1,0,0:0:0:0:
128,192,146165,1,0,0:0:0:0:
213,192,146165,1,0,0:0:0:0:
384,192,146165,1,0,0:0:0:0:
298,192,146265,1,0,0:0:0:0:
469,192,146265,1,0,0:0:0:0:
42,192,146265,1,0,0:0:0:0:
128,192,146265,1,0,0:0:0:0:
213,192,146365,1,0,0:0:0:0:
469,192,146365,1,0,0:0:0:0:
128,192,146465,1,0,0:0:0:0:
42,192,146465,1,0,0:0:0:0:
384,192,146465,1,0,0:0:0:0:
213,192,146465,1,0,0:0:0:0:
298,192,146565,1,0,0:0:0:0:
384,192,146565,1,0,0:0:0:0:
469,192,146565,1,0,0:0:0:0:
384,192,146665,1,0,0:0:0:0:
469,192,146665,1,0,0:0:0:0:
213,192,146665,1,0,0:0:0:0:
42,192,146665,1,0,0:0:0:0:
298,192,146765,1,0,0:0:0:0:
42,192,146765,1,0,0:0:0:0:
128,192,146865,1,0,0:0:0:0:
213,192,146865,1,0,0:0:0:0:
469,192,146865,1,0,0:0:0:0:
384,192,146965,1,0,0:0:0:0:
128,192,146965,1,0,0:0:0:0:
42,192,146965,1,0,0:0:0:0:
213,192,147065,1,0,0:0:0:0:
298,192,147065,1,0,0:0:0:0:
469,192,147065,1,0,0:0:0:0:
42,192,147065,1,0,0:0:0:0:
128,192,147165,1,0,0:0:0:0:
213,192,147165,1,0,0:0:0:0:
298,192,147265,1,0,0:0:0:0:
384,192,147265,1,0,0:0:0:0:
469,192,147265,1,0,0:0:0:0:
42,192,147265,1,0,0:0:0:0:
469,192,147365,1,0,0:0:0:0:
213,192,147365,1,0,0:0:0:0:
384,192,147365,1,0,0:0:0:0:
298,192,147465,1,0,0:0:0:0:
213,192,147465,1,0,0:0:0:0:
42,192,147465,1,0,0:0:0:0:
128,192,147465,1,0,0:0:0:0:
128,192,147565,1,0,0:0:0:0:
384,192,147565,1,0,0:0:0:0:
213,192,147665,1,0,0:0:0:0:
298,192,147665,1,0,0:0:0:0:
384,192,147665,1,0,0:0:0:0:
469,192,147665,1,0,0:0:0:0:
298,192,147765,1,0,0:0:0:0:
42,192,147765,1,0,0:0:0:0:
213,192,147765,1,0,0:0:0:0:
128,192,147865,1,0,0:0:0:0:
42,192,147865,1,0,0:0:0:0:
384,192,147865,1,0,0:0:0:0:
469,192,147865,1,0,0:0:0:0:
469,192,147965,1,0,0:0:0:0:
213,192,147965,1,0,0:0:0:0:
298,192,148065,1,0,0:0:0:0:
128,192,148065,1,0,0:0:0:0:
42,192,148065,1,0,0:0:0:0:
128,192,148165,1,0,0:0:0:0:
213,192,148165,1,0,0:0:0:0:
384,192,148165,1,0,0:0:0:0:
213,192,148265,1,0,0:0:0:0:
298,192,148265,1,0,0:0:0:0:
42,192,148265,1,0,0:0:0:0:
469,192,148265,1,0,0:0:0:0:
469,192,148365,1,0,0:0:0:0:
128,192,148365,1,0,0:0:0:0:
298,192,148465,1,0,0:0:0:0:
384,192,148465,1,0,0:0:0:0:
128,192,148465,1,0,0:0:0:0:
42,192,148465,1,0,0:0:0:0:
213,192,148565,1,0,0:0:0:0:
469,192,148565,1,0,0:0:0:0:
298,192,148565,1,0,0:0:0:0:
469,192,148665,1,0,0:0:0:0:
42,192,148665,1,0,0:0:0:0:
128,192,148665,1,0,0:0:0:0:
384,192,148665,1,0,0:0:0:0:
298,192,148765,1,0,0:0:0:0:
42,192,148765,1,0,0:0:0:0:
128,192,148865,1,0,0:0:0:0:
213,192,148865,1,0,0:0:0:0:
384,192,148865,1,0,0:0:0:0:
469,192,148865,1,0,0:0:0:0:
384,192,148965,1,0,0:0:0:0:
298,192,148965,1,0,0:0:0:0:
128,192,148965,1,0,0:0:0:0:
213,192,149065,1,0,0:0:0:0:
298,192,149065,1,0,0:0:0:0:
469,192,149065,1,0,0:0:0:0:
42,192,149065,1,0,0:0:0:0:
213,192,149165,1,0,0:0:0:0:
469,192,149165,1,0,0:0:0:0:
298,192,149265,1,0,0:0:0:0:
384,192,149265,1,0,0:0:0:0:
42,192,149265,1,0,0:0:0:0:
128,192,149265,1,0,0:0:0:0:
298,192,149365,1,0,0:0:0:0:
128,192,149365,1,0,0:0:0:0:
42,192,149365,1,0,0:0:0:0:
213,192,149465,1,0,0:0:0:0:
42,192,149465,1,0,0:0:0:0:
384,192,149465,1,0,0:0:0:0:
469,192,149465,1,0,0:0:0:0:
469,192,149565,1,0,0:0:0:0:
213,192,149565,1,0,0:0:0:0:
298,192,149665,1,0,0:0:0:0:
384,192,149665,1,0,0:0:0:0:
128,192,149665,1,0,0:0:0:0:
42,192,149665,1,0,0:0:0:0:
213,192,149765,1,0,0:0:0:0:
384,192,149765,1,0,0:0:0:0:
469,192,149765,1,0,0:0:0:0:
298,192,149865,1,0,0:0:0:0:
213,192,149865,1,0,0:0:0:0:
128,192,149865,1,0,0:0:0:0:
42,192,149865,1,0,0:0:0:0:
128,192,149965,1,0,0:0:0:0:
384,192,149965,1,0,0:0:0:0:
469,192,150065,1,0,0:0:0:0:
298,192,150065,1,0,0:0:0:0:
213,192,150065,1,0,0:0:0:0:
384,192,150165,1,0,0:0:0:0:
128,192,150165,1,0,0:0:0:0:
42,192,150165,1,0,0:0:0:0:
469,192,150265,1,0,0:0:0:0:
384,192,150265,1,0,0:0:0:0:
298,192,150265,1,0,0:0:0:0:
213,192,150265,1,0,0:0:0:0:
298,192,150365,1,0,0:0:0:0:
128,192,150365,1,0,0:0:0:0:
213,192,150465,1,0,0:0:0:0:
128,192,150465,1,0,0:0:0:0:
42,192,150465,1,0,0:0:0:0:
469,192,150465,1,0,0:0:0:0:
384,192,150565,1,0,0:0:0:0:
213,192,150565,1,0,0:0:0:0:
469,192,150565,1,0,0:0:0:0:
128,192,150665,1,0,0:0:0:0:
298,192,150665,1,0,0:0:0:0:
42,192,150665,1,0,0:0:0:0:
384,192,150665,1,0,0:0:0:0:
298,192,150765,1,0,0:0:0:0:
42,192,150765,1,0,0:0:0:0:
128,192,150865,1,0,0:0:0:0:
213,192,150865,1,0,0:0:0:0:
384,192,150865,1,0,0:0:0:0:
469,192,150865,1,0,0:0:0:0:
384,192,150965,1,0,0:0:0:0:
128,192,150965,1,0,0:0:0:0:
298,192,150965,1,0,0:0:0:0:
213,192,151065,1,0,0:0:0:0:
298,192,151065,1,0,0:0:0:0:
469,192,151065,1,0,0:0:0:0:
42,192,151065,1,0,0:0:0:0:
213,192,151165,1,0,0:0:0:0:
469,192,151165,1,0,0:0:0:0:
384,192,151265,1,0,0:0:0:0:
128,192,151265,1,0,0:0:0:0:
42,192,151265,1,0,0:0:0:0:
213,192,151365,1,0,0:0:0:0:
298,192,151365,1,0,0:0:0:0:
128,192,151365,1,0,0:0:0:0:
298,192,151465,1,0,0:0:0:0:
384,192,151465,1,0,0:0:0:0:
469,192,151465,1,0,0:0:0:0:
42,192,151465,1,0,0:0:0:0:
384,192,151565,1,0,0:0:0:0:
469,192,151565,1,0,0:0:0:0:
298,192,151665,1,0,0:0:0:0:
213,192,151665,1,0,0:0:0:0:
128,192,151665,1,0,0:0:0:0:
42,192,151665,1,0,0:0:0:0:
384,192,151765,1,0,0:0:0:0:
128,192,151765,1,0,0:0:0:0:
42,192,151765,1,0,0:0:0:0:
213,192,151865,1,0,0:0:0:0:
298,192,151865,1,0,0:0:0:0:
469,192,151865,1,0,0:0:0:0:
384,192,151865,1,0,0:0:0:0:
298,192,151965,1,0,0:0:0:0:
384,192,151965,1,0,0:0:0:0:
469,192,152065,1,0,0:0:0:0:
213,192,152065,1,0,0:0:0:0:
128,192,152065,1,0,0:0:0:0:
42,192,152065,1,0,0:0:0:0:
213,192,152165,1,0,0:0:0:0:
42,192,152165,1,0,0:0:0:0:
298,192,152165,1,0,0:0:0:0:
384,192,152265,1,0,0:0:0:0:
128,192,152265,1,0,0:0:0:0:
128,192,154265,5,0,0:0:0:0:
384,192,154265,1,0,0:0:0:0:
128,192,156265,1,0,0:0:0:0:
384,192,156265,1,0,0:0:0:0:
128,192,158265,1,0,0:0:0:0:
384,192,158265,1,0,0:0:0:0:
298,192,158665,1,0,0:0:0:0:
384,192,158665,1,0,0:0:0:0:
469,192,158665,1,0,0:0:0:0:
42,192,158665,1,0,0:0:0:0:
213,192,158765,1,0,0:0:0:0:
469,192,158765,1,0,0:0:0:0:
42,192,158865,1,0,0:0:0:0:
298,192,158865,1,0,0:0:0:0:
128,192,158865,1,0,0:0:0:0:
128,192,158965,1,0,0:0:0:0:
42,192,158965,1,0,0:0:0:0:
384,192,158965,1,0,0:0:0:0:
213,192,159065,1,0,0:0:0:0:
298,192,159065,1,0,0:0:0:0:
469,192,159065,1,0,0:0:0:0:
42,192,159065,1,0,0:0:0:0:
298,192,159165,1,0,0:0:0:0:
469,192,159165,1,0,0:0:0:0:
384,192,159265,1,0,0:0:0:0:
213,192,159265,1,0,0:0:0:0:
128,192,159265,1,0,0:0:0:0:
42,192,159265,1,0,0:0:0:0:
128,192,159365,1,0,0:0:0:0:
213,192,159365,1,0,0:0:0:0:
298,192,159365,1,0,0:0:0:0:
384,192,159465,1,0,0:0:0:0:
469,192,159465,1,0,0:0:0:0:
213,192,159465,1,0,0:0:0:0:
42,192,159465,1,0,0:0:0:0:
469,192,159565,1,0,0:0:0:0:
384,192,159565,1,0,0:0:0:0:
128,192,159665,1,0,0:0:0:0:
42,192,159665,1,0,0:0:0:0:
298,192,159665,1,0,0:0:0:0:
128,192,159765,1,0,0:0:0:0:
42,192,159765,1,0,0:0:0:0:
384,192,159765,1,0,0:0:0:0:
213,192,159865,1,0,0:0:0:0:
469,192,159865,1,0,0:0:0:0:
42,192,159865,1,0,0:0:0:0:
298,192,159865,1,0,0:0:0:0:
298,192,159965,1,0,0:0:0:0:
469,192,159965,1,0,0:0:0:0:
384,192,160065,1,0,0:0:0:0:
128,192,160065,1,0,0:0:0:0:
42,192,160065,1,0,0:0:0:0:
213,192,160065,1,0,0:0:0:0:
298,192,160165,1,0,0:0:0:0:
213,192,160165,1,0,0:0:0:0:
128,192,160165,1,0,0:0:0:0:
213,192,160265,1,0,0:0:0:0:
42,192,160265,1,0,0:0:0:0:
384,192,160265,1,0,0:0:0:0:
469,192,160265,1,0,0:0:0:0:
298,192,160365,1,0,0:0:0:0:
384,192,160365,1,0,0:0:0:0:
298,192,160465,1,0,0:0:0:0:
213,192,160465,1,0,0:0:0:0:
469,192,160465,1,0,0:0:0:0:
384,192,160565,1,0,0:0:0:0:
128,192,160565,1,0,0:0:0:0:
213,192,160565,1,0,0:0:0:0:
298,192,160665,1,0,0:0:0:0:
469,192,160665,1,0,0:0:0:0:
128,192,160665,1,0,0:0:0:0:
42,192,160665,1,0,0:0:0:0:
384,192,160765,1,0,0:0:0:0:
469,192,160765,1,0,0:0:0:0:
298,192,160865,1,0,0:0:0:0:
384,192,160865,1,0,0:0:0:0:
213,192,160865,1,0,0:0:0:0:
128,192,160865,1,0,0:0:0:0:
128,192,160965,1,0,0:0:0:0:
42,192,160965,1,0,0:0:0:0:
213,192,160965,1,0,0:0:0:0:
298,192,161065,1,0,0:0:0:0:
384,192,161065,1,0,0:0:0:0:
469,192,161065,1,0,0:0:0:0:
42,192,161065,1,0,0:0:0:0:
213,192,161165,1,0,0:0:0:0:
298,192,161165,1,0,0:0:0:0:
213,192,161265,1,0,0:0:0:0:
128,192,161265,1,0,0:0:0:0:
469,192,161265,1,0,0:0:0:0:
384,192,161365,1,0,0:0:0:0:
128,192,161365,1,0,0:0:0:0:
42,192,161365,1,0,0:0:0:0:
213,192,161465,1,0,0:0:0:0:
298,192,161465,1,0,0:0:0:0:
469,192,161465,1,0,0:0:0:0:
42,192,161465,1,0,0:0:0:0:
298,192,161565,1,0,0:0:0:0:
384,192,161565,1,0,0:0:0:0:
384,192,161665,1,0,0:0:0:0:
469,192,161665,1,0,0:0:0:0:
128,192,161665,1,0,0:0:0:0:
42,192,161665,1,0,0:0:0:0:
128,192,161765,1,0,0:0:0:0:
213,192,161765,1,0,0:0:0:0:
42,192,161765,1,0,0:0:0:0:
298,192,161865,1,0,0:0:0:0:
384,192,161865,1,0,0:0:0:0:
469,192,161865,1,0,0:0:0:0:
213,192,161865,1,0,0:0:0:0:
384,192,161965,1,0,0:0:0:0:
469,192,161965,1,0,0:0:0:0:
42,192,162065,1,0,0:0:0:0:
298,192,162065,1,0,0:0:0:0:
213,192,162065,1,0,0:0:0:0:
213,192,162165,1,0,0:0:0:0:
128,192,162165,1,0,0:0:0:0:
384,192,162165,1,0,0:0:0:0:
128,192,162265,1,0,0:0:0:0:
298,192,162265,1,0,0:0:0:0:
469,192,162265,1,0,0:0:0:0:
42,192,162265,1,0,0:0:0:0:
298,192,162365,1,0,0:0:0:0:
469,192,162365,1,0,0:0:0:0:
384,192,162465,1,0,0:0:0:0:
213,192,162465,1,0,0:0:0:0:
128,192,162465,1,0,0:0:0:0:
42,192,162465,1,0,0:0:0:0:
128,192,162565,1,0,0:0:0:0:
213,192,162565,1,0,0:0:0:0:
298,192,162565,1,0,0:0:0:0:
384,192,162665,1,0,0:0:0:0:
469,192,162665,1,0,0:0:0:0:
213,192,162665,1,0,0:0:0:0:
42,192,162665,1,0,0:0:0:0:
469,192,162765,1,0,0:0:0:0:
384,192,162765,1,0,0:0:0:0:
128,192,162865,1,0,0:0:0:0:
42,192,162865,1,0,0:0:0:0:
298,192,162865,1,0,0:0:0:0:
128,192,162965,1,0,0:0:0:0:
213,192,162965,1,0,0:0:0:0:
384,192,162965,1,0,0:0:0:0:
213,192,163065,1,0,0:0:0:0:
469,192,163065,1,0,0:0:0:0:
42,192,163065,1,0,0:0:0:0:
298,192,163065,1,0,0:0:0:0:
298,192,163165,1,0,0:0:0:0:
469,192,163165,1,0,0:0:0:0:
384,192,163265,1,0,0:0:0:0:
128,192,163265,1,0,0:0:0:0:
42,192,163265,1,0,0:0:0:0:
213,192,163265,1,0,0:0:0:0:
298,192,163365,1,0,0:0:0:0:
213,192,163365,1,0,0:0:0:0:
128,192,163365,1,0,0:0:0:0:
213,192,163465,1,0,0:0:0:0:
42,192,163465,1,0,0:0:0:0:
384,192,163465,1,0,0:0:0:0:
469,192,163465,1,0,0:0:0:0:
298,192,163565,1,0,0:0:0:0:
384,192,163565,1,0,0:0:0:0:
298,192,163665,1,0,0:0:0:0:
213,192,163665,1,0,0:0:0:0:
469,192,163665,1,0,0:0:0:0:
384,192,163765,1,0,0:0:0:0:
128,192,163765,1,0,0:0:0:0:
213,192,163765,1,0,0:0:0:0:
298,192,163865,1,0,0:0:0:0:
469,192,163865,1,0,0:0:0:0:
128,192,163865,1,0,0:0:0:0:
42,192,163865,1,0,0:0:0:0:
384,192,163965,1,0,0:0:0:0:
469,192,163965,1,0,0:0:0:0:
298,192,164065,1,0,0:0:0:0:
384,192,164065,1,0,0:0:0:0:
213,192,164065,1,0,0:0:0:0:
42,192,164065,1,0,0:0:0:0:
128,192,164165,1,0,0:0:0:0:
42,192,164165,1,0,0:0:0:0:
213,192,164165,1,0,0:0:0:0:
298,192,164265,1,0,0:0:0:0:
384,192,164265,1,0,0:0:0:0:
469,192,164265,1,0,0:0:0:0:
42,192,164265,1,0,0:0:0:0:
213,192,164365,1,0,0:0:0:0:
298,192,164365,1,0,0:0:0:0:
213,192,164465,1,0,0:0:0:0:
128,192,164465,1,0,0:0:0:0:
469,192,164465,1,0,0:0:0:0:
384,192,164565,1,0,0:0:0:0:
128,192,164565,1,0,0:0:0:0:
42,192,164565,1,0,0:0:0:0:
213,192,164665,1,0,0:0:0:0:
298,192,164665,1,0,0:0:0:0:
469,192,164665,1,0,0:0:0:0:
42,192,164665,1,0,0:0:0:0:
298,192,164765,1,0,0:0:0:0:
384,192,164765,1,0,0:0:0:0:
384,192,164865,1,0,0:0:0:0:
469,192,164865,1,0,0:0:0:0:
128,192,164865,1,0,0:0:0:0:
42,192,164865,1,0,0:0:0:0:
128,192,164965,1,0,0:0:0:0:
213,192,164965,1,0,0:0:0:0:
298,192,164965,1,0,0:0:0:0:
213,192,165065,1,0,0:0:0:0:
384,192,165065,1,0,0:0:0:0:
469,192,165065,1,0,0:0:0:0:
42,192,165065,1,0,0:0:0:0:
384,192,165165,1,0,0:0:0:0:
469,192,165165,1,0,0:0:0:0:
298,192,165265,1,0,0:0:0:0:
213,192,165265,1,0,0:0:0:0:
128,192,165265,1,0,0:0:0:0:
42,192,165265,1,0,0:0:0:0:
384,192,165365,1,0,0:0:0:0:
128,192,165365,1,0,0:0:0:0:
213,192,165365,1,0,0:0:0:0:
298,192,165465,1,0,0:0:0:0:
128,192,165465,1,0,0:0:0:0:
42,192,165465,1,0,0:0:0:0:
213,192,165465,1,0,0:0:0:0:
469,192,165565,1,0,0:0:0:0:
42,192,165565,1,0,0:0:0:0:
384,192,165665,1,0,0:0:0:0:
298,192,165665,1,0,0:0:0:0:
128,192,165665,1,0,0:0:0:0:
469,192,165665,1,0,0:0:0:0:
298,192,165765,1,0,0:0:0:0:
384,192,165765,1,0,0:0:0:0:
213,192,165765,1,0,0:0:0:0:
298,192,165865,1,0,0:0:0:0:
384,192,165865,1,0,0:0:0:0:
42,192,165865,1,0,0:0:0:0:
469,192,165865,1,0,0:0:0:0:
213,192,165965,1,0,0:0:0:0:
42,192,165965,1,0,0:0:0:0:
128,192,166065,1,0,0:0:0:0:
384,192,166065,1,0,0:0:0:0:
469,192,166065,1,0,0:0:0:0:
384,192,166165,1,0,0:0:0:0:
213,192,166165,1,0,0:0:0:0:
128,192,166165,1,0,0:0:0:0:
213,192,166265,1,0,0:0:0:0:
298,192,166265,1,0,0:0:0:0:
469,192,166265,1,0,0:0:0:0:
42,192,166265,1,0,0:0:0:0:
128,192,166365,1,0,0:0:0:0:
384,192,166365,1,0,0:0:0:0:
213,192,166465,1,0,0:0:0:0:
298,192,166465,1,0,0:0:0:0:
469,192,166465,1,0,0:0:0:0:
42,192,166465,1,0,0:0:0:0:
298,192,166565,1,0,0:0:0:0:
384,192,166565,1,0,0:0:0:0:
128,192,166565,1,0,0:0:0:0:
469,192,166665,1,0,0:0:0:0:
213,192,166665,1,0,0:0:0:0:
42,192,166665,1,0,0:0:0:0:
384,192,166665,1,0,0:0:0:0:
213,192,166765,1,0,0:0:0:0:
469,192,166765,1,0,0:0:0:0:
298,192,166865,1,0,0:0:0:0:
128,192,166865,1,0,0:0:0:0:
42,192,166865,1,0,0:0:0:0:
128,192,166965,1,0,0:0:0:0:
213,192,166965,1,0,0:0:0:0:
384,192,166965,1,0,0:0:0:0:
213,192,167065,1,0,0:0:0:0:
298,192,167065,1,0,0:0:0:0:
469,192,167065,1,0,0:0:0:0:
42,192,167065,1,0,0:0:0:0:
384,192,167165,1,0,0:0:0:0:
128,192,167165,1,0,0:0:0:0:
213,192,167265,1,0,0:0:0:0:
298,192,167265,1,0,0:0:0:0:
469,192,167265,1,0,0:0:0:0:
42,192,167265,1,0,0:0:0:0:
213,192,167365,1,0,0:0:0:0:
128,192,167365,1,0,0:0:0:0:
384,192,167365,1,0,0:0:0:0:
298,192,167465,1,0,0:0:0:0:
469,192,167465,1,0,0:0:0:0:
128,192,167465,1,0,0:0:0:0:
42,192,167465,1,0,0:0:0:0:
298,192,167565,1,0,0:0:0:0:
42,192,167565,1,0,0:0:0:0:
213,192,167665,1,0,0:0:0:0:
384,192,167665,1,0,0:0:0:0:
469,192,167665,1,0,0:0:0:0:
298,192,167765,1,0,0:0:0:0:
128,192,167765,1,0,0:0:0:0:
384,192,167765,1,0,0:0:0:0:
213,192,167865,1,0,0:0:0:0:
298,192,167865,1,0,0:0:0:0:
469,192,167865,1,0,0:0:0:0:
42,192,167865,1,0,0:0:0:0:
128,192,167965,1,0,0:0:0:0:
384,192,167965,1,0,0:0:0:0:
213,192,168065,1,0,0:0:0:0:
298,192,168065,1,0,0:0:0:0:
469,192,168065,1,0,0:0:0:0:
42,192,168065,1,0,0:0:0:0:
213,192,168165,1,0,0:0:0:0:
298,192,168165,1,0,0:0:0:0:
469,192,168165,1,0,0:0:0:0:
384,192,168265,1,0,0:0:0:0:
128,192,168265,1,0,0:0:0:0:
42,192,168265,1,0,0:0:0:0:
469,192,168265,1,0,0:0:0:0:
213,192,168365,1,0,0:0:0:0:
128,192,168365,1,0,0:0:0:0:
213,192,168465,1,0,0:0:0:0:
298,192,168465,1,0,0:0:0:0:
384,192,168465,1,0,0:0:0:0:
469,192,168465,1,0,0:0:0:0:
384,192,168565,1,0,0:0:0:0:
469,192,168565,1,0,0:0:0:0:
42,192,168565,1,0,0:0:0:0:
213,192,168665,1,0,0:0:0:0:
384,192,168665,1,0,0:0:0:0:
469,192,168665,1,0,0:0:0:0:
128,192,168665,1,0,0:0:0:0:
213,192,168765,1,0,0:0:0:0:
298,192,168765,1,0,0:0:0:0:
128,192,168865,1,0,0:0:0:0:
42,192,168865,1,0,0:0:0:0:
298,192,168865,1,0,0:0:0:0:
384,192,168865,1,0,0:0:0:0:
128,192,168965,1,0,0:0:0:0:
42,192,168965,1,0,0:0:0:0:
469,192,168965,1,0,0:0:0:0:
128,192,169065,1,0,0:0:0:0:
42,192,169065,1,0,0:0:0:0:
298,192,169065,1,0,0:0:0:0:
213,192,169065,1,0,0:0:0:0:
213,192,169165,1,0,0:0:0:0:
469,192,169165,1,0,0:0:0:0:
298,192,169265,1,0,0:0:0:0:
128,192,169265,1,0,0:0:0:0:
42,192,169265,1,0,0:0:0:0:
384,192,169365,1,0,0:0:0:0:
128,192,169365,1,0,0:0:0:0:
213,192,169365,1,0,0:0:0:0:
213,192,169465,1,0,0:0:0:0:
298,192,169465,1,0,0:0:0:0:
469,192,169465,1,0,0:0:0:0:
42,192,169465,1,0,0:0:0:0:
384,192,169565,1,0,0:0:0:0:
128,192,169565,1,0,0:0:0:0:
213,192,169665,1,0,0:0:0:0:
298,192,169665,1,0,0:0:0:0:
469,192,169665,1,0,0:0:0:0:
42,192,169665,1,0,0:0:0:0:
298,192,169765,1,0,0:0:0:0:
384,192,169765,1,0,0:0:0:0:
128,192,169765,1,0,0:0:0:0:
213,192,169865,1,0,0:0:0:0:
384,192,169865,1,0,0:0:0:0:
469,192,169865,1,0,0:0:0:0:
42,192,169865,1,0,0:0:0:0:
128,192,169965,1,0,0:0:0:0:
298,192,169965,1,0,0:0:0:0:
384,192,170065,1,0,0:0:0:0:
469,192,170065,1,0,0:0:0:0:
298,192,170065,1,0,0:0:0:0:
42,192,170165,1,0,0:0:0:0:
128,192,170165,1,0,0:0:0:0:
213,192,170165,1,0,0:0:0:0:
384,192,170265,1,0,0:0:0:0:
298,192,170265,1,0,0:0:0:0:
469,192,170265,1,0,0:0:0:0:
42,192,170265,1,0,0:0:0:0:
384,192,170365,1,0,0:0:0:0:
128,192,170365,1,0,0:0:0:0:
213,192,170465,1,0,0:0:0:0:
128,192,170465,1,0,0:0:0:0:
42,192,170465,1,0,0:0:0:0:
469,192,170465,1,0,0:0:0:0:
298,192,170565,1,0,0:0:0:0:
384,192,170565,1,0,0:0:0:0:
469,192,170565,1,0,0:0:0:0:
469,192,170665,1,0,0:0:0:0:
213,192,170665,1,0,0:0:0:0:
128,192,170665,1,0,0:0:0:0:
42,192,170665,1,0,0:0:0:0:
384,192,170765,1,0,0:0:0:0:
128,192,170765,1,0,0:0:0:0:
213,192,170865,1,0,0:0:0:0:
128,192,170865,1,0,0:0:0:0:
42,192,170865,1,0,0:0:0:0:
298,192,170965,1,0,0:0:0:0:
384,192,170965,1,0,0:0:0:0:
469,192,170965,1,0,0:0:0:0:
213,192,171065,1,0,0:0:0:0:
128,192,171065,1,0,0:0:0:0:
42,192,171065,1,0,0:0:0:0:
469,192,171065,1,0,0:0:0:0:
384,192,171165,1,0,0:0:0:0:
128,192,171165,1,0,0:0:0:0:
298,192,171265,1,0,0:0:0:0:
384,192,171265,1,0,0:0:0:0:
469,192,171265,1,0,0:0:0:0:
42,192,171265,1,0,0:0:0:0:
213,192,171365,1,0,0:0:0:0:
128,192,171365,1,0,0:0:0:0:
42,192,171365,1,0,0:0:0:0:
128,192,171465,1,0,0:0:0:0:
384,192,171465,1,0,0:0:0:0:
128,192,173465,1,0,0:0:0:0:
384,192,173465,1,0,0:0:0:0:
128,192,175465,1,0,0:0:0:0:
384,192,175465,1,0,0:0:0:0:
128,192,177465,1,0,0:0:0:0:
384,192,177465,1,0,0:0:0:0:
298,192,177865,1,0,0:0:0:0:
384,192,177865,1,0,0:0:0:0:
469,192,177865,1,0,0:0:0:0:
42,192,177865,1,0,0:0:0:0:
213,192,177965,1,0,0:0:0:0:
384,192,177965,1,0,0:0:0:0:
42,192,178065,1,0,0:0:0:0:
298,192,178065,1,0,0:0:0:0:
128,192,178065,1,0,0:0:0:0:
128,192,178165,1,0,0:0:0:0:
42,192,178165,1,0,0:0:0:0:
384,192,178165,1,0,0:0:0:0:
213,192,178265,1,0,0:0:0:0:
298,192,178265,1,0,0:0:0:0:
469,192,178265,1,0,0:0:0:0:
42,192,178265,1,0,0:0:0:0:
298,192,178365,1,0,0:0:0:0:
469,192,178365,1,0,0:0:0:0:
384,192,178465,1,0,0:0:0:0:
213,192,178465,1,0,0:0:0:0:
128,192,178465,1,0,0:0:0:0:
42,192,178465,1,0,0:0:0:0:
42,192,178565,1,0,0:0:0:0:
213,192,178565,1,0,0:0:0:0:
298,192,178565,1,0,0:0:0:0:
384,192,178665,1,0,0:0:0:0:
469,192,178665,1,0,0:0:0:0:
213,192,178665,1,0,0:0:0:0:
128,192,178665,1,0,0:0:0:0:
469,192,178765,1,0,0:0:0:0:
384,192,178765,1,0,0:0:0:0:
128,192,178865,1,0,0:0:0:0:
42,192,178865,1,0,0:0:0:0:
298,192,178865,1,0,0:0:0:0:
128,192,178965,1,0,0:0:0:0:
42,192,178965,1,0,0:0:0:0:
384,192,178965,1,0,0:0:0:0:
213,192,179065,1,0,0:0:0:0:
469,192,179065,1,0,0:0:0:0:
42,192,179065,1,0,0:0:0:0:
298,192,179065,1,0,0:0:0:0:
298,192,179165,1,0,0:0:0:0:
469,192,179165,1,0,0:0:0:0:
384,192,179265,1,0,0:0:0:0:
128,192,179265,1,0,0:0:0:0:
42,192,179265,1,0,0:0:0:0:
213,192,179265,1,0,0:0:0:0:
298,192,179365,1,0,0:0:0:0:
213,192,179365,1,0,0:0:0:0:
42,192,179365,1,0,0:0:0:0:
213,192,179465,1,0,0:0:0:0:
128,192,179465,1,0,0:0:0:0:
384,192,179465,1,0,0:0:0:0:
469,192,179465,1,0,0:0:0:0:
298,192,179565,1,0,0:0:0:0:
384,192,179565,1,0,0:0:0:0:
298,192,179665,1,0,0:0:0:0:
213,192,179665,1,0,0:0:0:0:
469,192,179665,1,0,0:0:0:0:
384,192,179765,1,0,0:0:0:0:
128,192,179765,1,0,0:0:0:0:
213,192,179765,1,0,0:0:0:0:
298,192,179865,1,0,0:0:0:0:
469,192,179865,1,0,0:0:0:0:
128,192,179865,1,0,0:0:0:0:
42,192,179865,1,0,0:0:0:0:
384,192,179965,1,0,0:0:0:0:
469,192,179965,1,0,0:0:0:0:
298,192,180065,1,0,0:0:0:0:
384,192,180065,1,0,0:0:0:0:
213,192,180065,1,0,0:0:0:0:
128,192,180065,1,0,0:0:0:0:
128,192,180165,1,0,0:0:0:0:
42,192,180165,1,0,0:0:0:0:
469,192,180165,1,0,0:0:0:0:
298,192,180265,1,0,0:0:0:0:
384,192,180265,1,0,0:0:0:0:
469,192,180265,1,0,0:0:0:0:
42,192,180265,1,0,0:0:0:0:
213,192,180365,1,0,0:0:0:0:
298,192,180365,1,0,0:0:0:0:
213,192,180465,1,0,0:0:0:0:
128,192,180465,1,0,0:0:0:0:
469,192,180465,1,0,0:0:0:0:
384,192,180565,1,0,0:0:0:0:
128,192,180565,1,0,0:0:0:0:
42,192,180565,1,0,0:0:0:0:
213,192,180665,1,0,0:0:0:0:
298,192,180665,1,0,0:0:0:0:
469,192,180665,1,0,0:0:0:0:
42,192,180665,1,0,0:0:0:0:
298,192,180765,1,0,0:0:0:0:
384,192,180765,1,0,0:0:0:0:
384,192,180865,1,0,0:0:0:0:
469,192,180865,1,0,0:0:0:0:
128,192,180865,1,0,0:0:0:0:
42,192,180865,1,0,0:0:0:0:
213,192,180965,1,0,0:0:0:0:
298,192,180965,1,0,0:0:0:0:
42,192,180965,1,0,0:0:0:0:
298,192,181065,1,0,0:0:0:0:
384,192,181065,1,0,0:0:0:0:
469,192,181065,1,0,0:0:0:0:
128,192,181065,1,0,0:0:0:0:
384,192,181165,1,0,0:0:0:0:
469,192,181165,1,0,0:0:0:0:
42,192,181265,1,0,0:0:0:0:
298,192,181265,1,0,0:0:0:0:
213,192,181265,1,0,0:0:0:0:
213,192,181365,1,0,0:0:0:0:
128,192,181365,1,0,0:0:0:0:
384,192,181365,1,0,0:0:0:0:
128,192,181465,1,0,0:0:0:0:
298,192,181465,1,0,0:0:0:0:
469,192,181465,1,0,0:0:0:0:
42,192,181465,1,0,0:0:0:0:
298,192,181565,1,0,0:0:0:0:
469,192,181565,1,0,0:0:0:0:
384,192,181665,1,0,0:0:0:0:
213,192,181665,1,0,0:0:0:0:
128,192,181665,1,0,0:0:0:0:
42,192,181665,1,0,0:0:0:0:
42,192,181765,1,0,0:0:0:0:
213,192,181765,1,0,0:0:0:0:
298,192,181765,1,0,0:0:0:0:
384,192,181865,1,0,0:0:0:0:
469,192,181865,1,0,0:0:0:0:
128,192,181865,1,0,0:0:0:0:
42,192,181865,1,0,0:0:0:0:
469,192,181965,1,0,0:0:0:0:
384,192,181965,1,0,0:0:0:0:
128,192,182065,1,0,0:0:0:0:
42,192,182065,1,0,0:0:0:0:
298,192,182065,1,0,0:0:0:0:
128,192,182165,1,0,0:0:0:0:
213,192,182165,1,0,0:0:0:0:
384,192,182165,1,0,0:0:0:0:
213,192,182265,1,0,0:0:0:0:
469,192,182265,1,0,0:0:0:0:
42,192,182265,1,0,0:0:0:0:
298,192,182265,1,0,0:0:0:0:
298,192,182365,1,0,0:0:0:0:
469,192,182365,1,0,0:0:0:0:
384,192,182465,1,0,0:0:0:0:
128,192,182465,1,0,0:0:0:0:
42,192,182465,1,0,0:0:0:0:
213,192,182465,1,0,0:0:0:0:
298,192,182565,1,0,0:0:0:0:
213,192,182565,1,0,0:0:0:0:
42,192,182565,1,0,0:0:0:0:
128,192,182665,1,0,0:0:0:0:
42,192,182665,1,0,0:0:0:0:
384,192,182665,1,0,0:0:0:0:
469,192,182665,1,0,0:0:0:0:
298,192,182765,1,0,0:0:0:0:
384,192,182765,1,0,0:0:0:0:
298,192,182865,1,0,0:0:0:0:
213,192,182865,1,0,0:0:0:0:
469,192,182865,1,0,0:0:0:0:
384,192,182965,1,0,0:0:0:0:
128,192,182965,1,0,0:0:0:0:
213,192,182965,1,0,0:0:0:0:
298,192,183065,1,0,0:0:0:0:
469,192,183065,1,0,0:0:0:0:
128,192,183065,1,0,0:0:0:0:
42,192,183065,1,0,0:0:0:0:
384,192,183165,1,0,0:0:0:0:
469,192,183165,1,0,0:0:0:0:
298,192,183265,1,0,0:0:0:0:
384,192,183265,1,0,0:0:0:0:
213,192,183265,1,0,0:0:0:0:
42,192,183265,1,0,0:0:0:0:
213,192,183365,1,0,0:0:0:0:
128,192,183365,1,0,0:0:0:0:
469,192,183365,1,0,0:0:0:0:
128,192,183465,1,0,0:0:0:0:
384,192,183465,1,0,0:0:0:0:
469,192,183465,1,0,0:0:0:0:
42,192,183465,1,0,0:0:0:0:
213,192,183565,1,0,0:0:0:0:
298,192,183565,1,0,0:0:0:0:
213,192,183665,1,0,0:0:0:0:
128,192,183665,1,0,0:0:0:0:
469,192,183665,1,0,0:0:0:0:
384,192,183765,1,0,0:0:0:0:
128,192,183765,1,0,0:0:0:0:
42,192,183765,1,0,0:0:0:0:
213,192,183865,1,0,0:0:0:0:
298,192,183865,1,0,0:0:0:0:
469,192,183865,1,0,0:0:0:0:
42,192,183865,1,0,0:0:0:0:
298,192,183965,1,0,0:0:0:0:
384,192,183965,1,0,0:0:0:0:
384,192,184065,1,0,0:0:0:0:
469,192,184065,1,0,0:0:0:0:
128,192,184065,1,0,0:0:0:0:
42,192,184065,1,0,0:0:0:0:
42,192,184165,1,0,0:0:0:0:
213,192,184165,1,0,0:0:0:0:
298,192,184165,1,0,0:0:0:0:
128,192,184265,1,0,0:0:0:0:
298,192,184265,1,0,0:0:0:0:
384,192,184265,1,0,0:0:0:0:
469,192,184265,1,0,0:0:0:0:
213,192,184365,1,0,0:0:0:0:
384,192,184365,1,0,0:0:0:0:
298,192,184465,1,0,0:0:0:0:
128,192,184465,1,0,0:0:0:0:
42,192,184465,1,0,0:0:0:0:
128,192,184565,1,0,0:0:0:0:
42,192,184565,1,0,0:0:0:0:
384,192,184565,1,0,0:0:0:0:
298,192,184665,1,0,0:0:0:0:
213,192,184665,1,0,0:0:0:0:
384,192,184665,1,0,0:0:0:0:
469,192,184665,1,0,0:0:0:0:
298,192,184765,1,0,0:0:0:0:
42,192,184765,1,0,0:0:0:0:
128,192,184865,1,0,0:0:0:0:
384,192,184865,1,0,0:0:0:0:
469,192,184865,1,0,0:0:0:0:
213,192,184865,1,0,0:0:0:0:
298,192,184965,1,0,0:0:0:0:
469,192,184965,1,0,0:0:0:0:
42,192,184965,1,0,0:0:0:0:
298,192,185065,1,0,0:0:0:0:
128,192,185065,1,0,0:0:0:0:
384,192,185065,1,0,0:0:0:0:
42,192,185065,1,0,0:0:0:0:
213,192,185165,1,0,0:0:0:0:
469,192,185165,1,0,0:0:0:0:
384,192,185265,1,0,0:0:0:0:
298,192,185265,1,0,0:0:0:0:
42,192,185265,1,0,0:0:0:0:
128,192,185365,1,0,0:0:0:0:
298,192,185365,1,0,0:0:0:0:
213,192,185365,1,0,0:0:0:0:
128,192,185465,1,0,0:0:0:0:
42,192,185465,1,0,0:0:0:0:
384,192,185465,1,0,0:0:0:0:
469,192,185465,1,0,0:0:0:0:
213,192,185565,1,0,0:0:0:0:
469,192,185565,1,0,0:0:0:0:
384,192,185665,1,0,0:0:0:0:
298,192,185665,1,0,0:0:0:0:
128,192,185665,1,0,0:0:0:0:
42,192,185665,1,0,0:0:0:0:
42,192,185765,1,0,0:0:0:0:
213,192,185765,1,0,0:0:0:0:
298,192,185765,1,0,0:0:0:0:
213,192,185865,1,0,0:0:0:0:
128,192,185865,1,0,0:0:0:0:
384,192,185865,1,0,0:0:0:0:
469,192,185865,1,0,0:0:0:0:
42,192,185965,1,0,0:0:0:0:
384,192,185965,1,0,0:0:0:0:
298,192,186065,1,0,0:0:0:0:
213,192,186065,1,0,0:0:0:0:
469,192,186065,1,0,0:0:0:0:
384,192,186165,1,0,0:0:0:0:
128,192,186165,1,0,0:0:0:0:
42,192,186165,1,0,0:0:0:0:
213,192,186265,1,0,0:0:0:0:
42,192,186265,1,0,0:0:0:0:
298,192,186265,1,0,0:0:0:0:
469,192,186265,1,0,0:0:0:0:
128,192,186365,1,0,0:0:0:0:
469,192,186365,1,0,0:0:0:0:
384,192,186465,1,0,0:0:0:0:
298,192,186465,1,0,0:0:0:0:
213,192,186465,1,0,0:0:0:0:
469,192,186465,1,0,0:0:0:0:
128,192,186565,1,0,0:0:0:0:
42,192,186565,1,0,0:0:0:0:
298,192,186565,1,0,0:0:0:0:
298,192,186665,1,0,0:0:0:0:
469,192,186665,1,0,0:0:0:0:
384,192,186665,1,0,0:0:0:0:
42,192,186665,1,0,0:0:0:0:
128,192,186765,1,0,0:0:0:0:
384,192,186765,1,0,0:0:0:0:
298,192,186865,1,0,0:0:0:0:
213,192,186865,1,0,0:0:0:0:
469,192,186865,1,0,0:0:0:0:
298,192,186965,1,0,0:0:0:0:
213,192,186965,1,0,0:0:0:0:
42,192,186965,1,0,0:0:0:0:
128,192,187065,1,0,0:0:0:0:
42,192,187065,1,0,0:0:0:0:
384,192,187065,1,0,0:0:0:0:
469,192,187065,1,0,0:0:0:0:
213,192,187165,1,0,0:0:0:0:
469,192,187165,1,0,0:0:0:0:
384,192,187265,1,0,0:0:0:0:
213,192,187265,1,0,0:0:0:0:
42,192,187265,1,0,0:0:0:0:
298,192,187265,1,0,0:0:0:0:
128,192,187365,1,0,0:0:0:0:
384,192,187365,1,0,0:0:0:0:
469,192,187365,1,0,0:0:0:0:
298,192,187465,1,0,0:0:0:0:
213,192,187465,1,0,0:0:0:0:
42,192,187465,1,0,0:0:0:0:
469,192,187465,1,0,0:0:0:0:
298,192,187565,1,0,0:0:0:0:
128,192,187565,1,0,0:0:0:0:
213,192,187665,1,0,0:0:0:0:
384,192,187665,1,0,0:0:0:0:
469,192,187665,1,0,0:0:0:0:
384,192,187765,1,0,0:0:0:0:
469,192,187765,1,0,0:0:0:0:
128,192,187765,1,0,0:0:0:0:
213,192,187865,1,0,0:0:0:0:
298,192,187865,1,0,0:0:0:0:
128,192,187865,1,0,0:0:0:0:
42,192,187865,1,0,0:0:0:0:
213,192,187965,1,0,0:0:0:0:
469,192,187965,1,0,0:0:0:0:
384,192,188065,1,0,0:0:0:0:
128,192,188065,1,0,0:0:0:0:
42,192,188065,1,0,0:0:0:0:
298,192,188065,1,0,0:0:0:0:
213,192,188165,1,0,0:0:0:0:
42,192,188165,1,0,0:0:0:0:
469,192,188165,1,0,0:0:0:0:
213,192,188265,1,0,0:0:0:0:
384,192,188265,1,0,0:0:0:0:
128,192,188265,1,0,0:0:0:0:
469,192,188265,1,0,0:0:0:0:
298,192,188365,1,0,0:0:0:0:
42,192,188365,1,0,0:0:0:0:
128,192,188465,1,0,0:0:0:0:
213,192,188465,1,0,0:0:0:0:
469,192,188465,1,0,0:0:0:0:
384,192,188565,1,0,0:0:0:0:
213,192,188565,1,0,0:0:0:0:
298,192,188565,1,0,0:0:0:0:
384,192,188665,1,0,0:0:0:0:
469,192,188665,1,0,0:0:0:0:
128,192,188665,1,0,0:0:0:0:
42,192,188665,1,0,0:0:0:0:
298,192,188765,1,0,0:0:0:0:
42,192,188765,1,0,0:0:0:0:
128,192,188865,1,0,0:0:0:0:
213,192,188865,1,0,0:0:0:0:
384,192,188865,1,0,0:0:0:0:
469,192,188865,1,0,0:0:0:0:
469,192,188965,1,0,0:0:0:0:
298,192,188965,1,0,0:0:0:0:
213,192,188965,1,0,0:0:0:0:
298,192,189065,1,0,0:0:0:0:
384,192,189065,1,0,0:0:0:0:
128,192,189065,1,0,0:0:0:0:
42,192,189065,1,0,0:0:0:0:
469,192,189165,1,0,0:0:0:0:
128,192,189165,1,0,0:0:0:0:
213,192,189265,1,0,0:0:0:0:
298,192,189265,1,0,0:0:0:0:
42,192,189265,1,0,0:0:0:0:
128,192,189365,1,0,0:0:0:0:
384,192,189365,1,0,0:0:0:0:
469,192,189365,1,0,0:0:0:0:
298,192,189465,1,0,0:0:0:0:
469,192,189465,1,0,0:0:0:0:
213,192,189465,1,0,0:0:0:0:
42,192,189465,1,0,0:0:0:0:
384,192,189565,1,0,0:0:0:0:
42,192,189565,1,0,0:0:0:0:
128,192,189665,1,0,0:0:0:0:
213,192,189665,1,0,0:0:0:0:
298,192,189665,1,0,0:0:0:0:
42,192,189665,1,0,0:0:0:0:
384,192,189765,1,0,0:0:0:0:
469,192,189765,1,0,0:0:0:0:
213,192,189765,1,0,0:0:0:0:
42,192,189865,1,0,0:0:0:0:
128,192,189865,1,0,0:0:0:0:
469,192,189865,1,0,0:0:0:0:
298,192,189865,1,0,0:0:0:0:
384,192,189965,1,0,0:0:0:0:
128,192,189965,1,0,0:0:0:0:
213,192,190065,1,0,0:0:0:0:
298,192,190065,1,0,0:0:0:0:
42,192,190065,1,0,0:0:0:0:
213,192,190165,1,0,0:0:0:0:
298,192,190165,1,0,0:0:0:0:
469,192,190165,1,0,0:0:0:0:
384,192,190265,1,0,0:0:0:0:
469,192,190265,1,0,0:0:0:0:
128,192,190265,1,0,0:0:0:0:
42,192,190265,1,0,0:0:0:0:
42,192,190365,1,0,0:0:0:0:
213,192,190365,1,0,0:0:0:0:
128,192,190465,1,0,0:0:0:0:
298,192,190465,1,0,0:0:0:0:
469,192,190465,1,0,0:0:0:0:
213,192,190465,1,0,0:0:0:0:
42,192,190565,1,0,0:0:0:0:
298,192,190565,1,0,0:0:0:0:
469,192,190565,1,0,0:0:0:0:
128,192,190665,1,0,0:0:0:0:
384,192,190665,1,0,0:0:0:0:
128,192,192665,1,0,0:0:0:0:
384,192,192665,1,0,0:0:0:0:
128,192,194665,1,0,0:0:0:0:
384,192,194665,1,0,0:0:0:0:
128,192,196665,1,0,0:0:0:0:
384,192,196665,1,0,0:0:0:0:
