osu file format v14

[General]
AudioFilename: Ops Code -Rapture-_7.mp3
AudioLeadIn: 0
PreviewTime: 69102
Countdown: 0
SampleSet: Normal
StackLeniency: 0.7
Mode: 3
LetterboxInBreaks: 0
SpecialStyle: 0
WidescreenStoryboard: 0

[Editor]
Bookmarks: 11256,21102,30948,40794,70333
DistanceSpacing: 0.8
BeatDivisor: 4
GridSize: 32
TimelineZoom: 2.4

[Metadata]
Title:tyrcs' 6K Collection Pack
TitleUnicode:tyrcs' 6K Collection Pack
Artist:Various Artists
ArtistUnicode:Various Artists
Creator:tyrcs
Version:Getty vs. DJ DiA - Ops:Code -Rapture- [23]
Source:
Tags:BMS The Quick Brown Fox Break TQBF renard LeaF 失望Choco Shitsubou Choco goreshit slavik goblins Aitsuki Nakuru 藍月なくる Monochrome Butterfly 現実をカットアップしてみた yu^ta Genjitsu o Cut-up Shite Mita -45 Aci-L A c i - L Yoshikawa-45 cornandbeans {Blaze} 八大地獄邪魂転生狂葬散火歌 さかみりと Sakamirito Hachidaijigoku Jakontensei Kyousou Sanbika Sakamiya 一之瀬りと Rito Ichinose かめりあ feat. ななひら ベィスドロップ・フリークス Camellia feat. Nanahira Bassdrop Freaks DEAF KEV Invincible ueotan Mario Paint (Time Regression Mix for BMS) Oerba Tanaka Vanilla Y ヲルバ=田中・ヴァニラ Schwerkraft ROKINA ロキナ Silentroom Nhelv SHAGAN DAISHI KAKU P-MODEL 遮眼大師 核P-MODEL 平沢進 Susumu Hirasawa ああああ AAAA lifework LUZE LuzeriA ルゼ katagiri ch3rry cherry かたぎり Laur Sheriruth (Laur Remix) Team Grimoire vs. Laur Grievous Lady Getty vs. DJ DiA Ops Code Rapture Vicetone & Tony Igy Astronomia (Camellia Remix) Coffin Dance かめりあ Fastest Crash Cut Tatsh reunion Asymmetry Reol アシンメトリー れをる
BeatmapID:3507115
BeatmapSetID:1716337

[Difficulty]
HPDrainRate:8
CircleSize:6
OverallDifficulty:8
ApproachRate:5
SliderMultiplier:1.4
SliderTickRate:1

[Events]
//Background and Video events
0,0,"tyrcs' 6K Collection Pack_6.jpg",0,0
//Break Periods
//Storyboard Layer 0 (Background)
//Storyboard Layer 1 (Fail)
//Storyboard Layer 2 (Pass)
//Storyboard Layer 3 (Foreground)
//Storyboard Layer 4 (Overlay)
//Storyboard Sound Samples

[TimingPoints]
1410,307.692307692308,4,1,0,5,1,0

[HitObjects]
128,192,1410,5,0,0:0:0:0:
42,192,1410,1,0,0:0:0:0:
469,192,1410,1,0,0:0:0:0:
298,192,1410,1,0,0:0:0:0:
128,192,1563,1,0,0:0:0:0:
384,192,1563,1,0,0:0:0:0:
384,192,1640,1,0,0:0:0:0:
42,192,1717,1,0,0:0:0:0:
128,192,1717,1,0,0:0:0:0:
128,192,1871,1,0,0:0:0:0:
469,192,1871,1,0,0:0:0:0:
298,192,2025,1,0,0:0:0:0:
42,192,2025,1,0,0:0:0:0:
298,192,2179,1,0,0:0:0:0:
469,192,2179,1,0,0:0:0:0:
42,192,2333,1,0,0:0:0:0:
298,192,2333,1,0,0:0:0:0:
213,192,2486,1,0,0:0:0:0:
469,192,2486,1,0,0:0:0:0:
384,192,2640,1,0,0:0:0:0:
42,192,2640,1,0,0:0:0:0:
128,192,2794,1,0,0:0:0:0:
469,192,2794,1,0,0:0:0:0:
298,192,2871,1,0,0:0:0:0:
298,192,2948,1,0,0:0:0:0:
42,192,2948,1,0,0:0:0:0:
213,192,2948,1,0,0:0:0:0:
469,192,3102,1,0,0:0:0:0:
128,192,3179,1,0,0:0:0:0:
298,192,3256,1,0,0:0:0:0:
384,192,3256,1,0,0:0:0:0:
42,192,3410,1,0,0:0:0:0:
384,192,3410,1,0,0:0:0:0:
469,192,3563,1,0,0:0:0:0:
298,192,3563,1,0,0:0:0:0:
213,192,3563,1,0,0:0:0:0:
213,192,3717,1,0,0:0:0:0:
42,192,3871,1,0,0:0:0:0:
384,192,3871,1,0,0:0:0:0:
469,192,4025,1,0,0:0:0:0:
213,192,4025,1,0,0:0:0:0:
128,192,4102,1,0,0:0:0:0:
128,192,4179,1,0,0:0:0:0:
42,192,4179,1,0,0:0:0:0:
298,192,4179,1,0,0:0:0:0:
384,192,4333,1,0,0:0:0:0:
213,192,4333,1,0,0:0:0:0:
298,192,4486,1,0,0:0:0:0:
469,192,4486,1,0,0:0:0:0:
42,192,4486,1,0,0:0:0:0:
128,192,4640,1,0,0:0:0:0:
298,192,4640,1,0,0:0:0:0:
213,192,4794,1,0,0:0:0:0:
384,192,4794,1,0,0:0:0:0:
213,192,4948,1,0,0:0:0:0:
469,192,4948,1,0,0:0:0:0:
298,192,5102,1,0,0:0:0:0:
469,192,5102,1,0,0:0:0:0:
42,192,5102,1,0,0:0:0:0:
128,192,5256,1,0,0:0:0:0:
384,192,5333,1,0,0:0:0:0:
213,192,5410,1,0,0:0:0:0:
384,192,5410,1,0,0:0:0:0:
469,192,5410,1,0,0:0:0:0:
213,192,5563,1,0,0:0:0:0:
128,192,5563,1,0,0:0:0:0:
298,192,5717,1,0,0:0:0:0:
469,192,5717,1,0,0:0:0:0:
384,192,5871,1,0,0:0:0:0:
128,192,5871,1,0,0:0:0:0:
384,192,6025,1,0,0:0:0:0:
42,192,6025,1,0,0:0:0:0:
213,192,6179,1,0,0:0:0:0:
42,192,6333,1,0,0:0:0:0:
128,192,6333,1,0,0:0:0:0:
298,192,6333,1,0,0:0:0:0:
469,192,6486,1,0,0:0:0:0:
128,192,6486,1,0,0:0:0:0:
469,192,6563,1,0,0:0:0:0:
42,192,6640,1,0,0:0:0:0:
128,192,6640,1,0,0:0:0:0:
128,192,6794,1,0,0:0:0:0:
384,192,6794,1,0,0:0:0:0:
298,192,6948,1,0,0:0:0:0:
42,192,6948,1,0,0:0:0:0:
298,192,7102,1,0,0:0:0:0:
469,192,7102,1,0,0:0:0:0:
42,192,7256,1,0,0:0:0:0:
298,192,7256,1,0,0:0:0:0:
213,192,7410,1,0,0:0:0:0:
469,192,7410,1,0,0:0:0:0:
384,192,7563,1,0,0:0:0:0:
42,192,7563,1,0,0:0:0:0:
128,192,7717,1,0,0:0:0:0:
469,192,7717,1,0,0:0:0:0:
298,192,7794,1,0,0:0:0:0:
298,192,7871,1,0,0:0:0:0:
42,192,7871,1,0,0:0:0:0:
213,192,7871,1,0,0:0:0:0:
469,192,8025,1,0,0:0:0:0:
128,192,8102,1,0,0:0:0:0:
298,192,8179,1,0,0:0:0:0:
384,192,8179,1,0,0:0:0:0:
42,192,8333,1,0,0:0:0:0:
384,192,8333,1,0,0:0:0:0:
469,192,8486,1,0,0:0:0:0:
298,192,8486,1,0,0:0:0:0:
213,192,8486,1,0,0:0:0:0:
213,192,8640,1,0,0:0:0:0:
42,192,8794,1,0,0:0:0:0:
384,192,8794,1,0,0:0:0:0:
469,192,8948,1,0,0:0:0:0:
213,192,8948,1,0,0:0:0:0:
128,192,9025,1,0,0:0:0:0:
128,192,9102,1,0,0:0:0:0:
42,192,9102,1,0,0:0:0:0:
298,192,9102,1,0,0:0:0:0:
384,192,9256,1,0,0:0:0:0:
213,192,9256,1,0,0:0:0:0:
298,192,9410,1,0,0:0:0:0:
469,192,9410,1,0,0:0:0:0:
42,192,9410,1,0,0:0:0:0:
298,192,9563,1,0,0:0:0:0:
42,192,9563,1,0,0:0:0:0:
213,192,9717,1,0,0:0:0:0:
469,192,9717,1,0,0:0:0:0:
384,192,9871,1,0,0:0:0:0:
128,192,9871,1,0,0:0:0:0:
298,192,10025,1,0,0:0:0:0:
213,192,10948,1,0,0:0:0:0:
42,192,10948,1,0,0:0:0:0:
298,192,10948,1,0,0:0:0:0:
469,192,10948,1,0,0:0:0:0:
298,192,11102,1,0,0:0:0:0:
213,192,11102,1,0,0:0:0:0:
42,192,11102,1,0,0:0:0:0:
469,192,11102,1,0,0:0:0:0:
42,192,11256,1,0,0:0:0:0:
128,192,11256,1,0,0:0:0:0:
469,192,11256,1,0,0:0:0:0:
384,192,11294,1,0,0:0:0:0:
298,192,11333,1,0,0:0:0:0:
213,192,11371,1,0,0:0:0:0:
128,192,11410,1,0,0:0:0:0:
469,192,11410,1,0,0:0:0:0:
384,192,11461,1,0,0:0:0:0:
213,192,11486,1,0,0:0:0:0:
298,192,11512,1,0,0:0:0:0:
213,192,11563,1,0,0:0:0:0:
42,192,11563,1,0,0:0:0:0:
469,192,11563,1,0,0:0:0:0:
384,192,11602,1,0,0:0:0:0:
298,192,11640,1,0,0:0:0:0:
128,192,11679,1,0,0:0:0:0:
42,192,11717,1,0,0:0:0:0:
469,192,11717,1,0,0:0:0:0:
384,192,11717,1,0,0:0:0:0:
213,192,11768,1,0,0:0:0:0:
128,192,11820,1,0,0:0:0:0:
42,192,11871,1,0,0:0:0:0:
469,192,11871,1,0,0:0:0:0:
213,192,11871,1,0,0:0:0:0:
384,192,11910,1,0,0:0:0:0:
298,192,11948,1,0,0:0:0:0:
213,192,11986,1,0,0:0:0:0:
128,192,12025,1,0,0:0:0:0:
469,192,12025,1,0,0:0:0:0:
42,192,12025,1,0,0:0:0:0:
298,192,12076,1,0,0:0:0:0:
42,192,12127,1,0,0:0:0:0:
128,192,12179,1,0,0:0:0:0:
469,192,12179,1,0,0:0:0:0:
384,192,12179,1,0,0:0:0:0:
213,192,12217,1,0,0:0:0:0:
298,192,12256,1,0,0:0:0:0:
384,192,12294,1,0,0:0:0:0:
128,192,12333,1,0,0:0:0:0:
42,192,12333,1,0,0:0:0:0:
469,192,12333,1,0,0:0:0:0:
298,192,12384,1,0,0:0:0:0:
469,192,12435,1,0,0:0:0:0:
384,192,12486,1,0,0:0:0:0:
42,192,12486,1,0,0:0:0:0:
213,192,12486,1,0,0:0:0:0:
298,192,12538,1,0,0:0:0:0:
128,192,12563,1,0,0:0:0:0:
384,192,12589,1,0,0:0:0:0:
213,192,12640,1,0,0:0:0:0:
469,192,12640,1,0,0:0:0:0:
298,192,12692,1,0,0:0:0:0:
384,192,12743,1,0,0:0:0:0:
213,192,12794,1,0,0:0:0:0:
42,192,12794,1,0,0:0:0:0:
469,192,12794,1,0,0:0:0:0:
128,192,12845,1,0,0:0:0:0:
384,192,12871,1,0,0:0:0:0:
213,192,12897,1,0,0:0:0:0:
42,192,12948,1,0,0:0:0:0:
298,192,12948,1,0,0:0:0:0:
128,192,12999,1,0,0:0:0:0:
213,192,13051,1,0,0:0:0:0:
298,192,13102,1,0,0:0:0:0:
469,192,13102,1,0,0:0:0:0:
42,192,13102,1,0,0:0:0:0:
384,192,13153,1,0,0:0:0:0:
128,192,13179,1,0,0:0:0:0:
469,192,13204,1,0,0:0:0:0:
42,192,13256,1,0,0:0:0:0:
298,192,13256,1,0,0:0:0:0:
213,192,13307,1,0,0:0:0:0:
128,192,13358,1,0,0:0:0:0:
42,192,13410,1,0,0:0:0:0:
469,192,13410,1,0,0:0:0:0:
298,192,13410,1,0,0:0:0:0:
128,192,13461,1,0,0:0:0:0:
384,192,13486,1,0,0:0:0:0:
213,192,13512,1,0,0:0:0:0:
42,192,13563,1,0,0:0:0:0:
469,192,13563,1,0,0:0:0:0:
298,192,13615,1,0,0:0:0:0:
384,192,13666,1,0,0:0:0:0:
469,192,13717,1,0,0:0:0:0:
298,192,13717,1,0,0:0:0:0:
42,192,13717,1,0,0:0:0:0:
128,192,13756,1,0,0:0:0:0:
213,192,13794,1,0,0:0:0:0:
298,192,13833,1,0,0:0:0:0:
384,192,13871,1,0,0:0:0:0:
42,192,13871,1,0,0:0:0:0:
128,192,13922,1,0,0:0:0:0:
469,192,13948,1,0,0:0:0:0:
213,192,13974,1,0,0:0:0:0:
298,192,14025,1,0,0:0:0:0:
469,192,14025,1,0,0:0:0:0:
42,192,14025,1,0,0:0:0:0:
128,192,14063,1,0,0:0:0:0:
384,192,14102,1,0,0:0:0:0:
213,192,14140,1,0,0:0:0:0:
469,192,14179,1,0,0:0:0:0:
42,192,14179,1,0,0:0:0:0:
128,192,14179,1,0,0:0:0:0:
298,192,14230,1,0,0:0:0:0:
384,192,14281,1,0,0:0:0:0:
469,192,14333,1,0,0:0:0:0:
42,192,14333,1,0,0:0:0:0:
298,192,14333,1,0,0:0:0:0:
213,192,14371,1,0,0:0:0:0:
128,192,14410,1,0,0:0:0:0:
384,192,14448,1,0,0:0:0:0:
298,192,14486,1,0,0:0:0:0:
42,192,14486,1,0,0:0:0:0:
469,192,14486,1,0,0:0:0:0:
213,192,14538,1,0,0:0:0:0:
298,192,14589,1,0,0:0:0:0:
469,192,14640,1,0,0:0:0:0:
384,192,14640,1,0,0:0:0:0:
128,192,14640,1,0,0:0:0:0:
42,192,14679,1,0,0:0:0:0:
213,192,14717,1,0,0:0:0:0:
298,192,14756,1,0,0:0:0:0:
128,192,14794,1,0,0:0:0:0:
384,192,14794,1,0,0:0:0:0:
42,192,14794,1,0,0:0:0:0:
469,192,14845,1,0,0:0:0:0:
213,192,14897,1,0,0:0:0:0:
42,192,14948,1,0,0:0:0:0:
384,192,14948,1,0,0:0:0:0:
298,192,14948,1,0,0:0:0:0:
469,192,14999,1,0,0:0:0:0:
128,192,15025,1,0,0:0:0:0:
213,192,15051,1,0,0:0:0:0:
384,192,15102,1,0,0:0:0:0:
42,192,15102,1,0,0:0:0:0:
298,192,15153,1,0,0:0:0:0:
128,192,15204,1,0,0:0:0:0:
298,192,15256,1,0,0:0:0:0:
469,192,15256,1,0,0:0:0:0:
42,192,15256,1,0,0:0:0:0:
384,192,15307,1,0,0:0:0:0:
213,192,15333,1,0,0:0:0:0:
128,192,15358,1,0,0:0:0:0:
469,192,15410,1,0,0:0:0:0:
298,192,15410,1,0,0:0:0:0:
213,192,15461,1,0,0:0:0:0:
128,192,15512,1,0,0:0:0:0:
298,192,15563,1,0,0:0:0:0:
42,192,15563,1,0,0:0:0:0:
469,192,15563,1,0,0:0:0:0:
213,192,15615,1,0,0:0:0:0:
384,192,15640,1,0,0:0:0:0:
128,192,15666,1,0,0:0:0:0:
42,192,15717,1,0,0:0:0:0:
298,192,15717,1,0,0:0:0:0:
384,192,15768,1,0,0:0:0:0:
213,192,15820,1,0,0:0:0:0:
469,192,15871,1,0,0:0:0:0:
42,192,15871,1,0,0:0:0:0:
128,192,15871,1,0,0:0:0:0:
298,192,15922,1,0,0:0:0:0:
384,192,15948,1,0,0:0:0:0:
469,192,15974,1,0,0:0:0:0:
213,192,16025,1,0,0:0:0:0:
128,192,16025,1,0,0:0:0:0:
384,192,16076,1,0,0:0:0:0:
298,192,16127,1,0,0:0:0:0:
42,192,16179,1,0,0:0:0:0:
128,192,16179,1,0,0:0:0:0:
469,192,16179,1,0,0:0:0:0:
384,192,16217,1,0,0:0:0:0:
298,192,16256,1,0,0:0:0:0:
213,192,16294,1,0,0:0:0:0:
42,192,16333,1,0,0:0:0:0:
469,192,16333,1,0,0:0:0:0:
384,192,16384,1,0,0:0:0:0:
128,192,16410,1,0,0:0:0:0:
298,192,16435,1,0,0:0:0:0:
213,192,16486,1,0,0:0:0:0:
128,192,16486,1,0,0:0:0:0:
469,192,16486,1,0,0:0:0:0:
42,192,16525,1,0,0:0:0:0:
298,192,16563,1,0,0:0:0:0:
213,192,16602,1,0,0:0:0:0:
128,192,16640,1,0,0:0:0:0:
469,192,16640,1,0,0:0:0:0:
384,192,16640,1,0,0:0:0:0:
42,192,16692,1,0,0:0:0:0:
469,192,16743,1,0,0:0:0:0:
42,192,16794,1,0,0:0:0:0:
128,192,16794,1,0,0:0:0:0:
213,192,16794,1,0,0:0:0:0:
298,192,16833,1,0,0:0:0:0:
384,192,16871,1,0,0:0:0:0:
213,192,16910,1,0,0:0:0:0:
298,192,16948,1,0,0:0:0:0:
469,192,16948,1,0,0:0:0:0:
42,192,16948,1,0,0:0:0:0:
128,192,16999,1,0,0:0:0:0:
213,192,17051,1,0,0:0:0:0:
128,192,17102,1,0,0:0:0:0:
469,192,17102,1,0,0:0:0:0:
384,192,17102,1,0,0:0:0:0:
42,192,17140,1,0,0:0:0:0:
298,192,17179,1,0,0:0:0:0:
213,192,17217,1,0,0:0:0:0:
128,192,17256,1,0,0:0:0:0:
42,192,17256,1,0,0:0:0:0:
469,192,17256,1,0,0:0:0:0:
298,192,17307,1,0,0:0:0:0:
213,192,17358,1,0,0:0:0:0:
469,192,17410,1,0,0:0:0:0:
384,192,17410,1,0,0:0:0:0:
42,192,17410,1,0,0:0:0:0:
128,192,17448,1,0,0:0:0:0:
213,192,17486,1,0,0:0:0:0:
298,192,17525,1,0,0:0:0:0:
469,192,17563,1,0,0:0:0:0:
42,192,17563,1,0,0:0:0:0:
128,192,17615,1,0,0:0:0:0:
384,192,17640,1,0,0:0:0:0:
213,192,17666,1,0,0:0:0:0:
298,192,17717,1,0,0:0:0:0:
384,192,17717,1,0,0:0:0:0:
42,192,17717,1,0,0:0:0:0:
469,192,17756,1,0,0:0:0:0:
213,192,17794,1,0,0:0:0:0:
298,192,17833,1,0,0:0:0:0:
384,192,17871,1,0,0:0:0:0:
42,192,17871,1,0,0:0:0:0:
128,192,17871,1,0,0:0:0:0:
469,192,17922,1,0,0:0:0:0:
42,192,17974,1,0,0:0:0:0:
469,192,18025,1,0,0:0:0:0:
384,192,18025,1,0,0:0:0:0:
298,192,18025,1,0,0:0:0:0:
213,192,18063,1,0,0:0:0:0:
128,192,18102,1,0,0:0:0:0:
298,192,18140,1,0,0:0:0:0:
213,192,18179,1,0,0:0:0:0:
42,192,18179,1,0,0:0:0:0:
469,192,18179,1,0,0:0:0:0:
384,192,18230,1,0,0:0:0:0:
298,192,18281,1,0,0:0:0:0:
384,192,18333,1,0,0:0:0:0:
42,192,18333,1,0,0:0:0:0:
128,192,18333,1,0,0:0:0:0:
469,192,18371,1,0,0:0:0:0:
213,192,18410,1,0,0:0:0:0:
298,192,18448,1,0,0:0:0:0:
384,192,18486,1,0,0:0:0:0:
469,192,18486,1,0,0:0:0:0:
42,192,18486,1,0,0:0:0:0:
213,192,18538,1,0,0:0:0:0:
298,192,18589,1,0,0:0:0:0:
42,192,18640,1,0,0:0:0:0:
128,192,18640,1,0,0:0:0:0:
384,192,18640,1,0,0:0:0:0:
469,192,18692,1,0,0:0:0:0:
128,192,18717,1,0,0:0:0:0:
298,192,18743,1,0,0:0:0:0:
213,192,18794,1,0,0:0:0:0:
384,192,18794,1,0,0:0:0:0:
42,192,18845,1,0,0:0:0:0:
298,192,18897,1,0,0:0:0:0:
213,192,18948,1,0,0:0:0:0:
128,192,18948,1,0,0:0:0:0:
469,192,18948,1,0,0:0:0:0:
42,192,18999,1,0,0:0:0:0:
213,192,19025,1,0,0:0:0:0:
384,192,19051,1,0,0:0:0:0:
298,192,19102,1,0,0:0:0:0:
469,192,19102,1,0,0:0:0:0:
128,192,19153,1,0,0:0:0:0:
384,192,19204,1,0,0:0:0:0:
42,192,19256,1,0,0:0:0:0:
298,192,19256,1,0,0:0:0:0:
469,192,19256,1,0,0:0:0:0:
128,192,19294,1,0,0:0:0:0:
213,192,19333,1,0,0:0:0:0:
384,192,19371,1,0,0:0:0:0:
469,192,19410,1,0,0:0:0:0:
42,192,19410,1,0,0:0:0:0:
128,192,19448,1,0,0:0:0:0:
298,192,19486,1,0,0:0:0:0:
384,192,19525,1,0,0:0:0:0:
42,192,19563,1,0,0:0:0:0:
469,192,19563,1,0,0:0:0:0:
213,192,19563,1,0,0:0:0:0:
298,192,19602,1,0,0:0:0:0:
384,192,19640,1,0,0:0:0:0:
128,192,19679,1,0,0:0:0:0:
42,192,19717,1,0,0:0:0:0:
469,192,19717,1,0,0:0:0:0:
298,192,19756,1,0,0:0:0:0:
213,192,19794,1,0,0:0:0:0:
128,192,19833,1,0,0:0:0:0:
42,192,19871,1,0,0:0:0:0:
298,192,19871,1,0,0:0:0:0:
469,192,19871,1,0,0:0:0:0:
213,192,19922,1,0,0:0:0:0:
384,192,19974,1,0,0:0:0:0:
42,192,20025,1,0,0:0:0:0:
213,192,20076,1,0,0:0:0:0:
384,192,20127,1,0,0:0:0:0:
128,192,20179,1,0,0:0:0:0:
384,192,20256,1,0,0:0:0:0:
128,192,20333,1,0,0:0:0:0:
384,192,20410,1,0,0:0:0:0:
128,192,20486,1,0,0:0:0:0:
298,192,20538,1,0,0:0:0:0:
469,192,20589,1,0,0:0:0:0:
128,192,20640,1,0,0:0:0:0:
298,192,20692,1,0,0:0:0:0:
469,192,20743,1,0,0:0:0:0:
298,192,20794,1,0,0:0:0:0:
128,192,20794,1,0,0:0:0:0:
42,192,20794,1,0,0:0:0:0:
42,192,20948,1,0,0:0:0:0:
213,192,20948,1,0,0:0:0:0:
128,192,21102,1,0,0:0:0:0:
384,192,21102,1,0,0:0:0:0:
469,192,21102,1,0,0:0:0:0:
298,192,21179,1,0,0:0:0:0:
384,192,21256,1,0,0:0:0:0:
128,192,21256,1,0,0:0:0:0:
298,192,21333,1,0,0:0:0:0:
213,192,21410,1,0,0:0:0:0:
42,192,21410,1,0,0:0:0:0:
469,192,21410,1,0,0:0:0:0:
384,192,21563,1,0,0:0:0:0:
42,192,21640,1,0,0:0:0:0:
128,192,21640,1,0,0:0:0:0:
298,192,21717,1,0,0:0:0:0:
213,192,21717,1,0,0:0:0:0:
128,192,21794,1,0,0:0:0:0:
469,192,21794,1,0,0:0:0:0:
384,192,21871,1,0,0:0:0:0:
213,192,21871,1,0,0:0:0:0:
42,192,21948,1,0,0:0:0:0:
213,192,22025,1,0,0:0:0:0:
384,192,22025,1,0,0:0:0:0:
469,192,22025,1,0,0:0:0:0:
128,192,22179,1,0,0:0:0:0:
298,192,22179,1,0,0:0:0:0:
384,192,22256,1,0,0:0:0:0:
213,192,22333,1,0,0:0:0:0:
42,192,22333,1,0,0:0:0:0:
469,192,22333,1,0,0:0:0:0:
298,192,22410,1,0,0:0:0:0:
384,192,22486,1,0,0:0:0:0:
128,192,22486,1,0,0:0:0:0:
213,192,22563,1,0,0:0:0:0:
42,192,22640,1,0,0:0:0:0:
298,192,22640,1,0,0:0:0:0:
469,192,22640,1,0,0:0:0:0:
128,192,22794,1,0,0:0:0:0:
298,192,22871,1,0,0:0:0:0:
469,192,22871,1,0,0:0:0:0:
128,192,22948,1,0,0:0:0:0:
42,192,22948,1,0,0:0:0:0:
298,192,23025,1,0,0:0:0:0:
384,192,23025,1,0,0:0:0:0:
128,192,23102,1,0,0:0:0:0:
213,192,23179,1,0,0:0:0:0:
42,192,23256,1,0,0:0:0:0:
469,192,23256,1,0,0:0:0:0:
298,192,23256,1,0,0:0:0:0:
213,192,23410,1,0,0:0:0:0:
384,192,23410,1,0,0:0:0:0:
128,192,23486,1,0,0:0:0:0:
42,192,23563,1,0,0:0:0:0:
298,192,23563,1,0,0:0:0:0:
469,192,23563,1,0,0:0:0:0:
213,192,23640,1,0,0:0:0:0:
128,192,23717,1,0,0:0:0:0:
384,192,23717,1,0,0:0:0:0:
213,192,23794,1,0,0:0:0:0:
42,192,23871,1,0,0:0:0:0:
298,192,23871,1,0,0:0:0:0:
469,192,23871,1,0,0:0:0:0:
42,192,24025,1,0,0:0:0:0:
213,192,24102,1,0,0:0:0:0:
384,192,24102,1,0,0:0:0:0:
128,192,24179,1,0,0:0:0:0:
469,192,24179,1,0,0:0:0:0:
384,192,24256,1,0,0:0:0:0:
213,192,24256,1,0,0:0:0:0:
42,192,24333,1,0,0:0:0:0:
298,192,24333,1,0,0:0:0:0:
213,192,24410,1,0,0:0:0:0:
128,192,24486,1,0,0:0:0:0:
384,192,24486,1,0,0:0:0:0:
128,192,24640,1,0,0:0:0:0:
469,192,24640,1,0,0:0:0:0:
213,192,24717,1,0,0:0:0:0:
42,192,24794,1,0,0:0:0:0:
469,192,24794,1,0,0:0:0:0:
298,192,24794,1,0,0:0:0:0:
128,192,24871,1,0,0:0:0:0:
213,192,24948,1,0,0:0:0:0:
42,192,24948,1,0,0:0:0:0:
298,192,25025,1,0,0:0:0:0:
128,192,25102,1,0,0:0:0:0:
384,192,25102,1,0,0:0:0:0:
469,192,25102,1,0,0:0:0:0:
213,192,25256,1,0,0:0:0:0:
42,192,25256,1,0,0:0:0:0:
298,192,25333,1,0,0:0:0:0:
469,192,25333,1,0,0:0:0:0:
128,192,25410,1,0,0:0:0:0:
42,192,25410,1,0,0:0:0:0:
298,192,25486,1,0,0:0:0:0:
384,192,25486,1,0,0:0:0:0:
128,192,25563,1,0,0:0:0:0:
469,192,25563,1,0,0:0:0:0:
213,192,25640,1,0,0:0:0:0:
42,192,25717,1,0,0:0:0:0:
298,192,25717,1,0,0:0:0:0:
469,192,25717,1,0,0:0:0:0:
128,192,25794,1,0,0:0:0:0:
42,192,25871,1,0,0:0:0:0:
128,192,25948,1,0,0:0:0:0:
42,192,26025,1,0,0:0:0:0:
384,192,26025,1,0,0:0:0:0:
469,192,26025,1,0,0:0:0:0:
298,192,26076,1,0,0:0:0:0:
213,192,26127,1,0,0:0:0:0:
128,192,26179,1,0,0:0:0:0:
469,192,26179,1,0,0:0:0:0:
384,192,26230,1,0,0:0:0:0:
298,192,26281,1,0,0:0:0:0:
213,192,26333,1,0,0:0:0:0:
42,192,26333,1,0,0:0:0:0:
469,192,26371,1,0,0:0:0:0:
384,192,26410,1,0,0:0:0:0:
128,192,26448,1,0,0:0:0:0:
42,192,26486,1,0,0:0:0:0:
298,192,26486,1,0,0:0:0:0:
213,192,26525,1,0,0:0:0:0:
384,192,26563,1,0,0:0:0:0:
298,192,26602,1,0,0:0:0:0:
469,192,26640,1,0,0:0:0:0:
128,192,26640,1,0,0:0:0:0:
42,192,26640,1,0,0:0:0:0:
213,192,26692,1,0,0:0:0:0:
298,192,26743,1,0,0:0:0:0:
384,192,26794,1,0,0:0:0:0:
42,192,26794,1,0,0:0:0:0:
128,192,26845,1,0,0:0:0:0:
213,192,26897,1,0,0:0:0:0:
298,192,26948,1,0,0:0:0:0:
469,192,26948,1,0,0:0:0:0:
42,192,26986,1,0,0:0:0:0:
128,192,27025,1,0,0:0:0:0:
384,192,27063,1,0,0:0:0:0:
469,192,27102,1,0,0:0:0:0:
213,192,27102,1,0,0:0:0:0:
298,192,27140,1,0,0:0:0:0:
128,192,27179,1,0,0:0:0:0:
213,192,27217,1,0,0:0:0:0:
42,192,27256,1,0,0:0:0:0:
384,192,27256,1,0,0:0:0:0:
469,192,27256,1,0,0:0:0:0:
298,192,27307,1,0,0:0:0:0:
213,192,27358,1,0,0:0:0:0:
128,192,27410,1,0,0:0:0:0:
469,192,27410,1,0,0:0:0:0:
384,192,27461,1,0,0:0:0:0:
298,192,27512,1,0,0:0:0:0:
213,192,27563,1,0,0:0:0:0:
42,192,27563,1,0,0:0:0:0:
469,192,27602,1,0,0:0:0:0:
384,192,27640,1,0,0:0:0:0:
128,192,27679,1,0,0:0:0:0:
42,192,27717,1,0,0:0:0:0:
298,192,27717,1,0,0:0:0:0:
213,192,27756,1,0,0:0:0:0:
384,192,27794,1,0,0:0:0:0:
298,192,27833,1,0,0:0:0:0:
469,192,27871,1,0,0:0:0:0:
128,192,27871,1,0,0:0:0:0:
42,192,27871,1,0,0:0:0:0:
213,192,27922,1,0,0:0:0:0:
298,192,27974,1,0,0:0:0:0:
384,192,28025,1,0,0:0:0:0:
42,192,28025,1,0,0:0:0:0:
128,192,28076,1,0,0:0:0:0:
213,192,28127,1,0,0:0:0:0:
298,192,28179,1,0,0:0:0:0:
469,192,28179,1,0,0:0:0:0:
42,192,28217,1,0,0:0:0:0:
128,192,28256,1,0,0:0:0:0:
384,192,28294,1,0,0:0:0:0:
469,192,28333,1,0,0:0:0:0:
213,192,28333,1,0,0:0:0:0:
298,192,28371,1,0,0:0:0:0:
128,192,28410,1,0,0:0:0:0:
213,192,28448,1,0,0:0:0:0:
42,192,28486,1,0,0:0:0:0:
384,192,28486,1,0,0:0:0:0:
469,192,28486,1,0,0:0:0:0:
298,192,28538,1,0,0:0:0:0:
128,192,28563,1,0,0:0:0:0:
384,192,28589,1,0,0:0:0:0:
42,192,28640,1,0,0:0:0:0:
298,192,28640,1,0,0:0:0:0:
213,192,28717,1,0,0:0:0:0:
384,192,28717,1,0,0:0:0:0:
128,192,28794,1,0,0:0:0:0:
42,192,28794,1,0,0:0:0:0:
469,192,28794,1,0,0:0:0:0:
213,192,28845,1,0,0:0:0:0:
384,192,28871,1,0,0:0:0:0:
128,192,28897,1,0,0:0:0:0:
469,192,28948,1,0,0:0:0:0:
213,192,28948,1,0,0:0:0:0:
298,192,29025,1,0,0:0:0:0:
128,192,29025,1,0,0:0:0:0:
42,192,29102,1,0,0:0:0:0:
384,192,29102,1,0,0:0:0:0:
469,192,29102,1,0,0:0:0:0:
213,192,29153,1,0,0:0:0:0:
384,192,29179,1,0,0:0:0:0:
128,192,29204,1,0,0:0:0:0:
298,192,29256,1,0,0:0:0:0:
469,192,29256,1,0,0:0:0:0:
213,192,29333,1,0,0:0:0:0:
42,192,29333,1,0,0:0:0:0:
128,192,29410,1,0,0:0:0:0:
384,192,29410,1,0,0:0:0:0:
469,192,29410,1,0,0:0:0:0:
384,192,29486,1,0,0:0:0:0:
469,192,29486,1,0,0:0:0:0:
213,192,29486,1,0,0:0:0:0:
128,192,29563,1,0,0:0:0:0:
42,192,29563,1,0,0:0:0:0:
298,192,29563,1,0,0:0:0:0:
384,192,29640,1,0,0:0:0:0:
128,192,29640,1,0,0:0:0:0:
42,192,29640,1,0,0:0:0:0:
298,192,29717,1,0,0:0:0:0:
213,192,29717,1,0,0:0:0:0:
42,192,29717,1,0,0:0:0:0:
469,192,29717,1,0,0:0:0:0:
213,192,30640,1,0,0:0:0:0:
42,192,30640,1,0,0:0:0:0:
298,192,30640,1,0,0:0:0:0:
469,192,30640,1,0,0:0:0:0:
213,192,30794,1,0,0:0:0:0:
42,192,30794,1,0,0:0:0:0:
298,192,30794,1,0,0:0:0:0:
469,192,30794,1,0,0:0:0:0:
384,192,30948,1,0,0:0:0:0:
469,192,30948,1,0,0:0:0:0:
42,192,30948,1,0,0:0:0:0:
128,192,30974,1,0,0:0:0:0:
213,192,30999,1,0,0:0:0:0:
298,192,31025,1,0,0:0:0:0:
384,192,31051,1,0,0:0:0:0:
469,192,31076,1,0,0:0:0:0:
128,192,31102,1,0,0:0:0:0:
213,192,31127,1,0,0:0:0:0:
298,192,31153,1,0,0:0:0:0:
384,192,31179,1,0,0:0:0:0:
42,192,31204,1,0,0:0:0:0:
128,192,31230,1,0,0:0:0:0:
213,192,31256,1,0,0:0:0:0:
298,192,31281,1,0,0:0:0:0:
469,192,31307,1,0,0:0:0:0:
42,192,31333,1,0,0:0:0:0:
213,192,31358,1,0,0:0:0:0:
298,192,31384,1,0,0:0:0:0:
384,192,31410,1,0,0:0:0:0:
469,192,31448,1,0,0:0:0:0:
128,192,31486,1,0,0:0:0:0:
213,192,31525,1,0,0:0:0:0:
42,192,31563,1,0,0:0:0:0:
298,192,31563,1,0,0:0:0:0:
469,192,31563,1,0,0:0:0:0:
298,192,31794,1,0,0:0:0:0:
42,192,31794,1,0,0:0:0:0:
384,192,31794,1,0,0:0:0:0:
128,192,31871,1,0,0:0:0:0:
469,192,31871,1,0,0:0:0:0:
384,192,31871,1,0,0:0:0:0:
298,192,32025,1,0,0:0:0:0:
128,192,32025,1,0,0:0:0:0:
42,192,32025,1,0,0:0:0:0:
213,192,32179,1,0,0:0:0:0:
384,192,32179,1,0,0:0:0:0:
469,192,32179,1,0,0:0:0:0:
384,192,32333,1,0,0:0:0:0:
42,192,32333,1,0,0:0:0:0:
384,192,32486,1,0,0:0:0:0:
469,192,32486,1,0,0:0:0:0:
213,192,32486,1,0,0:0:0:0:
42,192,32640,1,0,0:0:0:0:
298,192,32640,1,0,0:0:0:0:
128,192,32794,1,0,0:0:0:0:
384,192,32794,1,0,0:0:0:0:
469,192,32794,1,0,0:0:0:0:
213,192,33025,1,0,0:0:0:0:
42,192,33025,1,0,0:0:0:0:
469,192,33025,1,0,0:0:0:0:
213,192,33102,1,0,0:0:0:0:
384,192,33102,1,0,0:0:0:0:
298,192,33102,1,0,0:0:0:0:
298,192,33256,1,0,0:0:0:0:
213,192,33256,1,0,0:0:0:0:
128,192,33256,1,0,0:0:0:0:
384,192,33410,1,0,0:0:0:0:
469,192,33410,1,0,0:0:0:0:
42,192,33410,1,0,0:0:0:0:
128,192,33435,1,0,0:0:0:0:
213,192,33461,1,0,0:0:0:0:
298,192,33486,1,0,0:0:0:0:
384,192,33512,1,0,0:0:0:0:
469,192,33538,1,0,0:0:0:0:
128,192,33563,1,0,0:0:0:0:
213,192,33589,1,0,0:0:0:0:
298,192,33615,1,0,0:0:0:0:
384,192,33640,1,0,0:0:0:0:
42,192,33666,1,0,0:0:0:0:
128,192,33692,1,0,0:0:0:0:
213,192,33717,1,0,0:0:0:0:
298,192,33743,1,0,0:0:0:0:
469,192,33768,1,0,0:0:0:0:
42,192,33794,1,0,0:0:0:0:
213,192,33820,1,0,0:0:0:0:
298,192,33845,1,0,0:0:0:0:
384,192,33871,1,0,0:0:0:0:
469,192,33910,1,0,0:0:0:0:
128,192,33948,1,0,0:0:0:0:
213,192,33986,1,0,0:0:0:0:
42,192,34025,1,0,0:0:0:0:
298,192,34025,1,0,0:0:0:0:
469,192,34025,1,0,0:0:0:0:
298,192,34256,1,0,0:0:0:0:
42,192,34256,1,0,0:0:0:0:
384,192,34256,1,0,0:0:0:0:
128,192,34333,1,0,0:0:0:0:
469,192,34333,1,0,0:0:0:0:
384,192,34333,1,0,0:0:0:0:
298,192,34486,1,0,0:0:0:0:
128,192,34486,1,0,0:0:0:0:
42,192,34486,1,0,0:0:0:0:
213,192,34640,1,0,0:0:0:0:
384,192,34640,1,0,0:0:0:0:
469,192,34640,1,0,0:0:0:0:
469,192,34794,1,0,0:0:0:0:
42,192,34794,1,0,0:0:0:0:
298,192,34948,1,0,0:0:0:0:
128,192,34948,1,0,0:0:0:0:
42,192,34948,1,0,0:0:0:0:
213,192,35102,1,0,0:0:0:0:
384,192,35102,1,0,0:0:0:0:
42,192,35256,1,0,0:0:0:0:
298,192,35256,1,0,0:0:0:0:
469,192,35256,1,0,0:0:0:0:
213,192,35410,1,0,0:0:0:0:
384,192,35410,1,0,0:0:0:0:
42,192,35486,1,0,0:0:0:0:
128,192,35486,1,0,0:0:0:0:
298,192,35486,1,0,0:0:0:0:
384,192,35563,1,0,0:0:0:0:
128,192,35563,1,0,0:0:0:0:
469,192,35563,1,0,0:0:0:0:
213,192,35717,1,0,0:0:0:0:
42,192,35717,1,0,0:0:0:0:
469,192,35717,1,0,0:0:0:0:
213,192,35871,1,0,0:0:0:0:
42,192,35871,1,0,0:0:0:0:
469,192,35871,1,0,0:0:0:0:
384,192,35922,1,0,0:0:0:0:
213,192,35974,1,0,0:0:0:0:
128,192,36025,1,0,0:0:0:0:
469,192,36025,1,0,0:0:0:0:
298,192,36076,1,0,0:0:0:0:
128,192,36127,1,0,0:0:0:0:
42,192,36179,1,0,0:0:0:0:
384,192,36179,1,0,0:0:0:0:
469,192,36179,1,0,0:0:0:0:
298,192,36179,1,0,0:0:0:0:
128,192,36333,1,0,0:0:0:0:
384,192,36333,1,0,0:0:0:0:
213,192,36486,1,0,0:0:0:0:
42,192,36486,1,0,0:0:0:0:
469,192,36486,1,0,0:0:0:0:
298,192,36640,1,0,0:0:0:0:
128,192,36717,1,0,0:0:0:0:
384,192,36717,1,0,0:0:0:0:
469,192,36717,1,0,0:0:0:0:
384,192,36794,1,0,0:0:0:0:
298,192,36794,1,0,0:0:0:0:
42,192,36794,1,0,0:0:0:0:
213,192,36948,1,0,0:0:0:0:
42,192,36948,1,0,0:0:0:0:
469,192,36948,1,0,0:0:0:0:
128,192,37102,1,0,0:0:0:0:
384,192,37102,1,0,0:0:0:0:
469,192,37102,1,0,0:0:0:0:
298,192,37256,1,0,0:0:0:0:
213,192,37410,1,0,0:0:0:0:
42,192,37410,1,0,0:0:0:0:
469,192,37410,1,0,0:0:0:0:
298,192,37563,1,0,0:0:0:0:
128,192,37717,1,0,0:0:0:0:
384,192,37717,1,0,0:0:0:0:
469,192,37717,1,0,0:0:0:0:
298,192,37871,1,0,0:0:0:0:
128,192,37948,1,0,0:0:0:0:
42,192,37948,1,0,0:0:0:0:
384,192,37948,1,0,0:0:0:0:
213,192,38025,1,0,0:0:0:0:
42,192,38025,1,0,0:0:0:0:
469,192,38025,1,0,0:0:0:0:
128,192,38179,1,0,0:0:0:0:
298,192,38179,1,0,0:0:0:0:
469,192,38179,1,0,0:0:0:0:
384,192,38333,1,0,0:0:0:0:
42,192,38333,1,0,0:0:0:0:
128,192,38333,1,0,0:0:0:0:
298,192,38384,1,0,0:0:0:0:
469,192,38410,1,0,0:0:0:0:
213,192,38435,1,0,0:0:0:0:
128,192,38486,1,0,0:0:0:0:
384,192,38486,1,0,0:0:0:0:
213,192,38563,1,0,0:0:0:0:
469,192,38563,1,0,0:0:0:0:
42,192,38640,1,0,0:0:0:0:
128,192,38640,1,0,0:0:0:0:
384,192,38640,1,0,0:0:0:0:
298,192,38692,1,0,0:0:0:0:
469,192,38717,1,0,0:0:0:0:
213,192,38743,1,0,0:0:0:0:
128,192,38794,1,0,0:0:0:0:
384,192,38794,1,0,0:0:0:0:
213,192,38871,1,0,0:0:0:0:
384,192,38871,1,0,0:0:0:0:
298,192,38948,1,0,0:0:0:0:
469,192,38948,1,0,0:0:0:0:
42,192,38948,1,0,0:0:0:0:
128,192,39025,1,0,0:0:0:0:
384,192,39025,1,0,0:0:0:0:
128,192,39102,1,0,0:0:0:0:
298,192,39102,1,0,0:0:0:0:
128,192,39179,1,0,0:0:0:0:
384,192,39179,1,0,0:0:0:0:
469,192,39179,1,0,0:0:0:0:
298,192,39256,1,0,0:0:0:0:
213,192,39256,1,0,0:0:0:0:
42,192,39256,1,0,0:0:0:0:
128,192,39333,1,0,0:0:0:0:
384,192,39333,1,0,0:0:0:0:
213,192,39410,1,0,0:0:0:0:
469,192,39410,1,0,0:0:0:0:
42,192,39410,1,0,0:0:0:0:
213,192,39486,1,0,0:0:0:0:
384,192,39486,1,0,0:0:0:0:
298,192,39563,1,0,0:0:0:0:
469,192,39563,1,0,0:0:0:0:
42,192,39563,1,0,0:0:0:0:
128,192,39615,1,0,0:0:0:0:
213,192,39666,1,0,0:0:0:0:
298,192,39717,1,0,0:0:0:0:
384,192,39768,1,0,0:0:0:0:
469,192,39820,1,0,0:0:0:0:
42,192,39871,1,0,0:0:0:0:
128,192,39922,1,0,0:0:0:0:
213,192,39974,1,0,0:0:0:0:
298,192,40025,1,0,0:0:0:0:
384,192,40076,1,0,0:0:0:0:
469,192,40127,1,0,0:0:0:0:
213,192,40179,1,0,0:0:0:0:
128,192,40179,1,0,0:0:0:0:
42,192,40179,1,0,0:0:0:0:
298,192,40217,1,0,0:0:0:0:
384,192,40256,1,0,0:0:0:0:
469,192,40294,1,0,0:0:0:0:
384,192,40333,1,0,0:0:0:0:
298,192,40384,1,0,0:0:0:0:
213,192,40435,1,0,0:0:0:0:
128,192,40486,1,0,0:0:0:0:
42,192,40486,1,0,0:0:0:0:
469,192,40486,1,0,0:0:0:0:
213,192,40525,1,0,0:0:0:0:
298,192,40563,1,0,0:0:0:0:
384,192,40602,1,0,0:0:0:0:
298,192,40640,1,0,0:0:0:0:
213,192,40692,1,0,0:0:0:0:
128,192,40743,1,0,0:0:0:0:
213,192,40794,1,0,0:0:0:0:
42,192,40794,1,0,0:0:0:0:
469,192,40794,1,0,0:0:0:0:
384,192,40833,1,0,0:0:0:0:
298,192,40871,1,0,0:0:0:0:
213,192,40910,1,0,0:0:0:0:
128,192,40948,1,0,0:0:0:0:
469,192,40948,1,0,0:0:0:0:
384,192,40986,1,0,0:0:0:0:
298,192,41025,1,0,0:0:0:0:
213,192,41063,1,0,0:0:0:0:
42,192,41102,1,0,0:0:0:0:
384,192,41102,1,0,0:0:0:0:
469,192,41102,1,0,0:0:0:0:
128,192,41140,1,0,0:0:0:0:
213,192,41179,1,0,0:0:0:0:
298,192,41217,1,0,0:0:0:0:
42,192,41256,1,0,0:0:0:0:
384,192,41256,1,0,0:0:0:0:
128,192,41294,1,0,0:0:0:0:
213,192,41333,1,0,0:0:0:0:
298,192,41371,1,0,0:0:0:0:
42,192,41410,1,0,0:0:0:0:
384,192,41410,1,0,0:0:0:0:
469,192,41410,1,0,0:0:0:0:
298,192,41486,1,0,0:0:0:0:
128,192,41512,1,0,0:0:0:0:
213,192,41563,1,0,0:0:0:0:
469,192,41563,1,0,0:0:0:0:
42,192,41615,1,0,0:0:0:0:
298,192,41640,1,0,0:0:0:0:
384,192,41640,1,0,0:0:0:0:
128,192,41717,1,0,0:0:0:0:
469,192,41717,1,0,0:0:0:0:
298,192,41717,1,0,0:0:0:0:
213,192,41794,1,0,0:0:0:0:
384,192,41820,1,0,0:0:0:0:
128,192,41871,1,0,0:0:0:0:
42,192,41871,1,0,0:0:0:0:
469,192,41871,1,0,0:0:0:0:
213,192,41922,1,0,0:0:0:0:
384,192,41948,1,0,0:0:0:0:
42,192,42025,1,0,0:0:0:0:
298,192,42025,1,0,0:0:0:0:
469,192,42025,1,0,0:0:0:0:
384,192,42076,1,0,0:0:0:0:
128,192,42102,1,0,0:0:0:0:
298,192,42127,1,0,0:0:0:0:
213,192,42179,1,0,0:0:0:0:
42,192,42179,1,0,0:0:0:0:
384,192,42230,1,0,0:0:0:0:
128,192,42256,1,0,0:0:0:0:
213,192,42333,1,0,0:0:0:0:
42,192,42333,1,0,0:0:0:0:
469,192,42333,1,0,0:0:0:0:
128,192,42384,1,0,0:0:0:0:
384,192,42410,1,0,0:0:0:0:
213,192,42435,1,0,0:0:0:0:
298,192,42486,1,0,0:0:0:0:
469,192,42486,1,0,0:0:0:0:
128,192,42538,1,0,0:0:0:0:
384,192,42563,1,0,0:0:0:0:
42,192,42640,1,0,0:0:0:0:
213,192,42640,1,0,0:0:0:0:
469,192,42640,1,0,0:0:0:0:
384,192,42717,1,0,0:0:0:0:
128,192,42743,1,0,0:0:0:0:
42,192,42794,1,0,0:0:0:0:
298,192,42794,1,0,0:0:0:0:
213,192,42845,1,0,0:0:0:0:
384,192,42871,1,0,0:0:0:0:
128,192,42871,1,0,0:0:0:0:
298,192,42948,1,0,0:0:0:0:
128,192,42948,1,0,0:0:0:0:
469,192,42948,1,0,0:0:0:0:
42,192,43025,1,0,0:0:0:0:
213,192,43051,1,0,0:0:0:0:
128,192,43102,1,0,0:0:0:0:
384,192,43102,1,0,0:0:0:0:
469,192,43102,1,0,0:0:0:0:
298,192,43153,1,0,0:0:0:0:
213,192,43179,1,0,0:0:0:0:
128,192,43256,1,0,0:0:0:0:
42,192,43256,1,0,0:0:0:0:
469,192,43256,1,0,0:0:0:0:
384,192,43294,1,0,0:0:0:0:
298,192,43333,1,0,0:0:0:0:
213,192,43371,1,0,0:0:0:0:
128,192,43410,1,0,0:0:0:0:
469,192,43410,1,0,0:0:0:0:
384,192,43448,1,0,0:0:0:0:
298,192,43486,1,0,0:0:0:0:
213,192,43525,1,0,0:0:0:0:
42,192,43563,1,0,0:0:0:0:
384,192,43563,1,0,0:0:0:0:
469,192,43563,1,0,0:0:0:0:
128,192,43602,1,0,0:0:0:0:
213,192,43640,1,0,0:0:0:0:
298,192,43679,1,0,0:0:0:0:
42,192,43717,1,0,0:0:0:0:
384,192,43717,1,0,0:0:0:0:
128,192,43756,1,0,0:0:0:0:
213,192,43794,1,0,0:0:0:0:
298,192,43833,1,0,0:0:0:0:
42,192,43871,1,0,0:0:0:0:
384,192,43871,1,0,0:0:0:0:
469,192,43871,1,0,0:0:0:0:
213,192,43948,1,0,0:0:0:0:
384,192,43974,1,0,0:0:0:0:
128,192,44025,1,0,0:0:0:0:
298,192,44025,1,0,0:0:0:0:
42,192,44076,1,0,0:0:0:0:
213,192,44102,1,0,0:0:0:0:
469,192,44102,1,0,0:0:0:0:
42,192,44179,1,0,0:0:0:0:
384,192,44179,1,0,0:0:0:0:
213,192,44179,1,0,0:0:0:0:
298,192,44256,1,0,0:0:0:0:
128,192,44281,1,0,0:0:0:0:
384,192,44333,1,0,0:0:0:0:
469,192,44333,1,0,0:0:0:0:
213,192,44333,1,0,0:0:0:0:
42,192,44384,1,0,0:0:0:0:
298,192,44410,1,0,0:0:0:0:
128,192,44486,1,0,0:0:0:0:
384,192,44486,1,0,0:0:0:0:
469,192,44486,1,0,0:0:0:0:
213,192,44525,1,0,0:0:0:0:
298,192,44563,1,0,0:0:0:0:
384,192,44602,1,0,0:0:0:0:
42,192,44640,1,0,0:0:0:0:
469,192,44640,1,0,0:0:0:0:
128,192,44692,1,0,0:0:0:0:
213,192,44717,1,0,0:0:0:0:
42,192,44794,1,0,0:0:0:0:
384,192,44794,1,0,0:0:0:0:
298,192,44794,1,0,0:0:0:0:
128,192,44833,1,0,0:0:0:0:
213,192,44871,1,0,0:0:0:0:
298,192,44910,1,0,0:0:0:0:
384,192,44948,1,0,0:0:0:0:
469,192,44948,1,0,0:0:0:0:
42,192,44999,1,0,0:0:0:0:
128,192,45025,1,0,0:0:0:0:
213,192,45102,1,0,0:0:0:0:
469,192,45102,1,0,0:0:0:0:
298,192,45102,1,0,0:0:0:0:
42,192,45179,1,0,0:0:0:0:
384,192,45204,1,0,0:0:0:0:
128,192,45256,1,0,0:0:0:0:
298,192,45256,1,0,0:0:0:0:
42,192,45307,1,0,0:0:0:0:
213,192,45333,1,0,0:0:0:0:
384,192,45333,1,0,0:0:0:0:
213,192,45410,1,0,0:0:0:0:
469,192,45410,1,0,0:0:0:0:
128,192,45410,1,0,0:0:0:0:
298,192,45486,1,0,0:0:0:0:
42,192,45512,1,0,0:0:0:0:
213,192,45563,1,0,0:0:0:0:
469,192,45563,1,0,0:0:0:0:
384,192,45563,1,0,0:0:0:0:
128,192,45615,1,0,0:0:0:0:
298,192,45640,1,0,0:0:0:0:
42,192,45717,1,0,0:0:0:0:
213,192,45717,1,0,0:0:0:0:
469,192,45717,1,0,0:0:0:0:
384,192,45756,1,0,0:0:0:0:
128,192,45794,1,0,0:0:0:0:
213,192,45833,1,0,0:0:0:0:
384,192,45871,1,0,0:0:0:0:
42,192,45871,1,0,0:0:0:0:
469,192,45871,1,0,0:0:0:0:
298,192,45910,1,0,0:0:0:0:
128,192,45948,1,0,0:0:0:0:
213,192,45986,1,0,0:0:0:0:
42,192,46025,1,0,0:0:0:0:
469,192,46025,1,0,0:0:0:0:
384,192,46025,1,0,0:0:0:0:
128,192,46063,1,0,0:0:0:0:
213,192,46102,1,0,0:0:0:0:
298,192,46140,1,0,0:0:0:0:
42,192,46179,1,0,0:0:0:0:
384,192,46179,1,0,0:0:0:0:
128,192,46217,1,0,0:0:0:0:
213,192,46256,1,0,0:0:0:0:
298,192,46294,1,0,0:0:0:0:
42,192,46333,1,0,0:0:0:0:
384,192,46333,1,0,0:0:0:0:
469,192,46333,1,0,0:0:0:0:
298,192,46410,1,0,0:0:0:0:
128,192,46435,1,0,0:0:0:0:
213,192,46486,1,0,0:0:0:0:
469,192,46486,1,0,0:0:0:0:
42,192,46538,1,0,0:0:0:0:
128,192,46563,1,0,0:0:0:0:
384,192,46563,1,0,0:0:0:0:
469,192,46640,1,0,0:0:0:0:
384,192,46640,1,0,0:0:0:0:
213,192,46640,1,0,0:0:0:0:
128,192,46717,1,0,0:0:0:0:
298,192,46743,1,0,0:0:0:0:
213,192,46794,1,0,0:0:0:0:
42,192,46794,1,0,0:0:0:0:
469,192,46794,1,0,0:0:0:0:
384,192,46845,1,0,0:0:0:0:
128,192,46871,1,0,0:0:0:0:
42,192,46948,1,0,0:0:0:0:
384,192,46948,1,0,0:0:0:0:
469,192,46948,1,0,0:0:0:0:
298,192,46999,1,0,0:0:0:0:
213,192,47025,1,0,0:0:0:0:
128,192,47051,1,0,0:0:0:0:
213,192,47102,1,0,0:0:0:0:
469,192,47102,1,0,0:0:0:0:
384,192,47153,1,0,0:0:0:0:
298,192,47179,1,0,0:0:0:0:
128,192,47256,1,0,0:0:0:0:
42,192,47256,1,0,0:0:0:0:
469,192,47256,1,0,0:0:0:0:
213,192,47307,1,0,0:0:0:0:
298,192,47333,1,0,0:0:0:0:
384,192,47358,1,0,0:0:0:0:
42,192,47410,1,0,0:0:0:0:
298,192,47410,1,0,0:0:0:0:
128,192,47461,1,0,0:0:0:0:
213,192,47486,1,0,0:0:0:0:
469,192,47563,1,0,0:0:0:0:
42,192,47563,1,0,0:0:0:0:
298,192,47563,1,0,0:0:0:0:
128,192,47640,1,0,0:0:0:0:
384,192,47666,1,0,0:0:0:0:
213,192,47717,1,0,0:0:0:0:
469,192,47717,1,0,0:0:0:0:
298,192,47768,1,0,0:0:0:0:
128,192,47794,1,0,0:0:0:0:
42,192,47794,1,0,0:0:0:0:
42,192,47871,1,0,0:0:0:0:
213,192,47871,1,0,0:0:0:0:
384,192,47871,1,0,0:0:0:0:
469,192,47922,1,0,0:0:0:0:
384,192,47974,1,0,0:0:0:0:
42,192,48025,1,0,0:0:0:0:
298,192,48025,1,0,0:0:0:0:
128,192,48025,1,0,0:0:0:0:
384,192,48076,1,0,0:0:0:0:
298,192,48127,1,0,0:0:0:0:
213,192,48179,1,0,0:0:0:0:
469,192,48179,1,0,0:0:0:0:
42,192,48179,1,0,0:0:0:0:
384,192,48217,1,0,0:0:0:0:
298,192,48256,1,0,0:0:0:0:
213,192,48294,1,0,0:0:0:0:
128,192,48333,1,0,0:0:0:0:
469,192,48333,1,0,0:0:0:0:
213,192,48384,1,0,0:0:0:0:
298,192,48435,1,0,0:0:0:0:
384,192,48486,1,0,0:0:0:0:
42,192,48486,1,0,0:0:0:0:
469,192,48486,1,0,0:0:0:0:
298,192,48525,1,0,0:0:0:0:
213,192,48563,1,0,0:0:0:0:
128,192,48602,1,0,0:0:0:0:
42,192,48640,1,0,0:0:0:0:
384,192,48640,1,0,0:0:0:0:
128,192,48692,1,0,0:0:0:0:
213,192,48743,1,0,0:0:0:0:
42,192,48794,1,0,0:0:0:0:
298,192,48794,1,0,0:0:0:0:
384,192,48794,1,0,0:0:0:0:
469,192,48794,1,0,0:0:0:0:
128,192,48833,1,0,0:0:0:0:
213,192,48871,1,0,0:0:0:0:
298,192,48910,1,0,0:0:0:0:
42,192,48948,1,0,0:0:0:0:
384,192,48948,1,0,0:0:0:0:
298,192,48999,1,0,0:0:0:0:
469,192,49025,1,0,0:0:0:0:
213,192,49051,1,0,0:0:0:0:
128,192,49102,1,0,0:0:0:0:
384,192,49102,1,0,0:0:0:0:
42,192,49102,1,0,0:0:0:0:
298,192,49140,1,0,0:0:0:0:
213,192,49179,1,0,0:0:0:0:
128,192,49217,1,0,0:0:0:0:
469,192,49256,1,0,0:0:0:0:
298,192,49256,1,0,0:0:0:0:
213,192,49294,1,0,0:0:0:0:
128,192,49333,1,0,0:0:0:0:
42,192,49371,1,0,0:0:0:0:
469,192,49410,1,0,0:0:0:0:
213,192,49410,1,0,0:0:0:0:
384,192,49410,1,0,0:0:0:0:
213,192,49563,1,0,0:0:0:0:
128,192,49640,1,0,0:0:0:0:
469,192,49717,1,0,0:0:0:0:
384,192,49717,1,0,0:0:0:0:
384,192,49794,1,0,0:0:0:0:
298,192,49794,1,0,0:0:0:0:
42,192,49871,1,0,0:0:0:0:
128,192,49871,1,0,0:0:0:0:
128,192,49948,1,0,0:0:0:0:
213,192,49948,1,0,0:0:0:0:
384,192,50025,1,0,0:0:0:0:
128,192,50102,1,0,0:0:0:0:
384,192,50179,1,0,0:0:0:0:
298,192,50333,1,0,0:0:0:0:
213,192,50333,1,0,0:0:0:0:
42,192,50333,1,0,0:0:0:0:
469,192,50333,1,0,0:0:0:0:
469,192,50486,1,0,0:0:0:0:
298,192,50486,1,0,0:0:0:0:
213,192,50486,1,0,0:0:0:0:
42,192,50486,1,0,0:0:0:0:
128,192,50640,1,0,0:0:0:0:
42,192,50640,1,0,0:0:0:0:
469,192,50640,1,0,0:0:0:0:
384,192,50640,1,0,0:0:0:0:
384,192,50794,1,0,0:0:0:0:
213,192,50948,1,0,0:0:0:0:
42,192,51256,1,0,0:0:0:0:
213,192,51410,1,0,0:0:0:0:
213,192,51717,1,0,0:0:0:0:
384,192,51871,1,0,0:0:0:0:
213,192,52025,1,0,0:0:0:0:
469,192,52333,1,0,0:0:0:0:
298,192,52486,1,0,0:0:0:0:
128,192,52640,1,0,0:0:0:0:
42,192,52794,1,0,0:0:0:0:
128,192,52948,1,0,0:0:0:0:
213,192,53256,1,0,0:0:0:0:
213,192,53717,1,0,0:0:0:0:
298,192,53871,1,0,0:0:0:0:
469,192,54179,1,0,0:0:0:0:
128,192,54486,1,0,0:0:0:0:
213,192,54640,1,0,0:0:0:0:
128,192,54948,1,0,0:0:0:0:
298,192,55102,1,0,0:0:0:0:
384,192,55256,1,0,0:0:0:0:
469,192,55410,1,0,0:0:0:0:
42,192,55563,1,0,0:0:0:0:
213,192,55717,1,0,0:0:0:0:
384,192,55871,1,0,0:0:0:0:
42,192,56025,1,0,0:0:0:0:
213,192,56179,1,0,0:0:0:0:
384,192,56333,1,0,0:0:0:0:
128,192,56486,1,0,0:0:0:0:
384,192,56640,1,0,0:0:0:0:
469,192,56794,1,0,0:0:0:0:
298,192,56948,1,0,0:0:0:0:
128,192,57102,1,0,0:0:0:0:
469,192,57256,1,0,0:0:0:0:
384,192,57410,1,0,0:0:0:0:
213,192,57563,1,0,0:0:0:0:
128,192,57717,1,0,0:0:0:0:
213,192,57871,1,0,0:0:0:0:
384,192,58025,1,0,0:0:0:0:
213,192,58179,1,0,0:0:0:0:
42,192,58333,1,0,0:0:0:0:
384,192,58486,1,0,0:0:0:0:
213,192,58640,1,0,0:0:0:0:
42,192,58794,1,0,0:0:0:0:
128,192,58948,1,0,0:0:0:0:
298,192,59102,1,0,0:0:0:0:
469,192,59256,1,0,0:0:0:0:
42,192,59256,1,0,0:0:0:0:
298,192,60179,1,0,0:0:0:0:
213,192,60179,1,0,0:0:0:0:
42,192,60179,1,0,0:0:0:0:
469,192,60179,1,0,0:0:0:0:
42,192,60333,1,0,0:0:0:0:
213,192,60333,1,0,0:0:0:0:
298,192,60333,1,0,0:0:0:0:
469,192,60333,1,0,0:0:0:0:
128,192,60486,1,0,0:0:0:0:
42,192,60486,1,0,0:0:0:0:
384,192,60486,1,0,0:0:0:0:
469,192,60486,1,0,0:0:0:0:
213,192,60563,1,0,0:0:0:0:
298,192,60640,1,0,0:0:0:0:
384,192,60717,1,0,0:0:0:0:
42,192,60794,1,0,0:0:0:0:
298,192,60794,1,0,0:0:0:0:
128,192,60871,1,0,0:0:0:0:
384,192,60948,1,0,0:0:0:0:
128,192,61025,1,0,0:0:0:0:
42,192,61102,1,0,0:0:0:0:
469,192,61102,1,0,0:0:0:0:
213,192,61179,1,0,0:0:0:0:
469,192,61256,1,0,0:0:0:0:
213,192,61333,1,0,0:0:0:0:
384,192,61410,1,0,0:0:0:0:
42,192,61410,1,0,0:0:0:0:
128,192,61486,1,0,0:0:0:0:
298,192,61563,1,0,0:0:0:0:
213,192,61640,1,0,0:0:0:0:
42,192,61717,1,0,0:0:0:0:
384,192,61717,1,0,0:0:0:0:
469,192,61717,1,0,0:0:0:0:
128,192,61794,1,0,0:0:0:0:
384,192,61871,1,0,0:0:0:0:
298,192,61948,1,0,0:0:0:0:
128,192,62025,1,0,0:0:0:0:
469,192,62025,1,0,0:0:0:0:
213,192,62102,1,0,0:0:0:0:
469,192,62179,1,0,0:0:0:0:
384,192,62256,1,0,0:0:0:0:
298,192,62333,1,0,0:0:0:0:
42,192,62333,1,0,0:0:0:0:
128,192,62410,1,0,0:0:0:0:
384,192,62486,1,0,0:0:0:0:
213,192,62563,1,0,0:0:0:0:
298,192,62640,1,0,0:0:0:0:
469,192,62640,1,0,0:0:0:0:
42,192,62640,1,0,0:0:0:0:
128,192,62717,1,0,0:0:0:0:
384,192,62717,1,0,0:0:0:0:
213,192,62794,1,0,0:0:0:0:
469,192,62794,1,0,0:0:0:0:
298,192,62871,1,0,0:0:0:0:
42,192,62871,1,0,0:0:0:0:
128,192,62948,1,0,0:0:0:0:
384,192,62948,1,0,0:0:0:0:
469,192,62948,1,0,0:0:0:0:
213,192,63102,1,0,0:0:0:0:
42,192,63102,1,0,0:0:0:0:
298,192,63179,1,0,0:0:0:0:
128,192,63179,1,0,0:0:0:0:
469,192,63256,1,0,0:0:0:0:
213,192,63333,1,0,0:0:0:0:
128,192,63410,1,0,0:0:0:0:
298,192,63410,1,0,0:0:0:0:
213,192,63486,1,0,0:0:0:0:
384,192,63486,1,0,0:0:0:0:
298,192,63563,1,0,0:0:0:0:
469,192,63563,1,0,0:0:0:0:
42,192,63563,1,0,0:0:0:0:
213,192,63717,1,0,0:0:0:0:
384,192,63717,1,0,0:0:0:0:
298,192,63794,1,0,0:0:0:0:
469,192,63794,1,0,0:0:0:0:
42,192,63871,1,0,0:0:0:0:
298,192,63948,1,0,0:0:0:0:
213,192,64025,1,0,0:0:0:0:
384,192,64025,1,0,0:0:0:0:
128,192,64102,1,0,0:0:0:0:
298,192,64102,1,0,0:0:0:0:
213,192,64179,1,0,0:0:0:0:
42,192,64179,1,0,0:0:0:0:
469,192,64179,1,0,0:0:0:0:
384,192,64256,1,0,0:0:0:0:
298,192,64333,1,0,0:0:0:0:
128,192,64333,1,0,0:0:0:0:
42,192,64410,1,0,0:0:0:0:
213,192,64410,1,0,0:0:0:0:
128,192,64486,1,0,0:0:0:0:
469,192,64486,1,0,0:0:0:0:
298,192,64486,1,0,0:0:0:0:
384,192,64563,1,0,0:0:0:0:
213,192,64563,1,0,0:0:0:0:
298,192,64640,1,0,0:0:0:0:
469,192,64640,1,0,0:0:0:0:
213,192,64717,1,0,0:0:0:0:
384,192,64717,1,0,0:0:0:0:
298,192,64794,1,0,0:0:0:0:
128,192,64794,1,0,0:0:0:0:
42,192,64794,1,0,0:0:0:0:
469,192,64871,1,0,0:0:0:0:
384,192,64948,1,0,0:0:0:0:
213,192,64948,1,0,0:0:0:0:
298,192,65025,1,0,0:0:0:0:
128,192,65025,1,0,0:0:0:0:
213,192,65102,1,0,0:0:0:0:
469,192,65102,1,0,0:0:0:0:
42,192,65102,1,0,0:0:0:0:
128,192,65179,1,0,0:0:0:0:
384,192,65179,1,0,0:0:0:0:
298,192,65256,1,0,0:0:0:0:
42,192,65256,1,0,0:0:0:0:
384,192,65333,1,0,0:0:0:0:
213,192,65333,1,0,0:0:0:0:
42,192,65410,1,0,0:0:0:0:
469,192,65410,1,0,0:0:0:0:
298,192,65410,1,0,0:0:0:0:
128,192,65461,1,0,0:0:0:0:
213,192,65512,1,0,0:0:0:0:
42,192,65563,1,0,0:0:0:0:
384,192,65563,1,0,0:0:0:0:
298,192,65615,1,0,0:0:0:0:
469,192,65640,1,0,0:0:0:0:
213,192,65666,1,0,0:0:0:0:
128,192,65717,1,0,0:0:0:0:
384,192,65717,1,0,0:0:0:0:
213,192,65768,1,0,0:0:0:0:
298,192,65820,1,0,0:0:0:0:
128,192,65871,1,0,0:0:0:0:
42,192,65871,1,0,0:0:0:0:
469,192,65871,1,0,0:0:0:0:
384,192,65922,1,0,0:0:0:0:
298,192,65974,1,0,0:0:0:0:
213,192,66025,1,0,0:0:0:0:
42,192,66025,1,0,0:0:0:0:
469,192,66025,1,0,0:0:0:0:
298,192,66076,1,0,0:0:0:0:
384,192,66127,1,0,0:0:0:0:
469,192,66179,1,0,0:0:0:0:
128,192,66179,1,0,0:0:0:0:
213,192,66230,1,0,0:0:0:0:
42,192,66256,1,0,0:0:0:0:
298,192,66281,1,0,0:0:0:0:
128,192,66333,1,0,0:0:0:0:
384,192,66333,1,0,0:0:0:0:
298,192,66384,1,0,0:0:0:0:
469,192,66410,1,0,0:0:0:0:
213,192,66435,1,0,0:0:0:0:
42,192,66486,1,0,0:0:0:0:
298,192,66486,1,0,0:0:0:0:
128,192,66538,1,0,0:0:0:0:
384,192,66563,1,0,0:0:0:0:
213,192,66589,1,0,0:0:0:0:
42,192,66640,1,0,0:0:0:0:
469,192,66640,1,0,0:0:0:0:
298,192,66640,1,0,0:0:0:0:
213,192,66692,1,0,0:0:0:0:
128,192,66743,1,0,0:0:0:0:
42,192,66794,1,0,0:0:0:0:
384,192,66794,1,0,0:0:0:0:
298,192,66845,1,0,0:0:0:0:
469,192,66871,1,0,0:0:0:0:
213,192,66897,1,0,0:0:0:0:
128,192,66948,1,0,0:0:0:0:
384,192,66948,1,0,0:0:0:0:
213,192,66999,1,0,0:0:0:0:
298,192,67051,1,0,0:0:0:0:
128,192,67102,1,0,0:0:0:0:
42,192,67102,1,0,0:0:0:0:
469,192,67102,1,0,0:0:0:0:
384,192,67153,1,0,0:0:0:0:
298,192,67204,1,0,0:0:0:0:
213,192,67256,1,0,0:0:0:0:
42,192,67256,1,0,0:0:0:0:
469,192,67256,1,0,0:0:0:0:
298,192,67307,1,0,0:0:0:0:
384,192,67358,1,0,0:0:0:0:
469,192,67410,1,0,0:0:0:0:
128,192,67410,1,0,0:0:0:0:
213,192,67461,1,0,0:0:0:0:
384,192,67486,1,0,0:0:0:0:
42,192,67512,1,0,0:0:0:0:
128,192,67563,1,0,0:0:0:0:
298,192,67563,1,0,0:0:0:0:
384,192,67615,1,0,0:0:0:0:
213,192,67640,1,0,0:0:0:0:
469,192,67666,1,0,0:0:0:0:
42,192,67717,1,0,0:0:0:0:
298,192,67717,1,0,0:0:0:0:
128,192,67768,1,0,0:0:0:0:
384,192,67794,1,0,0:0:0:0:
213,192,67820,1,0,0:0:0:0:
298,192,67871,1,0,0:0:0:0:
469,192,67871,1,0,0:0:0:0:
42,192,67871,1,0,0:0:0:0:
128,192,67948,1,0,0:0:0:0:
213,192,67948,1,0,0:0:0:0:
384,192,67948,1,0,0:0:0:0:
469,192,68025,1,0,0:0:0:0:
213,192,68025,1,0,0:0:0:0:
298,192,68025,1,0,0:0:0:0:
42,192,68102,1,0,0:0:0:0:
384,192,68102,1,0,0:0:0:0:
128,192,68102,1,0,0:0:0:0:
213,192,68179,1,0,0:0:0:0:
128,192,68179,1,0,0:0:0:0:
469,192,68179,1,0,0:0:0:0:
298,192,68256,1,0,0:0:0:0:
384,192,68256,1,0,0:0:0:0:
42,192,68256,1,0,0:0:0:0:
128,192,68333,1,0,0:0:0:0:
384,192,68333,1,0,0:0:0:0:
469,192,68333,1,0,0:0:0:0:
298,192,68410,1,0,0:0:0:0:
213,192,68410,1,0,0:0:0:0:
42,192,68410,1,0,0:0:0:0:
128,192,68486,1,0,0:0:0:0:
298,192,68486,1,0,0:0:0:0:
384,192,68486,1,0,0:0:0:0:
213,192,68563,1,0,0:0:0:0:
469,192,68563,1,0,0:0:0:0:
42,192,68563,1,0,0:0:0:0:
42,192,68640,1,0,0:0:0:0:
298,192,68640,1,0,0:0:0:0:
469,192,68640,1,0,0:0:0:0:
128,192,68717,1,0,0:0:0:0:
384,192,68717,1,0,0:0:0:0:
213,192,68717,1,0,0:0:0:0:
128,192,68794,1,0,0:0:0:0:
42,192,68794,1,0,0:0:0:0:
298,192,68794,1,0,0:0:0:0:
384,192,68871,1,0,0:0:0:0:
469,192,68871,1,0,0:0:0:0:
213,192,68871,1,0,0:0:0:0:
128,192,68948,1,0,0:0:0:0:
42,192,68948,1,0,0:0:0:0:
298,192,68948,1,0,0:0:0:0:
384,192,69025,1,0,0:0:0:0:
469,192,69025,1,0,0:0:0:0:
213,192,69025,1,0,0:0:0:0:
298,192,69102,1,0,0:0:0:0:
469,192,69102,1,0,0:0:0:0:
128,192,69102,1,0,0:0:0:0:
42,192,69102,1,0,0:0:0:0:
128,192,69333,1,0,0:0:0:0:
128,192,69563,1,0,0:0:0:0:
42,192,69717,1,0,0:0:0:0:
128,192,69717,1,0,0:0:0:0:
298,192,69717,1,0,0:0:0:0:
469,192,69717,1,0,0:0:0:0:
42,192,69948,1,0,0:0:0:0:
213,192,69948,1,0,0:0:0:0:
384,192,69948,1,0,0:0:0:0:
469,192,69948,1,0,0:0:0:0:
128,192,70179,1,0,0:0:0:0:
298,192,70179,1,0,0:0:0:0:
384,192,70179,1,0,0:0:0:0:
469,192,70179,1,0,0:0:0:0:
213,192,70333,1,0,0:0:0:0:
42,192,70333,1,0,0:0:0:0:
469,192,70333,1,0,0:0:0:0:
298,192,70410,1,0,0:0:0:0:
128,192,70410,1,0,0:0:0:0:
384,192,70435,1,0,0:0:0:0:
213,192,70486,1,0,0:0:0:0:
469,192,70486,1,0,0:0:0:0:
42,192,70538,1,0,0:0:0:0:
128,192,70563,1,0,0:0:0:0:
384,192,70563,1,0,0:0:0:0:
298,192,70640,1,0,0:0:0:0:
213,192,70640,1,0,0:0:0:0:
469,192,70640,1,0,0:0:0:0:
42,192,70717,1,0,0:0:0:0:
384,192,70717,1,0,0:0:0:0:
213,192,70743,1,0,0:0:0:0:
128,192,70794,1,0,0:0:0:0:
469,192,70794,1,0,0:0:0:0:
298,192,70845,1,0,0:0:0:0:
213,192,70871,1,0,0:0:0:0:
42,192,70871,1,0,0:0:0:0:
128,192,70948,1,0,0:0:0:0:
384,192,70948,1,0,0:0:0:0:
469,192,70948,1,0,0:0:0:0:
298,192,71025,1,0,0:0:0:0:
42,192,71025,1,0,0:0:0:0:
469,192,71051,1,0,0:0:0:0:
384,192,71102,1,0,0:0:0:0:
213,192,71102,1,0,0:0:0:0:
128,192,71153,1,0,0:0:0:0:
42,192,71179,1,0,0:0:0:0:
298,192,71179,1,0,0:0:0:0:
128,192,71256,1,0,0:0:0:0:
384,192,71256,1,0,0:0:0:0:
469,192,71256,1,0,0:0:0:0:
298,192,71333,1,0,0:0:0:0:
384,192,71333,1,0,0:0:0:0:
213,192,71410,1,0,0:0:0:0:
298,192,71410,1,0,0:0:0:0:
42,192,71410,1,0,0:0:0:0:
128,192,71486,1,0,0:0:0:0:
384,192,71486,1,0,0:0:0:0:
298,192,71563,1,0,0:0:0:0:
42,192,71563,1,0,0:0:0:0:
469,192,71563,1,0,0:0:0:0:
384,192,71640,1,0,0:0:0:0:
213,192,71640,1,0,0:0:0:0:
128,192,71666,1,0,0:0:0:0:
298,192,71717,1,0,0:0:0:0:
469,192,71717,1,0,0:0:0:0:
213,192,71768,1,0,0:0:0:0:
384,192,71794,1,0,0:0:0:0:
42,192,71794,1,0,0:0:0:0:
298,192,71871,1,0,0:0:0:0:
128,192,71871,1,0,0:0:0:0:
469,192,71871,1,0,0:0:0:0:
42,192,71948,1,0,0:0:0:0:
213,192,71948,1,0,0:0:0:0:
469,192,71974,1,0,0:0:0:0:
128,192,72025,1,0,0:0:0:0:
298,192,72025,1,0,0:0:0:0:
384,192,72076,1,0,0:0:0:0:
213,192,72102,1,0,0:0:0:0:
42,192,72102,1,0,0:0:0:0:
128,192,72179,1,0,0:0:0:0:
298,192,72179,1,0,0:0:0:0:
469,192,72179,1,0,0:0:0:0:
128,192,72256,1,0,0:0:0:0:
384,192,72256,1,0,0:0:0:0:
213,192,72333,1,0,0:0:0:0:
298,192,72333,1,0,0:0:0:0:
469,192,72333,1,0,0:0:0:0:
42,192,72410,1,0,0:0:0:0:
128,192,72410,1,0,0:0:0:0:
298,192,72486,1,0,0:0:0:0:
384,192,72486,1,0,0:0:0:0:
469,192,72486,1,0,0:0:0:0:
298,192,72563,1,0,0:0:0:0:
213,192,72563,1,0,0:0:0:0:
213,192,72640,1,0,0:0:0:0:
128,192,72640,1,0,0:0:0:0:
384,192,72640,1,0,0:0:0:0:
128,192,72717,1,0,0:0:0:0:
42,192,72717,1,0,0:0:0:0:
42,192,72794,1,0,0:0:0:0:
469,192,72794,1,0,0:0:0:0:
298,192,72794,1,0,0:0:0:0:
384,192,72871,1,0,0:0:0:0:
213,192,72871,1,0,0:0:0:0:
128,192,72897,1,0,0:0:0:0:
42,192,72948,1,0,0:0:0:0:
298,192,72948,1,0,0:0:0:0:
469,192,72999,1,0,0:0:0:0:
128,192,73025,1,0,0:0:0:0:
384,192,73025,1,0,0:0:0:0:
42,192,73102,1,0,0:0:0:0:
298,192,73102,1,0,0:0:0:0:
213,192,73102,1,0,0:0:0:0:
128,192,73179,1,0,0:0:0:0:
469,192,73179,1,0,0:0:0:0:
298,192,73204,1,0,0:0:0:0:
42,192,73256,1,0,0:0:0:0:
384,192,73256,1,0,0:0:0:0:
213,192,73307,1,0,0:0:0:0:
469,192,73333,1,0,0:0:0:0:
298,192,73333,1,0,0:0:0:0:
42,192,73410,1,0,0:0:0:0:
128,192,73410,1,0,0:0:0:0:
384,192,73410,1,0,0:0:0:0:
469,192,73486,1,0,0:0:0:0:
298,192,73486,1,0,0:0:0:0:
213,192,73512,1,0,0:0:0:0:
384,192,73563,1,0,0:0:0:0:
42,192,73563,1,0,0:0:0:0:
128,192,73615,1,0,0:0:0:0:
469,192,73640,1,0,0:0:0:0:
298,192,73640,1,0,0:0:0:0:
384,192,73717,1,0,0:0:0:0:
128,192,73717,1,0,0:0:0:0:
42,192,73717,1,0,0:0:0:0:
213,192,73794,1,0,0:0:0:0:
128,192,73794,1,0,0:0:0:0:
213,192,73871,1,0,0:0:0:0:
298,192,73871,1,0,0:0:0:0:
469,192,73871,1,0,0:0:0:0:
298,192,73948,1,0,0:0:0:0:
384,192,73948,1,0,0:0:0:0:
42,192,74025,1,0,0:0:0:0:
384,192,74025,1,0,0:0:0:0:
469,192,74025,1,0,0:0:0:0:
213,192,74102,1,0,0:0:0:0:
128,192,74140,1,0,0:0:0:0:
42,192,74179,1,0,0:0:0:0:
384,192,74179,1,0,0:0:0:0:
298,192,74256,1,0,0:0:0:0:
213,192,74294,1,0,0:0:0:0:
128,192,74333,1,0,0:0:0:0:
42,192,74333,1,0,0:0:0:0:
469,192,74333,1,0,0:0:0:0:
384,192,74371,1,0,0:0:0:0:
298,192,74410,1,0,0:0:0:0:
213,192,74448,1,0,0:0:0:0:
128,192,74486,1,0,0:0:0:0:
469,192,74486,1,0,0:0:0:0:
384,192,74525,1,0,0:0:0:0:
298,192,74563,1,0,0:0:0:0:
213,192,74602,1,0,0:0:0:0:
42,192,74640,1,0,0:0:0:0:
384,192,74640,1,0,0:0:0:0:
469,192,74640,1,0,0:0:0:0:
298,192,74717,1,0,0:0:0:0:
42,192,74717,1,0,0:0:0:0:
128,192,74794,1,0,0:0:0:0:
384,192,74794,1,0,0:0:0:0:
469,192,74794,1,0,0:0:0:0:
213,192,74871,1,0,0:0:0:0:
384,192,74871,1,0,0:0:0:0:
469,192,74871,1,0,0:0:0:0:
298,192,74948,1,0,0:0:0:0:
128,192,74948,1,0,0:0:0:0:
42,192,74948,1,0,0:0:0:0:
42,192,75025,1,0,0:0:0:0:
128,192,75025,1,0,0:0:0:0:
213,192,75102,1,0,0:0:0:0:
298,192,75102,1,0,0:0:0:0:
469,192,75102,1,0,0:0:0:0:
213,192,75179,1,0,0:0:0:0:
128,192,75179,1,0,0:0:0:0:
384,192,75256,1,0,0:0:0:0:
42,192,75256,1,0,0:0:0:0:
469,192,75256,1,0,0:0:0:0:
298,192,75333,1,0,0:0:0:0:
128,192,75333,1,0,0:0:0:0:
213,192,75358,1,0,0:0:0:0:
384,192,75410,1,0,0:0:0:0:
469,192,75410,1,0,0:0:0:0:
128,192,75461,1,0,0:0:0:0:
42,192,75486,1,0,0:0:0:0:
213,192,75486,1,0,0:0:0:0:
213,192,75563,1,0,0:0:0:0:
469,192,75563,1,0,0:0:0:0:
298,192,75563,1,0,0:0:0:0:
42,192,75640,1,0,0:0:0:0:
384,192,75640,1,0,0:0:0:0:
128,192,75666,1,0,0:0:0:0:
213,192,75717,1,0,0:0:0:0:
298,192,75717,1,0,0:0:0:0:
384,192,75768,1,0,0:0:0:0:
128,192,75794,1,0,0:0:0:0:
42,192,75794,1,0,0:0:0:0:
298,192,75871,1,0,0:0:0:0:
384,192,75871,1,0,0:0:0:0:
469,192,75871,1,0,0:0:0:0:
213,192,75948,1,0,0:0:0:0:
42,192,75948,1,0,0:0:0:0:
298,192,75974,1,0,0:0:0:0:
469,192,76025,1,0,0:0:0:0:
128,192,76025,1,0,0:0:0:0:
384,192,76076,1,0,0:0:0:0:
42,192,76102,1,0,0:0:0:0:
213,192,76102,1,0,0:0:0:0:
128,192,76179,1,0,0:0:0:0:
384,192,76179,1,0,0:0:0:0:
469,192,76179,1,0,0:0:0:0:
384,192,76256,1,0,0:0:0:0:
298,192,76256,1,0,0:0:0:0:
213,192,76333,1,0,0:0:0:0:
298,192,76333,1,0,0:0:0:0:
42,192,76333,1,0,0:0:0:0:
128,192,76410,1,0,0:0:0:0:
384,192,76410,1,0,0:0:0:0:
213,192,76486,1,0,0:0:0:0:
469,192,76486,1,0,0:0:0:0:
42,192,76486,1,0,0:0:0:0:
128,192,76563,1,0,0:0:0:0:
384,192,76563,1,0,0:0:0:0:
298,192,76589,1,0,0:0:0:0:
213,192,76640,1,0,0:0:0:0:
469,192,76640,1,0,0:0:0:0:
42,192,76692,1,0,0:0:0:0:
128,192,76717,1,0,0:0:0:0:
298,192,76717,1,0,0:0:0:0:
213,192,76794,1,0,0:0:0:0:
384,192,76794,1,0,0:0:0:0:
469,192,76794,1,0,0:0:0:0:
42,192,76871,1,0,0:0:0:0:
298,192,76871,1,0,0:0:0:0:
128,192,76897,1,0,0:0:0:0:
384,192,76948,1,0,0:0:0:0:
213,192,76948,1,0,0:0:0:0:
469,192,76948,1,0,0:0:0:0:
128,192,77025,1,0,0:0:0:0:
384,192,77025,1,0,0:0:0:0:
213,192,77102,1,0,0:0:0:0:
298,192,77102,1,0,0:0:0:0:
42,192,77102,1,0,0:0:0:0:
128,192,77179,1,0,0:0:0:0:
469,192,77179,1,0,0:0:0:0:
384,192,77204,1,0,0:0:0:0:
298,192,77256,1,0,0:0:0:0:
213,192,77256,1,0,0:0:0:0:
42,192,77307,1,0,0:0:0:0:
469,192,77333,1,0,0:0:0:0:
384,192,77333,1,0,0:0:0:0:
128,192,77410,1,0,0:0:0:0:
298,192,77410,1,0,0:0:0:0:
42,192,77410,1,0,0:0:0:0:
469,192,77486,1,0,0:0:0:0:
213,192,77486,1,0,0:0:0:0:
42,192,77512,1,0,0:0:0:0:
384,192,77563,1,0,0:0:0:0:
298,192,77563,1,0,0:0:0:0:
128,192,77563,1,0,0:0:0:0:
42,192,77640,1,0,0:0:0:0:
298,192,77640,1,0,0:0:0:0:
128,192,77717,1,0,0:0:0:0:
384,192,77717,1,0,0:0:0:0:
213,192,77717,1,0,0:0:0:0:
298,192,77794,1,0,0:0:0:0:
469,192,77794,1,0,0:0:0:0:
42,192,77820,1,0,0:0:0:0:
213,192,77871,1,0,0:0:0:0:
384,192,77871,1,0,0:0:0:0:
128,192,77922,1,0,0:0:0:0:
469,192,77948,1,0,0:0:0:0:
298,192,77948,1,0,0:0:0:0:
384,192,78025,1,0,0:0:0:0:
42,192,78025,1,0,0:0:0:0:
213,192,78025,1,0,0:0:0:0:
298,192,78102,1,0,0:0:0:0:
128,192,78102,1,0,0:0:0:0:
469,192,78127,1,0,0:0:0:0:
42,192,78179,1,0,0:0:0:0:
213,192,78179,1,0,0:0:0:0:
384,192,78230,1,0,0:0:0:0:
128,192,78256,1,0,0:0:0:0:
298,192,78256,1,0,0:0:0:0:
213,192,78333,1,0,0:0:0:0:
42,192,78333,1,0,0:0:0:0:
469,192,78333,1,0,0:0:0:0:
384,192,78410,1,0,0:0:0:0:
298,192,78410,1,0,0:0:0:0:
298,192,78486,1,0,0:0:0:0:
213,192,78486,1,0,0:0:0:0:
128,192,78486,1,0,0:0:0:0:
128,192,78563,1,0,0:0:0:0:
384,192,78563,1,0,0:0:0:0:
42,192,78563,1,0,0:0:0:0:
384,192,78640,1,0,0:0:0:0:
469,192,78640,1,0,0:0:0:0:
213,192,78640,1,0,0:0:0:0:
298,192,78717,1,0,0:0:0:0:
213,192,78717,1,0,0:0:0:0:
298,192,78794,1,0,0:0:0:0:
384,192,78794,1,0,0:0:0:0:
42,192,78794,1,0,0:0:0:0:
128,192,78871,1,0,0:0:0:0:
469,192,78871,1,0,0:0:0:0:
298,192,78948,1,0,0:0:0:0:
469,192,78948,1,0,0:0:0:0:
213,192,78948,1,0,0:0:0:0:
42,192,78948,1,0,0:0:0:0:
298,192,79256,1,0,0:0:0:0:
213,192,79256,1,0,0:0:0:0:
42,192,79256,1,0,0:0:0:0:
469,192,79256,1,0,0:0:0:0:
213,192,79563,1,0,0:0:0:0:
469,192,79563,1,0,0:0:0:0:
42,192,79563,1,0,0:0:0:0:
298,192,79602,1,0,0:0:0:0:
384,192,79640,1,0,0:0:0:0:
213,192,79679,1,0,0:0:0:0:
298,192,79717,1,0,0:0:0:0:
128,192,79756,1,0,0:0:0:0:
213,192,79794,1,0,0:0:0:0:
42,192,79833,1,0,0:0:0:0:
128,192,79871,1,0,0:0:0:0:
298,192,79871,1,0,0:0:0:0:
469,192,79871,1,0,0:0:0:0:
384,192,79871,1,0,0:0:0:0:
128,192,80025,1,0,0:0:0:0:
298,192,80025,1,0,0:0:0:0:
384,192,80025,1,0,0:0:0:0:
469,192,80025,1,0,0:0:0:0:
298,192,80179,1,0,0:0:0:0:
469,192,80179,1,0,0:0:0:0:
42,192,80179,1,0,0:0:0:0:
213,192,80256,1,0,0:0:0:0:
384,192,80256,1,0,0:0:0:0:
128,192,80281,1,0,0:0:0:0:
298,192,80333,1,0,0:0:0:0:
42,192,80333,1,0,0:0:0:0:
469,192,80384,1,0,0:0:0:0:
384,192,80410,1,0,0:0:0:0:
128,192,80410,1,0,0:0:0:0:
213,192,80486,1,0,0:0:0:0:
298,192,80486,1,0,0:0:0:0:
42,192,80486,1,0,0:0:0:0:
469,192,80563,1,0,0:0:0:0:
128,192,80563,1,0,0:0:0:0:
298,192,80589,1,0,0:0:0:0:
384,192,80640,1,0,0:0:0:0:
42,192,80640,1,0,0:0:0:0:
213,192,80692,1,0,0:0:0:0:
298,192,80717,1,0,0:0:0:0:
469,192,80717,1,0,0:0:0:0:
384,192,80794,1,0,0:0:0:0:
128,192,80794,1,0,0:0:0:0:
42,192,80794,1,0,0:0:0:0:
213,192,80871,1,0,0:0:0:0:
469,192,80871,1,0,0:0:0:0:
42,192,80897,1,0,0:0:0:0:
128,192,80948,1,0,0:0:0:0:
298,192,80948,1,0,0:0:0:0:
384,192,80999,1,0,0:0:0:0:
469,192,81025,1,0,0:0:0:0:
213,192,81025,1,0,0:0:0:0:
384,192,81102,1,0,0:0:0:0:
128,192,81102,1,0,0:0:0:0:
42,192,81102,1,0,0:0:0:0:
213,192,81179,1,0,0:0:0:0:
128,192,81179,1,0,0:0:0:0:
298,192,81256,1,0,0:0:0:0:
213,192,81256,1,0,0:0:0:0:
469,192,81256,1,0,0:0:0:0:
384,192,81333,1,0,0:0:0:0:
128,192,81333,1,0,0:0:0:0:
213,192,81410,1,0,0:0:0:0:
469,192,81410,1,0,0:0:0:0:
42,192,81410,1,0,0:0:0:0:
128,192,81486,1,0,0:0:0:0:
298,192,81486,1,0,0:0:0:0:
384,192,81512,1,0,0:0:0:0:
213,192,81563,1,0,0:0:0:0:
42,192,81563,1,0,0:0:0:0:
298,192,81615,1,0,0:0:0:0:
128,192,81640,1,0,0:0:0:0:
469,192,81640,1,0,0:0:0:0:
213,192,81717,1,0,0:0:0:0:
384,192,81717,1,0,0:0:0:0:
42,192,81717,1,0,0:0:0:0:
469,192,81794,1,0,0:0:0:0:
298,192,81794,1,0,0:0:0:0:
42,192,81820,1,0,0:0:0:0:
384,192,81871,1,0,0:0:0:0:
213,192,81871,1,0,0:0:0:0:
128,192,81922,1,0,0:0:0:0:
298,192,81948,1,0,0:0:0:0:
469,192,81948,1,0,0:0:0:0:
384,192,82025,1,0,0:0:0:0:
213,192,82025,1,0,0:0:0:0:
42,192,82025,1,0,0:0:0:0:
384,192,82102,1,0,0:0:0:0:
128,192,82102,1,0,0:0:0:0:
298,192,82179,1,0,0:0:0:0:
213,192,82179,1,0,0:0:0:0:
42,192,82179,1,0,0:0:0:0:
469,192,82256,1,0,0:0:0:0:
384,192,82256,1,0,0:0:0:0:
213,192,82333,1,0,0:0:0:0:
128,192,82333,1,0,0:0:0:0:
42,192,82333,1,0,0:0:0:0:
213,192,82410,1,0,0:0:0:0:
298,192,82410,1,0,0:0:0:0:
298,192,82486,1,0,0:0:0:0:
384,192,82486,1,0,0:0:0:0:
128,192,82486,1,0,0:0:0:0:
384,192,82563,1,0,0:0:0:0:
469,192,82563,1,0,0:0:0:0:
469,192,82640,1,0,0:0:0:0:
42,192,82640,1,0,0:0:0:0:
213,192,82640,1,0,0:0:0:0:
128,192,82717,1,0,0:0:0:0:
298,192,82717,1,0,0:0:0:0:
384,192,82743,1,0,0:0:0:0:
469,192,82794,1,0,0:0:0:0:
213,192,82794,1,0,0:0:0:0:
42,192,82845,1,0,0:0:0:0:
384,192,82871,1,0,0:0:0:0:
128,192,82871,1,0,0:0:0:0:
469,192,82948,1,0,0:0:0:0:
213,192,82948,1,0,0:0:0:0:
298,192,82948,1,0,0:0:0:0:
384,192,83025,1,0,0:0:0:0:
42,192,83025,1,0,0:0:0:0:
213,192,83051,1,0,0:0:0:0:
469,192,83102,1,0,0:0:0:0:
128,192,83102,1,0,0:0:0:0:
298,192,83153,1,0,0:0:0:0:
42,192,83179,1,0,0:0:0:0:
213,192,83179,1,0,0:0:0:0:
469,192,83256,1,0,0:0:0:0:
384,192,83256,1,0,0:0:0:0:
128,192,83256,1,0,0:0:0:0:
42,192,83333,1,0,0:0:0:0:
213,192,83333,1,0,0:0:0:0:
298,192,83358,1,0,0:0:0:0:
128,192,83410,1,0,0:0:0:0:
469,192,83410,1,0,0:0:0:0:
384,192,83461,1,0,0:0:0:0:
42,192,83486,1,0,0:0:0:0:
213,192,83486,1,0,0:0:0:0:
128,192,83563,1,0,0:0:0:0:
384,192,83563,1,0,0:0:0:0:
469,192,83563,1,0,0:0:0:0:
298,192,83640,1,0,0:0:0:0:
384,192,83640,1,0,0:0:0:0:
298,192,83717,1,0,0:0:0:0:
213,192,83717,1,0,0:0:0:0:
42,192,83717,1,0,0:0:0:0:
213,192,83794,1,0,0:0:0:0:
128,192,83794,1,0,0:0:0:0:
469,192,83871,1,0,0:0:0:0:
128,192,83871,1,0,0:0:0:0:
42,192,83871,1,0,0:0:0:0:
298,192,83948,1,0,0:0:0:0:
384,192,83986,1,0,0:0:0:0:
469,192,84025,1,0,0:0:0:0:
128,192,84025,1,0,0:0:0:0:
213,192,84102,1,0,0:0:0:0:
298,192,84140,1,0,0:0:0:0:
384,192,84179,1,0,0:0:0:0:
469,192,84179,1,0,0:0:0:0:
42,192,84179,1,0,0:0:0:0:
128,192,84217,1,0,0:0:0:0:
213,192,84256,1,0,0:0:0:0:
298,192,84294,1,0,0:0:0:0:
384,192,84333,1,0,0:0:0:0:
42,192,84333,1,0,0:0:0:0:
128,192,84371,1,0,0:0:0:0:
213,192,84410,1,0,0:0:0:0:
298,192,84448,1,0,0:0:0:0:
469,192,84486,1,0,0:0:0:0:
128,192,84486,1,0,0:0:0:0:
42,192,84486,1,0,0:0:0:0:
213,192,84563,1,0,0:0:0:0:
469,192,84563,1,0,0:0:0:0:
384,192,84640,1,0,0:0:0:0:
128,192,84640,1,0,0:0:0:0:
42,192,84640,1,0,0:0:0:0:
298,192,84717,1,0,0:0:0:0:
128,192,84717,1,0,0:0:0:0:
42,192,84717,1,0,0:0:0:0:
213,192,84794,1,0,0:0:0:0:
384,192,84794,1,0,0:0:0:0:
469,192,84794,1,0,0:0:0:0:
469,192,84871,1,0,0:0:0:0:
384,192,84871,1,0,0:0:0:0:
298,192,84948,1,0,0:0:0:0:
213,192,84948,1,0,0:0:0:0:
42,192,84948,1,0,0:0:0:0:
298,192,85025,1,0,0:0:0:0:
384,192,85025,1,0,0:0:0:0:
128,192,85102,1,0,0:0:0:0:
469,192,85102,1,0,0:0:0:0:
42,192,85102,1,0,0:0:0:0:
213,192,85179,1,0,0:0:0:0:
384,192,85179,1,0,0:0:0:0:
298,192,85204,1,0,0:0:0:0:
128,192,85256,1,0,0:0:0:0:
42,192,85256,1,0,0:0:0:0:
384,192,85307,1,0,0:0:0:0:
469,192,85333,1,0,0:0:0:0:
298,192,85333,1,0,0:0:0:0:
298,192,85410,1,0,0:0:0:0:
42,192,85410,1,0,0:0:0:0:
213,192,85410,1,0,0:0:0:0:
469,192,85486,1,0,0:0:0:0:
128,192,85486,1,0,0:0:0:0:
384,192,85512,1,0,0:0:0:0:
298,192,85563,1,0,0:0:0:0:
213,192,85563,1,0,0:0:0:0:
128,192,85615,1,0,0:0:0:0:
384,192,85640,1,0,0:0:0:0:
469,192,85640,1,0,0:0:0:0:
213,192,85717,1,0,0:0:0:0:
128,192,85717,1,0,0:0:0:0:
42,192,85717,1,0,0:0:0:0:
298,192,85794,1,0,0:0:0:0:
469,192,85794,1,0,0:0:0:0:
213,192,85820,1,0,0:0:0:0:
42,192,85871,1,0,0:0:0:0:
384,192,85871,1,0,0:0:0:0:
128,192,85922,1,0,0:0:0:0:
469,192,85948,1,0,0:0:0:0:
298,192,85948,1,0,0:0:0:0:
384,192,86025,1,0,0:0:0:0:
128,192,86025,1,0,0:0:0:0:
42,192,86025,1,0,0:0:0:0:
128,192,86102,1,0,0:0:0:0:
213,192,86102,1,0,0:0:0:0:
298,192,86179,1,0,0:0:0:0:
213,192,86179,1,0,0:0:0:0:
469,192,86179,1,0,0:0:0:0:
384,192,86256,1,0,0:0:0:0:
128,192,86256,1,0,0:0:0:0:
298,192,86333,1,0,0:0:0:0:
42,192,86333,1,0,0:0:0:0:
469,192,86333,1,0,0:0:0:0:
384,192,86410,1,0,0:0:0:0:
128,192,86410,1,0,0:0:0:0:
213,192,86435,1,0,0:0:0:0:
298,192,86486,1,0,0:0:0:0:
42,192,86486,1,0,0:0:0:0:
469,192,86538,1,0,0:0:0:0:
384,192,86563,1,0,0:0:0:0:
213,192,86563,1,0,0:0:0:0:
298,192,86640,1,0,0:0:0:0:
128,192,86640,1,0,0:0:0:0:
42,192,86640,1,0,0:0:0:0:
469,192,86717,1,0,0:0:0:0:
213,192,86717,1,0,0:0:0:0:
384,192,86743,1,0,0:0:0:0:
128,192,86794,1,0,0:0:0:0:
298,192,86794,1,0,0:0:0:0:
42,192,86794,1,0,0:0:0:0:
384,192,86871,1,0,0:0:0:0:
128,192,86871,1,0,0:0:0:0:
298,192,86948,1,0,0:0:0:0:
213,192,86948,1,0,0:0:0:0:
469,192,86948,1,0,0:0:0:0:
384,192,87025,1,0,0:0:0:0:
42,192,87025,1,0,0:0:0:0:
128,192,87051,1,0,0:0:0:0:
213,192,87102,1,0,0:0:0:0:
298,192,87102,1,0,0:0:0:0:
469,192,87153,1,0,0:0:0:0:
42,192,87179,1,0,0:0:0:0:
128,192,87179,1,0,0:0:0:0:
384,192,87256,1,0,0:0:0:0:
213,192,87256,1,0,0:0:0:0:
469,192,87256,1,0,0:0:0:0:
42,192,87333,1,0,0:0:0:0:
298,192,87333,1,0,0:0:0:0:
469,192,87358,1,0,0:0:0:0:
128,192,87410,1,0,0:0:0:0:
213,192,87410,1,0,0:0:0:0:
384,192,87410,1,0,0:0:0:0:
469,192,87486,1,0,0:0:0:0:
213,192,87486,1,0,0:0:0:0:
384,192,87563,1,0,0:0:0:0:
128,192,87563,1,0,0:0:0:0:
298,192,87563,1,0,0:0:0:0:
213,192,87640,1,0,0:0:0:0:
42,192,87640,1,0,0:0:0:0:
469,192,87666,1,0,0:0:0:0:
298,192,87717,1,0,0:0:0:0:
128,192,87717,1,0,0:0:0:0:
384,192,87768,1,0,0:0:0:0:
42,192,87794,1,0,0:0:0:0:
213,192,87794,1,0,0:0:0:0:
128,192,87871,1,0,0:0:0:0:
469,192,87871,1,0,0:0:0:0:
298,192,87871,1,0,0:0:0:0:
213,192,87948,1,0,0:0:0:0:
384,192,87948,1,0,0:0:0:0:
42,192,87974,1,0,0:0:0:0:
469,192,88025,1,0,0:0:0:0:
298,192,88025,1,0,0:0:0:0:
128,192,88076,1,0,0:0:0:0:
384,192,88102,1,0,0:0:0:0:
213,192,88102,1,0,0:0:0:0:
298,192,88179,1,0,0:0:0:0:
469,192,88179,1,0,0:0:0:0:
42,192,88179,1,0,0:0:0:0:
128,192,88256,1,0,0:0:0:0:
213,192,88256,1,0,0:0:0:0:
213,192,88333,1,0,0:0:0:0:
298,192,88333,1,0,0:0:0:0:
384,192,88333,1,0,0:0:0:0:
384,192,88410,1,0,0:0:0:0:
128,192,88410,1,0,0:0:0:0:
469,192,88410,1,0,0:0:0:0:
128,192,88486,1,0,0:0:0:0:
42,192,88486,1,0,0:0:0:0:
298,192,88486,1,0,0:0:0:0:
213,192,88563,1,0,0:0:0:0:
298,192,88563,1,0,0:0:0:0:
213,192,88640,1,0,0:0:0:0:
128,192,88640,1,0,0:0:0:0:
469,192,88640,1,0,0:0:0:0:
384,192,88717,1,0,0:0:0:0:
42,192,88717,1,0,0:0:0:0:
42,192,88794,1,0,0:0:0:0:
298,192,88794,1,0,0:0:0:0:
469,192,88794,1,0,0:0:0:0:
128,192,88871,1,0,0:0:0:0:
213,192,88948,1,0,0:0:0:0:
298,192,89025,1,0,0:0:0:0:
384,192,89102,1,0,0:0:0:0:
42,192,89102,1,0,0:0:0:0:
298,192,89179,1,0,0:0:0:0:
213,192,89256,1,0,0:0:0:0:
128,192,89333,1,0,0:0:0:0:
213,192,89410,1,0,0:0:0:0:
469,192,89410,1,0,0:0:0:0:
42,192,89410,1,0,0:0:0:0:
298,192,89486,1,0,0:0:0:0:
384,192,89563,1,0,0:0:0:0:
469,192,89640,1,0,0:0:0:0:
128,192,89717,1,0,0:0:0:0:
42,192,89717,1,0,0:0:0:0:
384,192,89717,1,0,0:0:0:0:
213,192,89794,1,0,0:0:0:0:
298,192,89871,1,0,0:0:0:0:
384,192,89948,1,0,0:0:0:0:
128,192,90025,1,0,0:0:0:0:
42,192,90025,1,0,0:0:0:0:
469,192,90025,1,0,0:0:0:0:
384,192,90063,1,0,0:0:0:0:
298,192,90102,1,0,0:0:0:0:
42,192,90179,1,0,0:0:0:0:
469,192,90179,1,0,0:0:0:0:
213,192,90179,1,0,0:0:0:0:
298,192,90256,1,0,0:0:0:0:
384,192,90294,1,0,0:0:0:0:
128,192,90333,1,0,0:0:0:0:
469,192,90333,1,0,0:0:0:0:
42,192,90333,1,0,0:0:0:0:
213,192,90384,1,0,0:0:0:0:
469,192,90435,1,0,0:0:0:0:
128,192,90486,1,0,0:0:0:0:
298,192,90486,1,0,0:0:0:0:
42,192,90538,1,0,0:0:0:0:
298,192,90563,1,0,0:0:0:0:
128,192,90589,1,0,0:0:0:0:
213,192,90640,1,0,0:0:0:0:
384,192,90640,1,0,0:0:0:0:
469,192,90640,1,0,0:0:0:0:
42,192,90679,1,0,0:0:0:0:
128,192,90717,1,0,0:0:0:0:
298,192,90794,1,0,0:0:0:0:
469,192,90794,1,0,0:0:0:0:
384,192,90871,1,0,0:0:0:0:
213,192,90871,1,0,0:0:0:0:
42,192,90871,1,0,0:0:0:0:
298,192,90948,1,0,0:0:0:0:
469,192,90948,1,0,0:0:0:0:
128,192,90948,1,0,0:0:0:0:
384,192,90999,1,0,0:0:0:0:
128,192,91025,1,0,0:0:0:0:
298,192,91051,1,0,0:0:0:0:
213,192,91102,1,0,0:0:0:0:
42,192,91102,1,0,0:0:0:0:
384,192,91153,1,0,0:0:0:0:
469,192,91204,1,0,0:0:0:0:
128,192,91256,1,0,0:0:0:0:
42,192,91256,1,0,0:0:0:0:
384,192,91256,1,0,0:0:0:0:
298,192,91294,1,0,0:0:0:0:
213,192,91333,1,0,0:0:0:0:
42,192,91410,1,0,0:0:0:0:
469,192,91410,1,0,0:0:0:0:
384,192,91410,1,0,0:0:0:0:
213,192,91486,1,0,0:0:0:0:
298,192,91525,1,0,0:0:0:0:
42,192,91563,1,0,0:0:0:0:
469,192,91563,1,0,0:0:0:0:
384,192,91563,1,0,0:0:0:0:
213,192,91615,1,0,0:0:0:0:
469,192,91666,1,0,0:0:0:0:
128,192,91717,1,0,0:0:0:0:
298,192,91717,1,0,0:0:0:0:
42,192,91768,1,0,0:0:0:0:
298,192,91794,1,0,0:0:0:0:
128,192,91820,1,0,0:0:0:0:
213,192,91871,1,0,0:0:0:0:
384,192,91871,1,0,0:0:0:0:
469,192,91871,1,0,0:0:0:0:
42,192,91910,1,0,0:0:0:0:
128,192,91948,1,0,0:0:0:0:
298,192,92025,1,0,0:0:0:0:
469,192,92025,1,0,0:0:0:0:
384,192,92102,1,0,0:0:0:0:
213,192,92102,1,0,0:0:0:0:
42,192,92102,1,0,0:0:0:0:
298,192,92179,1,0,0:0:0:0:
469,192,92179,1,0,0:0:0:0:
213,192,92179,1,0,0:0:0:0:
384,192,92256,1,0,0:0:0:0:
128,192,92256,1,0,0:0:0:0:
213,192,92333,1,0,0:0:0:0:
42,192,92333,1,0,0:0:0:0:
298,192,92333,1,0,0:0:0:0:
384,192,92410,1,0,0:0:0:0:
128,192,92410,1,0,0:0:0:0:
42,192,92486,1,0,0:0:0:0:
469,192,92486,1,0,0:0:0:0:
298,192,92486,1,0,0:0:0:0:
213,192,92525,1,0,0:0:0:0:
128,192,92563,1,0,0:0:0:0:
469,192,92640,1,0,0:0:0:0:
384,192,92640,1,0,0:0:0:0:
298,192,92640,1,0,0:0:0:0:
128,192,92717,1,0,0:0:0:0:
213,192,92756,1,0,0:0:0:0:
469,192,92794,1,0,0:0:0:0:
42,192,92794,1,0,0:0:0:0:
298,192,92794,1,0,0:0:0:0:
128,192,92845,1,0,0:0:0:0:
384,192,92897,1,0,0:0:0:0:
42,192,92948,1,0,0:0:0:0:
298,192,92948,1,0,0:0:0:0:
469,192,92999,1,0,0:0:0:0:
42,192,93025,1,0,0:0:0:0:
213,192,93051,1,0,0:0:0:0:
128,192,93102,1,0,0:0:0:0:
384,192,93102,1,0,0:0:0:0:
469,192,93102,1,0,0:0:0:0:
298,192,93140,1,0,0:0:0:0:
42,192,93179,1,0,0:0:0:0:
213,192,93256,1,0,0:0:0:0:
469,192,93256,1,0,0:0:0:0:
384,192,93333,1,0,0:0:0:0:
128,192,93333,1,0,0:0:0:0:
42,192,93333,1,0,0:0:0:0:
213,192,93410,1,0,0:0:0:0:
298,192,93410,1,0,0:0:0:0:
469,192,93410,1,0,0:0:0:0:
42,192,93461,1,0,0:0:0:0:
298,192,93486,1,0,0:0:0:0:
128,192,93512,1,0,0:0:0:0:
213,192,93563,1,0,0:0:0:0:
469,192,93563,1,0,0:0:0:0:
384,192,93615,1,0,0:0:0:0:
128,192,93666,1,0,0:0:0:0:
213,192,93717,1,0,0:0:0:0:
384,192,93717,1,0,0:0:0:0:
469,192,93717,1,0,0:0:0:0:
128,192,93756,1,0,0:0:0:0:
42,192,93794,1,0,0:0:0:0:
213,192,93871,1,0,0:0:0:0:
298,192,93871,1,0,0:0:0:0:
469,192,93871,1,0,0:0:0:0:
42,192,93948,1,0,0:0:0:0:
128,192,93986,1,0,0:0:0:0:
213,192,94025,1,0,0:0:0:0:
384,192,94025,1,0,0:0:0:0:
469,192,94025,1,0,0:0:0:0:
42,192,94076,1,0,0:0:0:0:
213,192,94127,1,0,0:0:0:0:
384,192,94179,1,0,0:0:0:0:
298,192,94179,1,0,0:0:0:0:
128,192,94230,1,0,0:0:0:0:
384,192,94256,1,0,0:0:0:0:
213,192,94281,1,0,0:0:0:0:
42,192,94333,1,0,0:0:0:0:
298,192,94333,1,0,0:0:0:0:
469,192,94333,1,0,0:0:0:0:
128,192,94371,1,0,0:0:0:0:
384,192,94410,1,0,0:0:0:0:
213,192,94486,1,0,0:0:0:0:
298,192,94486,1,0,0:0:0:0:
42,192,94563,1,0,0:0:0:0:
298,192,94563,1,0,0:0:0:0:
128,192,94563,1,0,0:0:0:0:
384,192,94640,1,0,0:0:0:0:
128,192,94640,1,0,0:0:0:0:
469,192,94640,1,0,0:0:0:0:
298,192,94717,1,0,0:0:0:0:
213,192,94717,1,0,0:0:0:0:
42,192,94794,1,0,0:0:0:0:
469,192,94794,1,0,0:0:0:0:
128,192,94794,1,0,0:0:0:0:
384,192,94871,1,0,0:0:0:0:
213,192,94871,1,0,0:0:0:0:
298,192,94948,1,0,0:0:0:0:
469,192,94948,1,0,0:0:0:0:
42,192,94948,1,0,0:0:0:0:
128,192,94986,1,0,0:0:0:0:
213,192,95025,1,0,0:0:0:0:
469,192,95102,1,0,0:0:0:0:
42,192,95102,1,0,0:0:0:0:
298,192,95102,1,0,0:0:0:0:
213,192,95179,1,0,0:0:0:0:
128,192,95217,1,0,0:0:0:0:
384,192,95256,1,0,0:0:0:0:
42,192,95256,1,0,0:0:0:0:
469,192,95256,1,0,0:0:0:0:
298,192,95307,1,0,0:0:0:0:
42,192,95358,1,0,0:0:0:0:
384,192,95410,1,0,0:0:0:0:
213,192,95410,1,0,0:0:0:0:
469,192,95461,1,0,0:0:0:0:
213,192,95486,1,0,0:0:0:0:
384,192,95512,1,0,0:0:0:0:
298,192,95563,1,0,0:0:0:0:
128,192,95563,1,0,0:0:0:0:
42,192,95563,1,0,0:0:0:0:
469,192,95602,1,0,0:0:0:0:
384,192,95640,1,0,0:0:0:0:
213,192,95717,1,0,0:0:0:0:
42,192,95717,1,0,0:0:0:0:
128,192,95794,1,0,0:0:0:0:
298,192,95794,1,0,0:0:0:0:
469,192,95794,1,0,0:0:0:0:
213,192,95871,1,0,0:0:0:0:
42,192,95871,1,0,0:0:0:0:
384,192,95871,1,0,0:0:0:0:
128,192,95922,1,0,0:0:0:0:
384,192,95948,1,0,0:0:0:0:
213,192,95974,1,0,0:0:0:0:
298,192,96025,1,0,0:0:0:0:
469,192,96025,1,0,0:0:0:0:
128,192,96076,1,0,0:0:0:0:
42,192,96127,1,0,0:0:0:0:
384,192,96179,1,0,0:0:0:0:
469,192,96179,1,0,0:0:0:0:
128,192,96179,1,0,0:0:0:0:
213,192,96217,1,0,0:0:0:0:
298,192,96256,1,0,0:0:0:0:
469,192,96333,1,0,0:0:0:0:
42,192,96333,1,0,0:0:0:0:
128,192,96333,1,0,0:0:0:0:
298,192,96410,1,0,0:0:0:0:
213,192,96448,1,0,0:0:0:0:
469,192,96486,1,0,0:0:0:0:
42,192,96486,1,0,0:0:0:0:
128,192,96486,1,0,0:0:0:0:
298,192,96538,1,0,0:0:0:0:
42,192,96589,1,0,0:0:0:0:
384,192,96640,1,0,0:0:0:0:
213,192,96640,1,0,0:0:0:0:
469,192,96692,1,0,0:0:0:0:
213,192,96717,1,0,0:0:0:0:
384,192,96743,1,0,0:0:0:0:
298,192,96794,1,0,0:0:0:0:
128,192,96794,1,0,0:0:0:0:
42,192,96794,1,0,0:0:0:0:
469,192,96833,1,0,0:0:0:0:
384,192,96871,1,0,0:0:0:0:
213,192,96948,1,0,0:0:0:0:
42,192,96948,1,0,0:0:0:0:
128,192,97025,1,0,0:0:0:0:
298,192,97025,1,0,0:0:0:0:
469,192,97025,1,0,0:0:0:0:
213,192,97102,1,0,0:0:0:0:
42,192,97102,1,0,0:0:0:0:
298,192,97102,1,0,0:0:0:0:
128,192,97179,1,0,0:0:0:0:
384,192,97179,1,0,0:0:0:0:
298,192,97256,1,0,0:0:0:0:
469,192,97256,1,0,0:0:0:0:
213,192,97256,1,0,0:0:0:0:
128,192,97333,1,0,0:0:0:0:
384,192,97333,1,0,0:0:0:0:
469,192,97410,1,0,0:0:0:0:
42,192,97410,1,0,0:0:0:0:
213,192,97410,1,0,0:0:0:0:
298,192,97448,1,0,0:0:0:0:
384,192,97486,1,0,0:0:0:0:
42,192,97563,1,0,0:0:0:0:
128,192,97563,1,0,0:0:0:0:
213,192,97563,1,0,0:0:0:0:
384,192,97640,1,0,0:0:0:0:
298,192,97679,1,0,0:0:0:0:
42,192,97717,1,0,0:0:0:0:
469,192,97717,1,0,0:0:0:0:
213,192,97717,1,0,0:0:0:0:
384,192,97768,1,0,0:0:0:0:
128,192,97820,1,0,0:0:0:0:
469,192,97871,1,0,0:0:0:0:
213,192,97871,1,0,0:0:0:0:
42,192,97922,1,0,0:0:0:0:
469,192,97948,1,0,0:0:0:0:
298,192,97974,1,0,0:0:0:0:
384,192,98025,1,0,0:0:0:0:
128,192,98025,1,0,0:0:0:0:
42,192,98025,1,0,0:0:0:0:
213,192,98063,1,0,0:0:0:0:
469,192,98102,1,0,0:0:0:0:
298,192,98179,1,0,0:0:0:0:
42,192,98179,1,0,0:0:0:0:
128,192,98256,1,0,0:0:0:0:
384,192,98256,1,0,0:0:0:0:
469,192,98256,1,0,0:0:0:0:
298,192,98333,1,0,0:0:0:0:
213,192,98333,1,0,0:0:0:0:
42,192,98333,1,0,0:0:0:0:
469,192,98384,1,0,0:0:0:0:
213,192,98410,1,0,0:0:0:0:
384,192,98435,1,0,0:0:0:0:
298,192,98486,1,0,0:0:0:0:
42,192,98486,1,0,0:0:0:0:
128,192,98538,1,0,0:0:0:0:
384,192,98589,1,0,0:0:0:0:
213,192,98640,1,0,0:0:0:0:
42,192,98640,1,0,0:0:0:0:
469,192,98640,1,0,0:0:0:0:
298,192,98948,1,0,0:0:0:0:
128,192,98948,1,0,0:0:0:0:
469,192,98948,1,0,0:0:0:0:
213,192,99102,1,0,0:0:0:0:
42,192,99102,1,0,0:0:0:0:
469,192,99102,1,0,0:0:0:0:
298,192,99256,1,0,0:0:0:0:
469,192,99256,1,0,0:0:0:0:
42,192,99256,1,0,0:0:0:0:
42,192,99410,1,0,0:0:0:0:
384,192,99410,1,0,0:0:0:0:
213,192,99410,1,0,0:0:0:0:
469,192,99563,1,0,0:0:0:0:
298,192,99563,1,0,0:0:0:0:
213,192,99563,1,0,0:0:0:0:
384,192,99717,1,0,0:0:0:0:
213,192,99717,1,0,0:0:0:0:
128,192,99717,1,0,0:0:0:0:
42,192,99871,1,0,0:0:0:0:
298,192,99871,1,0,0:0:0:0:
469,192,99871,1,0,0:0:0:0:
128,192,99871,1,0,0:0:0:0:
213,192,99948,1,0,0:0:0:0:
128,192,100025,1,0,0:0:0:0:
469,192,100102,1,0,0:0:0:0:
384,192,100127,1,0,0:0:0:0:
213,192,100179,1,0,0:0:0:0:
42,192,100179,1,0,0:0:0:0:
469,192,100256,1,0,0:0:0:0:
384,192,100281,1,0,0:0:0:0:
298,192,100333,1,0,0:0:0:0:
128,192,100333,1,0,0:0:0:0:
42,192,100384,1,0,0:0:0:0:
128,192,100435,1,0,0:0:0:0:
213,192,100486,1,0,0:0:0:0:
384,192,100486,1,0,0:0:0:0:
469,192,100486,1,0,0:0:0:0:
42,192,100538,1,0,0:0:0:0:
298,192,100589,1,0,0:0:0:0:
128,192,100640,1,0,0:0:0:0:
469,192,100640,1,0,0:0:0:0:
298,192,100692,1,0,0:0:0:0:
128,192,100717,1,0,0:0:0:0:
384,192,100743,1,0,0:0:0:0:
213,192,100794,1,0,0:0:0:0:
42,192,100794,1,0,0:0:0:0:
469,192,100794,1,0,0:0:0:0:
298,192,100845,1,0,0:0:0:0:
384,192,100897,1,0,0:0:0:0:
128,192,100948,1,0,0:0:0:0:
42,192,100948,1,0,0:0:0:0:
469,192,100948,1,0,0:0:0:0:
213,192,100999,1,0,0:0:0:0:
384,192,101025,1,0,0:0:0:0:
298,192,101051,1,0,0:0:0:0:
42,192,101102,1,0,0:0:0:0:
469,192,101102,1,0,0:0:0:0:
213,192,101102,1,0,0:0:0:0:
298,192,101179,1,0,0:0:0:0:
128,192,101256,1,0,0:0:0:0:
469,192,101333,1,0,0:0:0:0:
384,192,101358,1,0,0:0:0:0:
213,192,101410,1,0,0:0:0:0:
42,192,101410,1,0,0:0:0:0:
469,192,101486,1,0,0:0:0:0:
384,192,101512,1,0,0:0:0:0:
298,192,101563,1,0,0:0:0:0:
128,192,101563,1,0,0:0:0:0:
42,192,101615,1,0,0:0:0:0:
128,192,101666,1,0,0:0:0:0:
213,192,101717,1,0,0:0:0:0:
384,192,101717,1,0,0:0:0:0:
469,192,101717,1,0,0:0:0:0:
42,192,101768,1,0,0:0:0:0:
298,192,101820,1,0,0:0:0:0:
213,192,101871,1,0,0:0:0:0:
469,192,101871,1,0,0:0:0:0:
42,192,101922,1,0,0:0:0:0:
213,192,101948,1,0,0:0:0:0:
298,192,101974,1,0,0:0:0:0:
384,192,102025,1,0,0:0:0:0:
128,192,102025,1,0,0:0:0:0:
469,192,102025,1,0,0:0:0:0:
213,192,102076,1,0,0:0:0:0:
42,192,102127,1,0,0:0:0:0:
128,192,102179,1,0,0:0:0:0:
298,192,102179,1,0,0:0:0:0:
469,192,102179,1,0,0:0:0:0:
213,192,102230,1,0,0:0:0:0:
384,192,102256,1,0,0:0:0:0:
128,192,102281,1,0,0:0:0:0:
42,192,102333,1,0,0:0:0:0:
469,192,102333,1,0,0:0:0:0:
298,192,102333,1,0,0:0:0:0:
213,192,102410,1,0,0:0:0:0:
128,192,102486,1,0,0:0:0:0:
42,192,102486,1,0,0:0:0:0:
469,192,102563,1,0,0:0:0:0:
384,192,102589,1,0,0:0:0:0:
213,192,102640,1,0,0:0:0:0:
42,192,102640,1,0,0:0:0:0:
469,192,102717,1,0,0:0:0:0:
384,192,102743,1,0,0:0:0:0:
298,192,102794,1,0,0:0:0:0:
128,192,102794,1,0,0:0:0:0:
42,192,102845,1,0,0:0:0:0:
128,192,102897,1,0,0:0:0:0:
213,192,102948,1,0,0:0:0:0:
384,192,102948,1,0,0:0:0:0:
469,192,102948,1,0,0:0:0:0:
42,192,102999,1,0,0:0:0:0:
128,192,103051,1,0,0:0:0:0:
298,192,103102,1,0,0:0:0:0:
469,192,103102,1,0,0:0:0:0:
42,192,103153,1,0,0:0:0:0:
298,192,103179,1,0,0:0:0:0:
128,192,103204,1,0,0:0:0:0:
384,192,103256,1,0,0:0:0:0:
213,192,103256,1,0,0:0:0:0:
469,192,103256,1,0,0:0:0:0:
42,192,103307,1,0,0:0:0:0:
384,192,103358,1,0,0:0:0:0:
42,192,103410,1,0,0:0:0:0:
213,192,103410,1,0,0:0:0:0:
469,192,103410,1,0,0:0:0:0:
298,192,103461,1,0,0:0:0:0:
128,192,103486,1,0,0:0:0:0:
384,192,103512,1,0,0:0:0:0:
213,192,103563,1,0,0:0:0:0:
469,192,103563,1,0,0:0:0:0:
42,192,103563,1,0,0:0:0:0:
298,192,103640,1,0,0:0:0:0:
128,192,103717,1,0,0:0:0:0:
469,192,103794,1,0,0:0:0:0:
384,192,103820,1,0,0:0:0:0:
42,192,103871,1,0,0:0:0:0:
213,192,103871,1,0,0:0:0:0:
469,192,103948,1,0,0:0:0:0:
384,192,103974,1,0,0:0:0:0:
128,192,104025,1,0,0:0:0:0:
298,192,104025,1,0,0:0:0:0:
42,192,104076,1,0,0:0:0:0:
128,192,104127,1,0,0:0:0:0:
469,192,104179,1,0,0:0:0:0:
384,192,104179,1,0,0:0:0:0:
213,192,104179,1,0,0:0:0:0:
298,192,104230,1,0,0:0:0:0:
128,192,104281,1,0,0:0:0:0:
384,192,104333,1,0,0:0:0:0:
42,192,104333,1,0,0:0:0:0:
213,192,104384,1,0,0:0:0:0:
384,192,104410,1,0,0:0:0:0:
128,192,104435,1,0,0:0:0:0:
469,192,104486,1,0,0:0:0:0:
42,192,104486,1,0,0:0:0:0:
298,192,104486,1,0,0:0:0:0:
213,192,104538,1,0,0:0:0:0:
298,192,104589,1,0,0:0:0:0:
469,192,104640,1,0,0:0:0:0:
213,192,104640,1,0,0:0:0:0:
42,192,104640,1,0,0:0:0:0:
384,192,104692,1,0,0:0:0:0:
128,192,104717,1,0,0:0:0:0:
298,192,104743,1,0,0:0:0:0:
469,192,104794,1,0,0:0:0:0:
213,192,104794,1,0,0:0:0:0:
42,192,104794,1,0,0:0:0:0:
298,192,104871,1,0,0:0:0:0:
384,192,104948,1,0,0:0:0:0:
42,192,105025,1,0,0:0:0:0:
128,192,105051,1,0,0:0:0:0:
298,192,105102,1,0,0:0:0:0:
469,192,105102,1,0,0:0:0:0:
42,192,105179,1,0,0:0:0:0:
128,192,105204,1,0,0:0:0:0:
213,192,105256,1,0,0:0:0:0:
384,192,105256,1,0,0:0:0:0:
469,192,105307,1,0,0:0:0:0:
384,192,105358,1,0,0:0:0:0:
298,192,105410,1,0,0:0:0:0:
128,192,105410,1,0,0:0:0:0:
42,192,105410,1,0,0:0:0:0:
469,192,105461,1,0,0:0:0:0:
213,192,105512,1,0,0:0:0:0:
384,192,105563,1,0,0:0:0:0:
42,192,105563,1,0,0:0:0:0:
213,192,105615,1,0,0:0:0:0:
384,192,105640,1,0,0:0:0:0:
128,192,105666,1,0,0:0:0:0:
298,192,105717,1,0,0:0:0:0:
469,192,105717,1,0,0:0:0:0:
42,192,105717,1,0,0:0:0:0:
213,192,105768,1,0,0:0:0:0:
128,192,105820,1,0,0:0:0:0:
384,192,105871,1,0,0:0:0:0:
469,192,105871,1,0,0:0:0:0:
42,192,105871,1,0,0:0:0:0:
298,192,105922,1,0,0:0:0:0:
128,192,105948,1,0,0:0:0:0:
213,192,105974,1,0,0:0:0:0:
469,192,106025,1,0,0:0:0:0:
42,192,106025,1,0,0:0:0:0:
298,192,106025,1,0,0:0:0:0:
213,192,106102,1,0,0:0:0:0:
384,192,106179,1,0,0:0:0:0:
42,192,106256,1,0,0:0:0:0:
128,192,106281,1,0,0:0:0:0:
298,192,106333,1,0,0:0:0:0:
469,192,106333,1,0,0:0:0:0:
42,192,106410,1,0,0:0:0:0:
128,192,106435,1,0,0:0:0:0:
213,192,106486,1,0,0:0:0:0:
384,192,106486,1,0,0:0:0:0:
469,192,106538,1,0,0:0:0:0:
384,192,106589,1,0,0:0:0:0:
298,192,106640,1,0,0:0:0:0:
128,192,106640,1,0,0:0:0:0:
42,192,106640,1,0,0:0:0:0:
469,192,106692,1,0,0:0:0:0:
213,192,106743,1,0,0:0:0:0:
298,192,106794,1,0,0:0:0:0:
42,192,106794,1,0,0:0:0:0:
469,192,106845,1,0,0:0:0:0:
298,192,106871,1,0,0:0:0:0:
213,192,106897,1,0,0:0:0:0:
128,192,106948,1,0,0:0:0:0:
384,192,106948,1,0,0:0:0:0:
42,192,106948,1,0,0:0:0:0:
298,192,106999,1,0,0:0:0:0:
469,192,107051,1,0,0:0:0:0:
384,192,107102,1,0,0:0:0:0:
213,192,107102,1,0,0:0:0:0:
42,192,107102,1,0,0:0:0:0:
298,192,107153,1,0,0:0:0:0:
128,192,107179,1,0,0:0:0:0:
384,192,107204,1,0,0:0:0:0:
469,192,107256,1,0,0:0:0:0:
42,192,107256,1,0,0:0:0:0:
213,192,107256,1,0,0:0:0:0:
298,192,107333,1,0,0:0:0:0:
384,192,107410,1,0,0:0:0:0:
42,192,107486,1,0,0:0:0:0:
128,192,107512,1,0,0:0:0:0:
298,192,107563,1,0,0:0:0:0:
469,192,107563,1,0,0:0:0:0:
42,192,107640,1,0,0:0:0:0:
128,192,107666,1,0,0:0:0:0:
213,192,107717,1,0,0:0:0:0:
384,192,107717,1,0,0:0:0:0:
469,192,107768,1,0,0:0:0:0:
384,192,107820,1,0,0:0:0:0:
298,192,107871,1,0,0:0:0:0:
128,192,107871,1,0,0:0:0:0:
42,192,107871,1,0,0:0:0:0:
469,192,107922,1,0,0:0:0:0:
384,192,107974,1,0,0:0:0:0:
213,192,108025,1,0,0:0:0:0:
42,192,108025,1,0,0:0:0:0:
469,192,108063,1,0,0:0:0:0:
213,192,108102,1,0,0:0:0:0:
384,192,108102,1,0,0:0:0:0:
128,192,108179,1,0,0:0:0:0:
298,192,108179,1,0,0:0:0:0:
42,192,108179,1,0,0:0:0:0:
469,192,108230,1,0,0:0:0:0:
128,192,108281,1,0,0:0:0:0:
469,192,108333,1,0,0:0:0:0:
298,192,108333,1,0,0:0:0:0:
42,192,108333,1,0,0:0:0:0:
42,192,108410,1,0,0:0:0:0:
298,192,108410,1,0,0:0:0:0:
469,192,108486,1,0,0:0:0:0:
128,192,108486,1,0,0:0:0:0:
213,192,108486,1,0,0:0:0:0:
213,192,108640,1,0,0:0:0:0:
384,192,108640,1,0,0:0:0:0:
469,192,108640,1,0,0:0:0:0:
384,192,108794,1,0,0:0:0:0:
128,192,108794,1,0,0:0:0:0:
42,192,108794,1,0,0:0:0:0:
128,192,108948,1,0,0:0:0:0:
298,192,108948,1,0,0:0:0:0:
384,192,108948,1,0,0:0:0:0:
42,192,109025,1,0,0:0:0:0:
213,192,109102,1,0,0:0:0:0:
469,192,109102,1,0,0:0:0:0:
298,192,109102,1,0,0:0:0:0:
128,192,109179,1,0,0:0:0:0:
213,192,109256,1,0,0:0:0:0:
42,192,109410,1,0,0:0:0:0:
298,192,109410,1,0,0:0:0:0:
384,192,109410,1,0,0:0:0:0:
469,192,109486,1,0,0:0:0:0:
213,192,109563,1,0,0:0:0:0:
128,192,109563,1,0,0:0:0:0:
384,192,109563,1,0,0:0:0:0:
213,192,109640,1,0,0:0:0:0:
298,192,109640,1,0,0:0:0:0:
469,192,109717,1,0,0:0:0:0:
384,192,109717,1,0,0:0:0:0:
128,192,109717,1,0,0:0:0:0:
42,192,109717,1,0,0:0:0:0:
