osu file format v14

[General]
AudioFilename: Fastest Crash (cut)_4.mp3
AudioLeadIn: 0
PreviewTime: 470
Countdown: 0
SampleSet: Normal
StackLeniency: 0.7
Mode: 3
LetterboxInBreaks: 0
SpecialStyle: 0
WidescreenStoryboard: 0

[Editor]
DistanceSpacing: 1
BeatDivisor: 8
GridSize: 8
TimelineZoom: 1.6

[Metadata]
Title:tyrcs' 6K Collection Pack
TitleUnicode:tyrcs' 6K Collection Pack
Artist:Various Artists
ArtistUnicode:Various Artists
Creator:tyrcs
Version:Camellia - Fastest Crash (Cut Ver.) [21]
Source:
Tags:BMS The Quick Brown Fox Break TQBF renard LeaF 失望Choco Shitsubou Choco goreshit slavik goblins Aitsuki Nakuru 藍月なくる Monochrome Butterfly 現実をカットアップしてみた yu^ta Genjitsu o Cut-up Shite Mita -45 Aci-L A c i - L Yoshikawa-45 cornandbeans {Blaze} 八大地獄邪魂転生狂葬散火歌 さかみりと Sakamirito Hachidaijigoku Jakontensei Kyousou Sanbika Sakamiya 一之瀬りと Rito Ichinose かめりあ feat. ななひら ベィスドロップ・フリークス Camellia feat. Nanahira Bassdrop Freaks DEAF KEV Invincible ueotan Mario Paint (Time Regression Mix for BMS) Oerba Tanaka Vanilla Y ヲルバ=田中・ヴァニラ Schwerkraft ROKINA ロキナ Silentroom Nhelv SHAGAN DAISHI KAKU P-MODEL 遮眼大師 核P-MODEL 平沢進 Susumu Hirasawa ああああ AAAA lifework LUZE LuzeriA ルゼ katagiri ch3rry cherry かたぎり Laur Sheriruth (Laur Remix) Team Grimoire vs. Laur Grievous Lady Getty vs. DJ DiA Ops Code Rapture Vicetone & Tony Igy Astronomia (Camellia Remix) Coffin Dance かめりあ Fastest Crash Cut Tatsh reunion Asymmetry Reol アシンメトリー れをる
BeatmapID:3507112
BeatmapSetID:1716337

[Difficulty]
HPDrainRate:8
CircleSize:6
OverallDifficulty:8
ApproachRate:5
SliderMultiplier:1.4
SliderTickRate:1

[Events]
//Background and Video events
0,0,"tyrcs' 6K Collection Pack_3.jpg",0,0
//Break Periods
//Storyboard Layer 0 (Background)
//Storyboard Layer 1 (Fail)
//Storyboard Layer 2 (Pass)
//Storyboard Layer 3 (Foreground)
//Storyboard Layer 4 (Overlay)
//Storyboard Sound Samples

[TimingPoints]
470,285.714285714286,4,1,0,10,1,0

[HitObjects]
384,192,470,5,0,0:0:0:0:
298,192,470,1,0,0:0:0:0:
469,192,470,1,0,0:0:0:0:
42,192,470,1,0,0:0:0:0:
213,192,612,1,0,0:0:0:0:
384,192,755,1,0,0:0:0:0:
469,192,898,1,0,0:0:0:0:
298,192,1041,1,0,0:0:0:0:
42,192,1327,1,0,0:0:0:0:
213,192,1470,1,0,0:0:0:0:
384,192,1612,1,0,0:0:0:0:
469,192,1755,1,0,0:0:0:0:
298,192,1898,1,0,0:0:0:0:
42,192,2184,1,0,0:0:0:0:
213,192,2327,1,0,0:0:0:0:
384,192,2470,1,0,0:0:0:0:
469,192,2612,1,0,0:0:0:0:
298,192,2755,1,0,0:0:0:0:
128,192,2755,1,0,0:0:0:0:
42,192,3041,1,0,0:0:0:0:
213,192,3184,1,0,0:0:0:0:
384,192,3327,1,0,0:0:0:0:
469,192,3470,1,0,0:0:0:0:
298,192,3612,1,0,0:0:0:0:
128,192,3898,1,0,0:0:0:0:
42,192,3898,1,0,0:0:0:0:
213,192,4041,1,0,0:0:0:0:
384,192,4184,1,0,0:0:0:0:
469,192,4327,1,0,0:0:0:0:
298,192,4470,1,0,0:0:0:0:
469,192,4755,1,0,0:0:0:0:
213,192,4898,1,0,0:0:0:0:
384,192,5041,1,0,0:0:0:0:
42,192,5041,1,0,0:0:0:0:
213,192,5184,1,0,0:0:0:0:
384,192,5327,1,0,0:0:0:0:
469,192,5470,1,0,0:0:0:0:
298,192,5612,1,0,0:0:0:0:
42,192,5898,1,0,0:0:0:0:
213,192,6041,1,0,0:0:0:0:
384,192,6184,1,0,0:0:0:0:
469,192,6327,1,0,0:0:0:0:
298,192,6470,1,0,0:0:0:0:
42,192,6755,1,0,0:0:0:0:
213,192,6898,1,0,0:0:0:0:
384,192,7041,1,0,0:0:0:0:
469,192,7184,1,0,0:0:0:0:
298,192,7327,1,0,0:0:0:0:
42,192,7327,1,0,0:0:0:0:
42,192,7612,1,0,0:0:0:0:
213,192,7755,1,0,0:0:0:0:
384,192,7898,1,0,0:0:0:0:
469,192,8041,1,0,0:0:0:0:
298,192,8184,1,0,0:0:0:0:
42,192,8470,1,0,0:0:0:0:
469,192,8470,1,0,0:0:0:0:
213,192,8612,1,0,0:0:0:0:
384,192,8755,1,0,0:0:0:0:
469,192,8898,1,0,0:0:0:0:
298,192,9041,1,0,0:0:0:0:
469,192,9327,1,0,0:0:0:0:
298,192,9470,1,0,0:0:0:0:
42,192,9612,1,0,0:0:0:0:
469,192,9612,1,0,0:0:0:0:
213,192,9755,1,0,0:0:0:0:
384,192,9898,1,0,0:0:0:0:
469,192,10041,1,0,0:0:0:0:
298,192,10184,1,0,0:0:0:0:
42,192,10470,1,0,0:0:0:0:
213,192,10612,1,0,0:0:0:0:
384,192,10755,1,0,0:0:0:0:
469,192,10898,1,0,0:0:0:0:
298,192,11041,1,0,0:0:0:0:
42,192,11327,1,0,0:0:0:0:
213,192,11470,1,0,0:0:0:0:
384,192,11612,1,0,0:0:0:0:
469,192,11755,1,0,0:0:0:0:
298,192,11898,1,0,0:0:0:0:
42,192,11898,1,0,0:0:0:0:
42,192,12184,1,0,0:0:0:0:
213,192,12327,1,0,0:0:0:0:
384,192,12470,1,0,0:0:0:0:
42,192,12470,1,0,0:0:0:0:
469,192,12612,1,0,0:0:0:0:
298,192,12755,1,0,0:0:0:0:
42,192,12755,1,0,0:0:0:0:
42,192,13041,1,0,0:0:0:0:
469,192,13041,1,0,0:0:0:0:
298,192,13112,1,0,0:0:0:0:
469,192,13184,1,0,0:0:0:0:
213,192,13184,1,0,0:0:0:0:
384,192,13327,1,0,0:0:0:0:
42,192,13327,1,0,0:0:0:0:
469,192,13470,1,0,0:0:0:0:
298,192,13612,1,0,0:0:0:0:
42,192,13612,1,0,0:0:0:0:
128,192,13684,1,0,0:0:0:0:
213,192,13755,1,0,0:0:0:0:
298,192,13827,1,0,0:0:0:0:
384,192,13898,1,0,0:0:0:0:
469,192,13898,1,0,0:0:0:0:
213,192,13970,1,0,0:0:0:0:
128,192,14041,1,0,0:0:0:0:
384,192,14041,1,0,0:0:0:0:
298,192,14112,1,0,0:0:0:0:
213,192,14184,1,0,0:0:0:0:
42,192,14184,1,0,0:0:0:0:
469,192,14255,1,0,0:0:0:0:
298,192,14327,1,0,0:0:0:0:
128,192,14327,1,0,0:0:0:0:
384,192,14398,1,0,0:0:0:0:
128,192,14470,1,0,0:0:0:0:
42,192,14470,1,0,0:0:0:0:
213,192,14541,1,0,0:0:0:0:
384,192,14612,1,0,0:0:0:0:
469,192,14612,1,0,0:0:0:0:
128,192,14684,1,0,0:0:0:0:
298,192,14755,1,0,0:0:0:0:
469,192,14755,1,0,0:0:0:0:
213,192,14827,1,0,0:0:0:0:
128,192,14898,1,0,0:0:0:0:
42,192,14970,1,0,0:0:0:0:
213,192,15041,1,0,0:0:0:0:
384,192,15041,1,0,0:0:0:0:
469,192,15112,1,0,0:0:0:0:
213,192,15184,1,0,0:0:0:0:
42,192,15184,1,0,0:0:0:0:
298,192,15255,1,0,0:0:0:0:
384,192,15327,1,0,0:0:0:0:
469,192,15327,1,0,0:0:0:0:
128,192,15398,1,0,0:0:0:0:
298,192,15470,1,0,0:0:0:0:
384,192,15470,1,0,0:0:0:0:
213,192,15541,1,0,0:0:0:0:
128,192,15612,1,0,0:0:0:0:
42,192,15612,1,0,0:0:0:0:
384,192,15684,1,0,0:0:0:0:
128,192,15755,1,0,0:0:0:0:
213,192,15827,1,0,0:0:0:0:
298,192,15898,1,0,0:0:0:0:
469,192,15898,1,0,0:0:0:0:
42,192,15970,1,0,0:0:0:0:
298,192,16041,1,0,0:0:0:0:
469,192,16041,1,0,0:0:0:0:
128,192,16112,1,0,0:0:0:0:
213,192,16184,1,0,0:0:0:0:
42,192,16184,1,0,0:0:0:0:
384,192,16255,1,0,0:0:0:0:
42,192,16327,1,0,0:0:0:0:
213,192,16327,1,0,0:0:0:0:
298,192,16398,1,0,0:0:0:0:
128,192,16470,1,0,0:0:0:0:
384,192,16470,1,0,0:0:0:0:
469,192,16470,1,0,0:0:0:0:
469,192,16541,1,0,0:0:0:0:
213,192,16541,1,0,0:0:0:0:
384,192,16612,1,0,0:0:0:0:
128,192,16612,1,0,0:0:0:0:
42,192,16612,1,0,0:0:0:0:
42,192,16684,1,0,0:0:0:0:
298,192,16684,1,0,0:0:0:0:
128,192,16755,1,0,0:0:0:0:
384,192,16755,1,0,0:0:0:0:
469,192,16755,1,0,0:0:0:0:
298,192,16827,1,0,0:0:0:0:
384,192,16827,1,0,0:0:0:0:
469,192,16898,1,0,0:0:0:0:
128,192,16898,1,0,0:0:0:0:
42,192,16898,1,0,0:0:0:0:
128,192,16970,1,0,0:0:0:0:
213,192,16970,1,0,0:0:0:0:
42,192,17041,1,0,0:0:0:0:
469,192,17041,1,0,0:0:0:0:
298,192,17041,1,0,0:0:0:0:
298,192,17112,1,0,0:0:0:0:
128,192,17112,1,0,0:0:0:0:
213,192,17184,1,0,0:0:0:0:
42,192,17184,1,0,0:0:0:0:
469,192,17184,1,0,0:0:0:0:
213,192,17255,1,0,0:0:0:0:
384,192,17255,1,0,0:0:0:0:
42,192,17327,1,0,0:0:0:0:
128,192,17327,1,0,0:0:0:0:
298,192,17327,1,0,0:0:0:0:
469,192,17398,1,0,0:0:0:0:
384,192,17398,1,0,0:0:0:0:
128,192,17470,1,0,0:0:0:0:
384,192,17470,1,0,0:0:0:0:
213,192,17470,1,0,0:0:0:0:
42,192,17541,1,0,0:0:0:0:
128,192,17541,1,0,0:0:0:0:
298,192,17612,1,0,0:0:0:0:
213,192,17612,1,0,0:0:0:0:
469,192,17612,1,0,0:0:0:0:
42,192,17755,128,0,18041:0:0:0:0:
128,192,17755,128,0,18041:0:0:0:0:
213,192,18041,1,0,0:0:0:0:
469,192,18041,1,0,0:0:0:0:
384,192,18112,1,0,0:0:0:0:
128,192,18112,1,0,0:0:0:0:
42,192,18184,1,0,0:0:0:0:
469,192,18184,1,0,0:0:0:0:
298,192,18184,1,0,0:0:0:0:
298,192,18327,128,0,18470:0:0:0:0:
469,192,18327,128,0,18470:0:0:0:0:
42,192,18470,1,0,0:0:0:0:
384,192,18470,128,0,18612:0:0:0:0:
213,192,18470,128,0,18612:0:0:0:0:
128,192,18612,128,0,18755:0:0:0:0:
298,192,18612,128,0,18755:0:0:0:0:
42,192,18755,1,0,0:0:0:0:
213,192,18755,1,0,0:0:0:0:
384,192,18755,1,0,0:0:0:0:
469,192,18755,1,0,0:0:0:0:
128,192,18827,1,0,0:0:0:0:
298,192,18827,1,0,0:0:0:0:
213,192,18898,1,0,0:0:0:0:
384,192,18898,1,0,0:0:0:0:
42,192,18946,1,0,0:0:0:0:
298,192,18970,1,0,0:0:0:0:
128,192,18993,1,0,0:0:0:0:
213,192,19041,1,0,0:0:0:0:
384,192,19041,1,0,0:0:0:0:
469,192,19041,1,0,0:0:0:0:
298,192,19112,1,0,0:0:0:0:
42,192,19112,1,0,0:0:0:0:
469,192,19184,1,0,0:0:0:0:
128,192,19184,1,0,0:0:0:0:
384,192,19231,1,0,0:0:0:0:
298,192,19279,1,0,0:0:0:0:
213,192,19327,1,0,0:0:0:0:
42,192,19327,1,0,0:0:0:0:
469,192,19327,1,0,0:0:0:0:
128,192,19398,1,0,0:0:0:0:
384,192,19398,1,0,0:0:0:0:
42,192,19470,1,0,0:0:0:0:
298,192,19470,1,0,0:0:0:0:
384,192,19517,1,0,0:0:0:0:
213,192,19541,1,0,0:0:0:0:
469,192,19565,1,0,0:0:0:0:
128,192,19612,1,0,0:0:0:0:
298,192,19612,1,0,0:0:0:0:
42,192,19612,1,0,0:0:0:0:
213,192,19684,1,0,0:0:0:0:
42,192,19755,1,0,0:0:0:0:
384,192,19755,1,0,0:0:0:0:
128,192,19803,1,0,0:0:0:0:
298,192,19827,1,0,0:0:0:0:
213,192,19850,1,0,0:0:0:0:
384,192,19898,1,0,0:0:0:0:
469,192,19898,1,0,0:0:0:0:
42,192,19898,1,0,0:0:0:0:
128,192,19970,1,0,0:0:0:0:
298,192,19970,1,0,0:0:0:0:
213,192,20041,1,0,0:0:0:0:
469,192,20041,1,0,0:0:0:0:
42,192,20089,1,0,0:0:0:0:
128,192,20136,1,0,0:0:0:0:
384,192,20184,1,0,0:0:0:0:
469,192,20184,1,0,0:0:0:0:
298,192,20184,1,0,0:0:0:0:
213,192,20255,1,0,0:0:0:0:
128,192,20327,1,0,0:0:0:0:
42,192,20327,1,0,0:0:0:0:
213,192,20374,1,0,0:0:0:0:
469,192,20398,1,0,0:0:0:0:
298,192,20422,1,0,0:0:0:0:
128,192,20470,1,0,0:0:0:0:
42,192,20470,1,0,0:0:0:0:
384,192,20470,1,0,0:0:0:0:
213,192,20541,1,0,0:0:0:0:
469,192,20541,1,0,0:0:0:0:
298,192,20612,1,0,0:0:0:0:
42,192,20612,1,0,0:0:0:0:
128,192,20660,1,0,0:0:0:0:
384,192,20708,1,0,0:0:0:0:
213,192,20755,1,0,0:0:0:0:
42,192,20755,1,0,0:0:0:0:
469,192,20755,1,0,0:0:0:0:
298,192,20827,1,0,0:0:0:0:
128,192,20827,1,0,0:0:0:0:
213,192,20898,1,0,0:0:0:0:
384,192,20898,1,0,0:0:0:0:
469,192,20946,1,0,0:0:0:0:
298,192,20970,1,0,0:0:0:0:
128,192,20993,1,0,0:0:0:0:
42,192,21041,1,0,0:0:0:0:
469,192,21041,1,0,0:0:0:0:
298,192,21041,1,0,0:0:0:0:
213,192,21112,1,0,0:0:0:0:
128,192,21184,1,0,0:0:0:0:
384,192,21184,1,0,0:0:0:0:
298,192,21231,1,0,0:0:0:0:
42,192,21255,1,0,0:0:0:0:
213,192,21279,1,0,0:0:0:0:
128,192,21327,1,0,0:0:0:0:
384,192,21327,1,0,0:0:0:0:
469,192,21327,1,0,0:0:0:0:
298,192,21398,1,0,0:0:0:0:
42,192,21398,1,0,0:0:0:0:
213,192,21470,1,0,0:0:0:0:
469,192,21470,1,0,0:0:0:0:
128,192,21517,1,0,0:0:0:0:
298,192,21565,1,0,0:0:0:0:
213,192,21612,1,0,0:0:0:0:
42,192,21612,1,0,0:0:0:0:
469,192,21612,1,0,0:0:0:0:
384,192,21684,1,0,0:0:0:0:
298,192,21684,1,0,0:0:0:0:
42,192,21755,1,0,0:0:0:0:
128,192,21755,1,0,0:0:0:0:
298,192,21803,1,0,0:0:0:0:
469,192,21827,1,0,0:0:0:0:
213,192,21850,1,0,0:0:0:0:
384,192,21898,1,0,0:0:0:0:
128,192,21898,1,0,0:0:0:0:
42,192,21898,1,0,0:0:0:0:
298,192,21970,1,0,0:0:0:0:
469,192,21970,1,0,0:0:0:0:
384,192,22041,1,0,0:0:0:0:
42,192,22041,1,0,0:0:0:0:
128,192,22089,1,0,0:0:0:0:
469,192,22112,1,0,0:0:0:0:
213,192,22136,1,0,0:0:0:0:
298,192,22184,1,0,0:0:0:0:
128,192,22184,1,0,0:0:0:0:
42,192,22184,1,0,0:0:0:0:
384,192,22255,1,0,0:0:0:0:
469,192,22255,1,0,0:0:0:0:
213,192,22327,1,0,0:0:0:0:
128,192,22327,1,0,0:0:0:0:
298,192,22374,1,0,0:0:0:0:
384,192,22422,1,0,0:0:0:0:
469,192,22470,1,0,0:0:0:0:
128,192,22470,1,0,0:0:0:0:
42,192,22470,1,0,0:0:0:0:
298,192,22541,1,0,0:0:0:0:
128,192,22612,1,0,0:0:0:0:
384,192,22612,1,0,0:0:0:0:
213,192,22660,1,0,0:0:0:0:
42,192,22684,1,0,0:0:0:0:
298,192,22708,1,0,0:0:0:0:
128,192,22755,1,0,0:0:0:0:
384,192,22755,1,0,0:0:0:0:
469,192,22755,1,0,0:0:0:0:
213,192,22827,1,0,0:0:0:0:
298,192,22827,1,0,0:0:0:0:
128,192,22898,1,0,0:0:0:0:
42,192,22898,1,0,0:0:0:0:
298,192,22946,1,0,0:0:0:0:
384,192,22993,1,0,0:0:0:0:
469,192,23041,1,0,0:0:0:0:
42,192,23041,1,0,0:0:0:0:
128,192,23041,1,0,0:0:0:0:
298,192,23112,1,0,0:0:0:0:
213,192,23112,1,0,0:0:0:0:
384,192,23184,1,0,0:0:0:0:
469,192,23184,1,0,0:0:0:0:
42,192,23231,1,0,0:0:0:0:
213,192,23255,1,0,0:0:0:0:
384,192,23279,1,0,0:0:0:0:
42,192,23327,1,0,0:0:0:0:
469,192,23327,1,0,0:0:0:0:
213,192,23327,1,0,0:0:0:0:
384,192,23398,1,0,0:0:0:0:
298,192,23470,1,0,0:0:0:0:
42,192,23470,1,0,0:0:0:0:
128,192,23517,1,0,0:0:0:0:
384,192,23541,1,0,0:0:0:0:
213,192,23565,1,0,0:0:0:0:
469,192,23612,1,0,0:0:0:0:
42,192,23612,1,0,0:0:0:0:
298,192,23612,1,0,0:0:0:0:
128,192,23684,1,0,0:0:0:0:
213,192,23684,1,0,0:0:0:0:
384,192,23755,1,0,0:0:0:0:
469,192,23755,1,0,0:0:0:0:
298,192,23803,1,0,0:0:0:0:
213,192,23850,1,0,0:0:0:0:
128,192,23898,1,0,0:0:0:0:
42,192,23898,1,0,0:0:0:0:
384,192,23898,1,0,0:0:0:0:
469,192,23970,1,0,0:0:0:0:
213,192,23970,1,0,0:0:0:0:
298,192,24041,1,0,0:0:0:0:
42,192,24041,1,0,0:0:0:0:
384,192,24089,1,0,0:0:0:0:
128,192,24112,1,0,0:0:0:0:
469,192,24136,1,0,0:0:0:0:
298,192,24184,1,0,0:0:0:0:
213,192,24184,1,0,0:0:0:0:
42,192,24184,1,0,0:0:0:0:
384,192,24255,1,0,0:0:0:0:
213,192,24327,1,0,0:0:0:0:
469,192,24327,1,0,0:0:0:0:
128,192,24374,1,0,0:0:0:0:
42,192,24422,1,0,0:0:0:0:
298,192,24470,1,0,0:0:0:0:
384,192,24470,1,0,0:0:0:0:
469,192,24470,1,0,0:0:0:0:
213,192,24541,1,0,0:0:0:0:
128,192,24541,1,0,0:0:0:0:
42,192,24612,1,0,0:0:0:0:
384,192,24612,1,0,0:0:0:0:
298,192,24660,1,0,0:0:0:0:
469,192,24684,1,0,0:0:0:0:
213,192,24708,1,0,0:0:0:0:
128,192,24755,1,0,0:0:0:0:
42,192,24755,1,0,0:0:0:0:
298,192,24755,1,0,0:0:0:0:
384,192,24827,1,0,0:0:0:0:
213,192,24898,1,0,0:0:0:0:
469,192,24898,1,0,0:0:0:0:
128,192,24946,1,0,0:0:0:0:
298,192,24970,1,0,0:0:0:0:
42,192,24993,1,0,0:0:0:0:
213,192,25041,1,0,0:0:0:0:
384,192,25041,1,0,0:0:0:0:
469,192,25041,1,0,0:0:0:0:
128,192,25112,1,0,0:0:0:0:
42,192,25184,1,0,0:0:0:0:
298,192,25184,1,0,0:0:0:0:
384,192,25231,1,0,0:0:0:0:
213,192,25255,1,0,0:0:0:0:
469,192,25279,1,0,0:0:0:0:
298,192,25327,1,0,0:0:0:0:
42,192,25327,1,0,0:0:0:0:
128,192,25327,1,0,0:0:0:0:
213,192,25398,1,0,0:0:0:0:
384,192,25398,1,0,0:0:0:0:
298,192,25470,1,0,0:0:0:0:
469,192,25470,1,0,0:0:0:0:
42,192,25517,1,0,0:0:0:0:
298,192,25541,1,0,0:0:0:0:
128,192,25565,1,0,0:0:0:0:
213,192,25612,1,0,0:0:0:0:
384,192,25612,1,0,0:0:0:0:
469,192,25612,1,0,0:0:0:0:
128,192,25684,1,0,0:0:0:0:
42,192,25755,1,0,0:0:0:0:
298,192,25755,1,0,0:0:0:0:
469,192,25803,1,0,0:0:0:0:
213,192,25827,1,0,0:0:0:0:
384,192,25850,1,0,0:0:0:0:
298,192,25898,1,0,0:0:0:0:
128,192,25898,1,0,0:0:0:0:
42,192,25898,1,0,0:0:0:0:
213,192,25970,1,0,0:0:0:0:
384,192,25970,1,0,0:0:0:0:
469,192,26041,1,0,0:0:0:0:
42,192,26041,1,0,0:0:0:0:
128,192,26089,1,0,0:0:0:0:
298,192,26112,1,0,0:0:0:0:
469,192,26136,1,0,0:0:0:0:
213,192,26184,1,0,0:0:0:0:
128,192,26184,1,0,0:0:0:0:
42,192,26184,1,0,0:0:0:0:
384,192,26255,1,0,0:0:0:0:
469,192,26255,1,0,0:0:0:0:
298,192,26327,1,0,0:0:0:0:
213,192,26327,1,0,0:0:0:0:
42,192,26374,1,0,0:0:0:0:
128,192,26398,1,0,0:0:0:0:
298,192,26422,1,0,0:0:0:0:
213,192,26470,1,0,0:0:0:0:
42,192,26470,1,0,0:0:0:0:
469,192,26470,1,0,0:0:0:0:
384,192,26541,1,0,0:0:0:0:
298,192,26612,1,0,0:0:0:0:
42,192,26612,1,0,0:0:0:0:
128,192,26660,1,0,0:0:0:0:
384,192,26684,1,0,0:0:0:0:
213,192,26708,1,0,0:0:0:0:
42,192,26755,1,0,0:0:0:0:
298,192,26755,1,0,0:0:0:0:
469,192,26755,1,0,0:0:0:0:
128,192,26827,1,0,0:0:0:0:
213,192,26898,1,0,0:0:0:0:
469,192,26898,1,0,0:0:0:0:
384,192,26946,1,0,0:0:0:0:
42,192,26970,1,0,0:0:0:0:
298,192,26993,1,0,0:0:0:0:
213,192,27041,1,0,0:0:0:0:
384,192,27041,1,0,0:0:0:0:
469,192,27041,1,0,0:0:0:0:
128,192,27112,1,0,0:0:0:0:
42,192,27112,1,0,0:0:0:0:
298,192,27184,1,0,0:0:0:0:
213,192,27231,1,0,0:0:0:0:
384,192,27255,1,0,0:0:0:0:
128,192,27279,1,0,0:0:0:0:
42,192,27327,1,0,0:0:0:0:
298,192,27327,1,0,0:0:0:0:
469,192,27327,1,0,0:0:0:0:
213,192,27398,1,0,0:0:0:0:
128,192,27470,1,0,0:0:0:0:
384,192,27470,1,0,0:0:0:0:
298,192,27517,1,0,0:0:0:0:
213,192,27565,1,0,0:0:0:0:
128,192,27612,1,0,0:0:0:0:
469,192,27612,1,0,0:0:0:0:
42,192,27612,1,0,0:0:0:0:
384,192,27684,1,0,0:0:0:0:
298,192,27684,1,0,0:0:0:0:
128,192,27755,1,0,0:0:0:0:
42,192,27755,1,0,0:0:0:0:
213,192,27803,1,0,0:0:0:0:
298,192,27827,1,0,0:0:0:0:
384,192,27850,1,0,0:0:0:0:
469,192,27898,1,0,0:0:0:0:
298,192,27898,1,0,0:0:0:0:
42,192,27898,1,0,0:0:0:0:
128,192,27970,1,0,0:0:0:0:
384,192,28041,1,0,0:0:0:0:
213,192,28041,1,0,0:0:0:0:
42,192,28089,1,0,0:0:0:0:
298,192,28112,1,0,0:0:0:0:
128,192,28136,1,0,0:0:0:0:
213,192,28184,1,0,0:0:0:0:
384,192,28184,1,0,0:0:0:0:
469,192,28184,1,0,0:0:0:0:
42,192,28255,1,0,0:0:0:0:
298,192,28255,1,0,0:0:0:0:
128,192,28327,1,0,0:0:0:0:
469,192,28327,1,0,0:0:0:0:
384,192,28374,1,0,0:0:0:0:
298,192,28422,1,0,0:0:0:0:
213,192,28470,1,0,0:0:0:0:
128,192,28470,1,0,0:0:0:0:
42,192,28470,1,0,0:0:0:0:
384,192,28541,1,0,0:0:0:0:
469,192,28541,1,0,0:0:0:0:
213,192,28612,1,0,0:0:0:0:
42,192,28612,1,0,0:0:0:0:
298,192,28660,1,0,0:0:0:0:
128,192,28684,1,0,0:0:0:0:
384,192,28708,1,0,0:0:0:0:
469,192,28755,1,0,0:0:0:0:
213,192,28755,1,0,0:0:0:0:
42,192,28755,1,0,0:0:0:0:
298,192,28827,1,0,0:0:0:0:
128,192,28898,1,0,0:0:0:0:
469,192,28898,1,0,0:0:0:0:
384,192,28946,1,0,0:0:0:0:
42,192,28970,1,0,0:0:0:0:
298,192,28993,1,0,0:0:0:0:
213,192,29041,1,0,0:0:0:0:
384,192,29041,1,0,0:0:0:0:
469,192,29041,1,0,0:0:0:0:
128,192,29112,1,0,0:0:0:0:
298,192,29112,1,0,0:0:0:0:
213,192,29184,1,0,0:0:0:0:
42,192,29184,1,0,0:0:0:0:
384,192,29231,1,0,0:0:0:0:
469,192,29279,1,0,0:0:0:0:
298,192,29327,1,0,0:0:0:0:
128,192,29327,1,0,0:0:0:0:
42,192,29327,1,0,0:0:0:0:
384,192,29398,1,0,0:0:0:0:
213,192,29470,1,0,0:0:0:0:
469,192,29470,1,0,0:0:0:0:
298,192,29517,1,0,0:0:0:0:
128,192,29541,1,0,0:0:0:0:
384,192,29565,1,0,0:0:0:0:
42,192,29612,1,0,0:0:0:0:
213,192,29612,1,0,0:0:0:0:
469,192,29612,1,0,0:0:0:0:
298,192,29684,1,0,0:0:0:0:
128,192,29684,1,0,0:0:0:0:
213,192,29755,1,0,0:0:0:0:
384,192,29755,1,0,0:0:0:0:
42,192,29803,1,0,0:0:0:0:
298,192,29827,1,0,0:0:0:0:
469,192,29850,1,0,0:0:0:0:
213,192,29898,1,0,0:0:0:0:
128,192,29898,1,0,0:0:0:0:
42,192,29898,1,0,0:0:0:0:
298,192,29970,1,0,0:0:0:0:
469,192,29970,1,0,0:0:0:0:
384,192,30041,1,0,0:0:0:0:
42,192,30041,1,0,0:0:0:0:
128,192,30089,1,0,0:0:0:0:
469,192,30112,1,0,0:0:0:0:
213,192,30136,1,0,0:0:0:0:
128,192,30184,1,0,0:0:0:0:
42,192,30184,1,0,0:0:0:0:
298,192,30184,1,0,0:0:0:0:
384,192,30255,1,0,0:0:0:0:
128,192,30327,1,0,0:0:0:0:
469,192,30327,1,0,0:0:0:0:
298,192,30374,1,0,0:0:0:0:
42,192,30398,1,0,0:0:0:0:
213,192,30422,1,0,0:0:0:0:
128,192,30470,1,0,0:0:0:0:
384,192,30470,1,0,0:0:0:0:
469,192,30470,1,0,0:0:0:0:
42,192,30541,1,0,0:0:0:0:
298,192,30541,1,0,0:0:0:0:
213,192,30612,1,0,0:0:0:0:
469,192,30612,1,0,0:0:0:0:
128,192,30660,1,0,0:0:0:0:
384,192,30708,1,0,0:0:0:0:
213,192,30755,1,0,0:0:0:0:
42,192,30755,1,0,0:0:0:0:
469,192,30755,1,0,0:0:0:0:
298,192,30827,1,0,0:0:0:0:
128,192,30827,1,0,0:0:0:0:
213,192,30898,1,0,0:0:0:0:
384,192,30898,1,0,0:0:0:0:
469,192,30946,1,0,0:0:0:0:
298,192,30970,1,0,0:0:0:0:
128,192,30993,1,0,0:0:0:0:
42,192,31041,1,0,0:0:0:0:
213,192,31041,1,0,0:0:0:0:
384,192,31041,1,0,0:0:0:0:
469,192,31112,1,0,0:0:0:0:
298,192,31184,1,0,0:0:0:0:
128,192,31184,1,0,0:0:0:0:
42,192,31231,1,0,0:0:0:0:
213,192,31255,1,0,0:0:0:0:
384,192,31279,1,0,0:0:0:0:
128,192,31327,1,0,0:0:0:0:
298,192,31327,1,0,0:0:0:0:
469,192,31327,1,0,0:0:0:0:
42,192,31398,1,0,0:0:0:0:
213,192,31398,1,0,0:0:0:0:
128,192,31470,1,0,0:0:0:0:
384,192,31470,1,0,0:0:0:0:
298,192,31517,1,0,0:0:0:0:
469,192,31565,1,0,0:0:0:0:
384,192,31612,1,0,0:0:0:0:
213,192,31612,1,0,0:0:0:0:
42,192,31612,1,0,0:0:0:0:
128,192,31684,1,0,0:0:0:0:
298,192,31755,1,0,0:0:0:0:
469,192,31755,1,0,0:0:0:0:
128,192,31803,1,0,0:0:0:0:
384,192,31827,1,0,0:0:0:0:
213,192,31850,1,0,0:0:0:0:
298,192,31898,1,0,0:0:0:0:
469,192,31898,1,0,0:0:0:0:
42,192,31898,1,0,0:0:0:0:
128,192,31970,1,0,0:0:0:0:
384,192,31970,1,0,0:0:0:0:
213,192,32041,1,0,0:0:0:0:
469,192,32041,1,0,0:0:0:0:
42,192,32089,1,0,0:0:0:0:
298,192,32112,1,0,0:0:0:0:
128,192,32136,1,0,0:0:0:0:
384,192,32184,1,0,0:0:0:0:
469,192,32184,1,0,0:0:0:0:
213,192,32184,1,0,0:0:0:0:
298,192,32255,1,0,0:0:0:0:
42,192,32255,1,0,0:0:0:0:
128,192,32327,1,0,0:0:0:0:
384,192,32327,1,0,0:0:0:0:
298,192,32374,1,0,0:0:0:0:
469,192,32398,1,0,0:0:0:0:
213,192,32422,1,0,0:0:0:0:
384,192,32470,1,0,0:0:0:0:
128,192,32470,1,0,0:0:0:0:
42,192,32470,1,0,0:0:0:0:
469,192,32541,1,0,0:0:0:0:
298,192,32612,1,0,0:0:0:0:
42,192,32612,1,0,0:0:0:0:
128,192,32660,1,0,0:0:0:0:
384,192,32684,1,0,0:0:0:0:
213,192,32708,1,0,0:0:0:0:
42,192,32755,1,0,0:0:0:0:
298,192,32755,1,0,0:0:0:0:
469,192,32755,1,0,0:0:0:0:
128,192,32827,1,0,0:0:0:0:
384,192,32827,1,0,0:0:0:0:
213,192,32898,1,0,0:0:0:0:
469,192,32898,1,0,0:0:0:0:
298,192,32946,1,0,0:0:0:0:
128,192,32993,1,0,0:0:0:0:
42,192,33041,1,0,0:0:0:0:
298,192,33041,1,0,0:0:0:0:
469,192,33041,1,0,0:0:0:0:
213,192,33112,1,0,0:0:0:0:
384,192,33112,1,0,0:0:0:0:
298,192,33184,1,0,0:0:0:0:
128,192,33184,1,0,0:0:0:0:
384,192,33231,1,0,0:0:0:0:
213,192,33255,1,0,0:0:0:0:
42,192,33279,1,0,0:0:0:0:
128,192,33327,1,0,0:0:0:0:
298,192,33327,1,0,0:0:0:0:
469,192,33327,1,0,0:0:0:0:
42,192,33398,1,0,0:0:0:0:
213,192,33470,1,0,0:0:0:0:
469,192,33470,1,0,0:0:0:0:
384,192,33517,1,0,0:0:0:0:
128,192,33541,1,0,0:0:0:0:
298,192,33565,1,0,0:0:0:0:
213,192,33612,1,0,0:0:0:0:
42,192,33612,1,0,0:0:0:0:
469,192,33612,1,0,0:0:0:0:
384,192,33684,1,0,0:0:0:0:
128,192,33684,1,0,0:0:0:0:
42,192,33755,1,0,0:0:0:0:
298,192,33755,1,0,0:0:0:0:
213,192,33803,1,0,0:0:0:0:
384,192,33850,1,0,0:0:0:0:
469,192,33898,1,0,0:0:0:0:
128,192,33898,1,0,0:0:0:0:
42,192,33898,1,0,0:0:0:0:
298,192,33970,1,0,0:0:0:0:
213,192,34041,1,0,0:0:0:0:
469,192,34041,1,0,0:0:0:0:
128,192,34089,1,0,0:0:0:0:
298,192,34112,1,0,0:0:0:0:
42,192,34136,1,0,0:0:0:0:
213,192,34184,1,0,0:0:0:0:
384,192,34184,1,0,0:0:0:0:
469,192,34184,1,0,0:0:0:0:
128,192,34255,1,0,0:0:0:0:
42,192,34327,1,0,0:0:0:0:
298,192,34327,1,0,0:0:0:0:
384,192,34374,1,0,0:0:0:0:
213,192,34398,1,0,0:0:0:0:
469,192,34422,1,0,0:0:0:0:
128,192,34470,1,0,0:0:0:0:
42,192,34470,1,0,0:0:0:0:
298,192,34470,1,0,0:0:0:0:
213,192,34541,1,0,0:0:0:0:
384,192,34541,1,0,0:0:0:0:
298,192,34612,1,0,0:0:0:0:
469,192,34612,1,0,0:0:0:0:
42,192,34660,1,0,0:0:0:0:
128,192,34684,1,0,0:0:0:0:
213,192,34708,1,0,0:0:0:0:
469,192,34755,1,0,0:0:0:0:
384,192,34755,1,0,0:0:0:0:
298,192,34755,1,0,0:0:0:0:
128,192,34827,1,0,0:0:0:0:
42,192,34898,1,0,0:0:0:0:
298,192,34898,1,0,0:0:0:0:
213,192,34946,1,0,0:0:0:0:
384,192,34970,1,0,0:0:0:0:
128,192,34993,1,0,0:0:0:0:
298,192,35041,1,0,0:0:0:0:
469,192,35041,1,0,0:0:0:0:
42,192,35041,1,0,0:0:0:0:
213,192,35112,1,0,0:0:0:0:
384,192,35112,1,0,0:0:0:0:
128,192,35184,1,0,0:0:0:0:
42,192,35184,1,0,0:0:0:0:
298,192,35231,1,0,0:0:0:0:
213,192,35279,1,0,0:0:0:0:
42,192,35327,1,0,0:0:0:0:
469,192,35327,1,0,0:0:0:0:
384,192,35327,1,0,0:0:0:0:
128,192,35398,1,0,0:0:0:0:
298,192,35398,1,0,0:0:0:0:
469,192,35470,1,0,0:0:0:0:
384,192,35470,1,0,0:0:0:0:
213,192,35517,1,0,0:0:0:0:
128,192,35541,1,0,0:0:0:0:
42,192,35565,1,0,0:0:0:0:
298,192,35612,1,0,0:0:0:0:
384,192,35612,1,0,0:0:0:0:
469,192,35612,1,0,0:0:0:0:
213,192,35684,1,0,0:0:0:0:
128,192,35684,1,0,0:0:0:0:
42,192,35684,1,0,0:0:0:0:
298,192,35755,1,0,0:0:0:0:
384,192,35755,1,0,0:0:0:0:
469,192,35755,1,0,0:0:0:0:
213,192,35827,1,0,0:0:0:0:
128,192,35827,1,0,0:0:0:0:
42,192,35827,1,0,0:0:0:0:
469,192,35898,1,0,0:0:0:0:
42,192,35898,1,0,0:0:0:0:
128,192,35898,1,0,0:0:0:0:
213,192,35898,1,0,0:0:0:0:
128,192,36041,1,0,0:0:0:0:
42,192,36041,1,0,0:0:0:0:
384,192,36041,1,0,0:0:0:0:
469,192,36041,1,0,0:0:0:0:
298,192,36184,1,0,0:0:0:0:
469,192,36184,1,0,0:0:0:0:
42,192,36327,1,0,0:0:0:0:
298,192,36327,1,0,0:0:0:0:
384,192,36327,1,0,0:0:0:0:
469,192,36327,1,0,0:0:0:0:
42,192,36612,1,0,0:0:0:0:
128,192,36612,1,0,0:0:0:0:
213,192,36612,1,0,0:0:0:0:
298,192,36612,1,0,0:0:0:0:
128,192,36755,1,0,0:0:0:0:
298,192,36755,1,0,0:0:0:0:
384,192,36755,1,0,0:0:0:0:
213,192,36755,1,0,0:0:0:0:
298,192,36898,1,0,0:0:0:0:
384,192,36898,1,0,0:0:0:0:
469,192,36898,1,0,0:0:0:0:
213,192,36898,1,0,0:0:0:0:
42,192,37041,128,0,37255:0:0:0:0:
298,192,37041,1,0,0:0:0:0:
469,192,37041,1,0,0:0:0:0:
128,192,37184,128,0,37255:0:0:0:0:
384,192,37184,1,0,0:0:0:0:
213,192,37255,1,0,0:0:0:0:
469,192,37255,1,0,0:0:0:0:
298,192,37327,1,0,0:0:0:0:
128,192,37327,1,0,0:0:0:0:
42,192,37327,1,0,0:0:0:0:
213,192,37398,1,0,0:0:0:0:
469,192,37398,1,0,0:0:0:0:
42,192,37470,1,0,0:0:0:0:
384,192,37470,1,0,0:0:0:0:
213,192,37517,1,0,0:0:0:0:
128,192,37565,1,0,0:0:0:0:
298,192,37612,1,0,0:0:0:0:
469,192,37612,1,0,0:0:0:0:
42,192,37612,1,0,0:0:0:0:
384,192,37684,1,0,0:0:0:0:
128,192,37684,1,0,0:0:0:0:
469,192,37755,1,0,0:0:0:0:
213,192,37755,1,0,0:0:0:0:
128,192,37803,1,0,0:0:0:0:
298,192,37827,1,0,0:0:0:0:
42,192,37850,1,0,0:0:0:0:
384,192,37898,1,0,0:0:0:0:
213,192,37898,1,0,0:0:0:0:
469,192,37898,1,0,0:0:0:0:
298,192,37970,1,0,0:0:0:0:
469,192,38041,1,0,0:0:0:0:
128,192,38041,1,0,0:0:0:0:
298,192,38089,1,0,0:0:0:0:
213,192,38112,1,0,0:0:0:0:
384,192,38136,1,0,0:0:0:0:
128,192,38184,1,0,0:0:0:0:
42,192,38184,1,0,0:0:0:0:
469,192,38184,1,0,0:0:0:0:
298,192,38255,1,0,0:0:0:0:
213,192,38255,1,0,0:0:0:0:
384,192,38327,1,0,0:0:0:0:
42,192,38327,1,0,0:0:0:0:
298,192,38374,1,0,0:0:0:0:
469,192,38422,1,0,0:0:0:0:
128,192,38470,1,0,0:0:0:0:
42,192,38470,1,0,0:0:0:0:
213,192,38470,1,0,0:0:0:0:
298,192,38541,1,0,0:0:0:0:
384,192,38612,1,0,0:0:0:0:
469,192,38612,1,0,0:0:0:0:
213,192,38660,1,0,0:0:0:0:
42,192,38684,1,0,0:0:0:0:
298,192,38708,1,0,0:0:0:0:
384,192,38755,1,0,0:0:0:0:
469,192,38755,1,0,0:0:0:0:
128,192,38755,1,0,0:0:0:0:
298,192,38827,1,0,0:0:0:0:
42,192,38827,1,0,0:0:0:0:
213,192,38898,1,0,0:0:0:0:
469,192,38898,1,0,0:0:0:0:
384,192,38946,1,0,0:0:0:0:
128,192,38993,1,0,0:0:0:0:
298,192,39041,1,0,0:0:0:0:
469,192,39041,1,0,0:0:0:0:
42,192,39041,1,0,0:0:0:0:
213,192,39112,1,0,0:0:0:0:
384,192,39112,1,0,0:0:0:0:
298,192,39184,1,0,0:0:0:0:
128,192,39184,1,0,0:0:0:0:
42,192,39231,1,0,0:0:0:0:
213,192,39255,1,0,0:0:0:0:
384,192,39279,1,0,0:0:0:0:
469,192,39327,1,0,0:0:0:0:
42,192,39327,1,0,0:0:0:0:
213,192,39327,1,0,0:0:0:0:
298,192,39398,1,0,0:0:0:0:
384,192,39470,1,0,0:0:0:0:
128,192,39470,1,0,0:0:0:0:
213,192,39517,1,0,0:0:0:0:
469,192,39541,1,0,0:0:0:0:
298,192,39565,1,0,0:0:0:0:
384,192,39612,1,0,0:0:0:0:
128,192,39612,1,0,0:0:0:0:
42,192,39612,1,0,0:0:0:0:
213,192,39684,1,0,0:0:0:0:
469,192,39684,1,0,0:0:0:0:
298,192,39755,1,0,0:0:0:0:
128,192,39755,1,0,0:0:0:0:
384,192,39803,1,0,0:0:0:0:
213,192,39850,1,0,0:0:0:0:
298,192,39898,1,0,0:0:0:0:
469,192,39898,1,0,0:0:0:0:
42,192,39898,1,0,0:0:0:0:
128,192,39970,1,0,0:0:0:0:
384,192,39970,1,0,0:0:0:0:
469,192,40041,1,0,0:0:0:0:
298,192,40041,1,0,0:0:0:0:
213,192,40089,1,0,0:0:0:0:
42,192,40112,1,0,0:0:0:0:
298,192,40136,1,0,0:0:0:0:
128,192,40184,1,0,0:0:0:0:
384,192,40184,1,0,0:0:0:0:
469,192,40184,1,0,0:0:0:0:
213,192,40255,1,0,0:0:0:0:
42,192,40255,1,0,0:0:0:0:
128,192,40327,1,0,0:0:0:0:
469,192,40327,1,0,0:0:0:0:
298,192,40374,1,0,0:0:0:0:
42,192,40398,1,0,0:0:0:0:
384,192,40422,1,0,0:0:0:0:
213,192,40470,1,0,0:0:0:0:
298,192,40470,1,0,0:0:0:0:
469,192,40470,1,0,0:0:0:0:
128,192,40541,1,0,0:0:0:0:
42,192,40541,1,0,0:0:0:0:
298,192,40612,1,0,0:0:0:0:
213,192,40612,1,0,0:0:0:0:
384,192,40660,1,0,0:0:0:0:
128,192,40708,1,0,0:0:0:0:
42,192,40755,1,0,0:0:0:0:
298,192,40755,1,0,0:0:0:0:
469,192,40755,1,0,0:0:0:0:
213,192,40827,1,0,0:0:0:0:
384,192,40898,1,0,0:0:0:0:
128,192,40898,1,0,0:0:0:0:
298,192,40946,1,0,0:0:0:0:
469,192,40970,1,0,0:0:0:0:
213,192,40993,1,0,0:0:0:0:
384,192,41041,1,0,0:0:0:0:
128,192,41041,1,0,0:0:0:0:
42,192,41041,1,0,0:0:0:0:
298,192,41112,1,0,0:0:0:0:
213,192,41112,1,0,0:0:0:0:
384,192,41184,1,0,0:0:0:0:
469,192,41184,1,0,0:0:0:0:
128,192,41231,1,0,0:0:0:0:
213,192,41279,1,0,0:0:0:0:
42,192,41327,1,0,0:0:0:0:
469,192,41327,1,0,0:0:0:0:
384,192,41327,1,0,0:0:0:0:
213,192,41398,1,0,0:0:0:0:
298,192,41398,1,0,0:0:0:0:
128,192,41470,1,0,0:0:0:0:
42,192,41470,1,0,0:0:0:0:
469,192,41517,1,0,0:0:0:0:
298,192,41541,1,0,0:0:0:0:
128,192,41565,1,0,0:0:0:0:
469,192,41612,1,0,0:0:0:0:
42,192,41612,1,0,0:0:0:0:
298,192,41612,1,0,0:0:0:0:
213,192,41684,1,0,0:0:0:0:
128,192,41755,1,0,0:0:0:0:
469,192,41755,1,0,0:0:0:0:
384,192,41803,1,0,0:0:0:0:
213,192,41827,1,0,0:0:0:0:
42,192,41850,1,0,0:0:0:0:
128,192,41898,1,0,0:0:0:0:
469,192,41898,1,0,0:0:0:0:
298,192,41898,1,0,0:0:0:0:
384,192,41970,1,0,0:0:0:0:
213,192,41970,1,0,0:0:0:0:
298,192,42041,1,0,0:0:0:0:
42,192,42041,1,0,0:0:0:0:
128,192,42089,1,0,0:0:0:0:
213,192,42136,1,0,0:0:0:0:
384,192,42184,1,0,0:0:0:0:
469,192,42184,1,0,0:0:0:0:
42,192,42184,1,0,0:0:0:0:
128,192,42255,1,0,0:0:0:0:
298,192,42255,1,0,0:0:0:0:
213,192,42327,1,0,0:0:0:0:
469,192,42327,1,0,0:0:0:0:
128,192,42374,1,0,0:0:0:0:
384,192,42398,1,0,0:0:0:0:
42,192,42422,1,0,0:0:0:0:
213,192,42470,1,0,0:0:0:0:
298,192,42470,1,0,0:0:0:0:
469,192,42470,1,0,0:0:0:0:
128,192,42541,1,0,0:0:0:0:
298,192,42612,1,0,0:0:0:0:
42,192,42612,1,0,0:0:0:0:
384,192,42660,1,0,0:0:0:0:
469,192,42708,1,0,0:0:0:0:
213,192,42755,1,0,0:0:0:0:
128,192,42755,1,0,0:0:0:0:
42,192,42755,1,0,0:0:0:0:
298,192,42827,1,0,0:0:0:0:
384,192,42827,1,0,0:0:0:0:
469,192,42898,1,0,0:0:0:0:
128,192,42898,1,0,0:0:0:0:
213,192,42946,1,0,0:0:0:0:
42,192,42970,1,0,0:0:0:0:
298,192,42993,1,0,0:0:0:0:
384,192,43041,1,0,0:0:0:0:
469,192,43041,1,0,0:0:0:0:
213,192,43041,1,0,0:0:0:0:
128,192,43112,1,0,0:0:0:0:
298,192,43184,1,0,0:0:0:0:
42,192,43184,1,0,0:0:0:0:
469,192,43231,1,0,0:0:0:0:
213,192,43255,1,0,0:0:0:0:
384,192,43279,1,0,0:0:0:0:
298,192,43327,1,0,0:0:0:0:
128,192,43327,1,0,0:0:0:0:
42,192,43327,1,0,0:0:0:0:
384,192,43398,1,0,0:0:0:0:
469,192,43470,1,0,0:0:0:0:
213,192,43470,1,0,0:0:0:0:
42,192,43517,1,0,0:0:0:0:
298,192,43541,1,0,0:0:0:0:
128,192,43565,1,0,0:0:0:0:
213,192,43612,1,0,0:0:0:0:
469,192,43612,1,0,0:0:0:0:
384,192,43612,1,0,0:0:0:0:
298,192,43684,1,0,0:0:0:0:
128,192,43684,1,0,0:0:0:0:
213,192,43755,1,0,0:0:0:0:
42,192,43755,1,0,0:0:0:0:
469,192,43803,1,0,0:0:0:0:
213,192,43827,1,0,0:0:0:0:
384,192,43850,1,0,0:0:0:0:
298,192,43898,1,0,0:0:0:0:
128,192,43898,1,0,0:0:0:0:
42,192,43898,1,0,0:0:0:0:
384,192,43970,1,0,0:0:0:0:
469,192,44041,1,0,0:0:0:0:
213,192,44041,1,0,0:0:0:0:
128,192,44089,1,0,0:0:0:0:
298,192,44112,1,0,0:0:0:0:
42,192,44136,1,0,0:0:0:0:
213,192,44184,1,0,0:0:0:0:
384,192,44184,1,0,0:0:0:0:
469,192,44184,1,0,0:0:0:0:
298,192,44255,1,0,0:0:0:0:
128,192,44255,1,0,0:0:0:0:
42,192,44327,1,0,0:0:0:0:
384,192,44327,1,0,0:0:0:0:
213,192,44374,1,0,0:0:0:0:
469,192,44398,1,0,0:0:0:0:
42,192,44422,1,0,0:0:0:0:
298,192,44470,1,0,0:0:0:0:
384,192,44470,1,0,0:0:0:0:
128,192,44470,1,0,0:0:0:0:
213,192,44541,1,0,0:0:0:0:
469,192,44541,1,0,0:0:0:0:
42,192,44612,1,0,0:0:0:0:
298,192,44612,1,0,0:0:0:0:
384,192,44660,1,0,0:0:0:0:
128,192,44684,1,0,0:0:0:0:
213,192,44708,1,0,0:0:0:0:
298,192,44755,1,0,0:0:0:0:
469,192,44755,1,0,0:0:0:0:
42,192,44755,1,0,0:0:0:0:
128,192,44827,1,0,0:0:0:0:
213,192,44898,1,0,0:0:0:0:
469,192,44898,1,0,0:0:0:0:
384,192,44946,1,0,0:0:0:0:
128,192,44970,1,0,0:0:0:0:
298,192,44993,1,0,0:0:0:0:
469,192,45041,1,0,0:0:0:0:
213,192,45041,1,0,0:0:0:0:
42,192,45041,1,0,0:0:0:0:
298,192,45112,1,0,0:0:0:0:
384,192,45184,1,0,0:0:0:0:
42,192,45184,1,0,0:0:0:0:
128,192,45231,1,0,0:0:0:0:
469,192,45255,1,0,0:0:0:0:
213,192,45279,1,0,0:0:0:0:
298,192,45327,1,0,0:0:0:0:
128,192,45327,1,0,0:0:0:0:
42,192,45327,1,0,0:0:0:0:
384,192,45398,1,0,0:0:0:0:
469,192,45398,1,0,0:0:0:0:
213,192,45470,1,0,0:0:0:0:
298,192,45517,1,0,0:0:0:0:
128,192,45541,1,0,0:0:0:0:
384,192,45565,1,0,0:0:0:0:
469,192,45612,1,0,0:0:0:0:
213,192,45612,1,0,0:0:0:0:
42,192,45612,1,0,0:0:0:0:
298,192,45684,1,0,0:0:0:0:
384,192,45755,1,0,0:0:0:0:
128,192,45755,1,0,0:0:0:0:
298,192,45803,1,0,0:0:0:0:
213,192,45850,1,0,0:0:0:0:
384,192,45898,1,0,0:0:0:0:
42,192,45898,1,0,0:0:0:0:
469,192,45898,1,0,0:0:0:0:
128,192,45970,1,0,0:0:0:0:
213,192,45970,1,0,0:0:0:0:
384,192,46041,1,0,0:0:0:0:
469,192,46041,1,0,0:0:0:0:
298,192,46089,1,0,0:0:0:0:
213,192,46112,1,0,0:0:0:0:
128,192,46136,1,0,0:0:0:0:
42,192,46184,1,0,0:0:0:0:
213,192,46184,1,0,0:0:0:0:
469,192,46184,1,0,0:0:0:0:
384,192,46255,1,0,0:0:0:0:
42,192,46327,1,0,0:0:0:0:
298,192,46327,1,0,0:0:0:0:
469,192,46374,1,0,0:0:0:0:
213,192,46398,1,0,0:0:0:0:
384,192,46422,1,0,0:0:0:0:
298,192,46470,1,0,0:0:0:0:
128,192,46470,1,0,0:0:0:0:
42,192,46470,1,0,0:0:0:0:
469,192,46541,1,0,0:0:0:0:
213,192,46541,1,0,0:0:0:0:
384,192,46612,1,0,0:0:0:0:
42,192,46612,1,0,0:0:0:0:
213,192,46660,1,0,0:0:0:0:
128,192,46708,1,0,0:0:0:0:
298,192,46755,1,0,0:0:0:0:
384,192,46755,1,0,0:0:0:0:
469,192,46755,1,0,0:0:0:0:
213,192,46827,1,0,0:0:0:0:
42,192,46827,1,0,0:0:0:0:
298,192,46898,1,0,0:0:0:0:
469,192,46898,1,0,0:0:0:0:
213,192,46946,1,0,0:0:0:0:
384,192,46970,1,0,0:0:0:0:
128,192,46993,1,0,0:0:0:0:
42,192,47041,1,0,0:0:0:0:
298,192,47041,1,0,0:0:0:0:
469,192,47041,1,0,0:0:0:0:
213,192,47112,1,0,0:0:0:0:
384,192,47184,1,0,0:0:0:0:
42,192,47184,1,0,0:0:0:0:
128,192,47231,1,0,0:0:0:0:
469,192,47255,1,0,0:0:0:0:
213,192,47279,1,0,0:0:0:0:
298,192,47327,1,0,0:0:0:0:
128,192,47327,1,0,0:0:0:0:
42,192,47327,1,0,0:0:0:0:
384,192,47398,1,0,0:0:0:0:
213,192,47398,1,0,0:0:0:0:
298,192,47470,1,0,0:0:0:0:
469,192,47470,1,0,0:0:0:0:
128,192,47517,1,0,0:0:0:0:
42,192,47565,1,0,0:0:0:0:
213,192,47612,1,0,0:0:0:0:
384,192,47612,1,0,0:0:0:0:
469,192,47612,1,0,0:0:0:0:
128,192,47684,1,0,0:0:0:0:
298,192,47755,1,0,0:0:0:0:
42,192,47755,1,0,0:0:0:0:
213,192,47803,1,0,0:0:0:0:
384,192,47827,1,0,0:0:0:0:
128,192,47850,1,0,0:0:0:0:
469,192,47898,1,0,0:0:0:0:
298,192,47898,1,0,0:0:0:0:
42,192,47898,1,0,0:0:0:0:
213,192,47970,1,0,0:0:0:0:
384,192,47970,1,0,0:0:0:0:
298,192,48041,1,0,0:0:0:0:
128,192,48041,1,0,0:0:0:0:
469,192,48089,1,0,0:0:0:0:
213,192,48112,1,0,0:0:0:0:
42,192,48136,1,0,0:0:0:0:
298,192,48184,1,0,0:0:0:0:
384,192,48184,1,0,0:0:0:0:
469,192,48184,1,0,0:0:0:0:
213,192,48255,1,0,0:0:0:0:
42,192,48255,1,0,0:0:0:0:
128,192,48327,1,0,0:0:0:0:
469,192,48327,1,0,0:0:0:0:
298,192,48374,1,0,0:0:0:0:
42,192,48398,1,0,0:0:0:0:
384,192,48422,1,0,0:0:0:0:
298,192,48470,1,0,0:0:0:0:
469,192,48470,1,0,0:0:0:0:
213,192,48470,1,0,0:0:0:0:
128,192,48541,1,0,0:0:0:0:
384,192,48612,1,0,0:0:0:0:
42,192,48612,1,0,0:0:0:0:
213,192,48660,1,0,0:0:0:0:
469,192,48684,1,0,0:0:0:0:
298,192,48708,1,0,0:0:0:0:
384,192,48755,1,0,0:0:0:0:
128,192,48755,1,0,0:0:0:0:
42,192,48755,1,0,0:0:0:0:
469,192,48827,1,0,0:0:0:0:
213,192,48827,1,0,0:0:0:0:
298,192,48898,1,0,0:0:0:0:
42,192,48898,1,0,0:0:0:0:
384,192,48946,1,0,0:0:0:0:
128,192,48993,1,0,0:0:0:0:
298,192,49041,1,0,0:0:0:0:
469,192,49041,1,0,0:0:0:0:
42,192,49041,1,0,0:0:0:0:
213,192,49112,1,0,0:0:0:0:
384,192,49112,1,0,0:0:0:0:
298,192,49184,1,0,0:0:0:0:
128,192,49184,1,0,0:0:0:0:
42,192,49231,1,0,0:0:0:0:
213,192,49255,1,0,0:0:0:0:
384,192,49279,1,0,0:0:0:0:
469,192,49327,1,0,0:0:0:0:
298,192,49327,1,0,0:0:0:0:
128,192,49327,1,0,0:0:0:0:
42,192,49398,1,0,0:0:0:0:
213,192,49470,1,0,0:0:0:0:
384,192,49470,1,0,0:0:0:0:
469,192,49517,1,0,0:0:0:0:
298,192,49541,1,0,0:0:0:0:
128,192,49565,1,0,0:0:0:0:
384,192,49612,1,0,0:0:0:0:
213,192,49612,1,0,0:0:0:0:
42,192,49612,1,0,0:0:0:0:
469,192,49684,1,0,0:0:0:0:
298,192,49684,1,0,0:0:0:0:
384,192,49755,1,0,0:0:0:0:
128,192,49755,1,0,0:0:0:0:
213,192,49803,1,0,0:0:0:0:
42,192,49850,1,0,0:0:0:0:
128,192,49898,1,0,0:0:0:0:
384,192,49898,1,0,0:0:0:0:
469,192,49898,1,0,0:0:0:0:
298,192,49970,1,0,0:0:0:0:
213,192,50041,1,0,0:0:0:0:
42,192,50041,1,0,0:0:0:0:
384,192,50089,1,0,0:0:0:0:
128,192,50112,1,0,0:0:0:0:
298,192,50136,1,0,0:0:0:0:
213,192,50184,1,0,0:0:0:0:
42,192,50184,1,0,0:0:0:0:
469,192,50184,1,0,0:0:0:0:
384,192,50255,1,0,0:0:0:0:
128,192,50255,1,0,0:0:0:0:
298,192,50327,1,0,0:0:0:0:
42,192,50327,1,0,0:0:0:0:
469,192,50374,1,0,0:0:0:0:
213,192,50398,1,0,0:0:0:0:
384,192,50422,1,0,0:0:0:0:
128,192,50470,1,0,0:0:0:0:
42,192,50470,1,0,0:0:0:0:
298,192,50470,1,0,0:0:0:0:
213,192,50541,1,0,0:0:0:0:
469,192,50541,1,0,0:0:0:0:
384,192,50612,1,0,0:0:0:0:
128,192,50612,1,0,0:0:0:0:
298,192,50660,1,0,0:0:0:0:
42,192,50684,1,0,0:0:0:0:
213,192,50708,1,0,0:0:0:0:
128,192,50755,1,0,0:0:0:0:
384,192,50755,1,0,0:0:0:0:
469,192,50755,1,0,0:0:0:0:
42,192,50827,1,0,0:0:0:0:
213,192,50898,1,0,0:0:0:0:
469,192,50898,1,0,0:0:0:0:
384,192,50946,1,0,0:0:0:0:
128,192,50970,1,0,0:0:0:0:
298,192,50993,1,0,0:0:0:0:
469,192,51041,1,0,0:0:0:0:
213,192,51041,1,0,0:0:0:0:
42,192,51041,1,0,0:0:0:0:
384,192,51112,1,0,0:0:0:0:
128,192,51112,1,0,0:0:0:0:
298,192,51184,1,0,0:0:0:0:
42,192,51184,1,0,0:0:0:0:
213,192,51231,1,0,0:0:0:0:
384,192,51279,1,0,0:0:0:0:
469,192,51327,1,0,0:0:0:0:
213,192,51327,1,0,0:0:0:0:
42,192,51327,1,0,0:0:0:0:
298,192,51398,1,0,0:0:0:0:
128,192,51398,1,0,0:0:0:0:
213,192,51470,1,0,0:0:0:0:
384,192,51470,1,0,0:0:0:0:
128,192,51517,1,0,0:0:0:0:
298,192,51541,1,0,0:0:0:0:
469,192,51565,1,0,0:0:0:0:
384,192,51612,1,0,0:0:0:0:
213,192,51612,1,0,0:0:0:0:
42,192,51612,1,0,0:0:0:0:
469,192,51684,1,0,0:0:0:0:
298,192,51755,1,0,0:0:0:0:
42,192,51755,1,0,0:0:0:0:
128,192,51803,1,0,0:0:0:0:
384,192,51827,1,0,0:0:0:0:
213,192,51850,1,0,0:0:0:0:
298,192,51898,1,0,0:0:0:0:
469,192,51898,1,0,0:0:0:0:
42,192,51898,1,0,0:0:0:0:
128,192,51970,1,0,0:0:0:0:
384,192,51970,1,0,0:0:0:0:
469,192,52041,1,0,0:0:0:0:
213,192,52041,1,0,0:0:0:0:
298,192,52089,1,0,0:0:0:0:
128,192,52136,1,0,0:0:0:0:
42,192,52184,1,0,0:0:0:0:
384,192,52184,1,0,0:0:0:0:
469,192,52184,1,0,0:0:0:0:
213,192,52255,1,0,0:0:0:0:
298,192,52327,1,0,0:0:0:0:
42,192,52327,1,0,0:0:0:0:
384,192,52374,1,0,0:0:0:0:
213,192,52398,1,0,0:0:0:0:
469,192,52422,1,0,0:0:0:0:
298,192,52470,1,0,0:0:0:0:
128,192,52470,1,0,0:0:0:0:
42,192,52470,1,0,0:0:0:0:
384,192,52541,1,0,0:0:0:0:
469,192,52612,1,0,0:0:0:0:
213,192,52612,1,0,0:0:0:0:
128,192,52660,1,0,0:0:0:0:
298,192,52684,1,0,0:0:0:0:
42,192,52708,1,0,0:0:0:0:
384,192,52755,1,0,0:0:0:0:
469,192,52755,1,0,0:0:0:0:
213,192,52755,1,0,0:0:0:0:
298,192,52827,1,0,0:0:0:0:
128,192,52827,1,0,0:0:0:0:
213,192,52898,1,0,0:0:0:0:
42,192,52898,1,0,0:0:0:0:
469,192,52946,1,0,0:0:0:0:
384,192,52970,1,0,0:0:0:0:
298,192,52993,1,0,0:0:0:0:
42,192,53041,1,0,0:0:0:0:
128,192,53041,1,0,0:0:0:0:
213,192,53041,1,0,0:0:0:0:
384,192,53112,1,0,0:0:0:0:
469,192,53184,1,0,0:0:0:0:
128,192,53184,1,0,0:0:0:0:
298,192,53231,1,0,0:0:0:0:
42,192,53255,1,0,0:0:0:0:
384,192,53279,1,0,0:0:0:0:
128,192,53327,1,0,0:0:0:0:
213,192,53327,1,0,0:0:0:0:
469,192,53327,1,0,0:0:0:0:
384,192,53398,1,0,0:0:0:0:
298,192,53398,1,0,0:0:0:0:
42,192,53470,1,0,0:0:0:0:
469,192,53470,1,0,0:0:0:0:
298,192,53517,1,0,0:0:0:0:
213,192,53565,1,0,0:0:0:0:
384,192,53612,1,0,0:0:0:0:
42,192,53612,1,0,0:0:0:0:
128,192,53612,1,0,0:0:0:0:
469,192,53684,1,0,0:0:0:0:
298,192,53684,1,0,0:0:0:0:
128,192,53755,1,0,0:0:0:0:
213,192,53755,1,0,0:0:0:0:
298,192,53803,1,0,0:0:0:0:
384,192,53827,1,0,0:0:0:0:
469,192,53850,1,0,0:0:0:0:
213,192,53898,1,0,0:0:0:0:
128,192,53898,1,0,0:0:0:0:
42,192,53898,1,0,0:0:0:0:
298,192,53970,1,0,0:0:0:0:
384,192,53970,1,0,0:0:0:0:
469,192,53970,1,0,0:0:0:0:
213,192,54041,1,0,0:0:0:0:
128,192,54041,1,0,0:0:0:0:
42,192,54041,1,0,0:0:0:0:
298,192,54112,1,0,0:0:0:0:
384,192,54112,1,0,0:0:0:0:
469,192,54112,1,0,0:0:0:0:
42,192,54184,1,0,0:0:0:0:
469,192,54184,1,0,0:0:0:0:
384,192,54184,1,0,0:0:0:0:
298,192,54184,1,0,0:0:0:0:
384,192,54327,1,0,0:0:0:0:
469,192,54327,1,0,0:0:0:0:
128,192,54327,1,0,0:0:0:0:
42,192,54327,1,0,0:0:0:0:
213,192,54470,1,0,0:0:0:0:
42,192,54470,1,0,0:0:0:0:
469,192,54612,1,0,0:0:0:0:
213,192,54612,1,0,0:0:0:0:
128,192,54612,1,0,0:0:0:0:
42,192,54612,1,0,0:0:0:0:
469,192,54898,1,0,0:0:0:0:
384,192,54898,1,0,0:0:0:0:
298,192,54898,1,0,0:0:0:0:
213,192,54898,1,0,0:0:0:0:
384,192,55041,1,0,0:0:0:0:
213,192,55041,1,0,0:0:0:0:
128,192,55041,1,0,0:0:0:0:
298,192,55041,1,0,0:0:0:0:
469,192,55112,1,0,0:0:0:0:
213,192,55184,1,0,0:0:0:0:
128,192,55184,1,0,0:0:0:0:
42,192,55184,1,0,0:0:0:0:
298,192,55184,1,0,0:0:0:0:
384,192,55255,1,0,0:0:0:0:
128,192,55327,1,0,0:0:0:0:
42,192,55327,1,0,0:0:0:0:
213,192,55327,1,0,0:0:0:0:
469,192,55327,1,0,0:0:0:0:
298,192,55398,1,0,0:0:0:0:
384,192,55470,1,0,0:0:0:0:
128,192,55470,1,0,0:0:0:0:
42,192,55470,1,0,0:0:0:0:
213,192,55541,1,0,0:0:0:0:
298,192,55612,1,0,0:0:0:0:
469,192,55612,1,0,0:0:0:0:
42,192,55612,1,0,0:0:0:0:
384,192,55612,1,0,0:0:0:0:
213,192,55684,1,0,0:0:0:0:
128,192,55755,1,0,0:0:0:0:
384,192,55755,1,0,0:0:0:0:
469,192,55755,1,0,0:0:0:0:
298,192,55827,1,0,0:0:0:0:
213,192,55898,1,0,0:0:0:0:
128,192,55898,1,0,0:0:0:0:
42,192,55898,1,0,0:0:0:0:
469,192,55898,1,0,0:0:0:0:
384,192,55970,1,0,0:0:0:0:
298,192,56041,1,0,0:0:0:0:
128,192,56041,1,0,0:0:0:0:
42,192,56041,1,0,0:0:0:0:
213,192,56112,1,0,0:0:0:0:
42,192,56184,1,0,0:0:0:0:
298,192,56184,1,0,0:0:0:0:
384,192,56184,1,0,0:0:0:0:
469,192,56184,1,0,0:0:0:0:
128,192,56255,1,0,0:0:0:0:
213,192,56327,1,0,0:0:0:0:
384,192,56327,1,0,0:0:0:0:
469,192,56327,1,0,0:0:0:0:
298,192,56398,1,0,0:0:0:0:
213,192,56470,1,0,0:0:0:0:
42,192,56470,1,0,0:0:0:0:
128,192,56470,1,0,0:0:0:0:
384,192,56470,1,0,0:0:0:0:
469,192,56541,1,0,0:0:0:0:
298,192,56612,1,0,0:0:0:0:
128,192,56612,1,0,0:0:0:0:
42,192,56612,1,0,0:0:0:0:
213,192,56684,1,0,0:0:0:0:
128,192,56755,1,0,0:0:0:0:
298,192,56755,1,0,0:0:0:0:
384,192,56755,1,0,0:0:0:0:
469,192,56755,1,0,0:0:0:0:
42,192,56827,1,0,0:0:0:0:
213,192,56898,1,0,0:0:0:0:
384,192,56898,1,0,0:0:0:0:
469,192,56898,1,0,0:0:0:0:
298,192,56970,1,0,0:0:0:0:
213,192,57041,1,0,0:0:0:0:
128,192,57041,1,0,0:0:0:0:
42,192,57041,1,0,0:0:0:0:
469,192,57041,1,0,0:0:0:0:
384,192,57112,1,0,0:0:0:0:
128,192,57184,1,0,0:0:0:0:
42,192,57184,1,0,0:0:0:0:
213,192,57184,1,0,0:0:0:0:
298,192,57255,1,0,0:0:0:0:
128,192,57327,1,0,0:0:0:0:
384,192,57327,1,0,0:0:0:0:
469,192,57327,1,0,0:0:0:0:
213,192,57327,1,0,0:0:0:0:
42,192,57398,1,0,0:0:0:0:
298,192,57470,1,0,0:0:0:0:
384,192,57470,1,0,0:0:0:0:
469,192,57470,1,0,0:0:0:0:
213,192,57541,1,0,0:0:0:0:
128,192,57612,1,0,0:0:0:0:
42,192,57612,1,0,0:0:0:0:
298,192,57612,1,0,0:0:0:0:
469,192,57612,1,0,0:0:0:0:
384,192,57684,1,0,0:0:0:0:
298,192,57755,1,0,0:0:0:0:
128,192,57755,1,0,0:0:0:0:
42,192,57755,1,0,0:0:0:0:
213,192,57827,1,0,0:0:0:0:
42,192,57898,1,0,0:0:0:0:
128,192,57898,1,0,0:0:0:0:
384,192,57898,1,0,0:0:0:0:
469,192,57898,1,0,0:0:0:0:
298,192,57970,1,0,0:0:0:0:
213,192,58041,1,0,0:0:0:0:
42,192,58041,1,0,0:0:0:0:
469,192,58041,1,0,0:0:0:0:
128,192,58112,1,0,0:0:0:0:
213,192,58184,1,0,0:0:0:0:
384,192,58184,1,0,0:0:0:0:
469,192,58184,1,0,0:0:0:0:
298,192,58184,1,0,0:0:0:0:
42,192,58255,1,0,0:0:0:0:
128,192,58327,1,0,0:0:0:0:
298,192,58327,1,0,0:0:0:0:
384,192,58327,1,0,0:0:0:0:
213,192,58398,1,0,0:0:0:0:
42,192,58470,1,0,0:0:0:0:
128,192,58470,1,0,0:0:0:0:
469,192,58470,1,0,0:0:0:0:
298,192,58470,1,0,0:0:0:0:
384,192,58541,1,0,0:0:0:0:
128,192,58612,1,0,0:0:0:0:
42,192,58612,1,0,0:0:0:0:
298,192,58612,1,0,0:0:0:0:
469,192,58684,1,0,0:0:0:0:
384,192,58755,1,0,0:0:0:0:
128,192,58755,1,0,0:0:0:0:
42,192,58755,1,0,0:0:0:0:
213,192,58755,1,0,0:0:0:0:
298,192,58827,1,0,0:0:0:0:
128,192,58898,1,0,0:0:0:0:
384,192,58898,1,0,0:0:0:0:
469,192,58898,1,0,0:0:0:0:
213,192,58970,1,0,0:0:0:0:
298,192,59041,1,0,0:0:0:0:
469,192,59041,1,0,0:0:0:0:
384,192,59041,1,0,0:0:0:0:
42,192,59041,1,0,0:0:0:0:
128,192,59112,1,0,0:0:0:0:
213,192,59184,1,0,0:0:0:0:
298,192,59184,1,0,0:0:0:0:
384,192,59184,1,0,0:0:0:0:
469,192,59255,1,0,0:0:0:0:
298,192,59327,1,0,0:0:0:0:
128,192,59327,1,0,0:0:0:0:
42,192,59327,1,0,0:0:0:0:
213,192,59327,1,0,0:0:0:0:
384,192,59398,1,0,0:0:0:0:
128,192,59470,1,0,0:0:0:0:
42,192,59470,1,0,0:0:0:0:
469,192,59470,1,0,0:0:0:0:
213,192,59541,1,0,0:0:0:0:
42,192,59612,1,0,0:0:0:0:
298,192,59612,1,0,0:0:0:0:
384,192,59612,1,0,0:0:0:0:
469,192,59612,1,0,0:0:0:0:
128,192,59684,1,0,0:0:0:0:
213,192,59755,1,0,0:0:0:0:
469,192,59755,1,0,0:0:0:0:
384,192,59755,1,0,0:0:0:0:
128,192,59827,1,0,0:0:0:0:
42,192,59898,1,0,0:0:0:0:
213,192,59898,1,0,0:0:0:0:
469,192,59898,1,0,0:0:0:0:
298,192,59898,1,0,0:0:0:0:
384,192,59970,1,0,0:0:0:0:
298,192,60041,1,0,0:0:0:0:
128,192,60041,1,0,0:0:0:0:
42,192,60041,1,0,0:0:0:0:
213,192,60112,1,0,0:0:0:0:
298,192,60184,1,0,0:0:0:0:
384,192,60184,1,0,0:0:0:0:
469,192,60184,1,0,0:0:0:0:
42,192,60184,1,0,0:0:0:0:
128,192,60255,1,0,0:0:0:0:
298,192,60327,1,0,0:0:0:0:
469,192,60327,1,0,0:0:0:0:
213,192,60327,1,0,0:0:0:0:
128,192,60398,1,0,0:0:0:0:
42,192,60470,1,0,0:0:0:0:
298,192,60470,1,0,0:0:0:0:
384,192,60470,1,0,0:0:0:0:
469,192,60470,1,0,0:0:0:0:
213,192,60541,1,0,0:0:0:0:
128,192,60612,1,0,0:0:0:0:
42,192,60612,1,0,0:0:0:0:
298,192,60612,1,0,0:0:0:0:
384,192,60684,1,0,0:0:0:0:
213,192,60755,1,0,0:0:0:0:
128,192,60755,1,0,0:0:0:0:
42,192,60755,1,0,0:0:0:0:
469,192,60755,1,0,0:0:0:0:
298,192,60827,1,0,0:0:0:0:
384,192,60827,1,0,0:0:0:0:
469,192,60898,1,0,0:0:0:0:
128,192,60898,1,0,0:0:0:0:
213,192,60970,1,0,0:0:0:0:
298,192,60970,1,0,0:0:0:0:
128,192,61041,1,0,0:0:0:0:
42,192,61041,1,0,0:0:0:0:
384,192,61041,1,0,0:0:0:0:
469,192,61041,1,0,0:0:0:0:
213,192,61112,1,0,0:0:0:0:
298,192,61184,1,0,0:0:0:0:
469,192,61184,1,0,0:0:0:0:
128,192,61184,1,0,0:0:0:0:
42,192,61255,1,0,0:0:0:0:
213,192,61327,1,0,0:0:0:0:
384,192,61327,1,0,0:0:0:0:
469,192,61327,1,0,0:0:0:0:
298,192,61327,1,0,0:0:0:0:
128,192,61398,1,0,0:0:0:0:
42,192,61470,1,0,0:0:0:0:
213,192,61470,1,0,0:0:0:0:
384,192,61470,1,0,0:0:0:0:
298,192,61541,1,0,0:0:0:0:
128,192,61612,1,0,0:0:0:0:
42,192,61612,1,0,0:0:0:0:
469,192,61612,1,0,0:0:0:0:
213,192,61612,1,0,0:0:0:0:
384,192,61684,1,0,0:0:0:0:
298,192,61755,1,0,0:0:0:0:
128,192,61755,1,0,0:0:0:0:
42,192,61755,1,0,0:0:0:0:
213,192,61827,1,0,0:0:0:0:
128,192,61898,1,0,0:0:0:0:
298,192,61898,1,0,0:0:0:0:
384,192,61898,1,0,0:0:0:0:
469,192,61898,1,0,0:0:0:0:
42,192,61970,1,0,0:0:0:0:
213,192,62041,1,0,0:0:0:0:
384,192,62041,1,0,0:0:0:0:
469,192,62041,1,0,0:0:0:0:
128,192,62112,1,0,0:0:0:0:
42,192,62184,1,0,0:0:0:0:
298,192,62184,1,0,0:0:0:0:
384,192,62184,1,0,0:0:0:0:
469,192,62184,1,0,0:0:0:0:
213,192,62255,1,0,0:0:0:0:
128,192,62327,1,0,0:0:0:0:
42,192,62327,1,0,0:0:0:0:
384,192,62327,1,0,0:0:0:0:
469,192,62398,1,0,0:0:0:0:
298,192,62470,1,0,0:0:0:0:
213,192,62470,1,0,0:0:0:0:
128,192,62470,1,0,0:0:0:0:
42,192,62470,1,0,0:0:0:0:
384,192,62541,1,0,0:0:0:0:
128,192,62612,1,0,0:0:0:0:
213,192,62612,1,0,0:0:0:0:
469,192,62612,1,0,0:0:0:0:
298,192,62684,1,0,0:0:0:0:
469,192,62755,1,0,0:0:0:0:
42,192,62755,1,0,0:0:0:0:
213,192,62755,1,0,0:0:0:0:
384,192,62755,1,0,0:0:0:0:
128,192,62827,1,0,0:0:0:0:
213,192,62898,1,0,0:0:0:0:
298,192,62898,1,0,0:0:0:0:
384,192,62898,1,0,0:0:0:0:
469,192,62970,1,0,0:0:0:0:
298,192,63041,1,0,0:0:0:0:
128,192,63041,1,0,0:0:0:0:
42,192,63041,1,0,0:0:0:0:
213,192,63041,1,0,0:0:0:0:
384,192,63112,1,0,0:0:0:0:
128,192,63184,1,0,0:0:0:0:
42,192,63184,1,0,0:0:0:0:
469,192,63184,1,0,0:0:0:0:
213,192,63255,1,0,0:0:0:0:
42,192,63327,1,0,0:0:0:0:
298,192,63327,1,0,0:0:0:0:
384,192,63327,1,0,0:0:0:0:
469,192,63327,1,0,0:0:0:0:
213,192,63398,1,0,0:0:0:0:
128,192,63470,1,0,0:0:0:0:
384,192,63470,1,0,0:0:0:0:
469,192,63470,1,0,0:0:0:0:
298,192,63541,1,0,0:0:0:0:
213,192,63612,1,0,0:0:0:0:
128,192,63612,1,0,0:0:0:0:
42,192,63612,1,0,0:0:0:0:
469,192,63612,1,0,0:0:0:0:
384,192,63684,1,0,0:0:0:0:
298,192,63755,1,0,0:0:0:0:
128,192,63755,1,0,0:0:0:0:
42,192,63755,1,0,0:0:0:0:
469,192,63827,1,0,0:0:0:0:
384,192,63898,1,0,0:0:0:0:
298,192,63898,1,0,0:0:0:0:
213,192,63898,1,0,0:0:0:0:
128,192,63898,1,0,0:0:0:0:
42,192,63970,1,0,0:0:0:0:
384,192,64041,1,0,0:0:0:0:
469,192,64041,1,0,0:0:0:0:
213,192,64041,1,0,0:0:0:0:
128,192,64112,1,0,0:0:0:0:
42,192,64184,1,0,0:0:0:0:
298,192,64184,1,0,0:0:0:0:
384,192,64184,1,0,0:0:0:0:
469,192,64184,1,0,0:0:0:0:
213,192,64255,1,0,0:0:0:0:
128,192,64327,1,0,0:0:0:0:
42,192,64327,1,0,0:0:0:0:
384,192,64327,1,0,0:0:0:0:
298,192,64398,1,0,0:0:0:0:
128,192,64470,1,0,0:0:0:0:
42,192,64470,1,0,0:0:0:0:
469,192,64470,1,0,0:0:0:0:
213,192,64470,1,0,0:0:0:0:
384,192,64541,1,0,0:0:0:0:
128,192,64612,1,0,0:0:0:0:
469,192,64612,1,0,0:0:0:0:
213,192,64612,1,0,0:0:0:0:
298,192,64684,1,0,0:0:0:0:
42,192,64755,1,0,0:0:0:0:
469,192,64755,1,0,0:0:0:0:
128,192,64755,1,0,0:0:0:0:
384,192,64755,1,0,0:0:0:0:
213,192,64827,1,0,0:0:0:0:
384,192,64898,1,0,0:0:0:0:
128,192,64898,1,0,0:0:0:0:
42,192,64898,1,0,0:0:0:0:
213,192,64970,1,0,0:0:0:0:
298,192,65041,1,0,0:0:0:0:
384,192,65041,1,0,0:0:0:0:
469,192,65041,1,0,0:0:0:0:
42,192,65041,1,0,0:0:0:0:
128,192,65112,1,0,0:0:0:0:
213,192,65184,1,0,0:0:0:0:
384,192,65184,1,0,0:0:0:0:
469,192,65184,1,0,0:0:0:0:
298,192,65255,1,0,0:0:0:0:
469,192,65327,1,0,0:0:0:0:
213,192,65327,1,0,0:0:0:0:
128,192,65327,1,0,0:0:0:0:
42,192,65327,1,0,0:0:0:0:
384,192,65398,1,0,0:0:0:0:
298,192,65470,1,0,0:0:0:0:
128,192,65470,1,0,0:0:0:0:
42,192,65470,1,0,0:0:0:0:
213,192,65541,1,0,0:0:0:0:
298,192,65612,1,0,0:0:0:0:
469,192,65612,1,0,0:0:0:0:
384,192,65612,1,0,0:0:0:0:
128,192,65612,1,0,0:0:0:0:
42,192,65684,1,0,0:0:0:0:
213,192,65755,1,0,0:0:0:0:
384,192,65755,1,0,0:0:0:0:
469,192,65755,1,0,0:0:0:0:
298,192,65827,1,0,0:0:0:0:
384,192,65898,1,0,0:0:0:0:
213,192,65898,1,0,0:0:0:0:
128,192,65898,1,0,0:0:0:0:
42,192,65898,1,0,0:0:0:0:
469,192,65970,1,0,0:0:0:0:
298,192,66041,1,0,0:0:0:0:
128,192,66041,1,0,0:0:0:0:
42,192,66041,1,0,0:0:0:0:
213,192,66112,1,0,0:0:0:0:
298,192,66184,1,0,0:0:0:0:
384,192,66184,1,0,0:0:0:0:
469,192,66184,1,0,0:0:0:0:
42,192,66184,1,0,0:0:0:0:
128,192,66255,1,0,0:0:0:0:
384,192,66327,1,0,0:0:0:0:
469,192,66327,1,0,0:0:0:0:
298,192,66327,1,0,0:0:0:0:
213,192,66398,1,0,0:0:0:0:
384,192,66470,1,0,0:0:0:0:
128,192,66470,1,0,0:0:0:0:
42,192,66470,1,0,0:0:0:0:
298,192,66470,1,0,0:0:0:0:
469,192,66541,1,0,0:0:0:0:
213,192,66612,1,0,0:0:0:0:
128,192,66612,1,0,0:0:0:0:
42,192,66612,1,0,0:0:0:0:
298,192,66684,1,0,0:0:0:0:
384,192,66755,1,0,0:0:0:0:
469,192,66755,1,0,0:0:0:0:
213,192,66755,1,0,0:0:0:0:
42,192,66755,1,0,0:0:0:0:
128,192,66827,1,0,0:0:0:0:
213,192,66898,1,0,0:0:0:0:
384,192,66898,1,0,0:0:0:0:
469,192,66898,1,0,0:0:0:0:
298,192,66970,1,0,0:0:0:0:
469,192,67041,1,0,0:0:0:0:
384,192,67041,1,0,0:0:0:0:
128,192,67041,1,0,0:0:0:0:
42,192,67041,1,0,0:0:0:0:
213,192,67112,1,0,0:0:0:0:
298,192,67184,1,0,0:0:0:0:
469,192,67184,1,0,0:0:0:0:
42,192,67184,1,0,0:0:0:0:
384,192,67255,1,0,0:0:0:0:
298,192,67327,1,0,0:0:0:0:
128,192,67327,1,0,0:0:0:0:
42,192,67327,1,0,0:0:0:0:
213,192,67327,1,0,0:0:0:0:
469,192,67398,1,0,0:0:0:0:
384,192,67470,1,0,0:0:0:0:
213,192,67470,1,0,0:0:0:0:
128,192,67470,1,0,0:0:0:0:
298,192,67541,1,0,0:0:0:0:
469,192,67612,1,0,0:0:0:0:
384,192,67612,1,0,0:0:0:0:
42,192,67612,1,0,0:0:0:0:
213,192,67612,1,0,0:0:0:0:
128,192,67684,1,0,0:0:0:0:
384,192,67755,1,0,0:0:0:0:
469,192,67755,1,0,0:0:0:0:
213,192,67755,1,0,0:0:0:0:
42,192,67827,1,0,0:0:0:0:
128,192,67898,1,0,0:0:0:0:
384,192,67898,1,0,0:0:0:0:
469,192,67898,1,0,0:0:0:0:
298,192,67898,1,0,0:0:0:0:
213,192,67970,1,0,0:0:0:0:
384,192,68041,1,0,0:0:0:0:
128,192,68041,1,0,0:0:0:0:
42,192,68041,1,0,0:0:0:0:
298,192,68112,1,0,0:0:0:0:
213,192,68184,1,0,0:0:0:0:
42,192,68184,1,0,0:0:0:0:
128,192,68184,1,0,0:0:0:0:
469,192,68184,1,0,0:0:0:0:
384,192,68255,1,0,0:0:0:0:
298,192,68327,1,0,0:0:0:0:
213,192,68327,1,0,0:0:0:0:
128,192,68327,1,0,0:0:0:0:
42,192,68398,1,0,0:0:0:0:
213,192,68470,1,0,0:0:0:0:
384,192,68470,1,0,0:0:0:0:
469,192,68470,1,0,0:0:0:0:
298,192,68470,1,0,0:0:0:0:
128,192,68541,1,0,0:0:0:0:
384,192,68612,1,0,0:0:0:0:
469,192,68612,1,0,0:0:0:0:
42,192,68612,1,0,0:0:0:0:
298,192,68684,1,0,0:0:0:0:
469,192,68755,1,0,0:0:0:0:
213,192,68755,1,0,0:0:0:0:
128,192,68755,1,0,0:0:0:0:
42,192,68755,1,0,0:0:0:0:
384,192,68827,1,0,0:0:0:0:
298,192,68898,1,0,0:0:0:0:
42,192,68898,1,0,0:0:0:0:
128,192,68898,1,0,0:0:0:0:
384,192,68970,1,0,0:0:0:0:
469,192,69041,1,0,0:0:0:0:
298,192,69041,1,0,0:0:0:0:
42,192,69041,1,0,0:0:0:0:
213,192,69041,1,0,0:0:0:0:
128,192,69112,1,0,0:0:0:0:
213,192,69184,1,0,0:0:0:0:
384,192,69184,1,0,0:0:0:0:
469,192,69184,1,0,0:0:0:0:
298,192,69255,1,0,0:0:0:0:
213,192,69327,1,0,0:0:0:0:
128,192,69327,1,0,0:0:0:0:
42,192,69327,1,0,0:0:0:0:
469,192,69327,1,0,0:0:0:0:
384,192,69398,1,0,0:0:0:0:
213,192,69470,1,0,0:0:0:0:
42,192,69470,1,0,0:0:0:0:
298,192,69470,1,0,0:0:0:0:
384,192,69541,1,0,0:0:0:0:
469,192,69612,1,0,0:0:0:0:
213,192,69612,1,0,0:0:0:0:
128,192,69612,1,0,0:0:0:0:
42,192,69612,1,0,0:0:0:0:
298,192,69684,1,0,0:0:0:0:
384,192,69755,1,0,0:0:0:0:
469,192,69755,1,0,0:0:0:0:
213,192,69755,1,0,0:0:0:0:
128,192,69827,1,0,0:0:0:0:
298,192,69898,1,0,0:0:0:0:
384,192,69898,1,0,0:0:0:0:
469,192,69898,1,0,0:0:0:0:
42,192,69898,1,0,0:0:0:0:
213,192,69970,1,0,0:0:0:0:
128,192,69970,1,0,0:0:0:0:
42,192,70041,1,0,0:0:0:0:
384,192,70041,1,0,0:0:0:0:
298,192,70112,1,0,0:0:0:0:
213,192,70112,1,0,0:0:0:0:
384,192,70184,1,0,0:0:0:0:
469,192,70184,1,0,0:0:0:0:
128,192,70184,1,0,0:0:0:0:
42,192,70184,1,0,0:0:0:0:
298,192,70255,1,0,0:0:0:0:
128,192,70327,1,0,0:0:0:0:
42,192,70327,1,0,0:0:0:0:
384,192,70327,1,0,0:0:0:0:
469,192,70398,1,0,0:0:0:0:
298,192,70470,1,0,0:0:0:0:
128,192,70470,1,0,0:0:0:0:
42,192,70470,1,0,0:0:0:0:
213,192,70470,1,0,0:0:0:0:
384,192,70541,1,0,0:0:0:0:
469,192,70612,1,0,0:0:0:0:
298,192,70612,1,0,0:0:0:0:
128,192,70612,1,0,0:0:0:0:
213,192,70684,1,0,0:0:0:0:
384,192,70755,1,0,0:0:0:0:
469,192,70755,1,0,0:0:0:0:
42,192,70755,1,0,0:0:0:0:
298,192,70755,1,0,0:0:0:0:
128,192,70827,1,0,0:0:0:0:
213,192,70898,1,0,0:0:0:0:
384,192,70898,1,0,0:0:0:0:
469,192,70898,1,0,0:0:0:0:
298,192,70970,1,0,0:0:0:0:
384,192,71041,1,0,0:0:0:0:
213,192,71041,1,0,0:0:0:0:
128,192,71041,1,0,0:0:0:0:
42,192,71041,1,0,0:0:0:0:
469,192,71112,1,0,0:0:0:0:
298,192,71184,1,0,0:0:0:0:
128,192,71184,1,0,0:0:0:0:
42,192,71184,1,0,0:0:0:0:
384,192,71255,1,0,0:0:0:0:
469,192,71327,1,0,0:0:0:0:
213,192,71327,1,0,0:0:0:0:
128,192,71327,1,0,0:0:0:0:
42,192,71327,1,0,0:0:0:0:
298,192,71398,1,0,0:0:0:0:
384,192,71470,1,0,0:0:0:0:
469,192,71470,1,0,0:0:0:0:
128,192,71470,1,0,0:0:0:0:
42,192,71541,1,0,0:0:0:0:
213,192,71612,1,0,0:0:0:0:
298,192,71612,1,0,0:0:0:0:
384,192,71612,1,0,0:0:0:0:
469,192,71612,1,0,0:0:0:0:
128,192,71684,1,0,0:0:0:0:
384,192,71755,1,0,0:0:0:0:
298,192,71755,1,0,0:0:0:0:
42,192,71755,1,0,0:0:0:0:
213,192,71827,1,0,0:0:0:0:
42,192,71898,1,0,0:0:0:0:
469,192,71898,1,0,0:0:0:0:
298,192,71898,1,0,0:0:0:0:
128,192,71898,1,0,0:0:0:0:
384,192,71970,1,0,0:0:0:0:
298,192,72041,1,0,0:0:0:0:
213,192,72041,1,0,0:0:0:0:
128,192,72041,1,0,0:0:0:0:
42,192,72112,1,0,0:0:0:0:
213,192,72184,1,0,0:0:0:0:
384,192,72184,1,0,0:0:0:0:
469,192,72184,1,0,0:0:0:0:
298,192,72184,1,0,0:0:0:0:
128,192,72255,1,0,0:0:0:0:
384,192,72327,1,0,0:0:0:0:
469,192,72327,1,0,0:0:0:0:
42,192,72327,1,0,0:0:0:0:
298,192,72398,1,0,0:0:0:0:
469,192,72470,1,0,0:0:0:0:
213,192,72470,1,0,0:0:0:0:
128,192,72470,1,0,0:0:0:0:
42,192,72470,1,0,0:0:0:0:
384,192,72541,1,0,0:0:0:0:
128,192,72612,1,0,0:0:0:0:
42,192,72612,1,0,0:0:0:0:
213,192,72612,1,0,0:0:0:0:
298,192,72684,1,0,0:0:0:0:
384,192,72684,1,0,0:0:0:0:
469,192,72684,1,0,0:0:0:0:
213,192,72755,1,0,0:0:0:0:
42,192,72755,1,0,0:0:0:0:
128,192,72755,1,0,0:0:0:0:
298,192,72827,1,0,0:0:0:0:
384,192,72827,1,0,0:0:0:0:
469,192,72827,1,0,0:0:0:0:
128,192,72898,1,0,0:0:0:0:
42,192,72898,1,0,0:0:0:0:
213,192,72898,1,0,0:0:0:0:
298,192,72970,1,0,0:0:0:0:
384,192,72970,1,0,0:0:0:0:
469,192,72970,1,0,0:0:0:0:
42,192,73041,1,0,0:0:0:0:
298,192,73041,1,0,0:0:0:0:
384,192,73041,1,0,0:0:0:0:
469,192,73041,1,0,0:0:0:0:
213,192,73184,1,0,0:0:0:0:
128,192,73184,1,0,0:0:0:0:
384,192,73184,1,0,0:0:0:0:
469,192,73184,1,0,0:0:0:0:
298,192,73327,1,0,0:0:0:0:
213,192,73327,1,0,0:0:0:0:
42,192,73327,1,0,0:0:0:0:
469,192,73327,1,0,0:0:0:0:
298,192,73470,1,0,0:0:0:0:
128,192,73470,1,0,0:0:0:0:
384,192,73470,1,0,0:0:0:0:
42,192,73470,1,0,0:0:0:0:
213,192,73612,1,0,0:0:0:0:
469,192,73612,1,0,0:0:0:0:
128,192,73612,1,0,0:0:0:0:
42,192,73612,1,0,0:0:0:0:
298,192,73684,1,0,0:0:0:0:
384,192,73755,1,0,0:0:0:0:
469,192,73755,1,0,0:0:0:0:
213,192,73803,1,0,0:0:0:0:
128,192,73850,1,0,0:0:0:0:
42,192,73898,1,0,0:0:0:0:
298,192,73898,1,0,0:0:0:0:
469,192,73898,1,0,0:0:0:0:
213,192,73970,1,0,0:0:0:0:
128,192,74041,1,0,0:0:0:0:
42,192,74041,1,0,0:0:0:0:
298,192,74089,1,0,0:0:0:0:
384,192,74136,1,0,0:0:0:0:
469,192,74184,1,0,0:0:0:0:
213,192,74184,1,0,0:0:0:0:
42,192,74184,1,0,0:0:0:0:
298,192,74255,1,0,0:0:0:0:
128,192,74327,1,0,0:0:0:0:
384,192,74327,1,0,0:0:0:0:
213,192,74374,1,0,0:0:0:0:
298,192,74422,1,0,0:0:0:0:
128,192,74470,1,0,0:0:0:0:
42,192,74470,1,0,0:0:0:0:
384,192,74470,1,0,0:0:0:0:
469,192,74470,1,0,0:0:0:0:
213,192,74541,1,0,0:0:0:0:
298,192,74612,1,0,0:0:0:0:
469,192,74612,1,0,0:0:0:0:
128,192,74660,1,0,0:0:0:0:
42,192,74708,1,0,0:0:0:0:
213,192,74755,1,0,0:0:0:0:
298,192,74755,1,0,0:0:0:0:
384,192,74755,1,0,0:0:0:0:
469,192,74755,1,0,0:0:0:0:
128,192,74827,1,0,0:0:0:0:
42,192,74898,1,0,0:0:0:0:
298,192,74898,1,0,0:0:0:0:
384,192,74946,1,0,0:0:0:0:
469,192,74993,1,0,0:0:0:0:
213,192,75041,1,0,0:0:0:0:
128,192,75041,1,0,0:0:0:0:
42,192,75041,1,0,0:0:0:0:
298,192,75112,1,0,0:0:0:0:
384,192,75184,1,0,0:0:0:0:
469,192,75184,1,0,0:0:0:0:
213,192,75184,1,0,0:0:0:0:
128,192,75231,1,0,0:0:0:0:
42,192,75279,1,0,0:0:0:0:
384,192,75327,1,0,0:0:0:0:
469,192,75327,1,0,0:0:0:0:
298,192,75327,1,0,0:0:0:0:
213,192,75398,1,0,0:0:0:0:
128,192,75470,1,0,0:0:0:0:
42,192,75470,1,0,0:0:0:0:
298,192,75517,1,0,0:0:0:0:
213,192,75565,1,0,0:0:0:0:
42,192,75612,1,0,0:0:0:0:
128,192,75612,1,0,0:0:0:0:
384,192,75612,1,0,0:0:0:0:
469,192,75612,1,0,0:0:0:0:
298,192,75684,1,0,0:0:0:0:
213,192,75755,1,0,0:0:0:0:
469,192,75755,1,0,0:0:0:0:
384,192,75803,1,0,0:0:0:0:
298,192,75850,1,0,0:0:0:0:
213,192,75898,1,0,0:0:0:0:
128,192,75898,1,0,0:0:0:0:
42,192,75898,1,0,0:0:0:0:
469,192,75898,1,0,0:0:0:0:
384,192,75970,1,0,0:0:0:0:
298,192,76041,1,0,0:0:0:0:
42,192,76041,1,0,0:0:0:0:
128,192,76089,1,0,0:0:0:0:
213,192,76136,1,0,0:0:0:0:
298,192,76184,1,0,0:0:0:0:
384,192,76184,1,0,0:0:0:0:
469,192,76184,1,0,0:0:0:0:
128,192,76255,1,0,0:0:0:0:
42,192,76327,1,0,0:0:0:0:
298,192,76327,1,0,0:0:0:0:
384,192,76374,1,0,0:0:0:0:
469,192,76422,1,0,0:0:0:0:
213,192,76470,1,0,0:0:0:0:
128,192,76470,1,0,0:0:0:0:
42,192,76470,1,0,0:0:0:0:
384,192,76541,1,0,0:0:0:0:
128,192,76612,1,0,0:0:0:0:
469,192,76612,1,0,0:0:0:0:
213,192,76660,1,0,0:0:0:0:
298,192,76708,1,0,0:0:0:0:
42,192,76755,1,0,0:0:0:0:
384,192,76755,1,0,0:0:0:0:
469,192,76755,1,0,0:0:0:0:
128,192,76755,1,0,0:0:0:0:
213,192,76827,1,0,0:0:0:0:
298,192,76898,1,0,0:0:0:0:
469,192,76898,1,0,0:0:0:0:
42,192,76946,1,0,0:0:0:0:
128,192,76993,1,0,0:0:0:0:
213,192,77041,1,0,0:0:0:0:
298,192,77041,1,0,0:0:0:0:
384,192,77041,1,0,0:0:0:0:
469,192,77041,1,0,0:0:0:0:
42,192,77112,1,0,0:0:0:0:
298,192,77184,1,0,0:0:0:0:
128,192,77184,1,0,0:0:0:0:
384,192,77231,1,0,0:0:0:0:
469,192,77279,1,0,0:0:0:0:
213,192,77327,1,0,0:0:0:0:
128,192,77327,1,0,0:0:0:0:
42,192,77327,1,0,0:0:0:0:
298,192,77398,1,0,0:0:0:0:
384,192,77470,1,0,0:0:0:0:
128,192,77470,1,0,0:0:0:0:
42,192,77470,1,0,0:0:0:0:
213,192,77517,1,0,0:0:0:0:
298,192,77565,1,0,0:0:0:0:
42,192,77612,1,0,0:0:0:0:
469,192,77612,1,0,0:0:0:0:
384,192,77612,1,0,0:0:0:0:
128,192,77684,1,0,0:0:0:0:
213,192,77755,1,0,0:0:0:0:
469,192,77755,1,0,0:0:0:0:
384,192,77803,1,0,0:0:0:0:
298,192,77850,1,0,0:0:0:0:
213,192,77898,1,0,0:0:0:0:
128,192,77898,1,0,0:0:0:0:
42,192,77898,1,0,0:0:0:0:
469,192,77898,1,0,0:0:0:0:
298,192,77970,1,0,0:0:0:0:
384,192,78041,1,0,0:0:0:0:
42,192,78041,1,0,0:0:0:0:
128,192,78089,1,0,0:0:0:0:
213,192,78136,1,0,0:0:0:0:
298,192,78184,1,0,0:0:0:0:
384,192,78184,1,0,0:0:0:0:
469,192,78184,1,0,0:0:0:0:
42,192,78184,1,0,0:0:0:0:
128,192,78255,1,0,0:0:0:0:
213,192,78327,1,0,0:0:0:0:
469,192,78327,1,0,0:0:0:0:
298,192,78374,1,0,0:0:0:0:
384,192,78422,1,0,0:0:0:0:
469,192,78470,1,0,0:0:0:0:
42,192,78470,1,0,0:0:0:0:
128,192,78470,1,0,0:0:0:0:
213,192,78541,1,0,0:0:0:0:
298,192,78612,1,0,0:0:0:0:
469,192,78612,1,0,0:0:0:0:
128,192,78660,1,0,0:0:0:0:
42,192,78708,1,0,0:0:0:0:
213,192,78755,1,0,0:0:0:0:
384,192,78755,1,0,0:0:0:0:
469,192,78755,1,0,0:0:0:0:
128,192,78827,1,0,0:0:0:0:
42,192,78898,1,0,0:0:0:0:
298,192,78898,1,0,0:0:0:0:
384,192,78946,1,0,0:0:0:0:
469,192,78993,1,0,0:0:0:0:
213,192,79041,1,0,0:0:0:0:
42,192,79041,1,0,0:0:0:0:
128,192,79041,1,0,0:0:0:0:
298,192,79041,1,0,0:0:0:0:
384,192,79112,1,0,0:0:0:0:
469,192,79112,1,0,0:0:0:0:
128,192,79184,1,0,0:0:0:0:
213,192,79184,1,0,0:0:0:0:
298,192,79231,1,0,0:0:0:0:
384,192,79255,1,0,0:0:0:0:
469,192,79279,1,0,0:0:0:0:
213,192,79327,1,0,0:0:0:0:
128,192,79327,1,0,0:0:0:0:
42,192,79327,1,0,0:0:0:0:
298,192,79327,1,0,0:0:0:0:
384,192,79398,1,0,0:0:0:0:
469,192,79470,1,0,0:0:0:0:
213,192,79470,1,0,0:0:0:0:
42,192,79470,1,0,0:0:0:0:
298,192,79517,1,0,0:0:0:0:
384,192,79565,1,0,0:0:0:0:
128,192,79612,1,0,0:0:0:0:
42,192,79612,1,0,0:0:0:0:
469,192,79612,1,0,0:0:0:0:
213,192,79612,1,0,0:0:0:0:
298,192,79684,1,0,0:0:0:0:
128,192,79755,1,0,0:0:0:0:
384,192,79755,1,0,0:0:0:0:
469,192,79755,1,0,0:0:0:0:
42,192,79803,1,0,0:0:0:0:
213,192,79850,1,0,0:0:0:0:
298,192,79898,1,0,0:0:0:0:
384,192,79898,1,0,0:0:0:0:
469,192,79898,1,0,0:0:0:0:
128,192,79898,1,0,0:0:0:0:
42,192,79970,1,0,0:0:0:0:
384,192,80041,1,0,0:0:0:0:
469,192,80041,1,0,0:0:0:0:
298,192,80041,1,0,0:0:0:0:
213,192,80089,1,0,0:0:0:0:
128,192,80136,1,0,0:0:0:0:
42,192,80184,1,0,0:0:0:0:
469,192,80184,1,0,0:0:0:0:
298,192,80184,1,0,0:0:0:0:
384,192,80184,1,0,0:0:0:0:
213,192,80255,1,0,0:0:0:0:
128,192,80327,1,0,0:0:0:0:
42,192,80327,1,0,0:0:0:0:
298,192,80327,1,0,0:0:0:0:
384,192,80374,1,0,0:0:0:0:
469,192,80422,1,0,0:0:0:0:
298,192,80470,1,0,0:0:0:0:
213,192,80470,1,0,0:0:0:0:
128,192,80470,1,0,0:0:0:0:
42,192,80470,1,0,0:0:0:0:
384,192,80541,1,0,0:0:0:0:
469,192,80612,1,0,0:0:0:0:
213,192,80612,1,0,0:0:0:0:
42,192,80612,1,0,0:0:0:0:
298,192,80660,1,0,0:0:0:0:
384,192,80708,1,0,0:0:0:0:
128,192,80755,1,0,0:0:0:0:
42,192,80755,1,0,0:0:0:0:
213,192,80755,1,0,0:0:0:0:
469,192,80755,1,0,0:0:0:0:
298,192,80827,1,0,0:0:0:0:
384,192,80898,1,0,0:0:0:0:
469,192,80898,1,0,0:0:0:0:
213,192,80898,1,0,0:0:0:0:
42,192,80946,1,0,0:0:0:0:
128,192,80993,1,0,0:0:0:0:
213,192,81041,1,0,0:0:0:0:
384,192,81041,1,0,0:0:0:0:
298,192,81041,1,0,0:0:0:0:
469,192,81041,1,0,0:0:0:0:
42,192,81112,1,0,0:0:0:0:
128,192,81184,1,0,0:0:0:0:
298,192,81184,1,0,0:0:0:0:
213,192,81184,1,0,0:0:0:0:
384,192,81231,1,0,0:0:0:0:
469,192,81279,1,0,0:0:0:0:
128,192,81327,1,0,0:0:0:0:
42,192,81327,1,0,0:0:0:0:
213,192,81327,1,0,0:0:0:0:
298,192,81327,1,0,0:0:0:0:
384,192,81398,1,0,0:0:0:0:
213,192,81470,1,0,0:0:0:0:
42,192,81470,1,0,0:0:0:0:
469,192,81470,1,0,0:0:0:0:
128,192,81517,1,0,0:0:0:0:
298,192,81565,1,0,0:0:0:0:
213,192,81612,1,0,0:0:0:0:
42,192,81612,1,0,0:0:0:0:
384,192,81612,1,0,0:0:0:0:
469,192,81612,1,0,0:0:0:0:
128,192,81684,1,0,0:0:0:0:
469,192,81755,1,0,0:0:0:0:
213,192,81755,1,0,0:0:0:0:
298,192,81755,1,0,0:0:0:0:
42,192,81803,1,0,0:0:0:0:
128,192,81850,1,0,0:0:0:0:
213,192,81898,1,0,0:0:0:0:
298,192,81898,1,0,0:0:0:0:
384,192,81898,1,0,0:0:0:0:
469,192,81898,1,0,0:0:0:0:
42,192,81970,1,0,0:0:0:0:
128,192,82041,1,0,0:0:0:0:
469,192,82041,1,0,0:0:0:0:
213,192,82041,1,0,0:0:0:0:
384,192,82089,1,0,0:0:0:0:
298,192,82136,1,0,0:0:0:0:
213,192,82184,1,0,0:0:0:0:
128,192,82184,1,0,0:0:0:0:
42,192,82184,1,0,0:0:0:0:
384,192,82255,1,0,0:0:0:0:
213,192,82327,1,0,0:0:0:0:
42,192,82327,1,0,0:0:0:0:
469,192,82327,1,0,0:0:0:0:
298,192,82374,1,0,0:0:0:0:
384,192,82422,1,0,0:0:0:0:
213,192,82470,1,0,0:0:0:0:
128,192,82470,1,0,0:0:0:0:
42,192,82470,1,0,0:0:0:0:
469,192,82470,1,0,0:0:0:0:
298,192,82541,1,0,0:0:0:0:
128,192,82612,1,0,0:0:0:0:
384,192,82612,1,0,0:0:0:0:
469,192,82612,1,0,0:0:0:0:
213,192,82660,1,0,0:0:0:0:
298,192,82708,1,0,0:0:0:0:
128,192,82755,1,0,0:0:0:0:
42,192,82755,1,0,0:0:0:0:
469,192,82755,1,0,0:0:0:0:
384,192,82755,1,0,0:0:0:0:
42,192,82827,1,0,0:0:0:0:
128,192,82827,1,0,0:0:0:0:
384,192,82898,1,0,0:0:0:0:
298,192,82934,1,0,0:0:0:0:
213,192,82970,1,0,0:0:0:0:
128,192,83005,1,0,0:0:0:0:
42,192,83041,1,0,0:0:0:0:
384,192,83041,1,0,0:0:0:0:
469,192,83041,1,0,0:0:0:0:
384,192,83112,1,0,0:0:0:0:
469,192,83112,1,0,0:0:0:0:
128,192,83184,1,0,0:0:0:0:
213,192,83220,1,0,0:0:0:0:
298,192,83255,1,0,0:0:0:0:
384,192,83291,1,0,0:0:0:0:
469,192,83327,1,0,0:0:0:0:
128,192,83327,1,0,0:0:0:0:
42,192,83327,1,0,0:0:0:0:
42,192,83398,1,0,0:0:0:0:
128,192,83398,1,0,0:0:0:0:
384,192,83470,1,0,0:0:0:0:
298,192,83505,1,0,0:0:0:0:
213,192,83541,1,0,0:0:0:0:
128,192,83577,1,0,0:0:0:0:
42,192,83612,1,0,0:0:0:0:
384,192,83612,1,0,0:0:0:0:
469,192,83612,1,0,0:0:0:0:
384,192,83684,1,0,0:0:0:0:
469,192,83684,1,0,0:0:0:0:
128,192,83755,1,0,0:0:0:0:
213,192,83791,1,0,0:0:0:0:
298,192,83827,1,0,0:0:0:0:
384,192,83862,1,0,0:0:0:0:
469,192,83898,1,0,0:0:0:0:
128,192,83898,1,0,0:0:0:0:
42,192,83898,1,0,0:0:0:0:
42,192,83970,1,0,0:0:0:0:
128,192,83970,1,0,0:0:0:0:
384,192,84041,1,0,0:0:0:0:
298,192,84077,1,0,0:0:0:0:
213,192,84112,1,0,0:0:0:0:
128,192,84148,1,0,0:0:0:0:
42,192,84184,1,0,0:0:0:0:
384,192,84184,1,0,0:0:0:0:
469,192,84184,1,0,0:0:0:0:
469,192,84255,1,0,0:0:0:0:
384,192,84255,1,0,0:0:0:0:
128,192,84327,1,0,0:0:0:0:
213,192,84362,1,0,0:0:0:0:
298,192,84398,1,0,0:0:0:0:
384,192,84434,1,0,0:0:0:0:
469,192,84470,1,0,0:0:0:0:
128,192,84470,1,0,0:0:0:0:
42,192,84470,1,0,0:0:0:0:
42,192,84541,1,0,0:0:0:0:
128,192,84541,1,0,0:0:0:0:
384,192,84612,1,0,0:0:0:0:
298,192,84648,1,0,0:0:0:0:
213,192,84684,1,0,0:0:0:0:
128,192,84720,1,0,0:0:0:0:
42,192,84755,1,0,0:0:0:0:
384,192,84755,1,0,0:0:0:0:
469,192,84755,1,0,0:0:0:0:
384,192,84827,1,0,0:0:0:0:
469,192,84827,1,0,0:0:0:0:
128,192,84898,1,0,0:0:0:0:
213,192,84934,1,0,0:0:0:0:
298,192,84970,1,0,0:0:0:0:
384,192,85005,1,0,0:0:0:0:
469,192,85041,1,0,0:0:0:0:
213,192,85041,1,0,0:0:0:0:
42,192,85041,1,0,0:0:0:0:
42,192,85112,1,0,0:0:0:0:
213,192,85112,1,0,0:0:0:0:
469,192,85184,1,0,0:0:0:0:
384,192,85220,1,0,0:0:0:0:
213,192,85255,1,0,0:0:0:0:
128,192,85291,1,0,0:0:0:0:
42,192,85327,1,0,0:0:0:0:
298,192,85327,1,0,0:0:0:0:
469,192,85327,1,0,0:0:0:0:
298,192,85398,1,0,0:0:0:0:
469,192,85398,1,0,0:0:0:0:
42,192,85470,1,0,0:0:0:0:
128,192,85505,1,0,0:0:0:0:
298,192,85541,1,0,0:0:0:0:
384,192,85577,1,0,0:0:0:0:
469,192,85612,1,0,0:0:0:0:
213,192,85612,1,0,0:0:0:0:
42,192,85612,1,0,0:0:0:0:
42,192,85684,1,0,0:0:0:0:
213,192,85684,1,0,0:0:0:0:
469,192,85755,1,0,0:0:0:0:
384,192,85791,1,0,0:0:0:0:
213,192,85827,1,0,0:0:0:0:
128,192,85862,1,0,0:0:0:0:
42,192,85898,1,0,0:0:0:0:
298,192,85898,1,0,0:0:0:0:
469,192,85898,1,0,0:0:0:0:
469,192,85970,1,0,0:0:0:0:
298,192,85970,1,0,0:0:0:0:
42,192,86041,1,0,0:0:0:0:
128,192,86077,1,0,0:0:0:0:
298,192,86112,1,0,0:0:0:0:
384,192,86148,1,0,0:0:0:0:
469,192,86184,1,0,0:0:0:0:
42,192,86184,1,0,0:0:0:0:
213,192,86184,1,0,0:0:0:0:
213,192,86255,1,0,0:0:0:0:
42,192,86255,1,0,0:0:0:0:
469,192,86327,1,0,0:0:0:0:
384,192,86362,1,0,0:0:0:0:
213,192,86398,1,0,0:0:0:0:
128,192,86434,1,0,0:0:0:0:
42,192,86470,1,0,0:0:0:0:
298,192,86470,1,0,0:0:0:0:
469,192,86470,1,0,0:0:0:0:
469,192,86541,1,0,0:0:0:0:
298,192,86541,1,0,0:0:0:0:
42,192,86612,1,0,0:0:0:0:
128,192,86648,1,0,0:0:0:0:
298,192,86684,1,0,0:0:0:0:
384,192,86720,1,0,0:0:0:0:
469,192,86755,1,0,0:0:0:0:
213,192,86755,1,0,0:0:0:0:
42,192,86755,1,0,0:0:0:0:
42,192,86827,1,0,0:0:0:0:
213,192,86827,1,0,0:0:0:0:
469,192,86898,1,0,0:0:0:0:
384,192,86934,1,0,0:0:0:0:
213,192,86970,1,0,0:0:0:0:
128,192,87005,1,0,0:0:0:0:
42,192,87041,1,0,0:0:0:0:
298,192,87041,1,0,0:0:0:0:
469,192,87041,1,0,0:0:0:0:
469,192,87112,1,0,0:0:0:0:
298,192,87112,1,0,0:0:0:0:
42,192,87184,1,0,0:0:0:0:
128,192,87220,1,0,0:0:0:0:
298,192,87255,1,0,0:0:0:0:
384,192,87291,1,0,0:0:0:0:
469,192,87327,1,0,0:0:0:0:
213,192,87327,1,0,0:0:0:0:
42,192,87327,1,0,0:0:0:0:
298,192,87374,1,0,0:0:0:0:
384,192,87422,1,0,0:0:0:0:
128,192,87470,1,0,0:0:0:0:
42,192,87470,1,0,0:0:0:0:
213,192,87517,1,0,0:0:0:0:
298,192,87565,1,0,0:0:0:0:
128,192,87612,1,0,0:0:0:0:
469,192,87612,1,0,0:0:0:0:
384,192,87612,1,0,0:0:0:0:
42,192,87660,1,0,0:0:0:0:
213,192,87708,1,0,0:0:0:0:
128,192,87755,1,0,0:0:0:0:
384,192,87755,1,0,0:0:0:0:
298,192,87803,1,0,0:0:0:0:
213,192,87850,1,0,0:0:0:0:
128,192,87898,1,0,0:0:0:0:
42,192,87898,1,0,0:0:0:0:
469,192,87898,1,0,0:0:0:0:
384,192,87946,1,0,0:0:0:0:
298,192,87993,1,0,0:0:0:0:
213,192,88041,1,0,0:0:0:0:
42,192,88041,1,0,0:0:0:0:
384,192,88089,1,0,0:0:0:0:
128,192,88136,1,0,0:0:0:0:
298,192,88184,1,0,0:0:0:0:
469,192,88184,1,0,0:0:0:0:
384,192,88184,1,0,0:0:0:0:
42,192,88231,1,0,0:0:0:0:
128,192,88279,1,0,0:0:0:0:
213,192,88327,1,0,0:0:0:0:
469,192,88327,1,0,0:0:0:0:
298,192,88374,1,0,0:0:0:0:
384,192,88422,1,0,0:0:0:0:
213,192,88470,1,0,0:0:0:0:
128,192,88470,1,0,0:0:0:0:
42,192,88470,1,0,0:0:0:0:
469,192,88517,1,0,0:0:0:0:
298,192,88565,1,0,0:0:0:0:
384,192,88612,1,0,0:0:0:0:
128,192,88612,1,0,0:0:0:0:
213,192,88660,1,0,0:0:0:0:
42,192,88708,1,0,0:0:0:0:
128,192,88755,1,0,0:0:0:0:
469,192,88755,1,0,0:0:0:0:
384,192,88755,1,0,0:0:0:0:
298,192,88803,1,0,0:0:0:0:
213,192,88850,1,0,0:0:0:0:
128,192,88898,1,0,0:0:0:0:
42,192,88898,1,0,0:0:0:0:
384,192,88946,1,0,0:0:0:0:
213,192,88993,1,0,0:0:0:0:
298,192,89041,1,0,0:0:0:0:
42,192,89041,1,0,0:0:0:0:
469,192,89041,1,0,0:0:0:0:
128,192,89089,1,0,0:0:0:0:
213,192,89136,1,0,0:0:0:0:
298,192,89184,1,0,0:0:0:0:
469,192,89184,1,0,0:0:0:0:
128,192,89231,1,0,0:0:0:0:
384,192,89279,1,0,0:0:0:0:
213,192,89327,1,0,0:0:0:0:
128,192,89327,1,0,0:0:0:0:
42,192,89327,1,0,0:0:0:0:
469,192,89374,1,0,0:0:0:0:
384,192,89422,1,0,0:0:0:0:
128,192,89470,1,0,0:0:0:0:
298,192,89470,1,0,0:0:0:0:
469,192,89517,1,0,0:0:0:0:
384,192,89565,1,0,0:0:0:0:
128,192,89612,1,0,0:0:0:0:
42,192,89612,1,0,0:0:0:0:
298,192,89612,1,0,0:0:0:0:
128,192,89684,1,0,0:0:0:0:
42,192,89684,1,0,0:0:0:0:
469,192,89755,1,0,0:0:0:0:
384,192,89755,1,0,0:0:0:0:
298,192,89827,1,0,0:0:0:0:
42,192,89827,1,0,0:0:0:0:
128,192,89898,1,0,0:0:0:0:
213,192,89898,1,0,0:0:0:0:
384,192,89898,1,0,0:0:0:0:
213,192,89970,1,0,0:0:0:0:
128,192,89970,1,0,0:0:0:0:
42,192,90041,1,0,0:0:0:0:
469,192,90041,1,0,0:0:0:0:
128,192,90112,1,0,0:0:0:0:
384,192,90112,1,0,0:0:0:0:
298,192,90184,1,0,0:0:0:0:
213,192,90184,1,0,0:0:0:0:
469,192,90184,1,0,0:0:0:0:
213,192,90255,1,0,0:0:0:0:
298,192,90255,1,0,0:0:0:0:
128,192,90327,1,0,0:0:0:0:
42,192,90327,1,0,0:0:0:0:
469,192,90398,1,0,0:0:0:0:
213,192,90398,1,0,0:0:0:0:
42,192,90470,1,0,0:0:0:0:
384,192,90470,1,0,0:0:0:0:
298,192,90470,1,0,0:0:0:0:
298,192,90541,1,0,0:0:0:0:
384,192,90541,1,0,0:0:0:0:
213,192,90612,1,0,0:0:0:0:
128,192,90612,1,0,0:0:0:0:
469,192,90684,1,0,0:0:0:0:
384,192,90684,1,0,0:0:0:0:
298,192,90755,1,0,0:0:0:0:
42,192,90755,1,0,0:0:0:0:
213,192,90755,1,0,0:0:0:0:
384,192,90791,1,0,0:0:0:0:
469,192,90827,1,0,0:0:0:0:
42,192,90862,1,0,0:0:0:0:
298,192,90898,1,0,0:0:0:0:
128,192,90934,1,0,0:0:0:0:
384,192,90970,1,0,0:0:0:0:
213,192,91005,1,0,0:0:0:0:
42,192,91041,1,0,0:0:0:0:
469,192,91041,1,0,0:0:0:0:
128,192,91065,1,0,0:0:0:0:
213,192,91089,1,0,0:0:0:0:
298,192,91112,1,0,0:0:0:0:
384,192,91136,1,0,0:0:0:0:
469,192,91160,1,0,0:0:0:0:
42,192,91184,1,0,0:0:0:0:
128,192,91208,1,0,0:0:0:0:
213,192,91231,1,0,0:0:0:0:
298,192,91255,1,0,0:0:0:0:
384,192,91279,1,0,0:0:0:0:
469,192,91303,1,0,0:0:0:0:
42,192,91327,1,0,0:0:0:0:
128,192,91345,1,0,0:0:0:0:
213,192,91362,1,0,0:0:0:0:
298,192,91380,1,0,0:0:0:0:
384,192,91398,1,0,0:0:0:0:
469,192,91416,1,0,0:0:0:0:
42,192,91452,1,0,0:0:0:0:
128,192,91470,1,0,0:0:0:0:
213,192,91487,1,0,0:0:0:0:
298,192,91505,1,0,0:0:0:0:
384,192,91523,1,0,0:0:0:0:
469,192,91541,1,0,0:0:0:0:
42,192,91577,1,0,0:0:0:0:
128,192,91595,1,0,0:0:0:0:
213,192,91612,1,0,0:0:0:0:
298,192,91630,1,0,0:0:0:0:
384,192,91648,1,0,0:0:0:0:
469,192,91666,1,0,0:0:0:0:
42,192,91684,1,0,0:0:0:0:
128,192,91702,1,0,0:0:0:0:
213,192,91720,1,0,0:0:0:0:
298,192,91737,1,0,0:0:0:0:
384,192,91755,1,0,0:0:0:0:
469,192,91773,1,0,0:0:0:0:
42,192,91791,1,0,0:0:0:0:
128,192,91809,1,0,0:0:0:0:
213,192,91827,1,0,0:0:0:0:
298,192,91845,1,0,0:0:0:0:
384,192,91862,1,0,0:0:0:0:
469,192,91880,1,0,0:0:0:0:
213,192,91898,1,0,0:0:0:0:
128,192,91898,1,0,0:0:0:0:
42,192,91898,1,0,0:0:0:0:
298,192,92041,1,0,0:0:0:0:
298,192,92112,1,0,0:0:0:0:
128,192,92184,1,0,0:0:0:0:
213,192,92255,1,0,0:0:0:0:
298,192,92327,1,0,0:0:0:0:
384,192,92327,1,0,0:0:0:0:
469,192,92327,1,0,0:0:0:0:
42,192,92470,1,0,0:0:0:0:
42,192,92541,1,0,0:0:0:0:
298,192,92612,1,0,0:0:0:0:
298,192,92684,1,0,0:0:0:0:
128,192,92755,1,0,0:0:0:0:
384,192,92827,1,0,0:0:0:0:
213,192,92898,1,0,0:0:0:0:
469,192,92970,1,0,0:0:0:0:
298,192,93041,1,0,0:0:0:0:
128,192,93041,1,0,0:0:0:0:
42,192,93041,1,0,0:0:0:0:
384,192,93184,1,0,0:0:0:0:
384,192,93255,1,0,0:0:0:0:
128,192,93327,1,0,0:0:0:0:
298,192,93398,1,0,0:0:0:0:
213,192,93470,1,0,0:0:0:0:
384,192,93470,1,0,0:0:0:0:
469,192,93470,1,0,0:0:0:0:
42,192,93612,1,0,0:0:0:0:
42,192,93684,1,0,0:0:0:0:
384,192,93755,1,0,0:0:0:0:
384,192,93827,1,0,0:0:0:0:
128,192,93898,1,0,0:0:0:0:
42,192,93898,128,0,94041:0:0:0:0:
469,192,93970,1,0,0:0:0:0:
213,192,94041,1,0,0:0:0:0:
384,192,94112,1,0,0:0:0:0:
469,192,94184,1,0,0:0:0:0:
128,192,94184,1,0,0:0:0:0:
42,192,94184,1,0,0:0:0:0:
213,192,94327,1,0,0:0:0:0:
213,192,94398,1,0,0:0:0:0:
384,192,94470,1,0,0:0:0:0:
384,192,94541,1,0,0:0:0:0:
213,192,94612,1,0,0:0:0:0:
42,192,94612,1,0,0:0:0:0:
469,192,94612,1,0,0:0:0:0:
298,192,94755,1,0,0:0:0:0:
298,192,94827,1,0,0:0:0:0:
42,192,94898,1,0,0:0:0:0:
42,192,94970,1,0,0:0:0:0:
469,192,95041,1,0,0:0:0:0:
213,192,95112,1,0,0:0:0:0:
384,192,95184,1,0,0:0:0:0:
128,192,95255,1,0,0:0:0:0:
42,192,95327,1,0,0:0:0:0:
298,192,95327,1,0,0:0:0:0:
469,192,95327,1,0,0:0:0:0:
128,192,95470,1,0,0:0:0:0:
128,192,95541,1,0,0:0:0:0:
384,192,95612,1,0,0:0:0:0:
298,192,95684,1,0,0:0:0:0:
213,192,95755,1,0,0:0:0:0:
42,192,95755,1,0,0:0:0:0:
469,192,95755,1,0,0:0:0:0:
384,192,95898,1,0,0:0:0:0:
384,192,95970,1,0,0:0:0:0:
128,192,96041,1,0,0:0:0:0:
128,192,96112,1,0,0:0:0:0:
469,192,96184,128,0,96327:0:0:0:0:
298,192,96184,1,0,0:0:0:0:
42,192,96255,1,0,0:0:0:0:
213,192,96327,1,0,0:0:0:0:
384,192,96398,1,0,0:0:0:0:
469,192,96470,1,0,0:0:0:0:
128,192,96470,1,0,0:0:0:0:
42,192,96470,1,0,0:0:0:0:
298,192,96612,1,0,0:0:0:0:
298,192,96684,1,0,0:0:0:0:
213,192,96755,1,0,0:0:0:0:
42,192,96755,1,0,0:0:0:0:
469,192,96755,1,0,0:0:0:0:
384,192,96827,1,0,0:0:0:0:
298,192,96898,1,0,0:0:0:0:
128,192,96898,1,0,0:0:0:0:
42,192,96898,1,0,0:0:0:0:
213,192,97041,1,0,0:0:0:0:
213,192,97112,1,0,0:0:0:0:
298,192,97184,1,0,0:0:0:0:
469,192,97184,1,0,0:0:0:0:
42,192,97184,1,0,0:0:0:0:
469,192,97255,1,0,0:0:0:0:
128,192,97327,1,0,0:0:0:0:
213,192,97398,1,0,0:0:0:0:
298,192,97470,1,0,0:0:0:0:
384,192,97541,1,0,0:0:0:0:
128,192,97612,1,0,0:0:0:0:
42,192,97612,1,0,0:0:0:0:
469,192,97612,1,0,0:0:0:0:
298,192,97755,1,0,0:0:0:0:
298,192,97827,1,0,0:0:0:0:
42,192,97898,1,0,0:0:0:0:
469,192,97898,1,0,0:0:0:0:
384,192,97898,1,0,0:0:0:0:
128,192,97970,1,0,0:0:0:0:
213,192,98041,1,0,0:0:0:0:
384,192,98041,1,0,0:0:0:0:
469,192,98041,1,0,0:0:0:0:
42,192,98184,1,0,0:0:0:0:
42,192,98255,1,0,0:0:0:0:
298,192,98327,1,0,0:0:0:0:
213,192,98327,1,0,0:0:0:0:
469,192,98327,1,0,0:0:0:0:
298,192,98398,1,0,0:0:0:0:
384,192,98470,1,0,0:0:0:0:
128,192,98470,1,0,0:0:0:0:
42,192,98470,1,0,0:0:0:0:
298,192,98541,1,0,0:0:0:0:
128,192,98541,1,0,0:0:0:0:
42,192,98541,1,0,0:0:0:0:
213,192,98612,1,0,0:0:0:0:
384,192,98612,1,0,0:0:0:0:
469,192,98612,1,0,0:0:0:0:
384,192,98684,1,0,0:0:0:0:
469,192,98684,1,0,0:0:0:0:
128,192,98684,1,0,0:0:0:0:
298,192,98755,1,0,0:0:0:0:
213,192,98755,1,0,0:0:0:0:
42,192,98755,1,0,0:0:0:0:
384,192,98827,1,0,0:0:0:0:
128,192,98898,1,0,0:0:0:0:
469,192,98898,1,0,0:0:0:0:
298,192,98970,1,0,0:0:0:0:
213,192,98970,1,0,0:0:0:0:
42,192,99041,1,0,0:0:0:0:
128,192,99041,1,0,0:0:0:0:
469,192,99041,1,0,0:0:0:0:
384,192,99112,1,0,0:0:0:0:
298,192,99112,1,0,0:0:0:0:
128,192,99184,1,0,0:0:0:0:
42,192,99184,1,0,0:0:0:0:
213,192,99184,1,0,0:0:0:0:
469,192,99255,1,0,0:0:0:0:
384,192,99327,1,0,0:0:0:0:
42,192,99327,1,0,0:0:0:0:
213,192,99398,1,0,0:0:0:0:
298,192,99398,1,0,0:0:0:0:
384,192,99470,1,0,0:0:0:0:
469,192,99470,1,0,0:0:0:0:
128,192,99470,1,0,0:0:0:0:
298,192,99541,1,0,0:0:0:0:
469,192,99541,1,0,0:0:0:0:
384,192,99541,1,0,0:0:0:0:
213,192,99612,1,0,0:0:0:0:
42,192,99612,1,0,0:0:0:0:
128,192,99612,1,0,0:0:0:0:
213,192,99684,1,0,0:0:0:0:
128,192,99684,1,0,0:0:0:0:
298,192,99684,1,0,0:0:0:0:
384,192,99755,1,0,0:0:0:0:
298,192,99755,1,0,0:0:0:0:
213,192,99755,1,0,0:0:0:0:
469,192,99827,1,0,0:0:0:0:
384,192,99827,1,0,0:0:0:0:
298,192,99827,1,0,0:0:0:0:
213,192,99898,1,0,0:0:0:0:
128,192,99898,1,0,0:0:0:0:
42,192,99898,1,0,0:0:0:0:
469,192,99898,128,0,100327:0:0:0:0:
298,192,100041,128,0,100327:0:0:0:0:
42,192,100184,128,0,101041:0:0:0:0:
213,192,100470,128,0,100541:0:0:0:0:
213,192,100612,128,0,101041:0:0:0:0:
384,192,100755,128,0,101041:0:0:0:0:
