osu file format v14

[General]
AudioFilename: lifework.mp3
AudioLeadIn: 0
PreviewTime: 55256
Countdown: 0
SampleSet: Normal
StackLeniency: 0.7
Mode: 3
LetterboxInBreaks: 0
SpecialStyle: 0
WidescreenStoryboard: 0

[Editor]
Bookmarks: 33683
DistanceSpacing: 2
BeatDivisor: 8
GridSize: 16
TimelineZoom: 2.799999

[Metadata]
Title:tyrcs' 6K Collection Pack
TitleUnicode:tyrcs' 6K Collection Pack
Artist:Various Artists
ArtistUnicode:Various Artists
Creator:tyrcs
Version:AAAA - lifework [20]
Source:
Tags:BMS The Quick Brown Fox Break TQBF renard LeaF 失望Choco Shitsubou Choco goreshit slavik goblins Aitsuki Nakuru 藍月なくる Monochrome Butterfly 現実をカットアップしてみた yu^ta Genjitsu o Cut-up Shite Mita -45 Aci-L A c i - L Yoshikawa-45 cornandbeans {Blaze} 八大地獄邪魂転生狂葬散火歌 さかみりと Sakamirito Hachidaijigoku Jakontensei Kyousou Sanbika Sakamiya 一之瀬りと Rito Ichinose かめりあ feat. ななひら ベィスドロップ・フリークス Camellia feat. Nanahira Bassdrop Freaks DEAF KEV Invincible ueotan Mario Paint (Time Regression Mix for BMS) Oerba Tanaka Vanilla Y ヲルバ=田中・ヴァニラ Schwerkraft ROKINA ロキナ Silentroom Nhelv SHAGAN DAISHI KAKU P-MODEL 遮眼大師 核P-MODEL 平沢進 Susumu Hirasawa ああああ AAAA lifework LUZE LuzeriA ルゼ katagiri ch3rry cherry かたぎり Laur Sheriruth (Laur Remix) Team Grimoire vs. Laur Grievous Lady Getty vs. DJ DiA Ops Code Rapture Vicetone & Tony Igy Astronomia (Camellia Remix) Coffin Dance かめりあ Fastest Crash Cut Tatsh reunion Asymmetry Reol アシンメトリー れをる
BeatmapID:3508467
BeatmapSetID:1716337

[Difficulty]
HPDrainRate:8
CircleSize:6
OverallDifficulty:8
ApproachRate:5
SliderMultiplier:1.4
SliderTickRate:1

[Events]
//Background and Video events
0,0,"lifework.jpg",0,0
//Break Periods
//Storyboard Layer 0 (Background)
//Storyboard Layer 1 (Fail)
//Storyboard Layer 2 (Pass)
//Storyboard Layer 3 (Foreground)
//Storyboard Layer 4 (Overlay)
//Storyboard Sound Samples

[TimingPoints]
-24,337.078651685393,4,1,0,5,1,0

[HitObjects]
128,192,1324,5,0,0:0:0:0:
128,192,1492,1,0,0:0:0:0:
213,192,2167,1,0,0:0:0:0:
213,192,2504,1,0,0:0:0:0:
42,192,2841,1,0,0:0:0:0:
42,192,3009,1,0,0:0:0:0:
298,192,3515,1,0,0:0:0:0:
384,192,3599,1,0,0:0:0:0:
298,192,3683,1,0,0:0:0:0:
213,192,3852,1,0,0:0:0:0:
128,192,4020,1,0,0:0:0:0:
42,192,4189,1,0,0:0:0:0:
128,192,4863,1,0,0:0:0:0:
213,192,4947,1,0,0:0:0:0:
298,192,5032,1,0,0:0:0:0:
128,192,5200,1,0,0:0:0:0:
469,192,5369,1,0,0:0:0:0:
469,192,5537,1,0,0:0:0:0:
384,192,5874,1,0,0:0:0:0:
384,192,6211,1,0,0:0:0:0:
213,192,6380,1,0,0:0:0:0:
213,192,6549,1,0,0:0:0:0:
384,192,6717,1,0,0:0:0:0:
128,192,6717,1,0,0:0:0:0:
384,192,6886,1,0,0:0:0:0:
128,192,6886,1,0,0:0:0:0:
384,192,7054,1,0,0:0:0:0:
298,192,7223,1,0,0:0:0:0:
469,192,7391,1,0,0:0:0:0:
469,192,7560,1,0,0:0:0:0:
213,192,7560,1,0,0:0:0:0:
298,192,7728,1,0,0:0:0:0:
469,192,7897,1,0,0:0:0:0:
213,192,7897,1,0,0:0:0:0:
384,192,8065,1,0,0:0:0:0:
384,192,8234,1,0,0:0:0:0:
42,192,8234,1,0,0:0:0:0:
384,192,8402,1,0,0:0:0:0:
42,192,8402,1,0,0:0:0:0:
298,192,8571,1,0,0:0:0:0:
469,192,8740,1,0,0:0:0:0:
469,192,8908,1,0,0:0:0:0:
128,192,8908,1,0,0:0:0:0:
213,192,8992,1,0,0:0:0:0:
298,192,9077,1,0,0:0:0:0:
128,192,9077,1,0,0:0:0:0:
469,192,9245,1,0,0:0:0:0:
128,192,9245,1,0,0:0:0:0:
384,192,9414,1,0,0:0:0:0:
42,192,9414,1,0,0:0:0:0:
384,192,9582,1,0,0:0:0:0:
213,192,9582,1,0,0:0:0:0:
384,192,9751,1,0,0:0:0:0:
298,192,9919,1,0,0:0:0:0:
469,192,10088,1,0,0:0:0:0:
469,192,10256,1,0,0:0:0:0:
42,192,10256,1,0,0:0:0:0:
128,192,10341,1,0,0:0:0:0:
298,192,10425,1,0,0:0:0:0:
42,192,10425,1,0,0:0:0:0:
469,192,10593,1,0,0:0:0:0:
128,192,10593,1,0,0:0:0:0:
213,192,10762,1,0,0:0:0:0:
213,192,10931,1,0,0:0:0:0:
384,192,11268,1,0,0:0:0:0:
384,192,11605,1,0,0:0:0:0:
42,192,11605,1,0,0:0:0:0:
128,192,11773,1,0,0:0:0:0:
469,192,11773,1,0,0:0:0:0:
384,192,11773,1,0,0:0:0:0:
213,192,11942,1,0,0:0:0:0:
42,192,12110,1,0,0:0:0:0:
298,192,12110,1,0,0:0:0:0:
469,192,12110,1,0,0:0:0:0:
128,192,12110,1,0,0:0:0:0:
213,192,12447,1,0,0:0:0:0:
469,192,12447,1,0,0:0:0:0:
42,192,12447,1,0,0:0:0:0:
213,192,12616,1,0,0:0:0:0:
384,192,12616,1,0,0:0:0:0:
42,192,12700,1,0,0:0:0:0:
213,192,12784,1,0,0:0:0:0:
42,192,12953,1,0,0:0:0:0:
298,192,12953,1,0,0:0:0:0:
42,192,13122,1,0,0:0:0:0:
213,192,13122,1,0,0:0:0:0:
469,192,13122,1,0,0:0:0:0:
128,192,13290,1,0,0:0:0:0:
298,192,13290,1,0,0:0:0:0:
384,192,13374,1,0,0:0:0:0:
469,192,13459,1,0,0:0:0:0:
42,192,13459,1,0,0:0:0:0:
213,192,13459,1,0,0:0:0:0:
298,192,13627,1,0,0:0:0:0:
469,192,13796,1,0,0:0:0:0:
128,192,13796,1,0,0:0:0:0:
42,192,13796,1,0,0:0:0:0:
298,192,13964,1,0,0:0:0:0:
128,192,13964,1,0,0:0:0:0:
384,192,14049,1,0,0:0:0:0:
213,192,14049,1,0,0:0:0:0:
469,192,14133,1,0,0:0:0:0:
298,192,14133,1,0,0:0:0:0:
42,192,14301,1,0,0:0:0:0:
384,192,14301,1,0,0:0:0:0:
42,192,14470,1,0,0:0:0:0:
213,192,14470,1,0,0:0:0:0:
469,192,14470,1,0,0:0:0:0:
298,192,14638,1,0,0:0:0:0:
42,192,14807,1,0,0:0:0:0:
128,192,14807,1,0,0:0:0:0:
384,192,14976,1,0,0:0:0:0:
213,192,15144,1,0,0:0:0:0:
42,192,15144,1,0,0:0:0:0:
469,192,15144,1,0,0:0:0:0:
384,192,15313,1,0,0:0:0:0:
213,192,15313,1,0,0:0:0:0:
128,192,15397,1,0,0:0:0:0:
42,192,15481,1,0,0:0:0:0:
213,192,15650,1,0,0:0:0:0:
469,192,15650,1,0,0:0:0:0:
384,192,15734,1,0,0:0:0:0:
128,192,15818,1,0,0:0:0:0:
42,192,15818,1,0,0:0:0:0:
298,192,15818,1,0,0:0:0:0:
128,192,15987,1,0,0:0:0:0:
384,192,15987,1,0,0:0:0:0:
213,192,16155,1,0,0:0:0:0:
42,192,16155,1,0,0:0:0:0:
469,192,16155,1,0,0:0:0:0:
298,192,16324,1,0,0:0:0:0:
469,192,16492,1,0,0:0:0:0:
128,192,16492,1,0,0:0:0:0:
42,192,16492,1,0,0:0:0:0:
213,192,16661,1,0,0:0:0:0:
384,192,16661,1,0,0:0:0:0:
42,192,16745,1,0,0:0:0:0:
213,192,16829,1,0,0:0:0:0:
298,192,16998,1,0,0:0:0:0:
42,192,16998,1,0,0:0:0:0:
213,192,17167,1,0,0:0:0:0:
42,192,17167,1,0,0:0:0:0:
384,192,17167,1,0,0:0:0:0:
469,192,17335,1,0,0:0:0:0:
128,192,17335,1,0,0:0:0:0:
298,192,17504,1,0,0:0:0:0:
42,192,17504,1,0,0:0:0:0:
213,192,17841,1,0,0:0:0:0:
469,192,17841,1,0,0:0:0:0:
42,192,17841,1,0,0:0:0:0:
213,192,18009,1,0,0:0:0:0:
384,192,18009,1,0,0:0:0:0:
42,192,18093,1,0,0:0:0:0:
213,192,18178,1,0,0:0:0:0:
42,192,18346,1,0,0:0:0:0:
298,192,18346,1,0,0:0:0:0:
42,192,18515,1,0,0:0:0:0:
213,192,18515,1,0,0:0:0:0:
469,192,18515,1,0,0:0:0:0:
128,192,18683,1,0,0:0:0:0:
298,192,18683,1,0,0:0:0:0:
384,192,18768,1,0,0:0:0:0:
469,192,18852,1,0,0:0:0:0:
42,192,18852,1,0,0:0:0:0:
213,192,18852,1,0,0:0:0:0:
298,192,19020,1,0,0:0:0:0:
469,192,19189,1,0,0:0:0:0:
128,192,19189,1,0,0:0:0:0:
42,192,19189,1,0,0:0:0:0:
298,192,19358,1,0,0:0:0:0:
128,192,19358,1,0,0:0:0:0:
384,192,19442,1,0,0:0:0:0:
213,192,19442,1,0,0:0:0:0:
469,192,19526,1,0,0:0:0:0:
298,192,19526,1,0,0:0:0:0:
42,192,19695,1,0,0:0:0:0:
384,192,19695,1,0,0:0:0:0:
42,192,19863,1,0,0:0:0:0:
213,192,19863,1,0,0:0:0:0:
469,192,19863,1,0,0:0:0:0:
298,192,20032,1,0,0:0:0:0:
42,192,20200,1,0,0:0:0:0:
128,192,20200,1,0,0:0:0:0:
384,192,20369,1,0,0:0:0:0:
213,192,20537,1,0,0:0:0:0:
42,192,20537,1,0,0:0:0:0:
469,192,20537,1,0,0:0:0:0:
384,192,20706,1,0,0:0:0:0:
213,192,20706,1,0,0:0:0:0:
128,192,20790,1,0,0:0:0:0:
42,192,20874,1,0,0:0:0:0:
213,192,21043,1,0,0:0:0:0:
469,192,21043,1,0,0:0:0:0:
384,192,21127,1,0,0:0:0:0:
128,192,21211,1,0,0:0:0:0:
42,192,21211,1,0,0:0:0:0:
298,192,21211,1,0,0:0:0:0:
128,192,21380,1,0,0:0:0:0:
384,192,21380,1,0,0:0:0:0:
213,192,21549,1,0,0:0:0:0:
42,192,21549,1,0,0:0:0:0:
469,192,21549,1,0,0:0:0:0:
298,192,21717,1,0,0:0:0:0:
469,192,21886,1,0,0:0:0:0:
128,192,21886,1,0,0:0:0:0:
42,192,21886,1,0,0:0:0:0:
213,192,22054,1,0,0:0:0:0:
384,192,22054,1,0,0:0:0:0:
42,192,22138,1,0,0:0:0:0:
213,192,22223,1,0,0:0:0:0:
128,192,22307,1,0,0:0:0:0:
42,192,22391,1,0,0:0:0:0:
213,192,22391,1,0,0:0:0:0:
384,192,22391,1,0,0:0:0:0:
298,192,22560,1,0,0:0:0:0:
128,192,22560,1,0,0:0:0:0:
469,192,22728,1,0,0:0:0:0:
42,192,22728,1,0,0:0:0:0:
213,192,22728,1,0,0:0:0:0:
128,192,22813,1,0,0:0:0:0:
213,192,22813,1,0,0:0:0:0:
42,192,22897,1,0,0:0:0:0:
298,192,22897,1,0,0:0:0:0:
469,192,22897,1,0,0:0:0:0:
42,192,23234,1,0,0:0:0:0:
469,192,23234,1,0,0:0:0:0:
213,192,23234,1,0,0:0:0:0:
384,192,23402,1,0,0:0:0:0:
213,192,23402,1,0,0:0:0:0:
42,192,23487,1,0,0:0:0:0:
213,192,23571,1,0,0:0:0:0:
298,192,23740,1,0,0:0:0:0:
42,192,23740,1,0,0:0:0:0:
469,192,23908,1,0,0:0:0:0:
213,192,23908,1,0,0:0:0:0:
42,192,23908,1,0,0:0:0:0:
298,192,24077,1,0,0:0:0:0:
128,192,24077,1,0,0:0:0:0:
384,192,24161,1,0,0:0:0:0:
213,192,24245,1,0,0:0:0:0:
42,192,24245,1,0,0:0:0:0:
469,192,24245,1,0,0:0:0:0:
298,192,24414,1,0,0:0:0:0:
42,192,24582,1,0,0:0:0:0:
128,192,24582,1,0,0:0:0:0:
469,192,24582,1,0,0:0:0:0:
128,192,24751,1,0,0:0:0:0:
298,192,24751,1,0,0:0:0:0:
213,192,24835,1,0,0:0:0:0:
384,192,24835,1,0,0:0:0:0:
298,192,24919,1,0,0:0:0:0:
469,192,24919,1,0,0:0:0:0:
384,192,25088,1,0,0:0:0:0:
42,192,25088,1,0,0:0:0:0:
469,192,25256,1,0,0:0:0:0:
213,192,25256,1,0,0:0:0:0:
42,192,25256,1,0,0:0:0:0:
298,192,25425,1,0,0:0:0:0:
128,192,25593,1,0,0:0:0:0:
42,192,25593,1,0,0:0:0:0:
384,192,25762,1,0,0:0:0:0:
469,192,25931,1,0,0:0:0:0:
42,192,25931,1,0,0:0:0:0:
213,192,25931,1,0,0:0:0:0:
213,192,26099,1,0,0:0:0:0:
384,192,26099,1,0,0:0:0:0:
128,192,26183,1,0,0:0:0:0:
42,192,26268,1,0,0:0:0:0:
469,192,26436,1,0,0:0:0:0:
213,192,26436,1,0,0:0:0:0:
384,192,26520,1,0,0:0:0:0:
298,192,26605,1,0,0:0:0:0:
42,192,26605,1,0,0:0:0:0:
128,192,26605,1,0,0:0:0:0:
384,192,26773,1,0,0:0:0:0:
128,192,26773,1,0,0:0:0:0:
469,192,26942,1,0,0:0:0:0:
42,192,26942,1,0,0:0:0:0:
213,192,26942,1,0,0:0:0:0:
298,192,27110,1,0,0:0:0:0:
42,192,27279,1,0,0:0:0:0:
128,192,27279,1,0,0:0:0:0:
469,192,27279,1,0,0:0:0:0:
384,192,27447,1,0,0:0:0:0:
213,192,27447,1,0,0:0:0:0:
42,192,27532,1,0,0:0:0:0:
213,192,27616,1,0,0:0:0:0:
42,192,27784,1,0,0:0:0:0:
298,192,27784,1,0,0:0:0:0:
384,192,27953,1,0,0:0:0:0:
42,192,27953,1,0,0:0:0:0:
213,192,27953,1,0,0:0:0:0:
128,192,28122,1,0,0:0:0:0:
469,192,28122,1,0,0:0:0:0:
213,192,28290,1,0,0:0:0:0:
42,192,28290,1,0,0:0:0:0:
213,192,28627,1,0,0:0:0:0:
469,192,28627,1,0,0:0:0:0:
42,192,28627,1,0,0:0:0:0:
213,192,28796,1,0,0:0:0:0:
384,192,28796,1,0,0:0:0:0:
42,192,28880,1,0,0:0:0:0:
213,192,28964,1,0,0:0:0:0:
42,192,29133,1,0,0:0:0:0:
298,192,29133,1,0,0:0:0:0:
42,192,29301,1,0,0:0:0:0:
213,192,29301,1,0,0:0:0:0:
469,192,29301,1,0,0:0:0:0:
128,192,29470,1,0,0:0:0:0:
298,192,29470,1,0,0:0:0:0:
384,192,29554,1,0,0:0:0:0:
469,192,29638,1,0,0:0:0:0:
42,192,29638,1,0,0:0:0:0:
213,192,29638,1,0,0:0:0:0:
298,192,29807,1,0,0:0:0:0:
469,192,29976,1,0,0:0:0:0:
128,192,29976,1,0,0:0:0:0:
42,192,29976,1,0,0:0:0:0:
298,192,30144,1,0,0:0:0:0:
128,192,30144,1,0,0:0:0:0:
384,192,30228,1,0,0:0:0:0:
213,192,30228,1,0,0:0:0:0:
469,192,30313,1,0,0:0:0:0:
298,192,30313,1,0,0:0:0:0:
42,192,30481,1,0,0:0:0:0:
384,192,30481,1,0,0:0:0:0:
42,192,30650,1,0,0:0:0:0:
213,192,30650,1,0,0:0:0:0:
469,192,30650,1,0,0:0:0:0:
298,192,30818,1,0,0:0:0:0:
42,192,30987,1,0,0:0:0:0:
128,192,30987,1,0,0:0:0:0:
384,192,31155,1,0,0:0:0:0:
213,192,31324,1,0,0:0:0:0:
42,192,31324,1,0,0:0:0:0:
469,192,31324,1,0,0:0:0:0:
384,192,31492,1,0,0:0:0:0:
213,192,31492,1,0,0:0:0:0:
128,192,31577,1,0,0:0:0:0:
42,192,31661,1,0,0:0:0:0:
213,192,31829,1,0,0:0:0:0:
469,192,31829,1,0,0:0:0:0:
384,192,31914,1,0,0:0:0:0:
128,192,31998,1,0,0:0:0:0:
42,192,31998,1,0,0:0:0:0:
298,192,31998,1,0,0:0:0:0:
128,192,32167,1,0,0:0:0:0:
384,192,32167,1,0,0:0:0:0:
42,192,32377,1,0,0:0:0:0:
128,192,32419,1,0,0:0:0:0:
42,192,32504,1,0,0:0:0:0:
469,192,32630,1,0,0:0:0:0:
384,192,32672,1,0,0:0:0:0:
469,192,32756,1,0,0:0:0:0:
128,192,32841,1,0,0:0:0:0:
298,192,32883,1,0,0:0:0:0:
384,192,32925,1,0,0:0:0:0:
384,192,33009,1,0,0:0:0:0:
384,192,33093,1,0,0:0:0:0:
42,192,33178,1,0,0:0:0:0:
213,192,33220,1,0,0:0:0:0:
469,192,33346,1,0,0:0:0:0:
42,192,33346,1,0,0:0:0:0:
384,192,33431,1,0,0:0:0:0:
128,192,33515,1,0,0:0:0:0:
213,192,33683,1,0,0:0:0:0:
42,192,33683,1,0,0:0:0:0:
384,192,33683,1,0,0:0:0:0:
469,192,33683,1,0,0:0:0:0:
298,192,33768,1,0,0:0:0:0:
128,192,33768,1,0,0:0:0:0:
213,192,33852,1,0,0:0:0:0:
42,192,33852,1,0,0:0:0:0:
469,192,33852,1,0,0:0:0:0:
384,192,33936,1,0,0:0:0:0:
298,192,34020,1,0,0:0:0:0:
469,192,34020,1,0,0:0:0:0:
128,192,34020,1,0,0:0:0:0:
42,192,34020,1,0,0:0:0:0:
213,192,34105,1,0,0:0:0:0:
384,192,34105,1,0,0:0:0:0:
298,192,34189,1,0,0:0:0:0:
128,192,34189,1,0,0:0:0:0:
469,192,34189,1,0,0:0:0:0:
384,192,34273,1,0,0:0:0:0:
213,192,34273,1,0,0:0:0:0:
42,192,34273,1,0,0:0:0:0:
128,192,34358,1,0,0:0:0:0:
298,192,34358,1,0,0:0:0:0:
213,192,34442,1,0,0:0:0:0:
42,192,34442,1,0,0:0:0:0:
469,192,34442,1,0,0:0:0:0:
384,192,34526,1,0,0:0:0:0:
128,192,34526,1,0,0:0:0:0:
298,192,34610,1,0,0:0:0:0:
469,192,34610,1,0,0:0:0:0:
42,192,34610,1,0,0:0:0:0:
128,192,34695,1,0,0:0:0:0:
213,192,34695,1,0,0:0:0:0:
384,192,34695,1,0,0:0:0:0:
298,192,34779,1,0,0:0:0:0:
42,192,34779,1,0,0:0:0:0:
42,192,34863,1,0,0:0:0:0:
213,192,34863,1,0,0:0:0:0:
469,192,34863,1,0,0:0:0:0:
298,192,34947,1,0,0:0:0:0:
42,192,35032,1,0,0:0:0:0:
128,192,35032,1,0,0:0:0:0:
469,192,35032,1,0,0:0:0:0:
384,192,35032,1,0,0:0:0:0:
298,192,35116,1,0,0:0:0:0:
213,192,35116,1,0,0:0:0:0:
469,192,35200,1,0,0:0:0:0:
128,192,35200,1,0,0:0:0:0:
42,192,35200,1,0,0:0:0:0:
298,192,35284,1,0,0:0:0:0:
42,192,35369,1,0,0:0:0:0:
384,192,35369,1,0,0:0:0:0:
469,192,35369,1,0,0:0:0:0:
213,192,35369,1,0,0:0:0:0:
298,192,35453,1,0,0:0:0:0:
128,192,35453,1,0,0:0:0:0:
213,192,35537,1,0,0:0:0:0:
42,192,35537,1,0,0:0:0:0:
384,192,35537,1,0,0:0:0:0:
128,192,35622,1,0,0:0:0:0:
298,192,35622,1,0,0:0:0:0:
469,192,35622,1,0,0:0:0:0:
384,192,35706,1,0,0:0:0:0:
213,192,35706,1,0,0:0:0:0:
298,192,35790,1,0,0:0:0:0:
469,192,35790,1,0,0:0:0:0:
42,192,35790,1,0,0:0:0:0:
128,192,35874,1,0,0:0:0:0:
384,192,35874,1,0,0:0:0:0:
213,192,35959,1,0,0:0:0:0:
469,192,35959,1,0,0:0:0:0:
42,192,35959,1,0,0:0:0:0:
298,192,36043,1,0,0:0:0:0:
384,192,36043,1,0,0:0:0:0:
128,192,36043,1,0,0:0:0:0:
469,192,36127,1,0,0:0:0:0:
213,192,36127,1,0,0:0:0:0:
384,192,36211,1,0,0:0:0:0:
42,192,36211,1,0,0:0:0:0:
213,192,36211,1,0,0:0:0:0:
128,192,36296,1,0,0:0:0:0:
298,192,36296,1,0,0:0:0:0:
42,192,36380,1,0,0:0:0:0:
384,192,36380,1,0,0:0:0:0:
213,192,36380,1,0,0:0:0:0:
469,192,36380,1,0,0:0:0:0:
298,192,36464,1,0,0:0:0:0:
128,192,36464,1,0,0:0:0:0:
213,192,36549,1,0,0:0:0:0:
42,192,36549,1,0,0:0:0:0:
469,192,36549,1,0,0:0:0:0:
384,192,36633,1,0,0:0:0:0:
128,192,36717,1,0,0:0:0:0:
42,192,36717,1,0,0:0:0:0:
298,192,36717,1,0,0:0:0:0:
469,192,36717,1,0,0:0:0:0:
213,192,36801,1,0,0:0:0:0:
384,192,36801,1,0,0:0:0:0:
298,192,36886,1,0,0:0:0:0:
469,192,36886,1,0,0:0:0:0:
128,192,36886,1,0,0:0:0:0:
213,192,36970,1,0,0:0:0:0:
384,192,36970,1,0,0:0:0:0:
42,192,36970,1,0,0:0:0:0:
128,192,37054,1,0,0:0:0:0:
298,192,37054,1,0,0:0:0:0:
213,192,37138,1,0,0:0:0:0:
42,192,37138,1,0,0:0:0:0:
469,192,37138,1,0,0:0:0:0:
384,192,37223,1,0,0:0:0:0:
128,192,37223,1,0,0:0:0:0:
42,192,37307,1,0,0:0:0:0:
298,192,37307,1,0,0:0:0:0:
469,192,37307,1,0,0:0:0:0:
384,192,37391,1,0,0:0:0:0:
213,192,37391,1,0,0:0:0:0:
128,192,37391,1,0,0:0:0:0:
42,192,37476,1,0,0:0:0:0:
298,192,37476,1,0,0:0:0:0:
42,192,37560,1,0,0:0:0:0:
213,192,37560,1,0,0:0:0:0:
469,192,37560,1,0,0:0:0:0:
298,192,37644,1,0,0:0:0:0:
42,192,37728,1,0,0:0:0:0:
128,192,37728,1,0,0:0:0:0:
469,192,37728,1,0,0:0:0:0:
384,192,37756,1,0,0:0:0:0:
298,192,37784,1,0,0:0:0:0:
213,192,37813,1,0,0:0:0:0:
128,192,37841,1,0,0:0:0:0:
42,192,37869,1,0,0:0:0:0:
469,192,37897,1,0,0:0:0:0:
384,192,37925,1,0,0:0:0:0:
298,192,37953,1,0,0:0:0:0:
213,192,37981,1,0,0:0:0:0:
128,192,38009,1,0,0:0:0:0:
42,192,38037,1,0,0:0:0:0:
298,192,38065,1,0,0:0:0:0:
384,192,38065,1,0,0:0:0:0:
469,192,38065,1,0,0:0:0:0:
128,192,38150,1,0,0:0:0:0:
42,192,38234,1,0,0:0:0:0:
298,192,38234,1,0,0:0:0:0:
384,192,38234,1,0,0:0:0:0:
213,192,38318,1,0,0:0:0:0:
128,192,38318,1,0,0:0:0:0:
469,192,38318,1,0,0:0:0:0:
298,192,38402,1,0,0:0:0:0:
42,192,38402,1,0,0:0:0:0:
128,192,38487,1,0,0:0:0:0:
384,192,38487,1,0,0:0:0:0:
469,192,38487,1,0,0:0:0:0:
298,192,38571,1,0,0:0:0:0:
213,192,38571,1,0,0:0:0:0:
42,192,38571,1,0,0:0:0:0:
128,192,38655,1,0,0:0:0:0:
384,192,38655,1,0,0:0:0:0:
298,192,38740,1,0,0:0:0:0:
213,192,38740,1,0,0:0:0:0:
42,192,38740,1,0,0:0:0:0:
469,192,38740,1,0,0:0:0:0:
384,192,38824,1,0,0:0:0:0:
128,192,38824,1,0,0:0:0:0:
213,192,38908,1,0,0:0:0:0:
469,192,38908,1,0,0:0:0:0:
298,192,38908,1,0,0:0:0:0:
42,192,38992,1,0,0:0:0:0:
384,192,38992,1,0,0:0:0:0:
298,192,39077,1,0,0:0:0:0:
213,192,39077,1,0,0:0:0:0:
128,192,39077,1,0,0:0:0:0:
469,192,39077,1,0,0:0:0:0:
384,192,39161,1,0,0:0:0:0:
42,192,39161,1,0,0:0:0:0:
213,192,39245,1,0,0:0:0:0:
128,192,39245,1,0,0:0:0:0:
469,192,39245,1,0,0:0:0:0:
298,192,39329,1,0,0:0:0:0:
128,192,39414,1,0,0:0:0:0:
42,192,39414,1,0,0:0:0:0:
384,192,39414,1,0,0:0:0:0:
469,192,39414,1,0,0:0:0:0:
213,192,39498,1,0,0:0:0:0:
298,192,39498,1,0,0:0:0:0:
384,192,39582,1,0,0:0:0:0:
128,192,39582,1,0,0:0:0:0:
42,192,39582,1,0,0:0:0:0:
213,192,39667,1,0,0:0:0:0:
298,192,39667,1,0,0:0:0:0:
469,192,39667,1,0,0:0:0:0:
384,192,39751,1,0,0:0:0:0:
42,192,39751,1,0,0:0:0:0:
213,192,39835,1,0,0:0:0:0:
128,192,39835,1,0,0:0:0:0:
469,192,39835,1,0,0:0:0:0:
298,192,39919,1,0,0:0:0:0:
42,192,39919,1,0,0:0:0:0:
384,192,39919,1,0,0:0:0:0:
213,192,40004,1,0,0:0:0:0:
128,192,40004,1,0,0:0:0:0:
42,192,40088,1,0,0:0:0:0:
298,192,40088,1,0,0:0:0:0:
384,192,40088,1,0,0:0:0:0:
469,192,40088,1,0,0:0:0:0:
213,192,40172,1,0,0:0:0:0:
128,192,40172,1,0,0:0:0:0:
213,192,40256,1,0,0:0:0:0:
384,192,40256,1,0,0:0:0:0:
469,192,40256,1,0,0:0:0:0:
298,192,40341,1,0,0:0:0:0:
42,192,40341,1,0,0:0:0:0:
213,192,40425,1,0,0:0:0:0:
128,192,40425,1,0,0:0:0:0:
469,192,40425,1,0,0:0:0:0:
384,192,40425,1,0,0:0:0:0:
298,192,40509,1,0,0:0:0:0:
42,192,40509,1,0,0:0:0:0:
128,192,40593,1,0,0:0:0:0:
384,192,40593,1,0,0:0:0:0:
469,192,40593,1,0,0:0:0:0:
213,192,40678,1,0,0:0:0:0:
128,192,40762,1,0,0:0:0:0:
42,192,40762,1,0,0:0:0:0:
298,192,40762,1,0,0:0:0:0:
469,192,40762,1,0,0:0:0:0:
384,192,40846,1,0,0:0:0:0:
213,192,40931,1,0,0:0:0:0:
42,192,40931,1,0,0:0:0:0:
298,192,40931,1,0,0:0:0:0:
128,192,41015,1,0,0:0:0:0:
384,192,41015,1,0,0:0:0:0:
469,192,41015,1,0,0:0:0:0:
42,192,41099,1,0,0:0:0:0:
298,192,41099,1,0,0:0:0:0:
128,192,41183,1,0,0:0:0:0:
469,192,41183,1,0,0:0:0:0:
213,192,41183,1,0,0:0:0:0:
298,192,41268,1,0,0:0:0:0:
384,192,41268,1,0,0:0:0:0:
42,192,41268,1,0,0:0:0:0:
213,192,41352,1,0,0:0:0:0:
469,192,41352,1,0,0:0:0:0:
384,192,41436,1,0,0:0:0:0:
298,192,41436,1,0,0:0:0:0:
128,192,41436,1,0,0:0:0:0:
42,192,41436,1,0,0:0:0:0:
213,192,41520,1,0,0:0:0:0:
469,192,41520,1,0,0:0:0:0:
213,192,41605,1,0,0:0:0:0:
128,192,41605,1,0,0:0:0:0:
298,192,41605,1,0,0:0:0:0:
42,192,41689,1,0,0:0:0:0:
384,192,41689,1,0,0:0:0:0:
298,192,41773,1,0,0:0:0:0:
213,192,41773,1,0,0:0:0:0:
128,192,41773,1,0,0:0:0:0:
469,192,41773,1,0,0:0:0:0:
384,192,41858,1,0,0:0:0:0:
42,192,41858,1,0,0:0:0:0:
213,192,41942,1,0,0:0:0:0:
128,192,41942,1,0,0:0:0:0:
469,192,41942,1,0,0:0:0:0:
298,192,42026,1,0,0:0:0:0:
128,192,42110,1,0,0:0:0:0:
42,192,42110,1,0,0:0:0:0:
384,192,42110,1,0,0:0:0:0:
469,192,42110,1,0,0:0:0:0:
213,192,42195,1,0,0:0:0:0:
298,192,42195,1,0,0:0:0:0:
384,192,42279,1,0,0:0:0:0:
128,192,42279,1,0,0:0:0:0:
42,192,42279,1,0,0:0:0:0:
213,192,42363,1,0,0:0:0:0:
298,192,42363,1,0,0:0:0:0:
469,192,42363,1,0,0:0:0:0:
384,192,42447,1,0,0:0:0:0:
42,192,42447,1,0,0:0:0:0:
213,192,42532,1,0,0:0:0:0:
128,192,42532,1,0,0:0:0:0:
469,192,42532,1,0,0:0:0:0:
298,192,42616,1,0,0:0:0:0:
42,192,42616,1,0,0:0:0:0:
384,192,42616,1,0,0:0:0:0:
213,192,42700,1,0,0:0:0:0:
128,192,42700,1,0,0:0:0:0:
42,192,42784,1,0,0:0:0:0:
298,192,42784,1,0,0:0:0:0:
384,192,42784,1,0,0:0:0:0:
469,192,42784,1,0,0:0:0:0:
213,192,42869,1,0,0:0:0:0:
128,192,42869,1,0,0:0:0:0:
213,192,42953,1,0,0:0:0:0:
384,192,42953,1,0,0:0:0:0:
469,192,42953,1,0,0:0:0:0:
298,192,43037,1,0,0:0:0:0:
42,192,43037,1,0,0:0:0:0:
213,192,43122,1,0,0:0:0:0:
128,192,43122,1,0,0:0:0:0:
469,192,43122,1,0,0:0:0:0:
384,192,43150,1,0,0:0:0:0:
298,192,43178,1,0,0:0:0:0:
42,192,43206,1,0,0:0:0:0:
128,192,43234,1,0,0:0:0:0:
213,192,43262,1,0,0:0:0:0:
469,192,43290,1,0,0:0:0:0:
384,192,43318,1,0,0:0:0:0:
298,192,43346,1,0,0:0:0:0:
42,192,43374,1,0,0:0:0:0:
128,192,43402,1,0,0:0:0:0:
213,192,43431,1,0,0:0:0:0:
298,192,43459,1,0,0:0:0:0:
384,192,43459,1,0,0:0:0:0:
469,192,43459,1,0,0:0:0:0:
128,192,43543,1,0,0:0:0:0:
42,192,43543,1,0,0:0:0:0:
213,192,43627,1,0,0:0:0:0:
298,192,43627,1,0,0:0:0:0:
384,192,43627,1,0,0:0:0:0:
469,192,43711,1,0,0:0:0:0:
128,192,43711,1,0,0:0:0:0:
42,192,43711,1,0,0:0:0:0:
213,192,43796,1,0,0:0:0:0:
298,192,43796,1,0,0:0:0:0:
384,192,43880,1,0,0:0:0:0:
469,192,43880,1,0,0:0:0:0:
42,192,43880,1,0,0:0:0:0:
128,192,43964,1,0,0:0:0:0:
213,192,43964,1,0,0:0:0:0:
298,192,43964,1,0,0:0:0:0:
42,192,44049,1,0,0:0:0:0:
469,192,44049,1,0,0:0:0:0:
384,192,44049,1,0,0:0:0:0:
298,192,44133,1,0,0:0:0:0:
213,192,44133,1,0,0:0:0:0:
128,192,44133,1,0,0:0:0:0:
384,192,44217,1,0,0:0:0:0:
469,192,44217,1,0,0:0:0:0:
298,192,44301,1,0,0:0:0:0:
42,192,44301,1,0,0:0:0:0:
213,192,44301,1,0,0:0:0:0:
128,192,44386,1,0,0:0:0:0:
384,192,44386,1,0,0:0:0:0:
298,192,44470,1,0,0:0:0:0:
213,192,44470,1,0,0:0:0:0:
42,192,44470,1,0,0:0:0:0:
469,192,44470,1,0,0:0:0:0:
128,192,44554,1,0,0:0:0:0:
384,192,44554,1,0,0:0:0:0:
213,192,44638,1,0,0:0:0:0:
469,192,44638,1,0,0:0:0:0:
42,192,44638,1,0,0:0:0:0:
298,192,44723,1,0,0:0:0:0:
128,192,44807,1,0,0:0:0:0:
42,192,44807,1,0,0:0:0:0:
384,192,44807,1,0,0:0:0:0:
469,192,44807,1,0,0:0:0:0:
213,192,44891,1,0,0:0:0:0:
298,192,44891,1,0,0:0:0:0:
42,192,44976,1,0,0:0:0:0:
384,192,44976,1,0,0:0:0:0:
128,192,44976,1,0,0:0:0:0:
213,192,45060,1,0,0:0:0:0:
298,192,45060,1,0,0:0:0:0:
469,192,45060,1,0,0:0:0:0:
384,192,45144,1,0,0:0:0:0:
42,192,45144,1,0,0:0:0:0:
213,192,45228,1,0,0:0:0:0:
128,192,45228,1,0,0:0:0:0:
469,192,45228,1,0,0:0:0:0:
384,192,45313,1,0,0:0:0:0:
298,192,45313,1,0,0:0:0:0:
42,192,45313,1,0,0:0:0:0:
213,192,45397,1,0,0:0:0:0:
469,192,45397,1,0,0:0:0:0:
384,192,45481,1,0,0:0:0:0:
298,192,45481,1,0,0:0:0:0:
128,192,45481,1,0,0:0:0:0:
42,192,45481,1,0,0:0:0:0:
469,192,45565,1,0,0:0:0:0:
213,192,45565,1,0,0:0:0:0:
469,192,45650,1,0,0:0:0:0:
128,192,45650,1,0,0:0:0:0:
42,192,45650,1,0,0:0:0:0:
298,192,45734,1,0,0:0:0:0:
213,192,45818,1,0,0:0:0:0:
42,192,45818,1,0,0:0:0:0:
384,192,45818,1,0,0:0:0:0:
469,192,45818,1,0,0:0:0:0:
298,192,45902,1,0,0:0:0:0:
128,192,45902,1,0,0:0:0:0:
213,192,45987,1,0,0:0:0:0:
384,192,45987,1,0,0:0:0:0:
469,192,45987,1,0,0:0:0:0:
42,192,46071,1,0,0:0:0:0:
213,192,46155,1,0,0:0:0:0:
128,192,46155,1,0,0:0:0:0:
298,192,46155,1,0,0:0:0:0:
469,192,46155,1,0,0:0:0:0:
384,192,46240,1,0,0:0:0:0:
42,192,46240,1,0,0:0:0:0:
128,192,46324,1,0,0:0:0:0:
213,192,46324,1,0,0:0:0:0:
469,192,46324,1,0,0:0:0:0:
384,192,46408,1,0,0:0:0:0:
298,192,46408,1,0,0:0:0:0:
42,192,46408,1,0,0:0:0:0:
213,192,46492,1,0,0:0:0:0:
469,192,46492,1,0,0:0:0:0:
298,192,46577,1,0,0:0:0:0:
128,192,46577,1,0,0:0:0:0:
42,192,46577,1,0,0:0:0:0:
213,192,46661,1,0,0:0:0:0:
384,192,46661,1,0,0:0:0:0:
469,192,46661,1,0,0:0:0:0:
298,192,46745,1,0,0:0:0:0:
42,192,46745,1,0,0:0:0:0:
213,192,46829,1,0,0:0:0:0:
128,192,46829,1,0,0:0:0:0:
469,192,46829,1,0,0:0:0:0:
384,192,46829,1,0,0:0:0:0:
298,192,46914,1,0,0:0:0:0:
42,192,46914,1,0,0:0:0:0:
42,192,46998,1,0,0:0:0:0:
213,192,46998,1,0,0:0:0:0:
469,192,46998,1,0,0:0:0:0:
384,192,47082,1,0,0:0:0:0:
128,192,47082,1,0,0:0:0:0:
298,192,47167,1,0,0:0:0:0:
213,192,47167,1,0,0:0:0:0:
42,192,47167,1,0,0:0:0:0:
469,192,47167,1,0,0:0:0:0:
128,192,47251,1,0,0:0:0:0:
384,192,47251,1,0,0:0:0:0:
213,192,47335,1,0,0:0:0:0:
469,192,47335,1,0,0:0:0:0:
42,192,47335,1,0,0:0:0:0:
298,192,47419,1,0,0:0:0:0:
128,192,47504,1,0,0:0:0:0:
42,192,47504,1,0,0:0:0:0:
384,192,47504,1,0,0:0:0:0:
469,192,47504,1,0,0:0:0:0:
213,192,47588,1,0,0:0:0:0:
298,192,47588,1,0,0:0:0:0:
42,192,47672,1,0,0:0:0:0:
384,192,47672,1,0,0:0:0:0:
128,192,47672,1,0,0:0:0:0:
213,192,47756,1,0,0:0:0:0:
298,192,47756,1,0,0:0:0:0:
469,192,47756,1,0,0:0:0:0:
384,192,47841,1,0,0:0:0:0:
42,192,47841,1,0,0:0:0:0:
213,192,47925,1,0,0:0:0:0:
128,192,47925,1,0,0:0:0:0:
469,192,47925,1,0,0:0:0:0:
384,192,48009,1,0,0:0:0:0:
298,192,48009,1,0,0:0:0:0:
42,192,48009,1,0,0:0:0:0:
213,192,48093,1,0,0:0:0:0:
469,192,48093,1,0,0:0:0:0:
384,192,48178,1,0,0:0:0:0:
298,192,48178,1,0,0:0:0:0:
128,192,48178,1,0,0:0:0:0:
42,192,48178,1,0,0:0:0:0:
469,192,48262,1,0,0:0:0:0:
213,192,48262,1,0,0:0:0:0:
469,192,48346,1,0,0:0:0:0:
128,192,48346,1,0,0:0:0:0:
42,192,48346,1,0,0:0:0:0:
298,192,48431,1,0,0:0:0:0:
42,192,48515,1,0,0:0:0:0:
469,192,48515,1,0,0:0:0:0:
384,192,48515,1,0,0:0:0:0:
128,192,48543,1,0,0:0:0:0:
213,192,48571,1,0,0:0:0:0:
298,192,48599,1,0,0:0:0:0:
384,192,48627,1,0,0:0:0:0:
469,192,48655,1,0,0:0:0:0:
42,192,48683,1,0,0:0:0:0:
128,192,48711,1,0,0:0:0:0:
213,192,48740,1,0,0:0:0:0:
298,192,48768,1,0,0:0:0:0:
384,192,48796,1,0,0:0:0:0:
469,192,48824,1,0,0:0:0:0:
213,192,48852,1,0,0:0:0:0:
128,192,48852,1,0,0:0:0:0:
42,192,48852,1,0,0:0:0:0:
298,192,48936,1,0,0:0:0:0:
384,192,48936,1,0,0:0:0:0:
213,192,49020,1,0,0:0:0:0:
128,192,49020,1,0,0:0:0:0:
469,192,49020,1,0,0:0:0:0:
384,192,49105,1,0,0:0:0:0:
298,192,49105,1,0,0:0:0:0:
42,192,49105,1,0,0:0:0:0:
128,192,49189,1,0,0:0:0:0:
469,192,49189,1,0,0:0:0:0:
298,192,49273,1,0,0:0:0:0:
213,192,49273,1,0,0:0:0:0:
42,192,49273,1,0,0:0:0:0:
128,192,49358,1,0,0:0:0:0:
384,192,49358,1,0,0:0:0:0:
469,192,49358,1,0,0:0:0:0:
298,192,49442,1,0,0:0:0:0:
42,192,49442,1,0,0:0:0:0:
213,192,49526,1,0,0:0:0:0:
128,192,49526,1,0,0:0:0:0:
384,192,49526,1,0,0:0:0:0:
469,192,49526,1,0,0:0:0:0:
298,192,49610,1,0,0:0:0:0:
42,192,49610,1,0,0:0:0:0:
213,192,49695,1,0,0:0:0:0:
128,192,49695,1,0,0:0:0:0:
469,192,49695,1,0,0:0:0:0:
384,192,49779,1,0,0:0:0:0:
298,192,49779,1,0,0:0:0:0:
213,192,49863,1,0,0:0:0:0:
128,192,49863,1,0,0:0:0:0:
42,192,49863,1,0,0:0:0:0:
469,192,49863,1,0,0:0:0:0:
384,192,49947,1,0,0:0:0:0:
298,192,49947,1,0,0:0:0:0:
128,192,50032,1,0,0:0:0:0:
42,192,50032,1,0,0:0:0:0:
469,192,50032,1,0,0:0:0:0:
298,192,50116,1,0,0:0:0:0:
213,192,50200,1,0,0:0:0:0:
42,192,50200,1,0,0:0:0:0:
384,192,50200,1,0,0:0:0:0:
469,192,50200,1,0,0:0:0:0:
298,192,50284,1,0,0:0:0:0:
128,192,50284,1,0,0:0:0:0:
213,192,50369,1,0,0:0:0:0:
384,192,50369,1,0,0:0:0:0:
42,192,50369,1,0,0:0:0:0:
298,192,50453,1,0,0:0:0:0:
469,192,50453,1,0,0:0:0:0:
128,192,50453,1,0,0:0:0:0:
213,192,50537,1,0,0:0:0:0:
384,192,50537,1,0,0:0:0:0:
298,192,50622,1,0,0:0:0:0:
469,192,50622,1,0,0:0:0:0:
42,192,50622,1,0,0:0:0:0:
128,192,50706,1,0,0:0:0:0:
384,192,50706,1,0,0:0:0:0:
213,192,50706,1,0,0:0:0:0:
42,192,50790,1,0,0:0:0:0:
298,192,50790,1,0,0:0:0:0:
213,192,50874,1,0,0:0:0:0:
128,192,50874,1,0,0:0:0:0:
384,192,50874,1,0,0:0:0:0:
469,192,50874,1,0,0:0:0:0:
42,192,50959,1,0,0:0:0:0:
298,192,50959,1,0,0:0:0:0:
42,192,51043,1,0,0:0:0:0:
213,192,51043,1,0,0:0:0:0:
469,192,51043,1,0,0:0:0:0:
384,192,51127,1,0,0:0:0:0:
298,192,51211,1,0,0:0:0:0:
469,192,51211,1,0,0:0:0:0:
128,192,51211,1,0,0:0:0:0:
42,192,51211,1,0,0:0:0:0:
213,192,51296,1,0,0:0:0:0:
384,192,51296,1,0,0:0:0:0:
298,192,51380,1,0,0:0:0:0:
42,192,51380,1,0,0:0:0:0:
128,192,51380,1,0,0:0:0:0:
213,192,51464,1,0,0:0:0:0:
42,192,51549,1,0,0:0:0:0:
298,192,51549,1,0,0:0:0:0:
384,192,51549,1,0,0:0:0:0:
469,192,51549,1,0,0:0:0:0:
128,192,51633,1,0,0:0:0:0:
213,192,51633,1,0,0:0:0:0:
298,192,51717,1,0,0:0:0:0:
469,192,51717,1,0,0:0:0:0:
384,192,51717,1,0,0:0:0:0:
128,192,51801,1,0,0:0:0:0:
42,192,51801,1,0,0:0:0:0:
213,192,51801,1,0,0:0:0:0:
298,192,51886,1,0,0:0:0:0:
469,192,51886,1,0,0:0:0:0:
384,192,51970,1,0,0:0:0:0:
128,192,51970,1,0,0:0:0:0:
42,192,51970,1,0,0:0:0:0:
298,192,52054,1,0,0:0:0:0:
469,192,52054,1,0,0:0:0:0:
213,192,52054,1,0,0:0:0:0:
128,192,52138,1,0,0:0:0:0:
384,192,52138,1,0,0:0:0:0:
298,192,52223,1,0,0:0:0:0:
213,192,52223,1,0,0:0:0:0:
42,192,52223,1,0,0:0:0:0:
469,192,52223,1,0,0:0:0:0:
128,192,52307,1,0,0:0:0:0:
384,192,52307,1,0,0:0:0:0:
128,192,52391,1,0,0:0:0:0:
469,192,52391,1,0,0:0:0:0:
213,192,52391,1,0,0:0:0:0:
298,192,52476,1,0,0:0:0:0:
213,192,52560,1,0,0:0:0:0:
128,192,52560,1,0,0:0:0:0:
42,192,52560,1,0,0:0:0:0:
469,192,52560,1,0,0:0:0:0:
384,192,52644,1,0,0:0:0:0:
298,192,52644,1,0,0:0:0:0:
128,192,52728,1,0,0:0:0:0:
42,192,52728,1,0,0:0:0:0:
469,192,52728,1,0,0:0:0:0:
298,192,52813,1,0,0:0:0:0:
213,192,52897,1,0,0:0:0:0:
42,192,52897,1,0,0:0:0:0:
384,192,52897,1,0,0:0:0:0:
469,192,52897,1,0,0:0:0:0:
298,192,52981,1,0,0:0:0:0:
128,192,52981,1,0,0:0:0:0:
213,192,53065,1,0,0:0:0:0:
384,192,53065,1,0,0:0:0:0:
42,192,53065,1,0,0:0:0:0:
298,192,53150,1,0,0:0:0:0:
469,192,53150,1,0,0:0:0:0:
128,192,53150,1,0,0:0:0:0:
213,192,53234,1,0,0:0:0:0:
384,192,53234,1,0,0:0:0:0:
298,192,53318,1,0,0:0:0:0:
469,192,53318,1,0,0:0:0:0:
42,192,53318,1,0,0:0:0:0:
128,192,53402,1,0,0:0:0:0:
384,192,53402,1,0,0:0:0:0:
213,192,53402,1,0,0:0:0:0:
42,192,53487,1,0,0:0:0:0:
298,192,53487,1,0,0:0:0:0:
213,192,53571,1,0,0:0:0:0:
128,192,53571,1,0,0:0:0:0:
384,192,53571,1,0,0:0:0:0:
469,192,53571,1,0,0:0:0:0:
42,192,53655,1,0,0:0:0:0:
298,192,53655,1,0,0:0:0:0:
42,192,53740,1,0,0:0:0:0:
213,192,53740,1,0,0:0:0:0:
469,192,53740,1,0,0:0:0:0:
384,192,53824,1,0,0:0:0:0:
469,192,53908,1,0,0:0:0:0:
298,192,53908,1,0,0:0:0:0:
42,192,53908,1,0,0:0:0:0:
128,192,53936,1,0,0:0:0:0:
213,192,53964,1,0,0:0:0:0:
469,192,53992,1,0,0:0:0:0:
384,192,54020,1,0,0:0:0:0:
298,192,54049,1,0,0:0:0:0:
42,192,54077,1,0,0:0:0:0:
128,192,54105,1,0,0:0:0:0:
213,192,54133,1,0,0:0:0:0:
469,192,54161,1,0,0:0:0:0:
384,192,54189,1,0,0:0:0:0:
298,192,54217,1,0,0:0:0:0:
213,192,54245,1,0,0:0:0:0:
128,192,54245,1,0,0:0:0:0:
42,192,54245,1,0,0:0:0:0:
384,192,54329,1,0,0:0:0:0:
469,192,54329,1,0,0:0:0:0:
298,192,54414,1,0,0:0:0:0:
128,192,54414,1,0,0:0:0:0:
42,192,54414,1,0,0:0:0:0:
213,192,54498,1,0,0:0:0:0:
384,192,54498,1,0,0:0:0:0:
469,192,54498,1,0,0:0:0:0:
298,192,54582,1,0,0:0:0:0:
128,192,54582,1,0,0:0:0:0:
42,192,54582,1,0,0:0:0:0:
213,192,54667,1,0,0:0:0:0:
384,192,54667,1,0,0:0:0:0:
298,192,54751,1,0,0:0:0:0:
469,192,54751,1,0,0:0:0:0:
128,192,54751,1,0,0:0:0:0:
42,192,54835,1,0,0:0:0:0:
213,192,54835,1,0,0:0:0:0:
384,192,54835,1,0,0:0:0:0:
298,192,54919,1,0,0:0:0:0:
469,192,54919,1,0,0:0:0:0:
128,192,54919,1,0,0:0:0:0:
213,192,55004,1,0,0:0:0:0:
384,192,55004,1,0,0:0:0:0:
298,192,55088,1,0,0:0:0:0:
469,192,55088,1,0,0:0:0:0:
42,192,55088,1,0,0:0:0:0:
384,192,55172,1,0,0:0:0:0:
128,192,55172,1,0,0:0:0:0:
42,192,55256,1,0,0:0:0:0:
469,192,55256,1,0,0:0:0:0:
213,192,55256,1,0,0:0:0:0:
298,192,55270,1,0,0:0:0:0:
128,192,55579,1,0,0:0:0:0:
42,192,55593,1,0,0:0:0:0:
469,192,55733,1,0,0:0:0:0:
384,192,55761,1,0,0:0:0:0:
298,192,56098,1,0,0:0:0:0:
42,192,56267,1,0,0:0:0:0:
213,192,56281,1,0,0:0:0:0:
213,192,56435,1,0,0:0:0:0:
384,192,56786,1,0,0:0:0:0:
469,192,56857,1,0,0:0:0:0:
384,192,56927,1,0,0:0:0:0:
298,192,57025,1,0,0:0:0:0:
42,192,57081,1,0,0:0:0:0:
213,192,57095,1,0,0:0:0:0:
298,192,57348,1,0,0:0:0:0:
384,192,57447,1,0,0:0:0:0:
298,192,57587,1,0,0:0:0:0:
213,192,57615,1,0,0:0:0:0:
42,192,57756,1,0,0:0:0:0:
213,192,57784,1,0,0:0:0:0:
128,192,57938,1,0,0:0:0:0:
42,192,57952,1,0,0:0:0:0:
298,192,58135,1,0,0:0:0:0:
298,192,58275,1,0,0:0:0:0:
469,192,58275,1,0,0:0:0:0:
128,192,58458,1,0,0:0:0:0:
213,192,58472,1,0,0:0:0:0:
42,192,58626,1,0,0:0:0:0:
213,192,58711,1,0,0:0:0:0:
384,192,58781,1,0,0:0:0:0:
298,192,58963,1,0,0:0:0:0:
469,192,58963,1,0,0:0:0:0:
42,192,59300,1,0,0:0:0:0:
128,192,59385,1,0,0:0:0:0:
213,192,59483,1,0,0:0:0:0:
298,192,59553,1,0,0:0:0:0:
128,192,59722,1,0,0:0:0:0:
213,192,59806,1,0,0:0:0:0:
298,192,59890,1,0,0:0:0:0:
384,192,60059,1,0,0:0:0:0:
469,192,60143,1,0,0:0:0:0:
298,192,60227,1,0,0:0:0:0:
213,192,60396,1,0,0:0:0:0:
128,192,60480,1,0,0:0:0:0:
42,192,60650,1,0,0:0:0:0:
213,192,60650,1,0,0:0:0:0:
384,192,60664,1,0,0:0:0:0:
128,192,60973,1,0,0:0:0:0:
42,192,60987,1,0,0:0:0:0:
469,192,61127,1,0,0:0:0:0:
384,192,61155,1,0,0:0:0:0:
298,192,61492,1,0,0:0:0:0:
42,192,61661,1,0,0:0:0:0:
213,192,61675,1,0,0:0:0:0:
213,192,61829,1,0,0:0:0:0:
384,192,62180,1,0,0:0:0:0:
469,192,62251,1,0,0:0:0:0:
384,192,62321,1,0,0:0:0:0:
298,192,62419,1,0,0:0:0:0:
42,192,62475,1,0,0:0:0:0:
213,192,62489,1,0,0:0:0:0:
298,192,62742,1,0,0:0:0:0:
384,192,62841,1,0,0:0:0:0:
298,192,62981,1,0,0:0:0:0:
213,192,63009,1,0,0:0:0:0:
42,192,63150,1,0,0:0:0:0:
213,192,63178,1,0,0:0:0:0:
128,192,63332,1,0,0:0:0:0:
42,192,63346,1,0,0:0:0:0:
298,192,63529,1,0,0:0:0:0:
298,192,63669,1,0,0:0:0:0:
469,192,63669,1,0,0:0:0:0:
128,192,63852,1,0,0:0:0:0:
213,192,63866,1,0,0:0:0:0:
42,192,64020,1,0,0:0:0:0:
213,192,64105,1,0,0:0:0:0:
384,192,64175,1,0,0:0:0:0:
298,192,64358,1,0,0:0:0:0:
469,192,64358,1,0,0:0:0:0:
42,192,64695,1,0,0:0:0:0:
128,192,64779,1,0,0:0:0:0:
213,192,64877,1,0,0:0:0:0:
298,192,64947,1,0,0:0:0:0:
128,192,65116,1,0,0:0:0:0:
213,192,65200,1,0,0:0:0:0:
298,192,65284,1,0,0:0:0:0:
384,192,65453,1,0,0:0:0:0:
469,192,65537,1,0,0:0:0:0:
298,192,65622,1,0,0:0:0:0:
213,192,65790,1,0,0:0:0:0:
128,192,65874,1,0,0:0:0:0:
42,192,66043,1,0,0:0:0:0:
213,192,66043,1,0,0:0:0:0:
469,192,66043,1,0,0:0:0:0:
384,192,66057,1,0,0:0:0:0:
128,192,66366,1,0,0:0:0:0:
42,192,66380,1,0,0:0:0:0:
469,192,66520,1,0,0:0:0:0:
384,192,66549,1,0,0:0:0:0:
298,192,66886,1,0,0:0:0:0:
42,192,67054,1,0,0:0:0:0:
213,192,67068,1,0,0:0:0:0:
213,192,67223,1,0,0:0:0:0:
384,192,67573,1,0,0:0:0:0:
469,192,67644,1,0,0:0:0:0:
384,192,67714,1,0,0:0:0:0:
298,192,67813,1,0,0:0:0:0:
42,192,67869,1,0,0:0:0:0:
213,192,67882,1,0,0:0:0:0:
298,192,68135,1,0,0:0:0:0:
384,192,68234,1,0,0:0:0:0:
298,192,68374,1,0,0:0:0:0:
213,192,68402,1,0,0:0:0:0:
42,192,68543,1,0,0:0:0:0:
213,192,68571,1,0,0:0:0:0:
128,192,68725,1,0,0:0:0:0:
42,192,68740,1,0,0:0:0:0:
298,192,68922,1,0,0:0:0:0:
298,192,69062,1,0,0:0:0:0:
469,192,69062,1,0,0:0:0:0:
128,192,69245,1,0,0:0:0:0:
213,192,69259,1,0,0:0:0:0:
42,192,69414,1,0,0:0:0:0:
213,192,69498,1,0,0:0:0:0:
384,192,69568,1,0,0:0:0:0:
298,192,69751,1,0,0:0:0:0:
469,192,69751,1,0,0:0:0:0:
42,192,70088,1,0,0:0:0:0:
128,192,70172,1,0,0:0:0:0:
213,192,70270,1,0,0:0:0:0:
298,192,70341,1,0,0:0:0:0:
128,192,70509,1,0,0:0:0:0:
213,192,70593,1,0,0:0:0:0:
298,192,70678,1,0,0:0:0:0:
384,192,70846,1,0,0:0:0:0:
469,192,70931,1,0,0:0:0:0:
298,192,71015,1,0,0:0:0:0:
213,192,71183,1,0,0:0:0:0:
128,192,71268,1,0,0:0:0:0:
213,192,71436,1,0,0:0:0:0:
42,192,71436,1,0,0:0:0:0:
384,192,71450,1,0,0:0:0:0:
128,192,71759,1,0,0:0:0:0:
42,192,71773,1,0,0:0:0:0:
469,192,71914,1,0,0:0:0:0:
384,192,71942,1,0,0:0:0:0:
298,192,72279,1,0,0:0:0:0:
42,192,72447,1,0,0:0:0:0:
213,192,72461,1,0,0:0:0:0:
213,192,72616,1,0,0:0:0:0:
384,192,72966,1,0,0:0:0:0:
469,192,73037,1,0,0:0:0:0:
384,192,73107,1,0,0:0:0:0:
298,192,73206,1,0,0:0:0:0:
42,192,73262,1,0,0:0:0:0:
213,192,73275,1,0,0:0:0:0:
298,192,73528,1,0,0:0:0:0:
384,192,73627,1,0,0:0:0:0:
298,192,73768,1,0,0:0:0:0:
213,192,73796,1,0,0:0:0:0:
42,192,73936,1,0,0:0:0:0:
213,192,73964,1,0,0:0:0:0:
128,192,74118,1,0,0:0:0:0:
42,192,74133,1,0,0:0:0:0:
298,192,74315,1,0,0:0:0:0:
469,192,74455,1,0,0:0:0:0:
298,192,74455,1,0,0:0:0:0:
128,192,74638,1,0,0:0:0:0:
213,192,74652,1,0,0:0:0:0:
42,192,74807,1,0,0:0:0:0:
213,192,74891,1,0,0:0:0:0:
384,192,74961,1,0,0:0:0:0:
469,192,75144,1,0,0:0:0:0:
298,192,75144,1,0,0:0:0:0:
42,192,75523,1,0,0:0:0:0:
128,192,75565,1,0,0:0:0:0:
42,192,75650,1,0,0:0:0:0:
469,192,75776,1,0,0:0:0:0:
384,192,75818,1,0,0:0:0:0:
469,192,75902,1,0,0:0:0:0:
128,192,75987,1,0,0:0:0:0:
298,192,76029,1,0,0:0:0:0:
384,192,76071,1,0,0:0:0:0:
384,192,76155,1,0,0:0:0:0:
384,192,76240,1,0,0:0:0:0:
42,192,76324,1,0,0:0:0:0:
213,192,76366,1,0,0:0:0:0:
42,192,76492,1,0,0:0:0:0:
469,192,76492,1,0,0:0:0:0:
384,192,76577,1,0,0:0:0:0:
128,192,76661,1,0,0:0:0:0:
213,192,76829,1,0,0:0:0:0:
42,192,76829,1,0,0:0:0:0:
298,192,76829,1,0,0:0:0:0:
469,192,76829,1,0,0:0:0:0:
384,192,76914,1,0,0:0:0:0:
128,192,76914,1,0,0:0:0:0:
298,192,76998,1,0,0:0:0:0:
213,192,76998,1,0,0:0:0:0:
469,192,76998,1,0,0:0:0:0:
384,192,77082,1,0,0:0:0:0:
128,192,77082,1,0,0:0:0:0:
213,192,77167,1,0,0:0:0:0:
42,192,77167,1,0,0:0:0:0:
298,192,77167,1,0,0:0:0:0:
469,192,77167,1,0,0:0:0:0:
384,192,77251,1,0,0:0:0:0:
128,192,77251,1,0,0:0:0:0:
42,192,77335,1,0,0:0:0:0:
298,192,77335,1,0,0:0:0:0:
469,192,77335,1,0,0:0:0:0:
384,192,77419,1,0,0:0:0:0:
213,192,77419,1,0,0:0:0:0:
128,192,77419,1,0,0:0:0:0:
42,192,77504,1,0,0:0:0:0:
298,192,77504,1,0,0:0:0:0:
213,192,77588,1,0,0:0:0:0:
384,192,77588,1,0,0:0:0:0:
469,192,77588,1,0,0:0:0:0:
298,192,77672,1,0,0:0:0:0:
128,192,77672,1,0,0:0:0:0:
42,192,77672,1,0,0:0:0:0:
213,192,77756,1,0,0:0:0:0:
469,192,77756,1,0,0:0:0:0:
384,192,77841,1,0,0:0:0:0:
298,192,77841,1,0,0:0:0:0:
128,192,77841,1,0,0:0:0:0:
42,192,77841,1,0,0:0:0:0:
213,192,77925,1,0,0:0:0:0:
469,192,77925,1,0,0:0:0:0:
384,192,78009,1,0,0:0:0:0:
298,192,78009,1,0,0:0:0:0:
42,192,78009,1,0,0:0:0:0:
128,192,78093,1,0,0:0:0:0:
213,192,78093,1,0,0:0:0:0:
42,192,78178,1,0,0:0:0:0:
298,192,78178,1,0,0:0:0:0:
384,192,78178,1,0,0:0:0:0:
469,192,78178,1,0,0:0:0:0:
213,192,78262,1,0,0:0:0:0:
128,192,78262,1,0,0:0:0:0:
42,192,78346,1,0,0:0:0:0:
469,192,78346,1,0,0:0:0:0:
384,192,78346,1,0,0:0:0:0:
213,192,78431,1,0,0:0:0:0:
298,192,78431,1,0,0:0:0:0:
42,192,78515,1,0,0:0:0:0:
128,192,78515,1,0,0:0:0:0:
469,192,78515,1,0,0:0:0:0:
384,192,78515,1,0,0:0:0:0:
213,192,78599,1,0,0:0:0:0:
298,192,78599,1,0,0:0:0:0:
469,192,78683,1,0,0:0:0:0:
128,192,78683,1,0,0:0:0:0:
384,192,78683,1,0,0:0:0:0:
42,192,78768,1,0,0:0:0:0:
213,192,78768,1,0,0:0:0:0:
298,192,78768,1,0,0:0:0:0:
128,192,78852,1,0,0:0:0:0:
384,192,78852,1,0,0:0:0:0:
42,192,78936,1,0,0:0:0:0:
213,192,78936,1,0,0:0:0:0:
469,192,78936,1,0,0:0:0:0:
128,192,79020,1,0,0:0:0:0:
298,192,79020,1,0,0:0:0:0:
384,192,79020,1,0,0:0:0:0:
213,192,79105,1,0,0:0:0:0:
469,192,79105,1,0,0:0:0:0:
298,192,79189,1,0,0:0:0:0:
128,192,79189,1,0,0:0:0:0:
42,192,79189,1,0,0:0:0:0:
384,192,79189,1,0,0:0:0:0:
213,192,79273,1,0,0:0:0:0:
469,192,79273,1,0,0:0:0:0:
42,192,79358,1,0,0:0:0:0:
384,192,79358,1,0,0:0:0:0:
298,192,79358,1,0,0:0:0:0:
128,192,79442,1,0,0:0:0:0:
213,192,79442,1,0,0:0:0:0:
42,192,79526,1,0,0:0:0:0:
298,192,79526,1,0,0:0:0:0:
469,192,79526,1,0,0:0:0:0:
384,192,79526,1,0,0:0:0:0:
213,192,79610,1,0,0:0:0:0:
128,192,79610,1,0,0:0:0:0:
42,192,79695,1,0,0:0:0:0:
384,192,79695,1,0,0:0:0:0:
469,192,79695,1,0,0:0:0:0:
298,192,79779,1,0,0:0:0:0:
213,192,79779,1,0,0:0:0:0:
128,192,79863,1,0,0:0:0:0:
384,192,79863,1,0,0:0:0:0:
469,192,79863,1,0,0:0:0:0:
42,192,79863,1,0,0:0:0:0:
213,192,79947,1,0,0:0:0:0:
298,192,79947,1,0,0:0:0:0:
128,192,80032,1,0,0:0:0:0:
469,192,80032,1,0,0:0:0:0:
42,192,80032,1,0,0:0:0:0:
384,192,80116,1,0,0:0:0:0:
298,192,80116,1,0,0:0:0:0:
213,192,80116,1,0,0:0:0:0:
42,192,80200,1,0,0:0:0:0:
469,192,80200,1,0,0:0:0:0:
298,192,80284,1,0,0:0:0:0:
213,192,80284,1,0,0:0:0:0:
128,192,80284,1,0,0:0:0:0:
42,192,80369,1,0,0:0:0:0:
384,192,80369,1,0,0:0:0:0:
469,192,80369,1,0,0:0:0:0:
213,192,80453,1,0,0:0:0:0:
128,192,80453,1,0,0:0:0:0:
42,192,80537,1,0,0:0:0:0:
298,192,80537,1,0,0:0:0:0:
384,192,80537,1,0,0:0:0:0:
469,192,80537,1,0,0:0:0:0:
213,192,80622,1,0,0:0:0:0:
128,192,80622,1,0,0:0:0:0:
298,192,80706,1,0,0:0:0:0:
469,192,80706,1,0,0:0:0:0:
42,192,80706,1,0,0:0:0:0:
384,192,80790,1,0,0:0:0:0:
128,192,80790,1,0,0:0:0:0:
42,192,80874,1,0,0:0:0:0:
213,192,80874,1,0,0:0:0:0:
298,192,80874,1,0,0:0:0:0:
469,192,80874,1,0,0:0:0:0:
384,192,80959,1,0,0:0:0:0:
128,192,80959,1,0,0:0:0:0:
213,192,81043,1,0,0:0:0:0:
298,192,81043,1,0,0:0:0:0:
469,192,81043,1,0,0:0:0:0:
384,192,81127,1,0,0:0:0:0:
42,192,81127,1,0,0:0:0:0:
213,192,81211,1,0,0:0:0:0:
128,192,81211,1,0,0:0:0:0:
298,192,81211,1,0,0:0:0:0:
469,192,81211,1,0,0:0:0:0:
384,192,81296,1,0,0:0:0:0:
42,192,81296,1,0,0:0:0:0:
128,192,81380,1,0,0:0:0:0:
213,192,81380,1,0,0:0:0:0:
469,192,81380,1,0,0:0:0:0:
384,192,81464,1,0,0:0:0:0:
298,192,81464,1,0,0:0:0:0:
42,192,81464,1,0,0:0:0:0:
128,192,81549,1,0,0:0:0:0:
469,192,81549,1,0,0:0:0:0:
298,192,81633,1,0,0:0:0:0:
213,192,81633,1,0,0:0:0:0:
42,192,81633,1,0,0:0:0:0:
128,192,81717,1,0,0:0:0:0:
384,192,81717,1,0,0:0:0:0:
469,192,81717,1,0,0:0:0:0:
213,192,81801,1,0,0:0:0:0:
298,192,81801,1,0,0:0:0:0:
128,192,81886,1,0,0:0:0:0:
42,192,81886,1,0,0:0:0:0:
384,192,81886,1,0,0:0:0:0:
469,192,81886,1,0,0:0:0:0:
298,192,81970,1,0,0:0:0:0:
213,192,81970,1,0,0:0:0:0:
42,192,82054,1,0,0:0:0:0:
384,192,82054,1,0,0:0:0:0:
128,192,82054,1,0,0:0:0:0:
213,192,82138,1,0,0:0:0:0:
469,192,82138,1,0,0:0:0:0:
384,192,82223,1,0,0:0:0:0:
298,192,82223,1,0,0:0:0:0:
128,192,82223,1,0,0:0:0:0:
42,192,82223,1,0,0:0:0:0:
213,192,82307,1,0,0:0:0:0:
469,192,82307,1,0,0:0:0:0:
384,192,82391,1,0,0:0:0:0:
298,192,82391,1,0,0:0:0:0:
42,192,82391,1,0,0:0:0:0:
213,192,82475,1,0,0:0:0:0:
128,192,82475,1,0,0:0:0:0:
42,192,82560,1,0,0:0:0:0:
298,192,82560,1,0,0:0:0:0:
384,192,82560,1,0,0:0:0:0:
469,192,82560,1,0,0:0:0:0:
213,192,82644,1,0,0:0:0:0:
128,192,82644,1,0,0:0:0:0:
298,192,82728,1,0,0:0:0:0:
42,192,82728,1,0,0:0:0:0:
469,192,82728,1,0,0:0:0:0:
128,192,82813,1,0,0:0:0:0:
213,192,82813,1,0,0:0:0:0:
384,192,82813,1,0,0:0:0:0:
298,192,82897,1,0,0:0:0:0:
469,192,82897,1,0,0:0:0:0:
42,192,82981,1,0,0:0:0:0:
213,192,82981,1,0,0:0:0:0:
384,192,82981,1,0,0:0:0:0:
298,192,83065,1,0,0:0:0:0:
469,192,83065,1,0,0:0:0:0:
128,192,83065,1,0,0:0:0:0:
213,192,83150,1,0,0:0:0:0:
42,192,83150,1,0,0:0:0:0:
128,192,83234,1,0,0:0:0:0:
298,192,83234,1,0,0:0:0:0:
384,192,83234,1,0,0:0:0:0:
469,192,83234,1,0,0:0:0:0:
213,192,83318,1,0,0:0:0:0:
42,192,83318,1,0,0:0:0:0:
128,192,83402,1,0,0:0:0:0:
298,192,83402,1,0,0:0:0:0:
469,192,83402,1,0,0:0:0:0:
384,192,83487,1,0,0:0:0:0:
213,192,83487,1,0,0:0:0:0:
298,192,83571,1,0,0:0:0:0:
469,192,83571,1,0,0:0:0:0:
128,192,83571,1,0,0:0:0:0:
42,192,83571,1,0,0:0:0:0:
213,192,83655,1,0,0:0:0:0:
384,192,83655,1,0,0:0:0:0:
298,192,83740,1,0,0:0:0:0:
469,192,83740,1,0,0:0:0:0:
42,192,83740,1,0,0:0:0:0:
128,192,83824,1,0,0:0:0:0:
384,192,83824,1,0,0:0:0:0:
298,192,83908,1,0,0:0:0:0:
42,192,83908,1,0,0:0:0:0:
213,192,83908,1,0,0:0:0:0:
469,192,83908,1,0,0:0:0:0:
384,192,83992,1,0,0:0:0:0:
128,192,83992,1,0,0:0:0:0:
213,192,84077,1,0,0:0:0:0:
42,192,84077,1,0,0:0:0:0:
298,192,84077,1,0,0:0:0:0:
384,192,84161,1,0,0:0:0:0:
469,192,84161,1,0,0:0:0:0:
128,192,84161,1,0,0:0:0:0:
298,192,84245,1,0,0:0:0:0:
42,192,84245,1,0,0:0:0:0:
213,192,84329,1,0,0:0:0:0:
128,192,84329,1,0,0:0:0:0:
469,192,84329,1,0,0:0:0:0:
384,192,84414,1,0,0:0:0:0:
298,192,84414,1,0,0:0:0:0:
42,192,84414,1,0,0:0:0:0:
469,192,84498,1,0,0:0:0:0:
213,192,84498,1,0,0:0:0:0:
384,192,84582,1,0,0:0:0:0:
298,192,84582,1,0,0:0:0:0:
128,192,84582,1,0,0:0:0:0:
42,192,84582,1,0,0:0:0:0:
213,192,84667,1,0,0:0:0:0:
469,192,84667,1,0,0:0:0:0:
384,192,84751,1,0,0:0:0:0:
128,192,84751,1,0,0:0:0:0:
42,192,84751,1,0,0:0:0:0:
213,192,84835,1,0,0:0:0:0:
298,192,84835,1,0,0:0:0:0:
128,192,84919,1,0,0:0:0:0:
42,192,84919,1,0,0:0:0:0:
384,192,84919,1,0,0:0:0:0:
469,192,84919,1,0,0:0:0:0:
213,192,85004,1,0,0:0:0:0:
298,192,85004,1,0,0:0:0:0:
42,192,85088,1,0,0:0:0:0:
128,192,85088,1,0,0:0:0:0:
469,192,85088,1,0,0:0:0:0:
384,192,85172,1,0,0:0:0:0:
213,192,85172,1,0,0:0:0:0:
298,192,85256,1,0,0:0:0:0:
469,192,85256,1,0,0:0:0:0:
42,192,85256,1,0,0:0:0:0:
128,192,85256,1,0,0:0:0:0:
213,192,85341,1,0,0:0:0:0:
384,192,85341,1,0,0:0:0:0:
298,192,85425,1,0,0:0:0:0:
128,192,85425,1,0,0:0:0:0:
469,192,85425,1,0,0:0:0:0:
384,192,85509,1,0,0:0:0:0:
213,192,85509,1,0,0:0:0:0:
42,192,85509,1,0,0:0:0:0:
128,192,85593,1,0,0:0:0:0:
298,192,85593,1,0,0:0:0:0:
42,192,85678,1,0,0:0:0:0:
213,192,85678,1,0,0:0:0:0:
469,192,85678,1,0,0:0:0:0:
384,192,85762,1,0,0:0:0:0:
128,192,85762,1,0,0:0:0:0:
298,192,85762,1,0,0:0:0:0:
213,192,85846,1,0,0:0:0:0:
469,192,85846,1,0,0:0:0:0:
128,192,85931,1,0,0:0:0:0:
298,192,85931,1,0,0:0:0:0:
384,192,85931,1,0,0:0:0:0:
42,192,85931,1,0,0:0:0:0:
469,192,86015,1,0,0:0:0:0:
213,192,86015,1,0,0:0:0:0:
298,192,86099,1,0,0:0:0:0:
128,192,86099,1,0,0:0:0:0:
42,192,86099,1,0,0:0:0:0:
213,192,86183,1,0,0:0:0:0:
384,192,86183,1,0,0:0:0:0:
298,192,86268,1,0,0:0:0:0:
469,192,86268,1,0,0:0:0:0:
128,192,86268,1,0,0:0:0:0:
42,192,86268,1,0,0:0:0:0:
213,192,86352,1,0,0:0:0:0:
384,192,86352,1,0,0:0:0:0:
298,192,86436,1,0,0:0:0:0:
469,192,86436,1,0,0:0:0:0:
42,192,86436,1,0,0:0:0:0:
128,192,86520,1,0,0:0:0:0:
213,192,86520,1,0,0:0:0:0:
42,192,86605,1,0,0:0:0:0:
298,192,86605,1,0,0:0:0:0:
384,192,86605,1,0,0:0:0:0:
469,192,86605,1,0,0:0:0:0:
213,192,86689,1,0,0:0:0:0:
128,192,86689,1,0,0:0:0:0:
42,192,86773,1,0,0:0:0:0:
298,192,86773,1,0,0:0:0:0:
469,192,86773,1,0,0:0:0:0:
128,192,86858,1,0,0:0:0:0:
213,192,86858,1,0,0:0:0:0:
384,192,86858,1,0,0:0:0:0:
298,192,86942,1,0,0:0:0:0:
42,192,86942,1,0,0:0:0:0:
128,192,87026,1,0,0:0:0:0:
384,192,87026,1,0,0:0:0:0:
469,192,87026,1,0,0:0:0:0:
298,192,87110,1,0,0:0:0:0:
213,192,87110,1,0,0:0:0:0:
42,192,87110,1,0,0:0:0:0:
42,192,87195,1,0,0:0:0:0:
213,192,87195,1,0,0:0:0:0:
384,192,87195,1,0,0:0:0:0:
298,192,87279,1,0,0:0:0:0:
469,192,87279,1,0,0:0:0:0:
128,192,87279,1,0,0:0:0:0:
384,192,87363,1,0,0:0:0:0:
213,192,87363,1,0,0:0:0:0:
298,192,87447,1,0,0:0:0:0:
128,192,87447,1,0,0:0:0:0:
42,192,87447,1,0,0:0:0:0:
213,192,87532,1,0,0:0:0:0:
384,192,87532,1,0,0:0:0:0:
298,192,87616,1,0,0:0:0:0:
469,192,87616,1,0,0:0:0:0:
128,192,87616,1,0,0:0:0:0:
42,192,87616,1,0,0:0:0:0:
213,192,87700,1,0,0:0:0:0:
384,192,87700,1,0,0:0:0:0:
298,192,87784,1,0,0:0:0:0:
469,192,87784,1,0,0:0:0:0:
128,192,87784,1,0,0:0:0:0:
213,192,87869,1,0,0:0:0:0:
42,192,87869,1,0,0:0:0:0:
128,192,87953,1,0,0:0:0:0:
298,192,87953,1,0,0:0:0:0:
384,192,87953,1,0,0:0:0:0:
469,192,87953,1,0,0:0:0:0:
213,192,88037,1,0,0:0:0:0:
42,192,88037,1,0,0:0:0:0:
128,192,88122,1,0,0:0:0:0:
298,192,88122,1,0,0:0:0:0:
469,192,88122,1,0,0:0:0:0:
384,192,88206,1,0,0:0:0:0:
213,192,88206,1,0,0:0:0:0:
42,192,88206,1,0,0:0:0:0:
128,192,88290,1,0,0:0:0:0:
469,192,88290,1,0,0:0:0:0:
384,192,88374,1,0,0:0:0:0:
213,192,88374,1,0,0:0:0:0:
42,192,88374,1,0,0:0:0:0:
128,192,88459,1,0,0:0:0:0:
298,192,88459,1,0,0:0:0:0:
469,192,88459,1,0,0:0:0:0:
384,192,88543,1,0,0:0:0:0:
213,192,88543,1,0,0:0:0:0:
298,192,88627,1,0,0:0:0:0:
469,192,88627,1,0,0:0:0:0:
128,192,88627,1,0,0:0:0:0:
42,192,88627,1,0,0:0:0:0:
213,192,88711,1,0,0:0:0:0:
384,192,88711,1,0,0:0:0:0:
298,192,88796,1,0,0:0:0:0:
42,192,88796,1,0,0:0:0:0:
469,192,88796,1,0,0:0:0:0:
384,192,88880,1,0,0:0:0:0:
128,192,88880,1,0,0:0:0:0:
213,192,88964,1,0,0:0:0:0:
42,192,88964,1,0,0:0:0:0:
298,192,88964,1,0,0:0:0:0:
469,192,88964,1,0,0:0:0:0:
384,192,89049,1,0,0:0:0:0:
128,192,89049,1,0,0:0:0:0:
213,192,89133,1,0,0:0:0:0:
42,192,89133,1,0,0:0:0:0:
469,192,89133,1,0,0:0:0:0:
298,192,89217,1,0,0:0:0:0:
128,192,89217,1,0,0:0:0:0:
213,192,89301,1,0,0:0:0:0:
42,192,89301,1,0,0:0:0:0:
384,192,89301,1,0,0:0:0:0:
469,192,89301,1,0,0:0:0:0:
298,192,89386,1,0,0:0:0:0:
128,192,89386,1,0,0:0:0:0:
213,192,89470,1,0,0:0:0:0:
384,192,89470,1,0,0:0:0:0:
42,192,89470,1,0,0:0:0:0:
469,192,89554,1,0,0:0:0:0:
128,192,89554,1,0,0:0:0:0:
298,192,89554,1,0,0:0:0:0:
384,192,89638,1,0,0:0:0:0:
42,192,89638,1,0,0:0:0:0:
128,192,89723,1,0,0:0:0:0:
469,192,89723,1,0,0:0:0:0:
298,192,89723,1,0,0:0:0:0:
384,192,89807,1,0,0:0:0:0:
213,192,89807,1,0,0:0:0:0:
42,192,89807,1,0,0:0:0:0:
128,192,89891,1,0,0:0:0:0:
298,192,89891,1,0,0:0:0:0:
213,192,89975,1,0,0:0:0:0:
42,192,89975,1,0,0:0:0:0:
384,192,89975,1,0,0:0:0:0:
469,192,89975,1,0,0:0:0:0:
298,192,90060,1,0,0:0:0:0:
128,192,90060,1,0,0:0:0:0:
42,192,90144,1,0,0:0:0:0:
213,192,90144,1,0,0:0:0:0:
469,192,90144,1,0,0:0:0:0:
128,192,90228,1,0,0:0:0:0:
384,192,90228,1,0,0:0:0:0:
298,192,90313,1,0,0:0:0:0:
469,192,90313,1,0,0:0:0:0:
213,192,90313,1,0,0:0:0:0:
42,192,90313,1,0,0:0:0:0:
128,192,90397,1,0,0:0:0:0:
384,192,90397,1,0,0:0:0:0:
42,192,90481,1,0,0:0:0:0:
298,192,90481,1,0,0:0:0:0:
469,192,90481,1,0,0:0:0:0:
384,192,90565,1,0,0:0:0:0:
213,192,90565,1,0,0:0:0:0:
298,192,90650,1,0,0:0:0:0:
469,192,90650,1,0,0:0:0:0:
42,192,90650,1,0,0:0:0:0:
128,192,90650,1,0,0:0:0:0:
213,192,90734,1,0,0:0:0:0:
384,192,90734,1,0,0:0:0:0:
298,192,90818,1,0,0:0:0:0:
469,192,90818,1,0,0:0:0:0:
128,192,90818,1,0,0:0:0:0:
213,192,90902,1,0,0:0:0:0:
42,192,90902,1,0,0:0:0:0:
384,192,90902,1,0,0:0:0:0:
298,192,90987,1,0,0:0:0:0:
128,192,90987,1,0,0:0:0:0:
213,192,91071,1,0,0:0:0:0:
42,192,91071,1,0,0:0:0:0:
384,192,91071,1,0,0:0:0:0:
128,192,91155,1,0,0:0:0:0:
298,192,91155,1,0,0:0:0:0:
469,192,91155,1,0,0:0:0:0:
384,192,91240,1,0,0:0:0:0:
213,192,91240,1,0,0:0:0:0:
298,192,91324,1,0,0:0:0:0:
469,192,91324,1,0,0:0:0:0:
128,192,91324,1,0,0:0:0:0:
42,192,91324,1,0,0:0:0:0:
213,192,91408,1,0,0:0:0:0:
384,192,91408,1,0,0:0:0:0:
298,192,91492,1,0,0:0:0:0:
128,192,91492,1,0,0:0:0:0:
469,192,91492,1,0,0:0:0:0:
213,192,91577,1,0,0:0:0:0:
42,192,91577,1,0,0:0:0:0:
128,192,91661,1,0,0:0:0:0:
298,192,91661,1,0,0:0:0:0:
384,192,91661,1,0,0:0:0:0:
469,192,91661,1,0,0:0:0:0:
213,192,91745,1,0,0:0:0:0:
42,192,91745,1,0,0:0:0:0:
128,192,91829,1,0,0:0:0:0:
469,192,91829,1,0,0:0:0:0:
298,192,91829,1,0,0:0:0:0:
213,192,91914,1,0,0:0:0:0:
384,192,91914,1,0,0:0:0:0:
128,192,91998,1,0,0:0:0:0:
42,192,91998,1,0,0:0:0:0:
469,192,91998,1,0,0:0:0:0:
298,192,91998,1,0,0:0:0:0:
213,192,92082,1,0,0:0:0:0:
384,192,92082,1,0,0:0:0:0:
42,192,92167,1,0,0:0:0:0:
469,192,92167,1,0,0:0:0:0:
298,192,92167,1,0,0:0:0:0:
384,192,92251,1,0,0:0:0:0:
128,192,92251,1,0,0:0:0:0:
213,192,92251,1,0,0:0:0:0:
469,192,92335,1,0,0:0:0:0:
42,192,92335,1,0,0:0:0:0:
384,192,92419,1,0,0:0:0:0:
128,192,92419,1,0,0:0:0:0:
298,192,92419,1,0,0:0:0:0:
469,192,92504,1,0,0:0:0:0:
42,192,92504,1,0,0:0:0:0:
213,192,92504,1,0,0:0:0:0:
128,192,92588,1,0,0:0:0:0:
298,192,92588,1,0,0:0:0:0:
469,192,92672,1,0,0:0:0:0:
42,192,92672,1,0,0:0:0:0:
213,192,92672,1,0,0:0:0:0:
384,192,92672,1,0,0:0:0:0:
128,192,92756,1,0,0:0:0:0:
298,192,92756,1,0,0:0:0:0:
213,192,92841,1,0,0:0:0:0:
42,192,92841,1,0,0:0:0:0:
469,192,92841,1,0,0:0:0:0:
128,192,92925,1,0,0:0:0:0:
384,192,92925,1,0,0:0:0:0:
42,192,93009,1,0,0:0:0:0:
213,192,93009,1,0,0:0:0:0:
298,192,93009,1,0,0:0:0:0:
469,192,93009,1,0,0:0:0:0:
384,192,93093,1,0,0:0:0:0:
128,192,93093,1,0,0:0:0:0:
42,192,93178,1,0,0:0:0:0:
298,192,93178,1,0,0:0:0:0:
469,192,93178,1,0,0:0:0:0:
384,192,93262,1,0,0:0:0:0:
213,192,93262,1,0,0:0:0:0:
298,192,93346,1,0,0:0:0:0:
128,192,93346,1,0,0:0:0:0:
42,192,93346,1,0,0:0:0:0:
469,192,93346,1,0,0:0:0:0:
384,192,93431,1,0,0:0:0:0:
213,192,93431,1,0,0:0:0:0:
298,192,93515,1,0,0:0:0:0:
469,192,93515,1,0,0:0:0:0:
128,192,93515,1,0,0:0:0:0:
213,192,93599,1,0,0:0:0:0:
42,192,93599,1,0,0:0:0:0:
384,192,93599,1,0,0:0:0:0:
298,192,93683,1,0,0:0:0:0:
469,192,93683,1,0,0:0:0:0:
384,192,93768,1,0,0:0:0:0:
42,192,93768,1,0,0:0:0:0:
213,192,93768,1,0,0:0:0:0:
128,192,93852,1,0,0:0:0:0:
298,192,93852,1,0,0:0:0:0:
469,192,93852,1,0,0:0:0:0:
213,192,93936,1,0,0:0:0:0:
42,192,93936,1,0,0:0:0:0:
128,192,94020,1,0,0:0:0:0:
298,192,94020,1,0,0:0:0:0:
384,192,94020,1,0,0:0:0:0:
469,192,94020,1,0,0:0:0:0:
213,192,94105,1,0,0:0:0:0:
42,192,94105,1,0,0:0:0:0:
128,192,94189,1,0,0:0:0:0:
298,192,94189,1,0,0:0:0:0:
469,192,94189,1,0,0:0:0:0:
384,192,94273,1,0,0:0:0:0:
213,192,94273,1,0,0:0:0:0:
298,192,94358,1,0,0:0:0:0:
469,192,94358,1,0,0:0:0:0:
42,192,94358,1,0,0:0:0:0:
128,192,94358,1,0,0:0:0:0:
213,192,94442,1,0,0:0:0:0:
384,192,94442,1,0,0:0:0:0:
298,192,94526,1,0,0:0:0:0:
469,192,94526,1,0,0:0:0:0:
42,192,94526,1,0,0:0:0:0:
128,192,94610,1,0,0:0:0:0:
384,192,94610,1,0,0:0:0:0:
298,192,94695,1,0,0:0:0:0:
213,192,94695,1,0,0:0:0:0:
42,192,94695,1,0,0:0:0:0:
469,192,94695,1,0,0:0:0:0:
384,192,94779,1,0,0:0:0:0:
128,192,94779,1,0,0:0:0:0:
213,192,94863,1,0,0:0:0:0:
42,192,94863,1,0,0:0:0:0:
298,192,94863,1,0,0:0:0:0:
128,192,94947,1,0,0:0:0:0:
384,192,94947,1,0,0:0:0:0:
469,192,94947,1,0,0:0:0:0:
298,192,95032,1,0,0:0:0:0:
42,192,95032,1,0,0:0:0:0:
128,192,95116,1,0,0:0:0:0:
213,192,95116,1,0,0:0:0:0:
469,192,95116,1,0,0:0:0:0:
384,192,95200,1,0,0:0:0:0:
298,192,95200,1,0,0:0:0:0:
42,192,95200,1,0,0:0:0:0:
128,192,95284,1,0,0:0:0:0:
469,192,95284,1,0,0:0:0:0:
384,192,95369,1,0,0:0:0:0:
298,192,95369,1,0,0:0:0:0:
213,192,95369,1,0,0:0:0:0:
42,192,95369,1,0,0:0:0:0:
128,192,95453,1,0,0:0:0:0:
469,192,95453,1,0,0:0:0:0:
384,192,95537,1,0,0:0:0:0:
213,192,95537,1,0,0:0:0:0:
42,192,95537,1,0,0:0:0:0:
128,192,95622,1,0,0:0:0:0:
298,192,95622,1,0,0:0:0:0:
213,192,95706,1,0,0:0:0:0:
42,192,95706,1,0,0:0:0:0:
384,192,95706,1,0,0:0:0:0:
469,192,95706,1,0,0:0:0:0:
298,192,95790,1,0,0:0:0:0:
128,192,95790,1,0,0:0:0:0:
213,192,95874,1,0,0:0:0:0:
42,192,95874,1,0,0:0:0:0:
469,192,95874,1,0,0:0:0:0:
128,192,95959,1,0,0:0:0:0:
384,192,95959,1,0,0:0:0:0:
42,192,96043,1,0,0:0:0:0:
213,192,96043,1,0,0:0:0:0:
298,192,96043,1,0,0:0:0:0:
469,192,96043,1,0,0:0:0:0:
384,192,96127,1,0,0:0:0:0:
128,192,96127,1,0,0:0:0:0:
213,192,96211,1,0,0:0:0:0:
298,192,96211,1,0,0:0:0:0:
469,192,96211,1,0,0:0:0:0:
128,192,96296,1,0,0:0:0:0:
42,192,96296,1,0,0:0:0:0:
384,192,96296,1,0,0:0:0:0:
213,192,96380,1,0,0:0:0:0:
469,192,96380,1,0,0:0:0:0:
384,192,96464,1,0,0:0:0:0:
298,192,96464,1,0,0:0:0:0:
42,192,96464,1,0,0:0:0:0:
213,192,96549,1,0,0:0:0:0:
128,192,96549,1,0,0:0:0:0:
469,192,96549,1,0,0:0:0:0:
384,192,96633,1,0,0:0:0:0:
42,192,96633,1,0,0:0:0:0:
128,192,96717,1,0,0:0:0:0:
213,192,96717,1,0,0:0:0:0:
298,192,96717,1,0,0:0:0:0:
469,192,96717,1,0,0:0:0:0:
384,192,96801,1,0,0:0:0:0:
42,192,96801,1,0,0:0:0:0:
128,192,96886,1,0,0:0:0:0:
298,192,96886,1,0,0:0:0:0:
469,192,96886,1,0,0:0:0:0:
384,192,96970,1,0,0:0:0:0:
213,192,96970,1,0,0:0:0:0:
298,192,97054,1,0,0:0:0:0:
469,192,97054,1,0,0:0:0:0:
128,192,97054,1,0,0:0:0:0:
42,192,97054,1,0,0:0:0:0:
213,192,97138,1,0,0:0:0:0:
384,192,97138,1,0,0:0:0:0:
298,192,97223,1,0,0:0:0:0:
128,192,97223,1,0,0:0:0:0:
42,192,97223,1,0,0:0:0:0:
213,192,97307,1,0,0:0:0:0:
384,192,97307,1,0,0:0:0:0:
298,192,97391,1,0,0:0:0:0:
128,192,97391,1,0,0:0:0:0:
42,192,97391,1,0,0:0:0:0:
469,192,97391,1,0,0:0:0:0:
384,192,97475,1,0,0:0:0:0:
213,192,97475,1,0,0:0:0:0:
298,192,97560,1,0,0:0:0:0:
469,192,97560,1,0,0:0:0:0:
128,192,97560,1,0,0:0:0:0:
384,192,97644,1,0,0:0:0:0:
42,192,97644,1,0,0:0:0:0:
213,192,97644,1,0,0:0:0:0:
469,192,97728,1,0,0:0:0:0:
128,192,97728,1,0,0:0:0:0:
384,192,97813,1,0,0:0:0:0:
213,192,97813,1,0,0:0:0:0:
42,192,97813,1,0,0:0:0:0:
298,192,97897,1,0,0:0:0:0:
128,192,97897,1,0,0:0:0:0:
469,192,97897,1,0,0:0:0:0:
213,192,97981,1,0,0:0:0:0:
469,192,97981,1,0,0:0:0:0:
298,192,97981,1,0,0:0:0:0:
128,192,98065,1,0,0:0:0:0:
42,192,98065,1,0,0:0:0:0:
384,192,98065,1,0,0:0:0:0:
213,192,98150,1,0,0:0:0:0:
469,192,98150,1,0,0:0:0:0:
298,192,98234,1,0,0:0:0:0:
128,192,98234,1,0,0:0:0:0:
42,192,98234,1,0,0:0:0:0:
128,192,98318,1,0,0:0:0:0:
42,192,98318,1,0,0:0:0:0:
384,192,98318,1,0,0:0:0:0:
298,192,98402,1,0,0:0:0:0:
213,192,98402,1,0,0:0:0:0:
469,192,98402,1,0,0:0:0:0:
128,192,98740,1,0,0:0:0:0:
298,192,98908,1,0,0:0:0:0:
469,192,98908,1,0,0:0:0:0:
128,192,99245,1,0,0:0:0:0:
469,192,99414,1,0,0:0:0:0:
213,192,99414,1,0,0:0:0:0:
42,192,99582,1,0,0:0:0:0:
128,192,99667,1,0,0:0:0:0:
213,192,99751,1,0,0:0:0:0:
384,192,99919,1,0,0:0:0:0:
213,192,100088,1,0,0:0:0:0:
469,192,100256,1,0,0:0:0:0:
42,192,100256,1,0,0:0:0:0:
128,192,100341,1,0,0:0:0:0:
213,192,100425,1,0,0:0:0:0:
384,192,100593,1,0,0:0:0:0:
469,192,100762,1,0,0:0:0:0:
128,192,100762,1,0,0:0:0:0:
298,192,100931,1,0,0:0:0:0:
213,192,101268,1,0,0:0:0:0:
42,192,101436,1,0,0:0:0:0:
469,192,101605,1,0,0:0:0:0:
213,192,101605,1,0,0:0:0:0:
42,192,101942,1,0,0:0:0:0:
128,192,102026,1,0,0:0:0:0:
469,192,102110,1,0,0:0:0:0:
298,192,102110,1,0,0:0:0:0:
213,192,102279,1,0,0:0:0:0:
42,192,102447,1,0,0:0:0:0:
298,192,102616,1,0,0:0:0:0:
42,192,102784,1,0,0:0:0:0:
469,192,102953,1,0,0:0:0:0:
298,192,102953,1,0,0:0:0:0:
128,192,103290,1,0,0:0:0:0:
469,192,103459,1,0,0:0:0:0:
213,192,103459,1,0,0:0:0:0:
298,192,103627,1,0,0:0:0:0:
128,192,104133,1,0,0:0:0:0:
298,192,104301,1,0,0:0:0:0:
469,192,104301,1,0,0:0:0:0:
128,192,104638,1,0,0:0:0:0:
469,192,104807,1,0,0:0:0:0:
213,192,104807,1,0,0:0:0:0:
42,192,104975,1,0,0:0:0:0:
128,192,105060,1,0,0:0:0:0:
213,192,105144,1,0,0:0:0:0:
384,192,105313,1,0,0:0:0:0:
213,192,105481,1,0,0:0:0:0:
469,192,105650,1,0,0:0:0:0:
42,192,105650,1,0,0:0:0:0:
128,192,105734,1,0,0:0:0:0:
213,192,105818,1,0,0:0:0:0:
384,192,105987,1,0,0:0:0:0:
469,192,106155,1,0,0:0:0:0:
128,192,106155,1,0,0:0:0:0:
298,192,106324,1,0,0:0:0:0:
213,192,106661,1,0,0:0:0:0:
42,192,106829,1,0,0:0:0:0:
469,192,106998,1,0,0:0:0:0:
213,192,106998,1,0,0:0:0:0:
42,192,107335,1,0,0:0:0:0:
128,192,107419,1,0,0:0:0:0:
469,192,107504,1,0,0:0:0:0:
298,192,107504,1,0,0:0:0:0:
213,192,107672,1,0,0:0:0:0:
42,192,107883,1,0,0:0:0:0:
128,192,107925,1,0,0:0:0:0:
42,192,108009,1,0,0:0:0:0:
213,192,108009,1,0,0:0:0:0:
469,192,108136,1,0,0:0:0:0:
384,192,108178,1,0,0:0:0:0:
213,192,108178,1,0,0:0:0:0:
469,192,108262,1,0,0:0:0:0:
213,192,108346,1,0,0:0:0:0:
42,192,108346,1,0,0:0:0:0:
298,192,108388,1,0,0:0:0:0:
384,192,108431,1,0,0:0:0:0:
384,192,108515,1,0,0:0:0:0:
384,192,108599,1,0,0:0:0:0:
128,192,108683,1,0,0:0:0:0:
469,192,108683,1,0,0:0:0:0:
42,192,108725,1,0,0:0:0:0:
384,192,108725,1,0,0:0:0:0:
298,192,108768,1,0,0:0:0:0:
213,192,108810,1,0,0:0:0:0:
469,192,108852,1,0,0:0:0:0:
128,192,108852,1,0,0:0:0:0:
384,192,108936,1,0,0:0:0:0:
128,192,109020,1,0,0:0:0:0:
213,192,109189,1,0,0:0:0:0:
42,192,109189,1,0,0:0:0:0:
298,192,109189,1,0,0:0:0:0:
384,192,109189,1,0,0:0:0:0:
469,192,109189,1,0,0:0:0:0:
213,192,109358,1,0,0:0:0:0:
128,192,109358,1,0,0:0:0:0:
469,192,109358,1,0,0:0:0:0:
298,192,109442,1,0,0:0:0:0:
213,192,109526,1,0,0:0:0:0:
128,192,109526,1,0,0:0:0:0:
42,192,109526,1,0,0:0:0:0:
384,192,109526,1,0,0:0:0:0:
469,192,109526,1,0,0:0:0:0:
384,192,109695,1,0,0:0:0:0:
128,192,109695,1,0,0:0:0:0:
42,192,109695,1,0,0:0:0:0:
213,192,109779,1,0,0:0:0:0:
469,192,109779,1,0,0:0:0:0:
298,192,109779,1,0,0:0:0:0:
384,192,109863,1,0,0:0:0:0:
42,192,109863,1,0,0:0:0:0:
213,192,109947,1,0,0:0:0:0:
128,192,109947,1,0,0:0:0:0:
469,192,109947,1,0,0:0:0:0:
384,192,110032,1,0,0:0:0:0:
298,192,110032,1,0,0:0:0:0:
42,192,110032,1,0,0:0:0:0:
384,192,110200,1,0,0:0:0:0:
42,192,110200,1,0,0:0:0:0:
469,192,110200,1,0,0:0:0:0:
213,192,110200,1,0,0:0:0:0:
128,192,110200,1,0,0:0:0:0:
384,192,110369,1,0,0:0:0:0:
128,192,110369,1,0,0:0:0:0:
42,192,110369,1,0,0:0:0:0:
298,192,110453,1,0,0:0:0:0:
213,192,110537,1,0,0:0:0:0:
128,192,110537,1,0,0:0:0:0:
42,192,110537,1,0,0:0:0:0:
469,192,110537,1,0,0:0:0:0:
384,192,110537,1,0,0:0:0:0:
298,192,110706,1,0,0:0:0:0:
213,192,110706,1,0,0:0:0:0:
469,192,110706,1,0,0:0:0:0:
128,192,110790,1,0,0:0:0:0:
213,192,110874,1,0,0:0:0:0:
42,192,110874,1,0,0:0:0:0:
298,192,110874,1,0,0:0:0:0:
384,192,110874,1,0,0:0:0:0:
469,192,110874,1,0,0:0:0:0:
298,192,111043,1,0,0:0:0:0:
384,192,111043,1,0,0:0:0:0:
42,192,111043,1,0,0:0:0:0:
128,192,111127,1,0,0:0:0:0:
213,192,111127,1,0,0:0:0:0:
469,192,111127,1,0,0:0:0:0:
298,192,111211,1,0,0:0:0:0:
42,192,111211,1,0,0:0:0:0:
128,192,111296,1,0,0:0:0:0:
384,192,111296,1,0,0:0:0:0:
469,192,111296,1,0,0:0:0:0:
298,192,111380,1,0,0:0:0:0:
213,192,111380,1,0,0:0:0:0:
42,192,111380,1,0,0:0:0:0:
213,192,111549,1,0,0:0:0:0:
128,192,111549,1,0,0:0:0:0:
42,192,111549,1,0,0:0:0:0:
469,192,111549,1,0,0:0:0:0:
384,192,111549,1,0,0:0:0:0:
128,192,111717,1,0,0:0:0:0:
298,192,111717,1,0,0:0:0:0:
469,192,111717,1,0,0:0:0:0:
213,192,111801,1,0,0:0:0:0:
128,192,111886,1,0,0:0:0:0:
298,192,111886,1,0,0:0:0:0:
384,192,111886,1,0,0:0:0:0:
469,192,111886,1,0,0:0:0:0:
42,192,111886,1,0,0:0:0:0:
384,192,112054,1,0,0:0:0:0:
42,192,112054,1,0,0:0:0:0:
298,192,112054,1,0,0:0:0:0:
128,192,112138,1,0,0:0:0:0:
42,192,112223,1,0,0:0:0:0:
298,192,112223,1,0,0:0:0:0:
384,192,112223,1,0,0:0:0:0:
469,192,112223,1,0,0:0:0:0:
213,192,112223,1,0,0:0:0:0:
128,192,112391,1,0,0:0:0:0:
298,192,112391,1,0,0:0:0:0:
469,192,112391,1,0,0:0:0:0:
384,192,112475,1,0,0:0:0:0:
213,192,112475,1,0,0:0:0:0:
42,192,112475,1,0,0:0:0:0:
128,192,112560,1,0,0:0:0:0:
298,192,112560,1,0,0:0:0:0:
213,192,112644,1,0,0:0:0:0:
42,192,112644,1,0,0:0:0:0:
469,192,112644,1,0,0:0:0:0:
384,192,112728,1,0,0:0:0:0:
298,192,112728,1,0,0:0:0:0:
128,192,112728,1,0,0:0:0:0:
298,192,112897,1,0,0:0:0:0:
213,192,112897,1,0,0:0:0:0:
128,192,112897,1,0,0:0:0:0:
42,192,112897,1,0,0:0:0:0:
469,192,112897,1,0,0:0:0:0:
213,192,113065,1,0,0:0:0:0:
384,192,113065,1,0,0:0:0:0:
469,192,113065,1,0,0:0:0:0:
128,192,113150,1,0,0:0:0:0:
213,192,113234,1,0,0:0:0:0:
42,192,113234,1,0,0:0:0:0:
298,192,113234,1,0,0:0:0:0:
384,192,113234,1,0,0:0:0:0:
469,192,113234,1,0,0:0:0:0:
128,192,113402,1,0,0:0:0:0:
42,192,113402,1,0,0:0:0:0:
384,192,113402,1,0,0:0:0:0:
213,192,113487,1,0,0:0:0:0:
42,192,113571,1,0,0:0:0:0:
128,192,113571,1,0,0:0:0:0:
298,192,113571,1,0,0:0:0:0:
384,192,113571,1,0,0:0:0:0:
469,192,113571,1,0,0:0:0:0:
213,192,113740,1,0,0:0:0:0:
128,192,113740,1,0,0:0:0:0:
384,192,113740,1,0,0:0:0:0:
298,192,113824,1,0,0:0:0:0:
469,192,113824,1,0,0:0:0:0:
42,192,113824,1,0,0:0:0:0:
128,192,113908,1,0,0:0:0:0:
384,192,113908,1,0,0:0:0:0:
213,192,113992,1,0,0:0:0:0:
42,192,113992,1,0,0:0:0:0:
469,192,113992,1,0,0:0:0:0:
384,192,114077,1,0,0:0:0:0:
298,192,114077,1,0,0:0:0:0:
128,192,114077,1,0,0:0:0:0:
213,192,114245,1,0,0:0:0:0:
42,192,114245,1,0,0:0:0:0:
298,192,114245,1,0,0:0:0:0:
384,192,114245,1,0,0:0:0:0:
469,192,114245,1,0,0:0:0:0:
298,192,114329,1,0,0:0:0:0:
42,192,114329,1,0,0:0:0:0:
128,192,114329,1,0,0:0:0:0:
213,192,114498,1,0,0:0:0:0:
384,192,114498,1,0,0:0:0:0:
469,192,114498,1,0,0:0:0:0:
298,192,114582,1,0,0:0:0:0:
213,192,114582,1,0,0:0:0:0:
42,192,114582,1,0,0:0:0:0:
469,192,114582,1,0,0:0:0:0:
128,192,114582,1,0,0:0:0:0:
384,192,114751,1,0,0:0:0:0:
298,192,114751,1,0,0:0:0:0:
128,192,114751,1,0,0:0:0:0:
42,192,114835,1,0,0:0:0:0:
128,192,114919,1,0,0:0:0:0:
213,192,114919,1,0,0:0:0:0:
298,192,114919,1,0,0:0:0:0:
384,192,114919,1,0,0:0:0:0:
469,192,114919,1,0,0:0:0:0:
213,192,115088,1,0,0:0:0:0:
42,192,115088,1,0,0:0:0:0:
469,192,115088,1,0,0:0:0:0:
384,192,115172,1,0,0:0:0:0:
298,192,115172,1,0,0:0:0:0:
128,192,115172,1,0,0:0:0:0:
213,192,115256,1,0,0:0:0:0:
42,192,115256,1,0,0:0:0:0:
128,192,115341,1,0,0:0:0:0:
384,192,115341,1,0,0:0:0:0:
469,192,115341,1,0,0:0:0:0:
298,192,115425,1,0,0:0:0:0:
42,192,115425,1,0,0:0:0:0:
213,192,115425,1,0,0:0:0:0:
298,192,115593,1,0,0:0:0:0:
384,192,115593,1,0,0:0:0:0:
469,192,115593,1,0,0:0:0:0:
128,192,115593,1,0,0:0:0:0:
42,192,115593,1,0,0:0:0:0:
128,192,115762,1,0,0:0:0:0:
213,192,115762,1,0,0:0:0:0:
384,192,115762,1,0,0:0:0:0:
469,192,115846,1,0,0:0:0:0:
384,192,115931,1,0,0:0:0:0:
298,192,115931,1,0,0:0:0:0:
213,192,115931,1,0,0:0:0:0:
128,192,115931,1,0,0:0:0:0:
42,192,115931,1,0,0:0:0:0:
128,192,116099,1,0,0:0:0:0:
298,192,116099,1,0,0:0:0:0:
469,192,116099,1,0,0:0:0:0:
213,192,116183,1,0,0:0:0:0:
128,192,116268,1,0,0:0:0:0:
42,192,116268,1,0,0:0:0:0:
298,192,116268,1,0,0:0:0:0:
384,192,116268,1,0,0:0:0:0:
469,192,116268,1,0,0:0:0:0:
384,192,116436,1,0,0:0:0:0:
298,192,116436,1,0,0:0:0:0:
42,192,116436,1,0,0:0:0:0:
213,192,116520,1,0,0:0:0:0:
128,192,116520,1,0,0:0:0:0:
469,192,116520,1,0,0:0:0:0:
384,192,116605,1,0,0:0:0:0:
42,192,116605,1,0,0:0:0:0:
213,192,116689,1,0,0:0:0:0:
298,192,116689,1,0,0:0:0:0:
469,192,116689,1,0,0:0:0:0:
384,192,116773,1,0,0:0:0:0:
42,192,116773,1,0,0:0:0:0:
128,192,116773,1,0,0:0:0:0:
213,192,116942,1,0,0:0:0:0:
298,192,116942,1,0,0:0:0:0:
384,192,116942,1,0,0:0:0:0:
469,192,116942,1,0,0:0:0:0:
42,192,116942,1,0,0:0:0:0:
128,192,117110,1,0,0:0:0:0:
213,192,117110,1,0,0:0:0:0:
384,192,117110,1,0,0:0:0:0:
298,192,117195,1,0,0:0:0:0:
213,192,117279,1,0,0:0:0:0:
128,192,117279,1,0,0:0:0:0:
42,192,117279,1,0,0:0:0:0:
469,192,117279,1,0,0:0:0:0:
384,192,117279,1,0,0:0:0:0:
213,192,117447,1,0,0:0:0:0:
128,192,117447,1,0,0:0:0:0:
469,192,117447,1,0,0:0:0:0:
384,192,117532,1,0,0:0:0:0:
298,192,117616,1,0,0:0:0:0:
213,192,117616,1,0,0:0:0:0:
128,192,117616,1,0,0:0:0:0:
42,192,117616,1,0,0:0:0:0:
469,192,117616,1,0,0:0:0:0:
42,192,117784,1,0,0:0:0:0:
213,192,117784,1,0,0:0:0:0:
298,192,117784,1,0,0:0:0:0:
128,192,117869,1,0,0:0:0:0:
469,192,117869,1,0,0:0:0:0:
384,192,117869,1,0,0:0:0:0:
298,192,117953,1,0,0:0:0:0:
42,192,117953,1,0,0:0:0:0:
213,192,118037,1,0,0:0:0:0:
128,192,118037,1,0,0:0:0:0:
469,192,118037,1,0,0:0:0:0:
384,192,118122,1,0,0:0:0:0:
298,192,118122,1,0,0:0:0:0:
42,192,118122,1,0,0:0:0:0:
128,192,118290,1,0,0:0:0:0:
42,192,118290,1,0,0:0:0:0:
384,192,118290,1,0,0:0:0:0:
469,192,118290,1,0,0:0:0:0:
213,192,118290,1,0,0:0:0:0:
128,192,118459,1,0,0:0:0:0:
298,192,118459,1,0,0:0:0:0:
384,192,118459,1,0,0:0:0:0:
469,192,118543,1,0,0:0:0:0:
298,192,118627,1,0,0:0:0:0:
213,192,118627,1,0,0:0:0:0:
128,192,118627,1,0,0:0:0:0:
42,192,118627,1,0,0:0:0:0:
469,192,118796,1,0,0:0:0:0:
213,192,118964,1,0,0:0:0:0:
42,192,118964,1,0,0:0:0:0:
469,192,119133,1,0,0:0:0:0:
384,192,119217,1,0,0:0:0:0:
213,192,119301,1,0,0:0:0:0:
42,192,119301,1,0,0:0:0:0:
469,192,119470,1,0,0:0:0:0:
128,192,119470,1,0,0:0:0:0:
384,192,119512,1,0,0:0:0:0:
298,192,119554,1,0,0:0:0:0:
213,192,119596,1,0,0:0:0:0:
42,192,119638,1,0,0:0:0:0:
469,192,119638,1,0,0:0:0:0:
469,192,119807,1,0,0:0:0:0:
213,192,119807,1,0,0:0:0:0:
384,192,119975,1,0,0:0:0:0:
298,192,119975,1,0,0:0:0:0:
128,192,119975,1,0,0:0:0:0:
42,192,119975,1,0,0:0:0:0:
213,192,120060,1,0,0:0:0:0:
469,192,120060,1,0,0:0:0:0:
469,192,120144,1,0,0:0:0:0:
298,192,120144,1,0,0:0:0:0:
42,192,120144,1,0,0:0:0:0:
128,192,120228,1,0,0:0:0:0:
384,192,120228,1,0,0:0:0:0:
213,192,120313,1,0,0:0:0:0:
42,192,120313,1,0,0:0:0:0:
298,192,120313,1,0,0:0:0:0:
384,192,120397,1,0,0:0:0:0:
128,192,120397,1,0,0:0:0:0:
469,192,120397,1,0,0:0:0:0:
213,192,120481,1,0,0:0:0:0:
42,192,120481,1,0,0:0:0:0:
298,192,120481,1,0,0:0:0:0:
128,192,120565,1,0,0:0:0:0:
469,192,120565,1,0,0:0:0:0:
384,192,120565,1,0,0:0:0:0:
298,192,120650,1,0,0:0:0:0:
42,192,120650,1,0,0:0:0:0:
213,192,120734,1,0,0:0:0:0:
469,192,120734,1,0,0:0:0:0:
384,192,120818,1,0,0:0:0:0:
298,192,120818,1,0,0:0:0:0:
128,192,120818,1,0,0:0:0:0:
42,192,120818,1,0,0:0:0:0:
213,192,120902,1,0,0:0:0:0:
469,192,120902,1,0,0:0:0:0:
384,192,120987,1,0,0:0:0:0:
298,192,120987,1,0,0:0:0:0:
128,192,120987,1,0,0:0:0:0:
213,192,121071,1,0,0:0:0:0:
469,192,121071,1,0,0:0:0:0:
42,192,121071,1,0,0:0:0:0:
384,192,121155,1,0,0:0:0:0:
128,192,121155,1,0,0:0:0:0:
298,192,121240,1,0,0:0:0:0:
213,192,121240,1,0,0:0:0:0:
384,192,121324,1,0,0:0:0:0:
469,192,121324,1,0,0:0:0:0:
42,192,121324,1,0,0:0:0:0:
128,192,121324,1,0,0:0:0:0:
213,192,121408,1,0,0:0:0:0:
298,192,121408,1,0,0:0:0:0:
384,192,121492,1,0,0:0:0:0:
469,192,121492,1,0,0:0:0:0:
42,192,121492,1,0,0:0:0:0:
213,192,121577,1,0,0:0:0:0:
128,192,121577,1,0,0:0:0:0:
298,192,121577,1,0,0:0:0:0:
384,192,121661,1,0,0:0:0:0:
469,192,121661,1,0,0:0:0:0:
42,192,121661,1,0,0:0:0:0:
213,192,121745,1,0,0:0:0:0:
298,192,121745,1,0,0:0:0:0:
384,192,121829,1,0,0:0:0:0:
128,192,121829,1,0,0:0:0:0:
42,192,121829,1,0,0:0:0:0:
213,192,121914,1,0,0:0:0:0:
298,192,121914,1,0,0:0:0:0:
469,192,121914,1,0,0:0:0:0:
384,192,121998,1,0,0:0:0:0:
42,192,121998,1,0,0:0:0:0:
128,192,122082,1,0,0:0:0:0:
298,192,122082,1,0,0:0:0:0:
469,192,122082,1,0,0:0:0:0:
384,192,122167,1,0,0:0:0:0:
213,192,122167,1,0,0:0:0:0:
42,192,122167,1,0,0:0:0:0:
128,192,122251,1,0,0:0:0:0:
298,192,122251,1,0,0:0:0:0:
384,192,122335,1,0,0:0:0:0:
213,192,122335,1,0,0:0:0:0:
42,192,122335,1,0,0:0:0:0:
469,192,122335,1,0,0:0:0:0:
298,192,122419,1,0,0:0:0:0:
128,192,122419,1,0,0:0:0:0:
469,192,122504,1,0,0:0:0:0:
42,192,122504,1,0,0:0:0:0:
213,192,122504,1,0,0:0:0:0:
384,192,122588,1,0,0:0:0:0:
128,192,122588,1,0,0:0:0:0:
298,192,122672,1,0,0:0:0:0:
469,192,122672,1,0,0:0:0:0:
42,192,122672,1,0,0:0:0:0:
213,192,122672,1,0,0:0:0:0:
384,192,122756,1,0,0:0:0:0:
128,192,122756,1,0,0:0:0:0:
384,192,122841,1,0,0:0:0:0:
42,192,122841,1,0,0:0:0:0:
298,192,122841,1,0,0:0:0:0:
469,192,122925,1,0,0:0:0:0:
213,192,122925,1,0,0:0:0:0:
384,192,123009,1,0,0:0:0:0:
298,192,123009,1,0,0:0:0:0:
128,192,123009,1,0,0:0:0:0:
469,192,123093,1,0,0:0:0:0:
42,192,123093,1,0,0:0:0:0:
213,192,123093,1,0,0:0:0:0:
298,192,123178,1,0,0:0:0:0:
128,192,123178,1,0,0:0:0:0:
384,192,123262,1,0,0:0:0:0:
469,192,123262,1,0,0:0:0:0:
42,192,123262,1,0,0:0:0:0:
213,192,123262,1,0,0:0:0:0:
298,192,123346,1,0,0:0:0:0:
128,192,123346,1,0,0:0:0:0:
469,192,123431,1,0,0:0:0:0:
213,192,123431,1,0,0:0:0:0:
42,192,123515,1,0,0:0:0:0:
298,192,123515,1,0,0:0:0:0:
384,192,123515,1,0,0:0:0:0:
128,192,123515,1,0,0:0:0:0:
469,192,123599,1,0,0:0:0:0:
213,192,123599,1,0,0:0:0:0:
384,192,123683,1,0,0:0:0:0:
298,192,123683,1,0,0:0:0:0:
128,192,123683,1,0,0:0:0:0:
42,192,123768,1,0,0:0:0:0:
469,192,123768,1,0,0:0:0:0:
213,192,123768,1,0,0:0:0:0:
128,192,123852,1,0,0:0:0:0:
384,192,123852,1,0,0:0:0:0:
42,192,123936,1,0,0:0:0:0:
298,192,123936,1,0,0:0:0:0:
213,192,124020,1,0,0:0:0:0:
128,192,124020,1,0,0:0:0:0:
469,192,124020,1,0,0:0:0:0:
384,192,124020,1,0,0:0:0:0:
42,192,124105,1,0,0:0:0:0:
298,192,124105,1,0,0:0:0:0:
213,192,124189,1,0,0:0:0:0:
469,192,124189,1,0,0:0:0:0:
128,192,124273,1,0,0:0:0:0:
42,192,124273,1,0,0:0:0:0:
384,192,124273,1,0,0:0:0:0:
213,192,124358,1,0,0:0:0:0:
298,192,124358,1,0,0:0:0:0:
469,192,124358,1,0,0:0:0:0:
128,192,124442,1,0,0:0:0:0:
42,192,124442,1,0,0:0:0:0:
213,192,124526,1,0,0:0:0:0:
384,192,124526,1,0,0:0:0:0:
469,192,124526,1,0,0:0:0:0:
298,192,124610,1,0,0:0:0:0:
42,192,124610,1,0,0:0:0:0:
128,192,124610,1,0,0:0:0:0:
213,192,124695,1,0,0:0:0:0:
469,192,124695,1,0,0:0:0:0:
384,192,124779,1,0,0:0:0:0:
298,192,124779,1,0,0:0:0:0:
128,192,124779,1,0,0:0:0:0:
213,192,124863,1,0,0:0:0:0:
42,192,124863,1,0,0:0:0:0:
469,192,124863,1,0,0:0:0:0:
298,192,124947,1,0,0:0:0:0:
128,192,124947,1,0,0:0:0:0:
213,192,125032,1,0,0:0:0:0:
384,192,125032,1,0,0:0:0:0:
469,192,125032,1,0,0:0:0:0:
42,192,125116,1,0,0:0:0:0:
298,192,125116,1,0,0:0:0:0:
128,192,125116,1,0,0:0:0:0:
384,192,125200,1,0,0:0:0:0:
469,192,125200,1,0,0:0:0:0:
213,192,125200,1,0,0:0:0:0:
42,192,125284,1,0,0:0:0:0:
298,192,125284,1,0,0:0:0:0:
128,192,125369,1,0,0:0:0:0:
213,192,125369,1,0,0:0:0:0:
384,192,125369,1,0,0:0:0:0:
469,192,125369,1,0,0:0:0:0:
298,192,125453,1,0,0:0:0:0:
42,192,125453,1,0,0:0:0:0:
42,192,125537,1,0,0:0:0:0:
213,192,125537,1,0,0:0:0:0:
469,192,125537,1,0,0:0:0:0:
384,192,125622,1,0,0:0:0:0:
128,192,125622,1,0,0:0:0:0:
298,192,125706,1,0,0:0:0:0:
469,192,125706,1,0,0:0:0:0:
213,192,125706,1,0,0:0:0:0:
128,192,125790,1,0,0:0:0:0:
384,192,125790,1,0,0:0:0:0:
42,192,125790,1,0,0:0:0:0:
298,192,125874,1,0,0:0:0:0:
469,192,125874,1,0,0:0:0:0:
213,192,125874,1,0,0:0:0:0:
384,192,125959,1,0,0:0:0:0:
42,192,125959,1,0,0:0:0:0:
128,192,125959,1,0,0:0:0:0:
213,192,126043,1,0,0:0:0:0:
469,192,126043,1,0,0:0:0:0:
298,192,126127,1,0,0:0:0:0:
42,192,126127,1,0,0:0:0:0:
128,192,126211,1,0,0:0:0:0:
213,192,126211,1,0,0:0:0:0:
384,192,126211,1,0,0:0:0:0:
469,192,126211,1,0,0:0:0:0:
298,192,126296,1,0,0:0:0:0:
42,192,126296,1,0,0:0:0:0:
128,192,126380,1,0,0:0:0:0:
213,192,126380,1,0,0:0:0:0:
384,192,126380,1,0,0:0:0:0:
298,192,126464,1,0,0:0:0:0:
42,192,126464,1,0,0:0:0:0:
469,192,126464,1,0,0:0:0:0:
128,192,126549,1,0,0:0:0:0:
384,192,126549,1,0,0:0:0:0:
213,192,126633,1,0,0:0:0:0:
298,192,126633,1,0,0:0:0:0:
128,192,126717,1,0,0:0:0:0:
42,192,126717,1,0,0:0:0:0:
469,192,126717,1,0,0:0:0:0:
384,192,126717,1,0,0:0:0:0:
298,192,126801,1,0,0:0:0:0:
213,192,126801,1,0,0:0:0:0:
128,192,126886,1,0,0:0:0:0:
42,192,126886,1,0,0:0:0:0:
469,192,126886,1,0,0:0:0:0:
298,192,126970,1,0,0:0:0:0:
384,192,126970,1,0,0:0:0:0:
213,192,126970,1,0,0:0:0:0:
128,192,127054,1,0,0:0:0:0:
42,192,127054,1,0,0:0:0:0:
469,192,127054,1,0,0:0:0:0:
298,192,127138,1,0,0:0:0:0:
213,192,127138,1,0,0:0:0:0:
128,192,127223,1,0,0:0:0:0:
384,192,127223,1,0,0:0:0:0:
469,192,127223,1,0,0:0:0:0:
298,192,127307,1,0,0:0:0:0:
213,192,127307,1,0,0:0:0:0:
42,192,127307,1,0,0:0:0:0:
128,192,127391,1,0,0:0:0:0:
469,192,127391,1,0,0:0:0:0:
384,192,127475,1,0,0:0:0:0:
213,192,127475,1,0,0:0:0:0:
42,192,127475,1,0,0:0:0:0:
128,192,127560,1,0,0:0:0:0:
298,192,127560,1,0,0:0:0:0:
469,192,127560,1,0,0:0:0:0:
384,192,127644,1,0,0:0:0:0:
213,192,127644,1,0,0:0:0:0:
128,192,127728,1,0,0:0:0:0:
298,192,127728,1,0,0:0:0:0:
469,192,127728,1,0,0:0:0:0:
42,192,127728,1,0,0:0:0:0:
384,192,127813,1,0,0:0:0:0:
213,192,127813,1,0,0:0:0:0:
42,192,127897,1,0,0:0:0:0:
469,192,127897,1,0,0:0:0:0:
298,192,127897,1,0,0:0:0:0:
128,192,127981,1,0,0:0:0:0:
384,192,127981,1,0,0:0:0:0:
298,192,128065,1,0,0:0:0:0:
213,192,128065,1,0,0:0:0:0:
42,192,128065,1,0,0:0:0:0:
469,192,128065,1,0,0:0:0:0:
384,192,128150,1,0,0:0:0:0:
213,192,128234,1,0,0:0:0:0:
42,192,128234,1,0,0:0:0:0:
298,192,128234,1,0,0:0:0:0:
469,192,128234,1,0,0:0:0:0:
128,192,128318,1,0,0:0:0:0:
213,192,128402,1,0,0:0:0:0:
42,192,128402,1,0,0:0:0:0:
298,192,128402,1,0,0:0:0:0:
469,192,128402,1,0,0:0:0:0:
384,192,128487,1,0,0:0:0:0:
213,192,128571,1,0,0:0:0:0:
42,192,128571,1,0,0:0:0:0:
298,192,128571,1,0,0:0:0:0:
469,192,128571,1,0,0:0:0:0:
128,192,128655,1,0,0:0:0:0:
213,192,128740,1,0,0:0:0:0:
42,192,128740,1,0,0:0:0:0:
298,192,128740,1,0,0:0:0:0:
469,192,128740,1,0,0:0:0:0:
384,192,128824,1,0,0:0:0:0:
213,192,128908,1,0,0:0:0:0:
42,192,128908,1,0,0:0:0:0:
298,192,128908,1,0,0:0:0:0:
469,192,128908,1,0,0:0:0:0:
128,192,128992,1,0,0:0:0:0:
213,192,129077,1,0,0:0:0:0:
42,192,129077,1,0,0:0:0:0:
298,192,129077,1,0,0:0:0:0:
469,192,129077,1,0,0:0:0:0:
384,192,129161,1,0,0:0:0:0:
213,192,129245,1,0,0:0:0:0:
42,192,129245,1,0,0:0:0:0:
298,192,129245,1,0,0:0:0:0:
469,192,129245,1,0,0:0:0:0:
128,192,129329,1,0,0:0:0:0:
213,192,129414,1,0,0:0:0:0:
128,192,129414,1,0,0:0:0:0:
42,192,129414,1,0,0:0:0:0:
298,192,129414,1,0,0:0:0:0:
384,192,129414,1,0,0:0:0:0:
469,192,129414,1,0,0:0:0:0:
469,192,129582,1,0,0:0:0:0:
384,192,129582,1,0,0:0:0:0:
298,192,129582,1,0,0:0:0:0:
213,192,129582,1,0,0:0:0:0:
42,192,129582,1,0,0:0:0:0:
128,192,129582,1,0,0:0:0:0:
42,192,129751,1,0,0:0:0:0:
128,192,129751,1,0,0:0:0:0:
213,192,129751,1,0,0:0:0:0:
298,192,129751,1,0,0:0:0:0:
384,192,129751,1,0,0:0:0:0:
469,192,129751,1,0,0:0:0:0:
469,192,129919,1,0,0:0:0:0:
384,192,129919,1,0,0:0:0:0:
298,192,129919,1,0,0:0:0:0:
213,192,129919,1,0,0:0:0:0:
128,192,129919,1,0,0:0:0:0:
42,192,129919,1,0,0:0:0:0:
42,192,130088,1,0,0:0:0:0:
128,192,130088,1,0,0:0:0:0:
213,192,130088,1,0,0:0:0:0:
298,192,130088,1,0,0:0:0:0:
469,192,130088,1,0,0:0:0:0:
384,192,130088,1,0,0:0:0:0:
213,192,130341,1,0,0:0:0:0:
128,192,130341,1,0,0:0:0:0:
42,192,130341,1,0,0:0:0:0:
298,192,130341,1,0,0:0:0:0:
384,192,130341,1,0,0:0:0:0:
469,192,130341,1,0,0:0:0:0:
384,192,130593,1,0,0:0:0:0:
128,192,130593,1,0,0:0:0:0:
42,192,130593,1,0,0:0:0:0:
469,192,130593,1,0,0:0:0:0:
298,192,130678,1,0,0:0:0:0:
213,192,130678,1,0,0:0:0:0:
128,192,130762,1,0,0:0:0:0:
42,192,130762,1,0,0:0:0:0:
469,192,130762,1,0,0:0:0:0:
384,192,130762,1,0,0:0:0:0:
298,192,130846,1,0,0:0:0:0:
213,192,130846,1,0,0:0:0:0:
128,192,130931,1,0,0:0:0:0:
42,192,130931,1,0,0:0:0:0:
384,192,130931,1,0,0:0:0:0:
213,192,131015,1,0,0:0:0:0:
469,192,131015,1,0,0:0:0:0:
384,192,131099,1,0,0:0:0:0:
42,192,131099,1,0,0:0:0:0:
298,192,131099,1,0,0:0:0:0:
213,192,131183,1,0,0:0:0:0:
128,192,131183,1,0,0:0:0:0:
469,192,131183,1,0,0:0:0:0:
298,192,131268,1,0,0:0:0:0:
42,192,131268,1,0,0:0:0:0:
213,192,131352,1,0,0:0:0:0:
128,192,131352,1,0,0:0:0:0:
384,192,131352,1,0,0:0:0:0:
469,192,131352,1,0,0:0:0:0:
298,192,131436,1,0,0:0:0:0:
42,192,131436,1,0,0:0:0:0:
213,192,131520,1,0,0:0:0:0:
469,192,131520,1,0,0:0:0:0:
384,192,131605,1,0,0:0:0:0:
298,192,131605,1,0,0:0:0:0:
128,192,131605,1,0,0:0:0:0:
42,192,131605,1,0,0:0:0:0:
213,192,131689,1,0,0:0:0:0:
469,192,131689,1,0,0:0:0:0:
384,192,131773,1,0,0:0:0:0:
298,192,131773,1,0,0:0:0:0:
42,192,131773,1,0,0:0:0:0:
213,192,131858,1,0,0:0:0:0:
128,192,131858,1,0,0:0:0:0:
469,192,131858,1,0,0:0:0:0:
298,192,131942,1,0,0:0:0:0:
42,192,131942,1,0,0:0:0:0:
128,192,132026,1,0,0:0:0:0:
384,192,132026,1,0,0:0:0:0:
298,192,132110,1,0,0:0:0:0:
213,192,132110,1,0,0:0:0:0:
42,192,132110,1,0,0:0:0:0:
469,192,132110,1,0,0:0:0:0:
384,192,132195,1,0,0:0:0:0:
128,192,132195,1,0,0:0:0:0:
213,192,132279,1,0,0:0:0:0:
469,192,132279,1,0,0:0:0:0:
42,192,132363,1,0,0:0:0:0:
128,192,132363,1,0,0:0:0:0:
298,192,132363,1,0,0:0:0:0:
213,192,132447,1,0,0:0:0:0:
384,192,132447,1,0,0:0:0:0:
469,192,132447,1,0,0:0:0:0:
298,192,132532,1,0,0:0:0:0:
42,192,132532,1,0,0:0:0:0:
128,192,132616,1,0,0:0:0:0:
213,192,132616,1,0,0:0:0:0:
469,192,132616,1,0,0:0:0:0:
384,192,132700,1,0,0:0:0:0:
298,192,132700,1,0,0:0:0:0:
42,192,132700,1,0,0:0:0:0:
213,192,132784,1,0,0:0:0:0:
469,192,132784,1,0,0:0:0:0:
384,192,132869,1,0,0:0:0:0:
128,192,132869,1,0,0:0:0:0:
42,192,132869,1,0,0:0:0:0:
213,192,132953,1,0,0:0:0:0:
298,192,132953,1,0,0:0:0:0:
469,192,132953,1,0,0:0:0:0:
384,192,133037,1,0,0:0:0:0:
128,192,133037,1,0,0:0:0:0:
213,192,133122,1,0,0:0:0:0:
42,192,133122,1,0,0:0:0:0:
469,192,133122,1,0,0:0:0:0:
384,192,133206,1,0,0:0:0:0:
128,192,133206,1,0,0:0:0:0:
298,192,133290,1,0,0:0:0:0:
213,192,133290,1,0,0:0:0:0:
42,192,133290,1,0,0:0:0:0:
469,192,133374,1,0,0:0:0:0:
128,192,133374,1,0,0:0:0:0:
42,192,133459,1,0,0:0:0:0:
298,192,133459,1,0,0:0:0:0:
384,192,133459,1,0,0:0:0:0:
213,192,133459,1,0,0:0:0:0:
128,192,133543,1,0,0:0:0:0:
469,192,133543,1,0,0:0:0:0:
128,192,133627,1,0,0:0:0:0:
42,192,133627,1,0,0:0:0:0:
298,192,133627,1,0,0:0:0:0:
213,192,133711,1,0,0:0:0:0:
384,192,133711,1,0,0:0:0:0:
42,192,133796,1,0,0:0:0:0:
298,192,133796,1,0,0:0:0:0:
469,192,133796,1,0,0:0:0:0:
128,192,133880,1,0,0:0:0:0:
213,192,133880,1,0,0:0:0:0:
384,192,133880,1,0,0:0:0:0:
298,192,133964,1,0,0:0:0:0:
42,192,133964,1,0,0:0:0:0:
128,192,134049,1,0,0:0:0:0:
469,192,134049,1,0,0:0:0:0:
384,192,134049,1,0,0:0:0:0:
213,192,134049,1,0,0:0:0:0:
298,192,134133,1,0,0:0:0:0:
42,192,134133,1,0,0:0:0:0:
213,192,134217,1,0,0:0:0:0:
469,192,134217,1,0,0:0:0:0:
384,192,134301,1,0,0:0:0:0:
128,192,134301,1,0,0:0:0:0:
42,192,134301,1,0,0:0:0:0:
298,192,134301,1,0,0:0:0:0:
213,192,134386,1,0,0:0:0:0:
469,192,134386,1,0,0:0:0:0:
384,192,134470,1,0,0:0:0:0:
42,192,134470,1,0,0:0:0:0:
128,192,134470,1,0,0:0:0:0:
213,192,134554,1,0,0:0:0:0:
298,192,134554,1,0,0:0:0:0:
469,192,134554,1,0,0:0:0:0:
384,192,134638,1,0,0:0:0:0:
42,192,134638,1,0,0:0:0:0:
298,192,134723,1,0,0:0:0:0:
128,192,134723,1,0,0:0:0:0:
42,192,134807,1,0,0:0:0:0:
384,192,134807,1,0,0:0:0:0:
469,192,134807,1,0,0:0:0:0:
213,192,134807,1,0,0:0:0:0:
298,192,134891,1,0,0:0:0:0:
128,192,134891,1,0,0:0:0:0:
213,192,134975,1,0,0:0:0:0:
469,192,134975,1,0,0:0:0:0:
384,192,135060,1,0,0:0:0:0:
298,192,135060,1,0,0:0:0:0:
42,192,135060,1,0,0:0:0:0:
213,192,135144,1,0,0:0:0:0:
128,192,135144,1,0,0:0:0:0:
469,192,135144,1,0,0:0:0:0:
298,192,135228,1,0,0:0:0:0:
42,192,135228,1,0,0:0:0:0:
128,192,135313,1,0,0:0:0:0:
384,192,135313,1,0,0:0:0:0:
469,192,135313,1,0,0:0:0:0:
298,192,135397,1,0,0:0:0:0:
213,192,135397,1,0,0:0:0:0:
42,192,135397,1,0,0:0:0:0:
128,192,135481,1,0,0:0:0:0:
384,192,135481,1,0,0:0:0:0:
213,192,135565,1,0,0:0:0:0:
298,192,135565,1,0,0:0:0:0:
469,192,135565,1,0,0:0:0:0:
384,192,135650,1,0,0:0:0:0:
128,192,135650,1,0,0:0:0:0:
42,192,135650,1,0,0:0:0:0:
213,192,135734,1,0,0:0:0:0:
469,192,135734,1,0,0:0:0:0:
298,192,135818,1,0,0:0:0:0:
128,192,135818,1,0,0:0:0:0:
42,192,135818,1,0,0:0:0:0:
213,192,135902,1,0,0:0:0:0:
384,192,135902,1,0,0:0:0:0:
469,192,135902,1,0,0:0:0:0:
42,192,135987,1,0,0:0:0:0:
128,192,135987,1,0,0:0:0:0:
298,192,135987,1,0,0:0:0:0:
213,192,136071,1,0,0:0:0:0:
384,192,136071,1,0,0:0:0:0:
469,192,136071,1,0,0:0:0:0:
42,192,136155,1,0,0:0:0:0:
298,192,136155,1,0,0:0:0:0:
128,192,136197,1,0,0:0:0:0:
213,192,136240,1,0,0:0:0:0:
469,192,136240,1,0,0:0:0:0:
384,192,136282,1,0,0:0:0:0:
298,192,136324,1,0,0:0:0:0:
42,192,136324,1,0,0:0:0:0:
128,192,136366,1,0,0:0:0:0:
384,192,136408,1,0,0:0:0:0:
213,192,136450,1,0,0:0:0:0:
469,192,136492,1,0,0:0:0:0:
298,192,136534,1,0,0:0:0:0:
42,192,136577,1,0,0:0:0:0:
384,192,136577,1,0,0:0:0:0:
213,192,136619,1,0,0:0:0:0:
128,192,136661,1,0,0:0:0:0:
469,192,136661,1,0,0:0:0:0:
298,192,136703,1,0,0:0:0:0:
213,192,136745,1,0,0:0:0:0:
384,192,136787,1,0,0:0:0:0:
469,192,136829,1,0,0:0:0:0:
42,192,136829,1,0,0:0:0:0:
128,192,136872,1,0,0:0:0:0:
298,192,136914,1,0,0:0:0:0:
213,192,136956,1,0,0:0:0:0:
384,192,136998,1,0,0:0:0:0:
469,192,136998,1,0,0:0:0:0:
128,192,137040,1,0,0:0:0:0:
42,192,137082,1,0,0:0:0:0:
298,192,137124,1,0,0:0:0:0:
213,192,137167,1,0,0:0:0:0:
469,192,137209,1,0,0:0:0:0:
298,192,137251,1,0,0:0:0:0:
42,192,137251,1,0,0:0:0:0:
384,192,137293,1,0,0:0:0:0:
128,192,137335,1,0,0:0:0:0:
213,192,137377,1,0,0:0:0:0:
384,192,137419,1,0,0:0:0:0:
469,192,137461,1,0,0:0:0:0:
298,192,137504,1,0,0:0:0:0:
42,192,137504,1,0,0:0:0:0:
213,192,137588,1,0,0:0:0:0:
469,192,137630,1,0,0:0:0:0:
42,192,137672,1,0,0:0:0:0:
298,192,137672,1,0,0:0:0:0:
128,192,137714,1,0,0:0:0:0:
384,192,137714,1,0,0:0:0:0:
213,192,137756,1,0,0:0:0:0:
469,192,137756,1,0,0:0:0:0:
298,192,137799,1,0,0:0:0:0:
128,192,137841,1,0,0:0:0:0:
384,192,137883,1,0,0:0:0:0:
42,192,137883,1,0,0:0:0:0:
298,192,137925,1,0,0:0:0:0:
213,192,137967,1,0,0:0:0:0:
128,192,138009,1,0,0:0:0:0:
469,192,138009,1,0,0:0:0:0:
384,192,138051,1,0,0:0:0:0:
298,192,138093,1,0,0:0:0:0:
42,192,138136,1,0,0:0:0:0:
213,192,138178,1,0,0:0:0:0:
128,192,138262,1,0,0:0:0:0:
469,192,138262,1,0,0:0:0:0:
298,192,138304,1,0,0:0:0:0:
384,192,138346,1,0,0:0:0:0:
42,192,138388,1,0,0:0:0:0:
469,192,138431,1,0,0:0:0:0:
213,192,138431,1,0,0:0:0:0:
298,192,138473,1,0,0:0:0:0:
128,192,138515,1,0,0:0:0:0:
213,192,138557,1,0,0:0:0:0:
384,192,138599,1,0,0:0:0:0:
42,192,138641,1,0,0:0:0:0:
298,192,138641,1,0,0:0:0:0:
128,192,138683,1,0,0:0:0:0:
469,192,138725,1,0,0:0:0:0:
384,192,138768,1,0,0:0:0:0:
213,192,138768,1,0,0:0:0:0:
42,192,138810,1,0,0:0:0:0:
298,192,138852,1,0,0:0:0:0:
469,192,138852,1,0,0:0:0:0:
128,192,138894,1,0,0:0:0:0:
384,192,138936,1,0,0:0:0:0:
213,192,138978,1,0,0:0:0:0:
42,192,139020,1,0,0:0:0:0:
298,192,139020,1,0,0:0:0:0:
128,192,139063,1,0,0:0:0:0:
384,192,139105,1,0,0:0:0:0:
469,192,139105,1,0,0:0:0:0:
298,192,139147,1,0,0:0:0:0:
213,192,139189,1,0,0:0:0:0:
42,192,139231,1,0,0:0:0:0:
128,192,139273,1,0,0:0:0:0:
384,192,139273,1,0,0:0:0:0:
298,192,139315,1,0,0:0:0:0:
469,192,139358,1,0,0:0:0:0:
384,192,139442,1,0,0:0:0:0:
42,192,139442,1,0,0:0:0:0:
213,192,139484,1,0,0:0:0:0:
128,192,139526,1,0,0:0:0:0:
384,192,139568,1,0,0:0:0:0:
298,192,139610,1,0,0:0:0:0:
469,192,139610,1,0,0:0:0:0:
42,192,139652,1,0,0:0:0:0:
213,192,139695,1,0,0:0:0:0:
384,192,139737,1,0,0:0:0:0:
469,192,139779,1,0,0:0:0:0:
128,192,139779,1,0,0:0:0:0:
42,192,139821,1,0,0:0:0:0:
298,192,139821,1,0,0:0:0:0:
384,192,139863,1,0,0:0:0:0:
213,192,139863,1,0,0:0:0:0:
128,192,139905,1,0,0:0:0:0:
469,192,139947,1,0,0:0:0:0:
298,192,139947,1,0,0:0:0:0:
42,192,139990,1,0,0:0:0:0:
213,192,140032,1,0,0:0:0:0:
128,192,140074,1,0,0:0:0:0:
384,192,140074,1,0,0:0:0:0:
298,192,140116,1,0,0:0:0:0:
469,192,140116,1,0,0:0:0:0:
213,192,140158,1,0,0:0:0:0:
42,192,140200,1,0,0:0:0:0:
384,192,140242,1,0,0:0:0:0:
128,192,140284,1,0,0:0:0:0:
469,192,140284,1,0,0:0:0:0:
213,192,140327,1,0,0:0:0:0:
384,192,140369,1,0,0:0:0:0:
42,192,140369,1,0,0:0:0:0:
298,192,140411,1,0,0:0:0:0:
213,192,140453,1,0,0:0:0:0:
128,192,140495,1,0,0:0:0:0:
298,192,140537,1,0,0:0:0:0:
469,192,140537,1,0,0:0:0:0:
42,192,140579,1,0,0:0:0:0:
384,192,140622,1,0,0:0:0:0:
128,192,140622,1,0,0:0:0:0:
298,192,140664,1,0,0:0:0:0:
213,192,140706,1,0,0:0:0:0:
128,192,140748,1,0,0:0:0:0:
469,192,140748,1,0,0:0:0:0:
42,192,140790,1,0,0:0:0:0:
298,192,140790,1,0,0:0:0:0:
213,192,140832,1,0,0:0:0:0:
384,192,140832,1,0,0:0:0:0:
469,192,140874,1,0,0:0:0:0:
128,192,140917,1,0,0:0:0:0:
42,192,140959,1,0,0:0:0:0:
298,192,140959,1,0,0:0:0:0:
384,192,141001,1,0,0:0:0:0:
213,192,141043,1,0,0:0:0:0:
469,192,141043,1,0,0:0:0:0:
128,192,141085,1,0,0:0:0:0:
42,192,141127,1,0,0:0:0:0:
384,192,141127,1,0,0:0:0:0:
298,192,141169,1,0,0:0:0:0:
469,192,141211,1,0,0:0:0:0:
213,192,141211,1,0,0:0:0:0:
42,192,141254,1,0,0:0:0:0:
128,192,141296,1,0,0:0:0:0:
298,192,141296,1,0,0:0:0:0:
384,192,141338,1,0,0:0:0:0:
213,192,141380,1,0,0:0:0:0:
469,192,141380,1,0,0:0:0:0:
298,192,141422,1,0,0:0:0:0:
42,192,141422,1,0,0:0:0:0:
128,192,141464,1,0,0:0:0:0:
384,192,141464,1,0,0:0:0:0:
469,192,141506,1,0,0:0:0:0:
213,192,141506,1,0,0:0:0:0:
