osu file format v14

[General]
AudioFilename: audio6.mp3
AudioLeadIn: 0
PreviewTime: 40351
Countdown: 0
SampleSet: Normal
StackLeniency: 0.7
Mode: 1
LetterboxInBreaks: 0
WidescreenStoryboard: 1

[Editor]
DistanceSpacing: 1.2
BeatDivisor: 8
GridSize: 32
TimelineZoom: 3.299999

[Metadata]
Title:the random baah mappack
TitleUnicode:the random baah mappack
Artist:Various Artists
ArtistUnicode:Various Artists
Creator:Creeperbrine303
Version:mudeth - Innocence Glitched (Become Back My Money Edition)
Source:
Tags:
BeatmapID:4525802
BeatmapSetID:2147892

[Difficulty]
HPDrainRate:5
CircleSize:5
OverallDifficulty:6.6
ApproachRate:5
SliderMultiplier:1.4
SliderTickRate:1

[Events]
//Background and Video events
0,0,"seamless-wallpaper-with-cute-sheep-a-pattern-with-sheep-for-printing-on-fabric-and-sewing-children-s-clothing-vector.jpg",0,0
//Break Periods
2,88551,102151
//Storyboard Layer 0 (Background)
//Storyboard Layer 1 (Fail)
//Storyboard Layer 2 (Pass)
//Storyboard Layer 3 (Foreground)
//Storyboard Layer 4 (Overlay)
//Storyboard Sound Samples

[TimingPoints]
351.278745691983,500,4,1,0,100,1,0
8351,-71.4285714285714,4,1,0,100,0,0
40413,-83.3333333333333,4,1,0,100,0,0
55851,-50,4,1,0,80,0,1
88413,-71.4285714285714,4,1,0,80,0,0
135851,-47.6190476190476,4,1,0,80,0,1

[HitObjects]
258,184,7851,5,0,0:0:0:0:
257,177,8351,1,8,0:0:0:0:
257,166,11351,1,8,0:0:0:0:
265,146,11726,1,8,0:0:0:0:
265,144,12101,1,8,0:0:0:0:
265,146,12351,1,0,0:0:0:0:
265,144,12726,1,8,0:0:0:0:
265,146,13101,1,0,0:0:0:0:
265,144,13351,1,8,0:0:0:0:
265,125,15351,1,0,0:0:0:0:
265,124,16351,1,8,0:0:0:0:
256,137,17351,1,0,0:0:0:0:
249,113,17601,1,8,0:0:0:0:
259,120,17851,1,0,0:0:0:0:
259,119,18101,1,8,0:0:0:0:
259,118,18351,1,8,0:0:0:0:
268,140,19351,1,8,0:0:0:0:
268,140,19601,1,0,0:0:0:0:
268,140,19851,1,0,0:0:0:0:
268,140,20101,1,8,0:0:0:0:
268,140,20351,1,0,0:0:0:0:
249,128,21351,1,8,0:0:0:0:
246,111,21726,1,0,0:0:0:0:
230,116,22101,1,0,0:0:0:0:
230,116,22351,1,8,0:0:0:0:
230,102,22726,1,0,0:0:0:0:
230,102,23101,1,0,0:0:0:0:
230,102,23351,1,8,0:0:0:0:
226,92,23726,1,0,0:0:0:0:
219,93,23976,1,8,0:0:0:0:
217,93,24351,1,8,0:0:0:0:
230,96,24851,1,0,0:0:0:0:
214,73,25101,1,8,0:0:0:0:
214,73,25351,1,0,0:0:0:0:
221,74,25601,1,0,0:0:0:0:
212,68,25851,1,8,0:0:0:0:
221,77,26101,1,8,0:0:0:0:
207,64,26351,1,0,0:0:0:0:
207,64,26851,1,8,0:0:0:0:
192,42,27351,1,8,0:0:0:0:
192,42,27726,1,8,0:0:0:0:
193,41,28101,1,8,0:0:0:0:
193,41,28351,1,0,0:0:0:0:
194,49,28726,1,8,0:0:0:0:
196,47,28976,1,0,0:0:0:0:
245,187,29351,1,8,0:0:0:0:
232,157,29601,1,8,0:0:0:0:
241,145,29851,1,0,0:0:0:0:
232,137,30101,1,8,0:0:0:0:
208,128,30601,1,0,0:0:0:0:
210,132,30851,1,0,0:0:0:0:
195,116,31351,1,0,0:0:0:0:
190,114,31851,1,8,0:0:0:0:
186,109,32101,1,0,0:0:0:0:
194,116,32351,1,8,0:0:0:0:
203,102,33351,1,8,0:0:0:0:
200,106,33851,1,0,0:0:0:0:
200,106,34351,1,8,0:0:0:0:
191,51,35351,1,0,0:0:0:0:
191,51,35601,1,8,0:0:0:0:
195,51,35851,1,0,0:0:0:0:
191,51,36101,1,8,0:0:0:0:
188,60,36351,1,8,0:0:0:0:
196,18,37351,1,8,0:0:0:0:
202,36,37726,1,8,0:0:0:0:
215,29,38101,1,8,0:0:0:0:
209,27,38351,1,0,0:0:0:0:
215,27,38726,1,0,0:0:0:0:
215,29,38976,1,8,0:0:0:0:
215,27,39351,1,0,0:0:0:0:
214,20,39851,1,8,0:0:0:0:
215,27,40101,1,0,0:0:0:0:
215,27,40351,1,8,0:0:0:0:
229,124,40851,1,0,0:0:0:0:
229,124,41351,1,8,0:0:0:0:
229,124,41601,1,8,0:0:0:0:
201,107,41851,1,0,0:0:0:0:
201,107,42101,1,8,0:0:0:0:
201,107,42351,1,8,0:0:0:0:
199,96,42851,1,0,0:0:0:0:
197,89,43351,1,8,0:0:0:0:
197,89,43601,1,8,0:0:0:0:
197,89,43851,1,0,0:0:0:0:
197,89,44101,1,0,0:0:0:0:
197,89,44351,1,8,0:0:0:0:
197,71,44851,1,0,0:0:0:0:
199,83,45351,1,0,0:0:0:0:
197,71,45601,1,8,0:0:0:0:
197,71,45851,1,0,0:0:0:0:
197,71,46101,1,0,0:0:0:0:
197,71,46351,1,8,0:0:0:0:
186,66,46851,1,0,0:0:0:0:
186,66,47351,1,8,0:0:0:0:
186,66,47601,1,0,0:0:0:0:
190,64,47851,1,0,0:0:0:0:
191,64,48101,1,0,0:0:0:0:
191,64,48351,1,8,0:0:0:0:
191,64,48851,1,0,0:0:0:0:
194,55,49351,1,8,0:0:0:0:
194,55,49601,1,8,0:0:0:0:
194,55,49851,1,0,0:0:0:0:
194,55,50101,1,8,0:0:0:0:
194,55,50351,1,8,0:0:0:0:
194,55,50851,1,0,0:0:0:0:
194,55,51351,1,8,0:0:0:0:
194,55,51601,1,8,0:0:0:0:
194,55,51851,1,0,0:0:0:0:
194,55,52101,1,0,0:0:0:0:
194,55,52351,1,8,0:0:0:0:
194,55,52851,1,0,0:0:0:0:
194,55,53351,1,0,0:0:0:0:
194,55,53601,1,8,0:0:0:0:
194,55,53851,1,0,0:0:0:0:
194,55,54101,1,0,0:0:0:0:
194,55,54351,1,8,0:0:0:0:
238,158,54851,5,0,0:0:0:0:
256,192,54976,12,0,55601,0:0:0:0:
242,152,55851,5,0,0:0:0:0:
243,142,55913,1,0,0:0:0:0:
257,140,55976,1,0,0:0:0:0:
257,140,56038,1,0,0:0:0:0:
257,140,56101,1,8,0:0:0:0:
257,140,56226,1,0,0:0:0:0:
257,140,56351,1,8,0:0:0:0:
257,139,56413,1,8,0:0:0:0:
226,140,56476,1,8,0:0:0:0:
257,139,56601,1,0,0:0:0:0:
272,129,56726,1,0,0:0:0:0:
243,144,56851,1,8,0:0:0:0:
243,144,56913,1,8,0:0:0:0:
244,144,56976,1,0,0:0:0:0:
244,144,57101,1,8,0:0:0:0:
244,144,57226,1,8,0:0:0:0:
244,144,57351,1,0,0:0:0:0:
244,144,57413,1,0,0:0:0:0:
244,144,57476,1,8,0:0:0:0:
243,144,57601,1,0,0:0:0:0:
243,144,57663,1,0,0:0:0:0:
243,144,57726,1,0,0:0:0:0:
244,144,57851,1,8,0:0:0:0:
244,144,57913,1,8,0:0:0:0:
244,144,57976,1,0,0:0:0:0:
244,144,58101,1,0,0:0:0:0:
244,144,58226,1,0,0:0:0:0:
240,137,58351,1,8,0:0:0:0:
240,137,58413,1,8,0:0:0:0:
240,137,58476,1,0,0:0:0:0:
240,137,58538,1,0,0:0:0:0:
240,137,58601,1,8,0:0:0:0:
232,160,58726,1,0,0:0:0:0:
232,160,58851,1,8,0:0:0:0:
232,160,58913,1,8,0:0:0:0:
232,160,58976,1,0,0:0:0:0:
232,160,59101,1,8,0:0:0:0:
232,160,59163,1,0,0:0:0:0:
232,160,59226,1,0,0:0:0:0:
246,158,59351,1,8,0:0:0:0:
246,158,59413,1,8,0:0:0:0:
246,158,59476,1,8,0:0:0:0:
246,158,59538,1,8,0:0:0:0:
246,158,59601,1,0,0:0:0:0:
246,159,59726,1,0,0:0:0:0:
246,158,59851,1,8,0:0:0:0:
246,158,59913,1,8,0:0:0:0:
246,158,59976,1,0,0:0:0:0:
246,158,60038,1,0,0:0:0:0:
246,158,60101,1,8,0:0:0:0:
246,158,60226,1,0,0:0:0:0:
246,158,60351,1,8,0:0:0:0:
246,158,60413,1,0,0:0:0:0:
246,158,60476,1,8,0:0:0:0:
246,159,60538,1,8,0:0:0:0:
246,159,60601,1,0,0:0:0:0:
246,158,60663,1,0,0:0:0:0:
246,158,60726,1,8,0:0:0:0:
246,158,60788,1,8,0:0:0:0:
246,158,60851,1,0,0:0:0:0:
246,158,60976,1,0,0:0:0:0:
246,158,61101,1,8,0:0:0:0:
246,158,61226,1,0,0:0:0:0:
246,158,61351,1,8,0:0:0:0:
241,140,61413,1,0,0:0:0:0:
246,159,61476,1,0,0:0:0:0:
246,158,61538,1,0,0:0:0:0:
246,158,61601,1,8,0:0:0:0:
246,158,61726,1,0,0:0:0:0:
242,141,61851,1,8,0:0:0:0:
242,141,61913,1,0,0:0:0:0:
242,141,61976,1,8,0:0:0:0:
242,141,62038,1,8,0:0:0:0:
242,141,62101,1,0,0:0:0:0:
242,133,62226,1,0,0:0:0:0:
242,133,62351,1,8,0:0:0:0:
242,133,62413,1,0,0:0:0:0:
242,133,62476,1,8,0:0:0:0:
221,124,62601,1,0,0:0:0:0:
223,129,62726,1,0,0:0:0:0:
223,121,62851,1,8,0:0:0:0:
213,124,62913,1,8,0:0:0:0:
213,124,62976,1,0,0:0:0:0:
213,124,63101,1,0,0:0:0:0:
213,124,63226,1,0,0:0:0:0:
213,124,63351,1,8,0:0:0:0:
226,137,63413,1,8,0:0:0:0:
226,137,63476,1,8,0:0:0:0:
226,137,63601,1,0,0:0:0:0:
213,124,63726,1,0,0:0:0:0:
213,124,63851,1,8,0:0:0:0:
213,124,63913,1,8,0:0:0:0:
213,124,63976,1,0,0:0:0:0:
213,124,64038,1,0,0:0:0:0:
236,118,64101,1,8,0:0:0:0:
236,118,64226,1,0,0:0:0:0:
213,124,64351,1,8,0:0:0:0:
213,124,64413,1,8,0:0:0:0:
213,124,64476,1,8,0:0:0:0:
213,124,64538,1,8,0:0:0:0:
213,124,64601,1,0,0:0:0:0:
213,124,64663,1,0,0:0:0:0:
213,124,64726,1,8,0:0:0:0:
203,120,64851,1,0,0:0:0:0:
201,94,64913,1,0,0:0:0:0:
201,94,64976,1,8,0:0:0:0:
201,94,65101,1,0,0:0:0:0:
201,94,65226,1,0,0:0:0:0:
201,94,65351,1,8,0:0:0:0:
201,94,65413,1,8,0:0:0:0:
201,94,65476,1,0,0:0:0:0:
201,94,65538,1,8,0:0:0:0:
201,94,65601,1,0,0:0:0:0:
201,94,65663,1,0,0:0:0:0:
192,75,65726,1,0,0:0:0:0:
193,73,65851,1,8,0:0:0:0:
193,72,65913,1,8,0:0:0:0:
193,72,65976,1,0,0:0:0:0:
193,72,66101,1,8,0:0:0:0:
193,72,66163,1,8,0:0:0:0:
193,72,66226,1,8,0:0:0:0:
193,72,66351,1,0,0:0:0:0:
193,72,66476,1,8,0:0:0:0:
192,77,66538,1,0,0:0:0:0:
192,77,66601,1,8,0:0:0:0:
215,103,66726,1,0,0:0:0:0:
215,103,66788,1,0,0:0:0:0:
215,103,66851,1,8,0:0:0:0:
215,103,66913,1,0,0:0:0:0:
215,103,66976,1,8,0:0:0:0:
215,103,67038,1,8,0:0:0:0:
215,103,67101,1,0,0:0:0:0:
215,103,67226,1,0,0:0:0:0:
215,103,67351,1,8,0:0:0:0:
215,103,67413,1,8,0:0:0:0:
215,103,67476,1,8,0:0:0:0:
215,103,67601,1,0,0:0:0:0:
215,103,67726,1,0,0:0:0:0:
208,99,67851,1,8,0:0:0:0:
208,99,67913,1,0,0:0:0:0:
208,99,67976,1,0,0:0:0:0:
208,99,68038,1,0,0:0:0:0:
208,99,68101,1,8,0:0:0:0:
208,99,68226,1,0,0:0:0:0:
208,99,68351,1,8,0:0:0:0:
207,99,68413,1,8,0:0:0:0:
207,99,68476,1,8,0:0:0:0:
207,99,68538,1,8,0:0:0:0:
207,99,68601,1,0,0:0:0:0:
208,99,68663,1,0,0:0:0:0:
208,99,68726,1,0,0:0:0:0:
208,99,68788,1,0,0:0:0:0:
208,99,68851,1,8,0:0:0:0:
210,93,68976,1,8,0:0:0:0:
210,93,69101,1,0,0:0:0:0:
210,93,69163,1,0,0:0:0:0:
210,93,69226,1,0,0:0:0:0:
210,93,69351,1,8,0:0:0:0:
210,93,69413,1,0,0:0:0:0:
210,93,69476,1,8,0:0:0:0:
210,93,69538,1,8,0:0:0:0:
210,93,69601,1,0,0:0:0:0:
210,93,69726,1,0,0:0:0:0:
210,93,69851,1,8,0:0:0:0:
210,93,69976,1,8,0:0:0:0:
206,60,70101,1,0,0:0:0:0:
206,60,70163,1,0,0:0:0:0:
206,60,70226,1,8,0:0:0:0:
206,60,70351,1,0,0:0:0:0:
206,60,70413,1,0,0:0:0:0:
206,60,70476,1,0,0:0:0:0:
206,60,70601,1,8,0:0:0:0:
206,60,70663,1,8,0:0:0:0:
206,60,70726,1,0,0:0:0:0:
206,60,70851,1,8,0:0:0:0:
206,60,70913,1,8,0:0:0:0:
206,60,70976,1,8,0:0:0:0:
208,87,71038,1,8,0:0:0:0:
206,60,71101,1,0,0:0:0:0:
204,46,71226,1,0,0:0:0:0:
204,47,71351,1,8,0:0:0:0:
204,47,71413,1,8,0:0:0:0:
204,47,71476,1,0,0:0:0:0:
204,47,71538,1,0,0:0:0:0:
204,47,71601,1,8,0:0:0:0:
204,47,71663,1,0,0:0:0:0:
204,47,71726,1,0,0:0:0:0:
204,47,71788,1,0,0:0:0:0:
204,47,71851,1,8,0:0:0:0:
213,53,71976,1,8,0:0:0:0:
213,53,72038,1,8,0:0:0:0:
213,53,72101,1,0,0:0:0:0:
213,53,72226,1,0,0:0:0:0:
213,53,72351,1,8,0:0:0:0:
213,53,72413,1,8,0:0:0:0:
213,53,72476,1,8,0:0:0:0:
213,53,72538,1,8,0:0:0:0:
213,53,72601,1,0,0:0:0:0:
213,53,72663,1,0,0:0:0:0:
213,53,72726,1,0,0:0:0:0:
213,53,72788,1,0,0:0:0:0:
213,53,72851,1,8,0:0:0:0:
213,53,72913,1,8,0:0:0:0:
213,53,72976,1,0,0:0:0:0:
213,53,73038,1,0,0:0:0:0:
213,53,73101,1,8,0:0:0:0:
213,53,73163,1,8,0:0:0:0:
213,53,73226,1,0,0:0:0:0:
213,53,73351,1,8,0:0:0:0:
205,44,73413,1,8,0:0:0:0:
205,44,73476,1,0,0:0:0:0:
205,44,73601,1,8,0:0:0:0:
205,44,73663,1,0,0:0:0:0:
205,44,73726,1,0,0:0:0:0:
205,44,73851,1,8,0:0:0:0:
205,44,73913,1,8,0:0:0:0:
205,44,73976,1,8,0:0:0:0:
205,43,74038,1,8,0:0:0:0:
205,43,74101,1,0,0:0:0:0:
201,47,74226,1,0,0:0:0:0:
201,47,74351,1,8,0:0:0:0:
205,44,74413,1,8,0:0:0:0:
205,44,74476,1,0,0:0:0:0:
198,30,74601,1,8,0:0:0:0:
198,30,74663,1,8,0:0:0:0:
198,30,74726,1,8,0:0:0:0:
198,30,74851,1,0,0:0:0:0:
198,30,74913,1,0,0:0:0:0:
198,30,74976,1,0,0:0:0:0:
198,30,75101,1,8,0:0:0:0:
198,30,75226,1,8,0:0:0:0:
198,30,75351,1,0,0:0:0:0:
198,30,75413,1,0,0:0:0:0:
207,50,75476,1,0,0:0:0:0:
198,30,75601,1,8,0:0:0:0:
198,30,75663,1,0,0:0:0:0:
198,30,75726,1,8,0:0:0:0:
198,30,75851,1,0,0:0:0:0:
198,30,75913,1,0,0:0:0:0:
198,30,75976,1,0,0:0:0:0:
198,30,76038,1,0,0:0:0:0:
198,30,76101,1,8,0:0:0:0:
198,30,76226,1,0,0:0:0:0:
198,30,76351,1,0,0:0:0:0:
198,30,76413,1,0,0:0:0:0:
198,30,76476,1,8,0:0:0:0:
198,30,76538,1,8,0:0:0:0:
198,30,76601,1,8,0:0:0:0:
198,30,76663,1,8,0:0:0:0:
198,30,76726,1,0,0:0:0:0:
198,30,76851,1,8,0:0:0:0:
199,38,76976,1,8,0:0:0:0:
199,38,77101,1,0,0:0:0:0:
199,38,77226,1,0,0:0:0:0:
199,38,77351,1,8,0:0:0:0:
198,30,77413,1,0,0:0:0:0:
198,30,77476,1,8,0:0:0:0:
198,30,77538,1,8,0:0:0:0:
198,30,77601,1,0,0:0:0:0:
195,29,77663,1,0,0:0:0:0:
195,29,77726,1,8,0:0:0:0:
194,29,77851,1,8,0:0:0:0:
192,30,77976,1,0,0:0:0:0:
192,30,78101,1,0,0:0:0:0:
192,30,78163,1,0,0:0:0:0:
192,30,78226,1,8,0:0:0:0:
191,41,78351,1,0,0:0:0:0:
191,41,78413,1,0,0:0:0:0:
191,41,78476,1,0,0:0:0:0:
191,41,78601,1,8,0:0:0:0:
191,41,78663,1,8,0:0:0:0:
190,40,78726,1,0,0:0:0:0:
190,40,78851,1,8,0:0:0:0:
190,40,78913,1,8,0:0:0:0:
190,40,78976,1,8,0:0:0:0:
190,40,79038,1,8,0:0:0:0:
190,40,79101,1,0,0:0:0:0:
191,41,79226,1,0,0:0:0:0:
191,41,79351,1,8,0:0:0:0:
191,41,79413,1,0,0:0:0:0:
191,41,79476,1,8,0:0:0:0:
191,41,79538,1,8,0:0:0:0:
190,40,79601,1,0,0:0:0:0:
183,17,79726,1,0,0:0:0:0:
183,17,79851,1,8,0:0:0:0:
183,17,79913,1,8,0:0:0:0:
183,16,79976,1,0,0:0:0:0:
183,16,80101,1,0,0:0:0:0:
183,16,80226,1,0,0:0:0:0:
183,16,80351,1,8,0:0:0:0:
183,17,80413,1,8,0:0:0:0:
183,17,80476,1,0,0:0:0:0:
183,17,80538,1,8,0:0:0:0:
183,17,80601,1,0,0:0:0:0:
183,17,80663,1,0,0:0:0:0:
183,17,80726,1,8,0:0:0:0:
183,16,80851,1,8,0:0:0:0:
183,16,80976,1,0,0:0:0:0:
183,16,81038,1,0,0:0:0:0:
199,39,81101,1,8,0:0:0:0:
183,16,81226,1,0,0:0:0:0:
183,17,81351,1,8,0:0:0:0:
183,17,81413,1,8,0:0:0:0:
183,17,81476,1,0,0:0:0:0:
183,17,81601,1,8,0:0:0:0:
183,16,81663,1,8,0:0:0:0:
183,16,81726,1,8,0:0:0:0:
183,16,81851,1,0,0:0:0:0:
183,16,81913,1,0,0:0:0:0:
183,16,81976,1,8,0:0:0:0:
195,47,82101,1,0,0:0:0:0:
195,47,82226,1,0,0:0:0:0:
195,47,82351,1,8,0:0:0:0:
195,47,82413,1,8,0:0:0:0:
195,47,82476,1,8,0:0:0:0:
195,47,82601,1,0,0:0:0:0:
195,47,82663,1,0,0:0:0:0:
195,47,82726,1,8,0:0:0:0:
195,47,82851,1,0,0:0:0:0:
195,47,82913,1,0,0:0:0:0:
195,47,82976,1,0,0:0:0:0:
195,47,83101,1,8,0:0:0:0:
195,47,83226,1,8,0:0:0:0:
195,47,83351,1,0,0:0:0:0:
195,47,83413,1,0,0:0:0:0:
195,47,83476,1,0,0:0:0:0:
195,47,83601,1,8,0:0:0:0:
195,47,83663,1,8,0:0:0:0:
195,47,83726,1,0,0:0:0:0:
195,47,83851,1,8,0:0:0:0:
195,47,83913,1,8,0:0:0:0:
195,47,83976,1,8,0:0:0:0:
195,47,84038,1,8,0:0:0:0:
195,47,84101,1,0,0:0:0:0:
203,55,84226,1,0,0:0:0:0:
203,55,84351,1,8,0:0:0:0:
203,55,84413,1,0,0:0:0:0:
203,55,84476,1,0,0:0:0:0:
203,55,84538,1,0,0:0:0:0:
203,54,84601,1,8,0:0:0:0:
202,53,84663,1,8,0:0:0:0:
202,53,84726,1,8,0:0:0:0:
202,53,84788,1,8,0:0:0:0:
202,53,84851,1,0,0:0:0:0:
202,53,84976,1,0,0:0:0:0:
201,40,85101,1,8,0:0:0:0:
201,40,85163,1,8,0:0:0:0:
203,55,85226,1,0,0:0:0:0:
201,40,85351,1,8,0:0:0:0:
201,40,85413,1,8,0:0:0:0:
201,40,85476,1,8,0:0:0:0:
201,40,85538,1,8,0:0:0:0:
201,40,85601,1,0,0:0:0:0:
201,40,85663,1,0,0:0:0:0:
201,40,85726,1,8,0:0:0:0:
201,40,85788,1,0,0:0:0:0:
201,40,85851,1,8,0:0:0:0:
205,53,85976,1,0,0:0:0:0:
203,55,86101,1,8,0:0:0:0:
205,52,86163,1,8,0:0:0:0:
201,40,86226,1,0,0:0:0:0:
201,40,86351,1,8,0:0:0:0:
201,40,86413,1,0,0:0:0:0:
205,51,86476,1,8,0:0:0:0:
205,51,86601,1,0,0:0:0:0:
205,51,86663,1,0,0:0:0:0:
205,51,86726,1,0,0:0:0:0:
201,40,86851,1,8,0:0:0:0:
203,55,86913,1,8,0:0:0:0:
201,40,86976,1,8,0:0:0:0:
201,40,87101,1,0,0:0:0:0:
201,40,87226,1,0,0:0:0:0:
201,40,87351,1,8,0:0:0:0:
201,40,87413,1,8,0:0:0:0:
201,40,87476,1,8,0:0:0:0:
201,40,87538,1,8,0:0:0:0:
201,40,87601,1,0,0:0:0:0:
201,40,87663,1,0,0:0:0:0:
201,40,87726,1,0,0:0:0:0:
201,40,87788,1,0,0:0:0:0:
201,40,87851,1,8,0:0:0:0:
201,40,87913,1,8,0:0:0:0:
201,40,87976,1,0,0:0:0:0:
201,40,88038,1,0,0:0:0:0:
201,40,88101,1,8,0:0:0:0:
201,40,88163,1,0,0:0:0:0:
201,40,88226,1,0,0:0:0:0:
201,40,88288,1,0,0:0:0:0:
201,40,88351,1,8,0:0:0:0:
218,146,103351,5,0,0:0:0:0:
218,144,104351,1,8,0:0:0:0:
214,135,105351,1,0,0:0:0:0:
214,135,105601,1,8,0:0:0:0:
214,135,105851,1,0,0:0:0:0:
214,128,106101,1,8,0:0:0:0:
223,113,106351,1,8,0:0:0:0:
203,137,107351,1,0,0:0:0:0:
203,137,107726,1,8,0:0:0:0:
203,137,108101,1,0,0:0:0:0:
203,137,108351,1,0,0:0:0:0:
203,137,108726,1,8,0:0:0:0:
203,137,109101,1,8,0:0:0:0:
203,137,109351,1,0,0:0:0:0:
203,137,109851,1,8,0:0:0:0:
203,137,110351,1,0,0:0:0:0:
201,137,111351,1,8,0:0:0:0:
201,137,112351,1,0,0:0:0:0:
201,137,113101,1,8,0:0:0:0:
201,137,113351,1,0,0:0:0:0:
206,136,113851,1,0,0:0:0:0:
201,137,114101,1,0,0:0:0:0:
206,136,114351,1,8,0:0:0:0:
205,137,115351,1,0,0:0:0:0:
205,137,115601,1,8,0:0:0:0:
205,137,115851,1,0,0:0:0:0:
205,137,116101,1,0,0:0:0:0:
205,137,116351,1,8,0:0:0:0:
205,137,116851,1,0,0:0:0:0:
205,137,117101,1,8,0:0:0:0:
205,137,117601,1,8,0:0:0:0:
205,137,118101,1,8,0:0:0:0:
205,137,118351,1,0,0:0:0:0:
205,137,118726,1,0,0:0:0:0:
205,137,119101,1,0,0:0:0:0:
205,137,119351,1,8,0:0:0:0:
205,137,119726,1,0,0:0:0:0:
208,133,120101,1,8,0:0:0:0:
208,133,120351,1,0,0:0:0:0:
194,132,120851,1,0,0:0:0:0:
192,131,121101,1,0,0:0:0:0:
194,132,121351,1,8,0:0:0:0:
202,140,121601,1,0,0:0:0:0:
202,140,121851,1,8,0:0:0:0:
206,149,122101,1,8,0:0:0:0:
206,148,122351,1,0,0:0:0:0:
206,149,122851,1,0,0:0:0:0:
206,148,123101,1,0,0:0:0:0:
206,149,123351,1,8,0:0:0:0:
206,149,123601,1,8,0:0:0:0:
206,148,123851,1,0,0:0:0:0:
206,149,124101,1,0,0:0:0:0:
206,149,124351,1,8,0:0:0:0:
206,149,124851,1,0,0:0:0:0:
206,149,125101,1,0,0:0:0:0:
226,147,125351,1,8,0:0:0:0:
226,146,125601,1,8,0:0:0:0:
225,146,125851,1,0,0:0:0:0:
226,147,126101,1,8,0:0:0:0:
219,149,126351,1,0,0:0:0:0:
224,166,126851,1,0,0:0:0:0:
223,166,127101,1,8,0:0:0:0:
224,166,127351,1,0,0:0:0:0:
224,166,127601,1,0,0:0:0:0:
223,166,127851,1,8,0:0:0:0:
224,166,128101,1,8,0:0:0:0:
224,166,128351,1,0,0:0:0:0:
201,163,128851,1,8,0:0:0:0:
194,142,129101,1,0,0:0:0:0:
194,142,129351,1,8,0:0:0:0:
194,142,129601,1,8,0:0:0:0:
194,142,129851,1,0,0:0:0:0:
194,142,130101,1,0,0:0:0:0:
194,142,130351,1,8,0:0:0:0:
189,127,130851,1,8,0:0:0:0:
189,126,131101,1,0,0:0:0:0:
178,105,131351,1,8,0:0:0:0:
178,105,131601,1,0,0:0:0:0:
171,101,131851,1,8,0:0:0:0:
171,101,132101,1,8,0:0:0:0:
171,101,132351,1,0,0:0:0:0:
171,101,132851,1,0,0:0:0:0:
171,101,133101,1,0,0:0:0:0:
171,101,133351,1,8,0:0:0:0:
171,101,133601,1,0,0:0:0:0:
183,88,133851,1,0,0:0:0:0:
182,88,134101,1,0,0:0:0:0:
182,88,134351,1,8,0:0:0:0:
256,192,134851,12,8,135601,0:0:0:0:
203,186,135851,5,0,0:0:0:0:
203,186,135913,1,0,0:0:0:0:
203,186,135976,1,0,0:0:0:0:
203,186,136038,1,0,0:0:0:0:
203,186,136101,1,8,0:0:0:0:
204,180,136226,1,0,0:0:0:0:
205,181,136351,1,8,0:0:0:0:
205,181,136413,1,8,0:0:0:0:
205,181,136476,1,0,0:0:0:0:
206,181,136601,1,8,0:0:0:0:
206,181,136663,1,8,0:0:0:0:
207,181,136726,1,0,0:0:0:0:
207,181,136788,1,0,0:0:0:0:
207,181,136851,1,8,0:0:0:0:
210,183,136976,1,0,0:0:0:0:
204,180,137038,1,0,0:0:0:0:
204,180,137101,1,8,0:0:0:0:
205,181,137226,1,0,0:0:0:0:
205,181,137351,1,8,0:0:0:0:
200,180,137413,1,8,0:0:0:0:
200,180,137476,1,8,0:0:0:0:
200,180,137538,1,8,0:0:0:0:
200,180,137601,1,0,0:0:0:0:
197,153,137726,1,0,0:0:0:0:
197,153,137851,1,8,0:0:0:0:
197,153,137913,1,0,0:0:0:0:
197,153,137976,1,0,0:0:0:0:
197,153,138038,1,0,0:0:0:0:
197,153,138101,1,8,0:0:0:0:
202,146,138226,1,8,0:0:0:0:
199,146,138351,1,0,0:0:0:0:
199,146,138413,1,0,0:0:0:0:
197,145,138476,1,8,0:0:0:0:
198,146,138601,1,0,0:0:0:0:
197,145,138663,1,0,0:0:0:0:
199,146,138726,1,0,0:0:0:0:
198,146,138851,1,8,0:0:0:0:
198,146,138913,1,8,0:0:0:0:
191,107,138976,1,0,0:0:0:0:
191,114,139101,1,8,0:0:0:0:
191,114,139163,1,8,0:0:0:0:
191,114,139226,1,8,0:0:0:0:
191,114,139351,1,0,0:0:0:0:
191,114,139413,1,0,0:0:0:0:
191,114,139476,1,8,0:0:0:0:
203,117,139538,1,8,0:0:0:0:
203,117,139601,1,8,0:0:0:0:
197,102,139726,1,0,0:0:0:0:
201,99,139851,1,8,0:0:0:0:
201,99,139913,1,8,0:0:0:0:
201,99,139976,1,0,0:0:0:0:
201,99,140101,1,8,0:0:0:0:
201,99,140163,1,0,0:0:0:0:
201,99,140226,1,0,0:0:0:0:
201,99,140351,1,8,0:0:0:0:
201,99,140413,1,0,0:0:0:0:
201,99,140476,1,8,0:0:0:0:
201,99,140538,1,8,0:0:0:0:
201,99,140601,1,0,0:0:0:0:
201,99,140663,1,0,0:0:0:0:
201,99,140726,1,8,0:0:0:0:
201,99,140788,1,8,0:0:0:0:
201,99,140851,1,0,0:0:0:0:
187,76,140913,1,0,0:0:0:0:
187,76,140976,1,0,0:0:0:0:
187,76,141038,1,0,0:0:0:0:
187,76,141101,1,8,0:0:0:0:
192,75,141226,1,0,0:0:0:0:
195,60,141288,1,8,0:0:0:0:
194,62,141351,1,0,0:0:0:0:
194,62,141413,1,0,0:0:0:0:
194,62,141476,1,8,0:0:0:0:
194,62,141601,1,0,0:0:0:0:
194,62,141663,1,0,0:0:0:0:
194,62,141726,1,0,0:0:0:0:
194,62,141851,1,8,0:0:0:0:
194,62,141913,1,8,0:0:0:0:
194,62,141976,1,0,0:0:0:0:
205,54,142101,1,8,0:0:0:0:
203,54,142226,1,0,0:0:0:0:
203,54,142288,1,0,0:0:0:0:
203,54,142351,1,8,0:0:0:0:
203,54,142413,1,8,0:0:0:0:
203,54,142476,1,0,0:0:0:0:
203,57,142601,1,0,0:0:0:0:
194,62,142726,1,0,0:0:0:0:
210,60,142851,1,8,0:0:0:0:
210,62,142913,1,0,0:0:0:0:
210,62,142976,1,8,0:0:0:0:
193,60,143101,1,0,0:0:0:0:
191,60,143226,1,0,0:0:0:0:
193,60,143351,1,8,0:0:0:0:
193,60,143413,1,8,0:0:0:0:
193,60,143476,1,8,0:0:0:0:
203,53,143601,1,0,0:0:0:0:
203,53,143726,1,0,0:0:0:0:
194,46,143851,1,8,0:0:0:0:
194,46,143913,1,0,0:0:0:0:
194,46,143976,1,8,0:0:0:0:
194,46,144038,1,8,0:0:0:0:
194,46,144101,1,0,0:0:0:0:
195,46,144226,1,0,0:0:0:0:
195,46,144351,1,8,0:0:0:0:
195,46,144413,1,8,0:0:0:0:
195,46,144476,1,8,0:0:0:0:
195,46,144538,1,8,0:0:0:0:
195,46,144601,1,0,0:0:0:0:
194,46,144663,1,0,0:0:0:0:
194,46,144726,1,0,0:0:0:0:
194,46,144788,1,0,0:0:0:0:
194,46,144851,1,8,0:0:0:0:
194,46,144913,1,0,0:0:0:0:
194,46,144976,1,0,0:0:0:0:
195,46,145038,1,0,0:0:0:0:
195,46,145101,1,8,0:0:0:0:
195,46,145226,1,0,0:0:0:0:
201,32,145351,1,8,0:0:0:0:
200,33,145413,1,8,0:0:0:0:
200,33,145476,1,0,0:0:0:0:
200,33,145538,1,8,0:0:0:0:
200,33,145601,1,0,0:0:0:0:
200,33,145663,1,0,0:0:0:0:
196,35,145726,1,0,0:0:0:0:
196,35,145851,1,8,0:0:0:0:
198,34,145913,1,8,0:0:0:0:
198,34,145976,1,0,0:0:0:0:
200,32,146101,1,8,0:0:0:0:
201,32,146163,1,8,0:0:0:0:
201,32,146226,1,8,0:0:0:0:
200,33,146351,1,0,0:0:0:0:
200,33,146413,1,0,0:0:0:0:
200,33,146476,1,8,0:0:0:0:
200,31,146601,1,0,0:0:0:0:
196,35,146663,1,0,0:0:0:0:
196,35,146726,1,0,0:0:0:0:
198,34,146851,1,8,0:0:0:0:
200,32,146913,1,8,0:0:0:0:
200,32,146976,1,0,0:0:0:0:
201,32,147101,1,8,0:0:0:0:
200,33,147163,1,8,0:0:0:0:
200,33,147226,1,8,0:0:0:0:
200,33,147351,1,0,0:0:0:0:
200,31,147413,1,0,0:0:0:0:
194,22,147476,1,0,0:0:0:0:
195,22,147538,1,0,0:0:0:0:
195,22,147601,1,8,0:0:0:0:
195,22,147726,1,0,0:0:0:0:
193,25,147851,1,8,0:0:0:0:
194,23,147913,1,8,0:0:0:0:
192,28,147976,1,0,0:0:0:0:
191,29,148038,1,0,0:0:0:0:
191,30,148101,1,8,0:0:0:0:
193,30,148226,1,0,0:0:0:0:
195,29,148351,1,8,0:0:0:0:
195,29,148413,1,8,0:0:0:0:
195,29,148476,1,8,0:0:0:0:
195,29,148538,1,8,0:0:0:0:
195,29,148601,1,0,0:0:0:0:
195,29,148663,1,0,0:0:0:0:
195,29,148726,1,8,0:0:0:0:
195,29,148788,1,0,0:0:0:0:
192,28,148851,1,0,0:0:0:0:
197,32,148913,1,0,0:0:0:0:
197,32,148976,1,8,0:0:0:0:
194,20,149101,1,0,0:0:0:0:
194,21,149226,1,0,0:0:0:0:
194,21,149351,1,8,0:0:0:0:
194,21,149413,1,8,0:0:0:0:
193,21,149476,1,0,0:0:0:0:
193,22,149538,1,8,0:0:0:0:
192,22,149601,1,8,0:0:0:0:
191,22,149663,1,8,0:0:0:0:
191,22,149726,1,0,0:0:0:0:
192,22,149788,1,0,0:0:0:0:
192,22,149851,1,8,0:0:0:0:
194,20,149913,1,0,0:0:0:0:
194,20,149976,1,0,0:0:0:0:
194,21,150038,1,0,0:0:0:0:
194,21,150101,1,8,0:0:0:0:
188,27,150226,1,0,0:0:0:0:
188,27,150351,1,8,0:0:0:0:
188,26,150413,1,8,0:0:0:0:
189,26,150476,1,0,0:0:0:0:
191,22,150601,1,8,0:0:0:0:
189,26,150663,1,8,0:0:0:0:
189,26,150726,1,8,0:0:0:0:
187,27,150851,1,0,0:0:0:0:
189,26,150913,1,0,0:0:0:0:
189,26,150976,1,8,0:0:0:0:
188,27,151038,1,8,0:0:0:0:
188,27,151101,1,0,0:0:0:0:
188,27,151226,1,0,0:0:0:0:
189,26,151351,1,8,0:0:0:0:
191,22,151413,1,8,0:0:0:0:
191,22,151476,1,0,0:0:0:0:
189,26,151538,1,0,0:0:0:0:
189,26,151601,1,8,0:0:0:0:
187,27,151726,1,0,0:0:0:0:
185,22,151851,1,8,0:0:0:0:
196,24,151913,1,0,0:0:0:0:
194,23,151976,1,0,0:0:0:0:
194,23,152038,1,0,0:0:0:0:
193,23,152101,1,8,0:0:0:0:
189,26,152226,1,0,0:0:0:0:
195,39,152351,1,8,0:0:0:0:
193,40,152413,1,8,0:0:0:0:
193,40,152476,1,0,0:0:0:0:
191,41,152538,1,8,0:0:0:0:
191,41,152601,1,8,0:0:0:0:
190,41,152663,1,8,0:0:0:0:
190,41,152726,1,0,0:0:0:0:
190,42,152788,1,0,0:0:0:0:
190,42,152851,1,8,0:0:0:0:
189,42,152913,1,0,0:0:0:0:
189,43,152976,1,0,0:0:0:0:
189,43,153038,1,0,0:0:0:0:
187,43,153101,1,8,0:0:0:0:
187,43,153163,1,8,0:0:0:0:
187,43,153226,1,0,0:0:0:0:
181,40,153351,1,8,0:0:0:0:
181,40,153413,1,8,0:0:0:0:
181,40,153476,1,0,0:0:0:0:
181,40,153601,1,8,0:0:0:0:
181,40,153663,1,8,0:0:0:0:
181,40,153726,1,8,0:0:0:0:
181,40,153851,1,0,0:0:0:0:
181,40,153913,1,0,0:0:0:0:
181,40,153976,1,8,0:0:0:0:
181,40,154101,1,0,0:0:0:0:
181,40,154226,1,0,0:0:0:0:
181,40,154351,1,8,0:0:0:0:
181,40,154413,1,8,0:0:0:0:
181,40,154476,1,8,0:0:0:0:
181,40,154601,1,0,0:0:0:0:
181,40,154663,1,0,0:0:0:0:
181,40,154726,1,8,0:0:0:0:
181,40,154851,1,0,0:0:0:0:
181,40,154913,1,0,0:0:0:0:
181,40,154976,1,0,0:0:0:0:
181,40,155101,1,8,0:0:0:0:
181,40,155226,1,8,0:0:0:0:
181,40,155351,1,0,0:0:0:0:
181,40,155413,1,0,0:0:0:0:
181,40,155476,1,8,0:0:0:0:
181,40,155601,1,0,0:0:0:0:
181,40,155663,1,0,0:0:0:0:
181,40,155726,1,0,0:0:0:0:
181,40,155851,1,8,0:0:0:0:
181,40,155913,1,8,0:0:0:0:
181,40,155976,1,0,0:0:0:0:
181,40,156038,1,0,0:0:0:0:
181,40,156101,1,8,0:0:0:0:
181,40,156163,1,0,0:0:0:0:
181,40,156226,1,0,0:0:0:0:
181,40,156288,1,0,0:0:0:0:
181,40,156351,1,8,0:0:0:0:
256,192,156476,12,8,166351,0:0:0:0:
