osu file format v14

[General]
AudioFilename: audio7.mp3
AudioLeadIn: 0
PreviewTime: 26410
Countdown: 0
SampleSet: Normal
StackLeniency: 0.7
Mode: 1
LetterboxInBreaks: 0
WidescreenStoryboard: 0

[Editor]
DistanceSpacing: 0.8
BeatDivisor: 8
GridSize: 32
TimelineZoom: 3.199999

[Metadata]
Title:the random baah mappack
TitleUnicode:the random baah mappack
Artist:Various Artists
ArtistUnicode:Various Artists
Creator:Creeperbrine303
Version:River Boy - The One Who Waits
Source:
Tags:
BeatmapID:4525803
BeatmapSetID:2147892

[Difficulty]
HPDrainRate:6
CircleSize:5
OverallDifficulty:6
ApproachRate:5
SliderMultiplier:1.4
SliderTickRate:1

[Events]
//Background and Video events
0,0,"seamless-wallpaper-with-cute-sheep-a-pattern-with-sheep-for-printing-on-fabric-and-sewing-children-s-clothing-vector.jpg",0,0
//Break Periods
//Storyboard Layer 0 (Background)
//Storyboard Layer 1 (Fail)
//Storyboard Layer 2 (Pass)
//Storyboard Layer 3 (Foreground)
//Storyboard Layer 4 (Overlay)
//Storyboard Sound Samples

[TimingPoints]
60,400,4,1,0,60,1,8
60,-100,4,1,0,60,0,0
860,400,4,1,0,80,1,0
860,-76.9230769230769,4,1,0,80,0,0
1060,-86.9565217391304,4,1,0,70,0,0
7260,-62.5,4,1,0,80,0,0
7660,-86.9565217391304,4,1,0,70,0,0
10460,-66.6666666666667,4,1,0,80,0,0
10660,-86.9565217391304,4,1,0,70,0,0
12060,-71.5563506261181,4,1,0,80,0,0
12259,-86.9565217391304,4,1,0,100,0,0
12260,-86.9565217391304,4,1,0,70,0,0
12359,-86.2068965517241,4,1,0,70,0,0
12459,-85.4700854700855,4,1,0,71,0,0
12460,-85.4700854700855,4,1,0,71,0,0
12559,-84.7457627118644,4,1,0,71,0,0
12659,-84.0336134453782,4,1,0,72,0,0
12660,-84.0336134453782,4,1,0,72,0,0
12759,-83.3333333333333,4,1,0,72,0,0
12859,-82.6446280991736,4,1,0,73,0,0
12860,-82.6446280991736,4,1,0,73,0,0
12959,-81.9672131147541,4,1,0,73,0,0
13059,-81.3008130081301,4,1,0,74,0,0
13060,-81.3008130081301,4,1,0,74,0,0
13159,-80.6451612903226,4,1,0,74,0,0
13259,-80,4,1,0,75,0,0
13260,-80,4,1,0,75,0,0
13660,-66.6666666666667,4,1,0,80,0,0
13860,-80,4,1,0,75,0,0
20060,-66.6666666666667,4,1,0,80,0,0
20260,-80,4,1,0,75,0,0
23260,-66.6666666666667,4,1,0,80,0,0
23460,-80,4,1,0,75,0,0
24860,-66.6666666666667,4,1,0,80,0,0
25060,-83.6820083682008,4,1,0,75,0,0
26460,-66.6666666666667,4,1,0,80,0,0
26660,-100,4,1,0,70,0,0
29660,-66.6666666666667,4,1,0,80,0,0
29860,-95.2380952380952,4,1,0,70,0,0
32860,-66.6666666666667,4,1,0,80,0,0
33060,-100,4,1,0,70,0,0
36060,-105.263157894737,4,1,0,70,0,0
38860,-50,4,1,0,100,0,0
39260,-55.5555555555556,4,1,0,85,0,1
39360,-74.0740740740741,4,1,0,80,0,1
39460,-74.0740740740741,4,1,0,80,0,1
42460,-55.5555555555556,4,1,0,85,0,1
42660,-71.4285714285714,4,1,0,80,0,1
45660,-55.5555555555556,4,1,0,85,0,1
45860,-74.0740740740741,4,1,0,80,0,1
48860,-55.5555555555556,4,1,0,85,0,1
49060,-71.4285714285714,4,1,0,80,0,1
50460,-55.5555555555556,4,1,0,85,0,1
50660,-68.9655172413793,4,1,0,80,0,1
52060,-55.5555555555556,4,1,0,85,0,1
52260,-76.9230769230769,4,1,0,75,0,0
52459,-83.3333333333333,4,1,0,70,0,0
52659,-90.9090909090909,4,1,0,65,0,0
52859,-100,4,1,0,60,0,0
55260,-66.6666666666667,4,1,0,80,0,0
55460,-83.3333333333333,4,1,0,75,0,0
55659,-90.9090909090909,4,1,0,70,0,0
55859,-100,4,1,0,65,0,0
56060,-111.111111111111,4,1,0,60,0,0
58460,-66.6666666666667,4,1,0,80,0,0
58660,-95.2380952380952,4,1,0,65,0,0
61660,-66.6666666666667,4,1,0,80,0,0
61860,-100,4,1,0,65,0,0
63260,-105.263157894737,4,1,0,60,0,0
64860,-66.6666666666667,4,1,0,80,0,0
65060,-95.2380952380952,4,1,0,75,0,0
71260,-66.6666666666667,4,1,0,80,0,0
71460,-95.2380952380952,4,1,0,75,0,0
74460,-66.6666666666667,4,1,0,80,0,0
74660,-95.2380952380952,4,1,0,75,0,0
76060,-66.6666666666667,4,1,0,80,0,0
76260,-100,4,1,0,75,0,0
77660,-55.5555555555556,4,1,0,85,0,1
77860,-71.4285714285714,4,1,0,80,0,1
80860,-55.5555555555556,4,1,0,85,0,1
81060,-71.4285714285714,4,1,0,80,0,1
82460,-68.9655172413793,4,1,0,80,0,1
84060,-55.5555555555556,4,1,0,85,0,1
84260,-71.4285714285714,4,1,0,80,0,1
87260,-55.5555555555556,4,1,0,85,0,1
87460,-71.4285714285714,4,1,0,80,0,1
88860,-55.5555555555556,4,1,0,85,0,1
89060,-74.0740740740741,4,1,0,80,0,1
90060,-50,4,1,0,100,0,1
90460,-66.6666666666667,4,1,0,80,0,0
90660,-100,4,1,0,75,0,0
93660,-66.6666666666667,4,1,0,80,0,0
93860,-105.263157894737,4,1,0,75,0,0
95260,-111.111111111111,4,1,0,75,0,0
96860,-66.5557404326123,4,1,0,80,0,0
97060,-100,4,1,0,75,0,0
100060,-66.6666666666667,4,1,0,80,0,0
100260,-105.263157894737,4,1,0,75,0,0
101660,-66.6666666666667,4,1,0,80,0,0
101860,-111.111111111111,4,1,0,75,0,0
102860,-50,4,1,0,100,0,0

[HitObjects]
256,192,60,12,0,660,0:0:0:0:
240,137,860,5,4,0:0:0:0:
241,162,1060,1,0,0:0:0:0:
241,161,1160,1,0,0:0:0:0:
241,162,1260,1,8,0:0:0:0:
215,133,1460,1,0,0:0:0:0:
221,128,1660,1,0,0:0:0:0:
64,64,1960,1,0,0:0:0:0:
221,126,2060,1,8,0:0:0:0:
232,127,2260,1,0,0:0:0:0:
244,109,2460,1,0,0:0:0:0:
233,128,2660,1,0,0:0:0:0:
168,69,2760,1,0,0:0:0:0:
214,117,2860,1,8,0:0:0:0:
448,64,3060,1,8,0:0:0:0:
197,102,3260,1,0,0:0:0:0:
195,87,3560,1,0,0:0:0:0:
166,60,3660,1,8,0:0:0:0:
166,60,3860,1,0,0:0:0:0:
166,60,4060,1,0,0:0:0:0:
195,60,4260,1,0,0:0:0:0:
166,60,4460,1,8,0:0:0:0:
166,60,4860,1,0,0:0:0:0:
165,67,4960,1,0,0:0:0:0:
166,60,5060,1,0,0:0:0:0:
191,80,5160,1,0,0:0:0:0:
166,60,5260,1,8,0:0:0:0:
183,58,5660,1,0,0:0:0:0:
183,58,5860,1,0,0:0:0:0:
183,58,6060,1,8,0:0:0:0:
175,51,6260,1,8,0:0:0:0:
175,51,6360,1,8,0:0:0:0:
175,51,6460,1,0,0:0:0:0:
146,50,6560,1,0,0:0:0:0:
146,50,6660,1,8,0:0:0:0:
183,58,6860,1,8,0:0:0:0:
183,58,7060,1,0,0:0:0:0:
183,58,7260,1,4,0:0:0:0:
198,60,7660,1,8,0:0:0:0:
214,55,8060,1,0,0:0:0:0:
214,55,8260,1,0,0:0:0:0:
214,55,8360,1,0,0:0:0:0:
214,55,8460,1,8,0:0:0:0:
214,55,8860,1,0,0:0:0:0:
214,55,9060,1,0,0:0:0:0:
214,55,9160,1,0,0:0:0:0:
214,55,9260,1,8,0:0:0:0:
214,55,9460,1,0,0:0:0:0:
214,55,9660,1,0,0:0:0:0:
184,33,9760,1,8,0:0:0:0:
214,55,9860,1,0,0:0:0:0:
214,55,10060,1,8,0:0:0:0:
222,55,10460,1,4,0:0:0:0:
222,55,10660,1,0,0:0:0:0:
222,55,10760,1,0,0:0:0:0:
222,55,10860,1,8,0:0:0:0:
222,55,11260,1,0,0:0:0:0:
222,55,11360,1,0,0:0:0:0:
222,55,11460,1,0,0:0:0:0:
222,55,11560,1,0,0:0:0:0:
222,55,11660,1,8,0:0:0:0:
221,53,12060,1,4,0:0:0:0:
222,55,12260,1,0,0:0:0:0:
222,55,12360,1,0,0:0:0:0:
222,55,12460,1,8,0:0:0:0:
222,55,12560,1,0,0:0:0:0:
222,55,12660,1,0,0:0:0:0:
221,53,12760,1,0,0:0:0:0:
221,53,12860,1,8,0:0:0:0:
221,53,12960,1,0,0:0:0:0:
221,53,13060,1,0,0:0:0:0:
222,55,13160,1,0,0:0:0:0:
226,42,13260,1,8,0:0:0:0:
226,44,13660,1,4,0:0:0:0:
212,37,13860,1,0,0:0:0:0:
212,37,14060,1,8,0:0:0:0:
212,37,14160,1,8,0:0:0:0:
212,37,14260,1,0,0:0:0:0:
221,30,14460,1,8,0:0:0:0:
221,29,14560,1,0,0:0:0:0:
221,29,14660,1,0,0:0:0:0:
221,29,14860,1,8,0:0:0:0:
221,29,14960,1,0,0:0:0:0:
221,29,15060,1,8,0:0:0:0:
221,29,15160,1,8,0:0:0:0:
221,29,15260,1,0,0:0:0:0:
214,29,15460,1,8,0:0:0:0:
214,29,15660,1,8,0:0:0:0:
214,29,15760,1,0,0:0:0:0:
214,29,15860,1,8,0:0:0:0:
214,29,16060,1,8,0:0:0:0:
214,29,16160,1,8,0:0:0:0:
214,29,16260,1,0,0:0:0:0:
206,26,16460,1,8,0:0:0:0:
217,40,16560,1,0,0:0:0:0:
201,20,16660,1,0,0:0:0:0:
201,20,16860,1,0,0:0:0:0:
218,20,17060,1,8,0:0:0:0:
221,22,17260,1,8,0:0:0:0:
221,22,17360,1,0,0:0:0:0:
221,22,17460,1,0,0:0:0:0:
221,22,17660,1,8,0:0:0:0:
221,22,17760,1,8,0:0:0:0:
221,22,17860,1,0,0:0:0:0:
218,20,18060,1,8,0:0:0:0:
221,22,18160,1,8,0:0:0:0:
221,22,18260,1,0,0:0:0:0:
221,22,18360,1,0,0:0:0:0:
221,22,18460,1,8,0:0:0:0:
217,12,18660,1,0,0:0:0:0:
186,22,18860,1,8,0:0:0:0:
217,12,18960,1,8,0:0:0:0:
204,13,19060,1,8,0:0:0:0:
204,13,19260,1,8,0:0:0:0:
204,13,19360,1,8,0:0:0:0:
204,13,19460,1,0,0:0:0:0:
204,13,19660,1,8,0:0:0:0:
202,6,20060,1,4,0:0:0:0:
187,22,20260,1,0,0:0:0:0:
188,21,20360,1,0,0:0:0:0:
188,21,20460,1,8,0:0:0:0:
188,21,20660,1,0,0:0:0:0:
188,21,20760,1,8,0:0:0:0:
188,21,20860,1,8,0:0:0:0:
194,3,21060,1,0,0:0:0:0:
187,22,21160,1,0,0:0:0:0:
187,22,21260,1,8,0:0:0:0:
194,3,21360,1,8,0:0:0:0:
192,2,21460,1,0,0:0:0:0:
194,3,21660,1,0,0:0:0:0:
194,3,21860,1,8,0:0:0:0:
194,3,21960,1,0,0:0:0:0:
194,3,22060,1,8,0:0:0:0:
194,3,22260,1,0,0:0:0:0:
194,3,22360,1,0,0:0:0:0:
192,2,22460,1,8,0:0:0:0:
194,3,22660,1,0,0:0:0:0:
194,3,22760,1,0,0:0:0:0:
194,3,22860,1,8,0:0:0:0:
194,3,22960,1,0,0:0:0:0:
194,3,23060,1,8,0:0:0:0:
201,3,23260,1,4,0:0:0:0:
182,9,23460,1,8,0:0:0:0:
182,9,23560,1,8,0:0:0:0:
182,9,23660,1,8,0:0:0:0:
182,8,23860,1,0,0:0:0:0:
182,8,23960,1,0,0:0:0:0:
182,8,24060,1,8,0:0:0:0:
182,8,24260,1,0,0:0:0:0:
182,9,24360,1,8,0:0:0:0:
182,9,24460,1,0,0:0:0:0:
182,9,24660,1,0,0:0:0:0:
198,77,24860,1,4,0:0:0:0:
195,9,25060,1,0,0:0:0:0:
210,5,25160,1,8,0:0:0:0:
195,9,25260,1,8,0:0:0:0:
195,9,25460,1,0,0:0:0:0:
210,4,25560,1,0,0:0:0:0:
195,9,25660,1,8,0:0:0:0:
210,5,25860,1,0,0:0:0:0:
210,5,25960,1,0,0:0:0:0:
210,5,26060,1,0,0:0:0:0:
210,64,26460,1,4,0:0:0:0:
214,49,26660,1,8,0:0:0:0:
215,49,26860,1,0,0:0:0:0:
226,46,26910,1,0,0:0:0:0:
226,46,27060,1,0,0:0:0:0:
226,45,27110,1,0,0:0:0:0:
219,37,27260,1,8,0:0:0:0:
215,34,27326,1,8,0:0:0:0:
215,35,27393,1,8,0:0:0:0:
215,34,27460,1,0,0:0:0:0:
220,31,27660,1,0,0:0:0:0:
218,28,27760,1,0,0:0:0:0:
219,26,27860,1,8,0:0:0:0:
227,29,28060,1,8,0:0:0:0:
209,24,28110,1,8,0:0:0:0:
223,12,28260,1,8,0:0:0:0:
220,12,28310,1,8,0:0:0:0:
220,31,28460,1,0,0:0:0:0:
224,13,28526,1,0,0:0:0:0:
224,12,28593,1,0,0:0:0:0:
224,12,28660,1,8,0:0:0:0:
225,12,28860,1,0,0:0:0:0:
238,16,28960,1,0,0:0:0:0:
235,10,29060,1,0,0:0:0:0:
233,7,29260,1,0,0:0:0:0:
228,57,29460,1,0,0:0:0:0:
233,6,29660,1,4,0:0:0:0:
189,15,29860,1,0,0:0:0:0:
189,15,29960,1,8,0:0:0:0:
226,70,30060,1,0,0:0:0:0:
189,15,30160,1,0,0:0:0:0:
224,4,30260,1,8,0:0:0:0:
232,42,30460,1,0,0:0:0:0:
232,42,30510,1,0,0:0:0:0:
232,42,30660,1,0,0:0:0:0:
236,39,30710,1,0,0:0:0:0:
232,42,30860,1,8,0:0:0:0:
248,90,30926,1,8,0:0:0:0:
250,82,30993,1,8,0:0:0:0:
250,82,31060,1,0,0:0:0:0:
226,70,31260,1,8,0:0:0:0:
226,70,31360,1,0,0:0:0:0:
226,70,31460,1,8,0:0:0:0:
239,80,31660,1,8,0:0:0:0:
240,79,31860,1,8,0:0:0:0:
247,55,32060,1,0,0:0:0:0:
247,57,32160,1,0,0:0:0:0:
247,57,32260,1,8,0:0:0:0:
228,46,32360,1,8,0:0:0:0:
217,40,32460,1,0,0:0:0:0:
215,31,32560,1,8,0:0:0:0:
191,55,32660,1,0,0:0:0:0:
188,36,32760,1,8,0:0:0:0:
208,53,32860,1,4,0:0:0:0:
208,52,33060,1,8,0:0:0:0:
188,36,33260,1,0,0:0:0:0:
188,36,33310,1,0,0:0:0:0:
188,36,33460,1,0,0:0:0:0:
188,36,33510,1,0,0:0:0:0:
205,47,33660,1,8,0:0:0:0:
254,48,33726,1,8,0:0:0:0:
188,79,33793,1,8,0:0:0:0:
186,89,33860,1,0,0:0:0:0:
214,33,34060,1,0,0:0:0:0:
225,29,34160,1,0,0:0:0:0:
225,26,34260,1,8,0:0:0:0:
207,43,34460,1,0,0:0:0:0:
207,43,34510,1,0,0:0:0:0:
217,21,34660,1,0,0:0:0:0:
217,21,34710,1,0,0:0:0:0:
207,43,34860,1,8,0:0:0:0:
199,35,34926,1,0,0:0:0:0:
199,35,34993,1,0,0:0:0:0:
199,35,35060,1,8,0:0:0:0:
183,48,35260,1,0,0:0:0:0:
210,11,35360,1,0,0:0:0:0:
210,11,35460,1,0,0:0:0:0:
199,26,35660,1,0,0:0:0:0:
199,26,35860,1,0,0:0:0:0:
199,26,36060,1,8,0:0:0:0:
187,24,36126,1,8,0:0:0:0:
188,24,36193,1,8,0:0:0:0:
188,24,36260,1,0,0:0:0:0:
192,21,36460,1,8,0:0:0:0:
192,20,36560,1,0,0:0:0:0:
193,20,36660,1,8,0:0:0:0:
199,26,36860,1,0,0:0:0:0:
199,26,36910,1,0,0:0:0:0:
199,19,37060,1,0,0:0:0:0:
199,18,37110,1,0,0:0:0:0:
201,17,37260,1,8,0:0:0:0:
199,16,37326,1,8,0:0:0:0:
200,15,37393,1,8,0:0:0:0:
200,15,37460,1,0,0:0:0:0:
201,5,37660,1,8,0:0:0:0:
212,9,37760,1,8,0:0:0:0:
212,9,37860,1,8,0:0:0:0:
219,27,38060,1,8,0:0:0:0:
219,25,38110,1,8,0:0:0:0:
221,29,38260,1,8,0:0:0:0:
221,29,38310,1,8,0:0:0:0:
241,104,38460,1,0,0:0:0:0:
265,153,38860,1,12,0:0:0:0:
260,160,39260,1,4,0:0:0:0:
247,128,39460,1,0,0:0:0:0:
270,156,39560,1,0,0:0:0:0:
265,144,39660,1,8,0:0:0:0:
233,135,39760,1,0,0:0:0:0:
263,118,39860,1,8,0:0:0:0:
264,141,40060,1,8,0:0:0:0:
245,110,40126,1,8,0:0:0:0:
245,110,40193,1,8,0:0:0:0:
245,110,40260,1,0,0:0:0:0:
239,113,40460,1,0,0:0:0:0:
245,88,40560,1,0,0:0:0:0:
237,104,40660,1,0,0:0:0:0:
237,101,40860,1,8,0:0:0:0:
220,93,40910,1,8,0:0:0:0:
246,89,41060,1,8,0:0:0:0:
221,93,41110,1,8,0:0:0:0:
228,106,41260,1,8,0:0:0:0:
228,106,41326,1,0,0:0:0:0:
228,106,41393,1,0,0:0:0:0:
228,106,41460,1,8,0:0:0:0:
259,129,41660,1,0,0:0:0:0:
259,129,41760,1,0,0:0:0:0:
261,124,41860,1,0,0:0:0:0:
249,107,42060,1,0,0:0:0:0:
249,107,42110,1,0,0:0:0:0:
248,106,42260,1,0,0:0:0:0:
248,106,42310,1,0,0:0:0:0:
259,107,42460,1,4,0:0:0:0:
259,103,42660,1,8,0:0:0:0:
259,103,42760,1,8,0:0:0:0:
259,102,42860,1,0,0:0:0:0:
259,103,42960,1,0,0:0:0:0:
259,103,43060,1,8,0:0:0:0:
243,141,43260,1,0,0:0:0:0:
243,141,43310,1,0,0:0:0:0:
243,141,43460,1,0,0:0:0:0:
243,141,43510,1,0,0:0:0:0:
250,106,43660,1,8,0:0:0:0:
227,104,43726,1,8,0:0:0:0:
227,108,43793,1,8,0:0:0:0:
227,108,43860,1,0,0:0:0:0:
223,113,44060,1,8,0:0:0:0:
224,111,44160,1,8,0:0:0:0:
238,102,44260,1,8,0:0:0:0:
230,111,44460,1,8,0:0:0:0:
213,104,44510,1,8,0:0:0:0:
245,97,44660,1,8,0:0:0:0:
245,97,44710,1,8,0:0:0:0:
233,107,44860,1,0,0:0:0:0:
233,106,44960,1,0,0:0:0:0:
233,106,45060,1,0,0:0:0:0:
209,89,45160,1,0,0:0:0:0:
233,106,45260,1,8,0:0:0:0:
214,80,45360,1,8,0:0:0:0:
214,80,45460,1,8,0:0:0:0:
214,80,45560,1,8,0:0:0:0:
214,88,45660,1,4,0:0:0:0:
213,96,45860,1,8,0:0:0:0:
213,94,45960,1,0,0:0:0:0:
213,94,46060,1,8,0:0:0:0:
213,93,46260,1,0,0:0:0:0:
225,87,46460,1,8,0:0:0:0:
231,82,46526,1,8,0:0:0:0:
231,82,46593,1,8,0:0:0:0:
231,81,46660,1,0,0:0:0:0:
233,97,46860,1,8,0:0:0:0:
215,75,46960,1,8,0:0:0:0:
215,74,47060,1,0,0:0:0:0:
213,67,47260,1,8,0:0:0:0:
213,67,47310,1,8,0:0:0:0:
226,47,47460,1,8,0:0:0:0:
226,46,47510,1,8,0:0:0:0:
226,46,47660,1,8,0:0:0:0:
255,42,47726,1,8,0:0:0:0:
255,42,47793,1,0,0:0:0:0:
255,42,47860,1,0,0:0:0:0:
230,48,48060,1,8,0:0:0:0:
230,35,48160,1,8,0:0:0:0:
232,32,48260,1,8,0:0:0:0:
228,34,48460,1,0,0:0:0:0:
229,33,48510,1,0,0:0:0:0:
230,31,48660,1,0,0:0:0:0:
230,32,48710,1,0,0:0:0:0:
239,56,48860,1,4,0:0:0:0:
225,26,49060,1,8,0:0:0:0:
229,62,49160,1,8,0:0:0:0:
225,24,49260,1,8,0:0:0:0:
225,24,49360,1,0,0:0:0:0:
225,24,49460,1,8,0:0:0:0:
214,28,49660,1,8,0:0:0:0:
223,22,49710,1,8,0:0:0:0:
223,21,49860,1,8,0:0:0:0:
223,21,49910,1,8,0:0:0:0:
223,20,50060,1,8,0:0:0:0:
230,11,50126,1,8,0:0:0:0:
231,11,50193,1,8,0:0:0:0:
230,11,50260,1,0,0:0:0:0:
240,55,50460,1,4,0:0:0:0:
228,42,50660,1,8,0:0:0:0:
228,42,50760,1,0,0:0:0:0:
228,42,50860,1,8,0:0:0:0:
246,46,50960,1,0,0:0:0:0:
246,45,51060,1,8,0:0:0:0:
245,43,51260,1,8,0:0:0:0:
231,28,51326,1,8,0:0:0:0:
231,28,51393,1,8,0:0:0:0:
231,28,51460,1,8,0:0:0:0:
232,25,51660,1,0,0:0:0:0:
226,16,51760,1,0,0:0:0:0:
227,16,51860,1,8,0:0:0:0:
225,35,51960,1,8,0:0:0:0:
226,16,52060,1,4,0:0:0:0:
249,161,52260,1,0,0:0:0:0:
249,161,52460,1,8,0:0:0:0:
249,161,52660,1,8,0:0:0:0:
249,161,52860,1,0,0:0:0:0:
249,154,53260,1,0,0:0:0:0:
249,151,53360,1,0,0:0:0:0:
249,151,53460,1,0,0:0:0:0:
249,151,53660,1,0,0:0:0:0:
249,151,53860,1,8,0:0:0:0:
236,109,54060,1,8,0:0:0:0:
230,132,54460,1,8,0:0:0:0:
230,132,54560,1,8,0:0:0:0:
230,132,54660,1,0,0:0:0:0:
231,124,54860,1,0,0:0:0:0:
226,86,54910,1,0,0:0:0:0:
226,86,55060,1,0,0:0:0:0:
226,86,55110,1,0,0:0:0:0:
225,70,55260,1,4,0:0:0:0:
221,94,55460,1,8,0:0:0:0:
221,94,55660,1,8,0:0:0:0:
221,94,55860,1,0,0:0:0:0:
221,82,56060,1,8,0:0:0:0:
221,87,56126,1,0,0:0:0:0:
221,87,56193,1,0,0:0:0:0:
221,87,56260,1,8,0:0:0:0:
221,82,56460,1,8,0:0:0:0:
221,82,56526,1,8,0:0:0:0:
221,86,56593,1,0,0:0:0:0:
221,86,56660,1,0,0:0:0:0:
214,78,56860,1,0,0:0:0:0:
214,78,57060,1,0,0:0:0:0:
214,78,57260,1,8,0:0:0:0:
214,78,57460,1,8,0:0:0:0:
214,78,57660,1,0,0:0:0:0:
214,78,58060,1,0,0:0:0:0:
214,78,58160,1,0,0:0:0:0:
214,78,58260,1,0,0:0:0:0:
206,71,58360,1,8,0:0:0:0:
225,70,58460,1,4,0:0:0:0:
214,78,58660,1,8,0:0:0:0:
220,57,58860,1,8,0:0:0:0:
220,57,59060,1,8,0:0:0:0:
220,57,59260,1,0,0:0:0:0:
206,48,59660,1,8,0:0:0:0:
206,48,59760,1,0,0:0:0:0:
207,46,59860,1,8,0:0:0:0:
215,26,60060,1,8,0:0:0:0:
217,51,60260,1,8,0:0:0:0:
215,42,60460,1,8,0:0:0:0:
212,40,60860,1,0,0:0:0:0:
224,38,60960,1,0,0:0:0:0:
211,29,61060,1,0,0:0:0:0:
211,29,61260,1,0,0:0:0:0:
215,42,61460,1,0,0:0:0:0:
240,185,61660,1,4,0:0:0:0:
225,64,61860,1,0,0:0:0:0:
225,64,61960,1,8,0:0:0:0:
225,64,62060,1,0,0:0:0:0:
225,64,62260,1,0,0:0:0:0:
228,51,62460,1,8,0:0:0:0:
235,44,62660,1,8,0:0:0:0:
235,44,62860,1,8,0:0:0:0:
232,37,63260,1,0,0:0:0:0:
232,37,63360,1,0,0:0:0:0:
232,37,63460,1,0,0:0:0:0:
219,33,63660,1,0,0:0:0:0:
236,53,63860,1,0,0:0:0:0:
242,22,64060,1,0,0:0:0:0:
224,27,64126,1,0,0:0:0:0:
224,27,64193,1,0,0:0:0:0:
225,25,64260,1,0,0:0:0:0:
225,22,64460,1,8,0:0:0:0:
222,17,64860,1,4,0:0:0:0:
222,17,65060,1,0,0:0:0:0:
237,15,65260,1,8,0:0:0:0:
228,16,65360,1,8,0:0:0:0:
228,15,65460,1,0,0:0:0:0:
228,15,65660,1,8,0:0:0:0:
228,15,65760,1,0,0:0:0:0:
228,15,65860,1,0,0:0:0:0:
228,15,66060,1,8,0:0:0:0:
228,15,66160,1,0,0:0:0:0:
228,15,66260,1,8,0:0:0:0:
228,16,66360,1,8,0:0:0:0:
228,15,66460,1,0,0:0:0:0:
228,15,66660,1,8,0:0:0:0:
228,35,66860,1,8,0:0:0:0:
228,35,66960,1,8,0:0:0:0:
228,35,67060,1,0,0:0:0:0:
228,35,67160,1,0,0:0:0:0:
228,35,67260,1,8,0:0:0:0:
228,35,67460,1,0,0:0:0:0:
228,35,67560,1,0,0:0:0:0:
228,35,67660,1,8,0:0:0:0:
228,35,67760,1,0,0:0:0:0:
228,35,67860,1,8,0:0:0:0:
217,40,68060,1,0,0:0:0:0:
217,40,68260,1,8,0:0:0:0:
217,40,68360,1,0,0:0:0:0:
217,40,68460,1,8,0:0:0:0:
214,39,68660,1,0,0:0:0:0:
214,39,68760,1,0,0:0:0:0:
214,38,68860,1,8,0:0:0:0:
217,40,69060,1,0,0:0:0:0:
217,40,69160,1,8,0:0:0:0:
217,40,69260,1,8,0:0:0:0:
217,40,69460,1,0,0:0:0:0:
215,43,69660,1,0,0:0:0:0:
215,43,69860,1,8,0:0:0:0:
217,40,69960,1,8,0:0:0:0:
217,40,70060,1,8,0:0:0:0:
217,40,70260,1,8,0:0:0:0:
217,40,70360,1,8,0:0:0:0:
217,40,70460,1,0,0:0:0:0:
215,43,70660,1,8,0:0:0:0:
215,43,70760,1,0,0:0:0:0:
215,43,70860,1,0,0:0:0:0:
217,40,71260,1,4,0:0:0:0:
217,40,71460,1,0,0:0:0:0:
215,43,71660,1,8,0:0:0:0:
232,36,71760,1,0,0:0:0:0:
219,32,71860,1,0,0:0:0:0:
219,32,72060,1,8,0:0:0:0:
230,38,72160,1,0,0:0:0:0:
230,38,72260,1,8,0:0:0:0:
219,32,72460,1,8,0:0:0:0:
230,38,72560,1,8,0:0:0:0:
230,38,72660,1,0,0:0:0:0:
232,36,72760,1,0,0:0:0:0:
230,38,72860,1,8,0:0:0:0:
230,38,73060,1,8,0:0:0:0:
230,38,73260,1,8,0:0:0:0:
237,36,73360,1,0,0:0:0:0:
237,36,73460,1,8,0:0:0:0:
251,29,73660,1,8,0:0:0:0:
248,18,73760,1,8,0:0:0:0:
248,18,73860,1,0,0:0:0:0:
248,18,74060,1,8,0:0:0:0:
248,18,74160,1,0,0:0:0:0:
248,18,74260,1,0,0:0:0:0:
64,320,74460,1,4,0:0:0:0:
247,18,74660,1,8,0:0:0:0:
248,18,74760,1,0,0:0:0:0:
248,18,74860,1,8,0:0:0:0:
248,18,75060,1,0,0:0:0:0:
248,18,75160,1,0,0:0:0:0:
248,18,75260,1,8,0:0:0:0:
248,18,75460,1,0,0:0:0:0:
247,18,75560,1,8,0:0:0:0:
247,18,75660,1,8,0:0:0:0:
248,18,75860,1,0,0:0:0:0:
64,320,76060,1,4,0:0:0:0:
248,18,76260,1,0,0:0:0:0:
248,18,76360,1,8,0:0:0:0:
248,18,76460,1,8,0:0:0:0:
247,18,76660,1,0,0:0:0:0:
248,18,76760,1,0,0:0:0:0:
248,18,76860,1,8,0:0:0:0:
263,18,77060,1,0,0:0:0:0:
263,18,77160,1,0,0:0:0:0:
263,18,77260,1,0,0:0:0:0:
252,17,77660,1,4,0:0:0:0:
253,26,77860,1,8,0:0:0:0:
252,20,77960,1,8,0:0:0:0:
253,18,78060,1,0,0:0:0:0:
257,15,78160,1,0,0:0:0:0:
257,15,78260,1,8,0:0:0:0:
220,28,78460,1,8,0:0:0:0:
229,23,78526,1,8,0:0:0:0:
231,22,78593,1,8,0:0:0:0:
231,21,78660,1,0,0:0:0:0:
238,11,78860,1,8,0:0:0:0:
237,13,78960,1,0,0:0:0:0:
236,12,79060,1,8,0:0:0:0:
235,11,79260,1,8,0:0:0:0:
248,5,79310,1,8,0:0:0:0:
250,6,79460,1,8,0:0:0:0:
252,4,79510,1,8,0:0:0:0:
255,3,79660,1,0,0:0:0:0:
259,11,79726,1,0,0:0:0:0:
258,13,79793,1,0,0:0:0:0:
258,12,79860,1,8,0:0:0:0:
261,11,80060,1,0,0:0:0:0:
243,17,80160,1,0,0:0:0:0:
257,1,80260,1,0,0:0:0:0:
233,18,80460,1,0,0:0:0:0:
264,31,80660,1,0,0:0:0:0:
229,25,80860,1,4,0:0:0:0:
235,24,81060,1,8,0:0:0:0:
235,27,81160,1,0,0:0:0:0:
242,56,81260,1,0,0:0:0:0:
242,56,81360,1,0,0:0:0:0:
242,56,81460,1,8,0:0:0:0:
242,56,81560,1,8,0:0:0:0:
233,55,81660,1,0,0:0:0:0:
327,141,81710,1,0,0:0:0:0:
233,55,81860,1,0,0:0:0:0:
233,55,81910,1,0,0:0:0:0:
231,17,82060,1,8,0:0:0:0:
343,88,82126,1,8,0:0:0:0:
244,60,82193,1,8,0:0:0:0:
244,60,82260,1,0,0:0:0:0:
227,10,82460,1,8,0:0:0:0:
228,6,82560,1,8,0:0:0:0:
233,4,82660,1,8,0:0:0:0:
223,3,82860,1,8,0:0:0:0:
214,6,83060,1,8,0:0:0:0:
223,2,83260,1,0,0:0:0:0:
194,16,83360,1,0,0:0:0:0:
223,4,83460,1,0,0:0:0:0:
194,16,83560,1,0,0:0:0:0:
194,16,83660,1,8,0:0:0:0:
237,26,83760,1,0,0:0:0:0:
237,26,83860,1,8,0:0:0:0:
237,26,83960,1,8,0:0:0:0:
179,63,84060,1,4,0:0:0:0:
185,61,84260,1,8,0:0:0:0:
185,59,84360,1,0,0:0:0:0:
185,59,84460,1,8,0:0:0:0:
185,59,84660,1,0,0:0:0:0:
192,56,84860,1,8,0:0:0:0:
210,40,84926,1,8,0:0:0:0:
211,44,84993,1,8,0:0:0:0:
208,47,85060,1,0,0:0:0:0:
226,34,85260,1,0,0:0:0:0:
228,36,85360,1,0,0:0:0:0:
234,41,85460,1,8,0:0:0:0:
227,31,85660,1,0,0:0:0:0:
251,15,85710,1,0,0:0:0:0:
219,17,85860,1,0,0:0:0:0:
219,15,85910,1,0,0:0:0:0:
216,9,86060,1,8,0:0:0:0:
227,9,86126,1,8,0:0:0:0:
226,7,86193,1,8,0:0:0:0:
228,9,86260,1,0,0:0:0:0:
219,28,86460,1,0,0:0:0:0:
219,13,86560,1,0,0:0:0:0:
219,15,86660,1,8,0:0:0:0:
217,11,86860,1,0,0:0:0:0:
216,9,87060,1,0,0:0:0:0:
171,56,87260,1,4,0:0:0:0:
178,43,87460,1,8,0:0:0:0:
172,46,87560,1,0,0:0:0:0:
173,45,87660,1,8,0:0:0:0:
167,46,87760,1,0,0:0:0:0:
167,46,87860,1,8,0:0:0:0:
167,46,87960,1,0,0:0:0:0:
167,46,88060,1,8,0:0:0:0:
194,86,88110,1,8,0:0:0:0:
166,46,88260,1,8,0:0:0:0:
236,66,88310,1,8,0:0:0:0:
230,88,88460,1,0,0:0:0:0:
213,69,88526,1,0,0:0:0:0:
212,73,88593,1,0,0:0:0:0:
207,62,88660,1,8,0:0:0:0:
251,126,88860,1,4,0:0:0:0:
200,61,89060,1,0,0:0:0:0:
200,62,89160,1,8,0:0:0:0:
196,63,89260,1,0,0:0:0:0:
200,62,89360,1,0,0:0:0:0:
195,64,89460,1,8,0:0:0:0:
201,83,89660,1,0,0:0:0:0:
201,33,89726,1,0,0:0:0:0:
210,39,89793,1,0,0:0:0:0:
205,37,89860,1,0,0:0:0:0:
231,115,90060,1,12,0:0:0:0:
236,164,90460,1,4,0:0:0:0:
212,130,90660,1,0,0:0:0:0:
198,137,90760,1,0,0:0:0:0:
150,102,90860,1,8,0:0:0:0:
150,102,90960,1,0,0:0:0:0:
150,102,91060,1,8,0:0:0:0:
118,85,91260,1,8,0:0:0:0:
159,97,91326,1,8,0:0:0:0:
154,93,91393,1,8,0:0:0:0:
154,93,91460,1,0,0:0:0:0:
128,76,91660,1,0,0:0:0:0:
157,89,91760,1,0,0:0:0:0:
157,88,91860,1,0,0:0:0:0:
153,63,92060,1,8,0:0:0:0:
152,63,92110,1,8,0:0:0:0:
157,80,92260,1,8,0:0:0:0:
154,77,92310,1,8,0:0:0:0:
139,75,92460,1,8,0:0:0:0:
188,53,92526,1,8,0:0:0:0:
188,53,92593,1,0,0:0:0:0:
167,65,92660,1,0,0:0:0:0:
181,55,92860,1,8,0:0:0:0:
169,58,92960,1,8,0:0:0:0:
170,57,93060,1,8,0:0:0:0:
175,50,93260,1,0,0:0:0:0:
175,51,93310,1,0,0:0:0:0:
174,49,93460,1,0,0:0:0:0:
174,49,93510,1,0,0:0:0:0:
172,47,93660,1,4,0:0:0:0:
189,53,93860,1,8,0:0:0:0:
158,42,93960,1,0,0:0:0:0:
159,46,94060,1,8,0:0:0:0:
159,46,94160,1,8,0:0:0:0:
159,45,94260,1,0,0:0:0:0:
159,45,94360,1,0,0:0:0:0:
135,84,94460,1,8,0:0:0:0:
135,84,94510,1,8,0:0:0:0:
151,38,94660,1,8,0:0:0:0:
161,25,94710,1,8,0:0:0:0:
159,36,94860,1,8,0:0:0:0:
175,33,94926,1,0,0:0:0:0:
172,34,94993,1,0,0:0:0:0:
171,35,95060,1,8,0:0:0:0:
175,31,95260,1,8,0:0:0:0:
181,22,95360,1,8,0:0:0:0:
180,25,95460,1,8,0:0:0:0:
180,24,95660,1,8,0:0:0:0:
172,24,95860,1,8,0:0:0:0:
180,24,96060,1,0,0:0:0:0:
185,19,96160,1,0,0:0:0:0:
180,24,96260,1,0,0:0:0:0:
194,19,96360,1,0,0:0:0:0:
194,19,96460,1,8,0:0:0:0:
194,19,96560,1,8,0:0:0:0:
185,19,96660,1,8,0:0:0:0:
185,19,96760,1,8,0:0:0:0:
163,47,96860,1,4,0:0:0:0:
210,115,97060,1,8,0:0:0:0:
210,115,97160,1,0,0:0:0:0:
210,115,97260,1,8,0:0:0:0:
206,109,97460,1,0,0:0:0:0:
179,100,97660,1,0,0:0:0:0:
179,100,97726,1,0,0:0:0:0:
179,100,97793,1,0,0:0:0:0:
179,100,97860,1,8,0:0:0:0:
179,100,98060,1,0,0:0:0:0:
186,103,98160,1,0,0:0:0:0:
179,100,98260,1,0,0:0:0:0:
170,111,98460,1,8,0:0:0:0:
161,84,98510,1,8,0:0:0:0:
161,84,98660,1,8,0:0:0:0:
161,84,98710,1,8,0:0:0:0:
156,68,98860,1,8,0:0:0:0:
163,93,98926,1,8,0:0:0:0:
155,89,98993,1,8,0:0:0:0:
156,89,99060,1,0,0:0:0:0:
161,84,99260,1,8,0:0:0:0:
157,80,99360,1,0,0:0:0:0:
155,80,99460,1,8,0:0:0:0:
153,95,99660,1,0,0:0:0:0:
155,88,99710,1,0,0:0:0:0:
148,73,99860,1,0,0:0:0:0:
149,73,99910,1,0,0:0:0:0:
163,47,100060,1,4,0:0:0:0:
155,64,100260,1,8,0:0:0:0:
153,52,100360,1,0,0:0:0:0:
148,38,100460,1,8,0:0:0:0:
146,37,100560,1,8,0:0:0:0:
153,95,100660,1,0,0:0:0:0:
142,35,100760,1,0,0:0:0:0:
145,50,100860,1,8,0:0:0:0:
143,84,100910,1,8,0:0:0:0:
141,118,101060,1,8,0:0:0:0:
137,111,101110,1,8,0:0:0:0:
143,38,101260,1,8,0:0:0:0:
159,48,101326,1,0,0:0:0:0:
164,38,101393,1,0,0:0:0:0:
164,38,101460,1,8,0:0:0:0:
163,47,101660,1,4,0:0:0:0:
141,118,101860,1,0,0:0:0:0:
155,73,101960,1,0,0:0:0:0:
155,73,102060,1,8,0:0:0:0:
155,73,102160,1,0,0:0:0:0:
154,73,102260,1,8,0:0:0:0:
156,90,102460,1,8,0:0:0:0:
170,48,102526,1,8,0:0:0:0:
170,48,102593,1,8,0:0:0:0:
170,47,102660,1,8,0:0:0:0:
155,44,102860,1,12,0:0:0:0:
