osu file format v14

[General]
AudioFilename: Utaite Collab - Singason.mp3
AudioLeadIn: 0
PreviewTime: 81301
Countdown: 0
SampleSet: Soft
StackLeniency: 0.7
Mode: 0
LetterboxInBreaks: 0
WidescreenStoryboard: 1

[Editor]
Bookmarks: 15929,33780,128987,244028,345185
DistanceSpacing: 0.9
BeatDivisor: 6
GridSize: 8
TimelineZoom: 1.9

[Metadata]
Title:singason
TitleUnicode:シンガソン
Artist:Various Artists
ArtistUnicode:Various Artists
Creator:Fuccho
Version:Singing
Source:
Tags:rerulili Mes ayaponzu nayugorou ari eclair rishe kokoru sana wataame EVO+ hanichamu hotori れるりり あやぽんず なゆごろう あり リシェ ココル 鎖那 わたあめ はにちゃむ ほとり sing a song vocaloid hatsune miku megpoid gumi kagamine rin len ia kaai yuki nekomura iroha megurine luka lily yuzuki yukari 歌ってみた utattemita 歌い手 utaite 女の子12人 コラボ collaboration
BeatmapID:1065635
BeatmapSetID:500722

[Difficulty]
HPDrainRate:5.2
CircleSize:4.3
OverallDifficulty:7.4
ApproachRate:8.8
SliderMultiplier:2.17
SliderTickRate:1

[Events]
//Background and Video events
0,0,"singasong BG.jpg",0,0
Video,0,"singason video.mp4"
//Break Periods
//Storyboard Layer 0 (Background)
//Storyboard Layer 1 (Fail)
//Storyboard Layer 2 (Pass)
//Storyboard Layer 3 (Foreground)
//Storyboard Sound Samples

[TimingPoints]
2045,495.867768595041,4,2,1,60,1,0
15929,-90.9090909090909,4,2,1,60,0,0
17912,-100,4,2,1,60,0,0
79400,-83.3333333333333,4,2,1,60,0,0
81383,-83.3333333333333,4,2,1,70,0,1
113119,-100,4,2,1,60,0,0
174606,-83.3333333333333,4,2,1,60,0,0
176590,-83.3333333333333,4,2,1,70,0,1
208325,-166.666666666667,4,2,1,60,0,0
210309,-100,4,2,1,60,0,0
211135,-100,4,2,1,25,0,0
211301,-100,4,2,1,60,0,0
218987,-100,4,2,1,80,0,0
219069,-100,4,2,1,60,0,0
243036,-86.9565217391304,4,2,1,60,0,0
243532,-76.9230769230769,4,2,1,60,0,0
244028,-100,4,2,1,60,0,0
257912,-83.3333333333333,4,2,1,60,0,0
259896,-83.3333333333333,4,2,1,70,0,1
288656,-90.9090909090909,4,2,1,70,0,1
289152,-105.263157894737,4,2,1,70,0,1
289648,-200,4,2,1,40,0,0
291631,-500,4,2,1,60,0,0
292127,-500,4,2,1,20,0,0
293615,-500,4,2,1,5,0,0
295598,-100,4,2,1,60,0,0
297582,-83.3333333333333,4,2,1,70,0,1
329317,-83.3333333333333,4,2,1,60,0,1
337251,-83.3333333333333,4,2,1,50,0,1
341218,-83.3333333333333,4,2,1,40,0,1
343202,-83.3333333333333,4,2,1,30,0,1
344689,-111.111111111111,4,2,1,30,0,1
345185,-83.3333333333333,4,2,1,20,0,0

[Colours]
Combo1 : 213,234,233
Combo2 : 164,255,81
Combo3 : 102,255,205
Combo4 : 23,191,247
Combo5 : 253,240,81
Combo6 : 252,84,109
Combo7 : 253,149,242
Combo8 : 214,131,250
SliderBorder : 255,220,240
SliderTrackOverride : 17,25,25

[HitObjects]
217,233,15929,6,0,P|179:299|217:366,1,159.133338189697,4|0,0:0|0:0,0:0:0:0:
295,366,16425,2,0,P|332:308|286:229,1,159.133338189697,4|0,0:0|0:0,0:0:0:0:
256,299,16921,1,12,0:0:0:0:
263,45,17251,5,8,0:0:0:0:
270,151,17416,1,8,0:3:0:0:
257,56,17582,1,8,0:3:0:0:
262,143,17747,1,4,0:3:0:0:
175,92,17912,6,0,B|103:80|114:129|32:114,1,144.666666666667,4|0,1:0|0:0,0:0:0:0:
154,164,18408,2,0,P|184:215|149:300,1,144.666666666667,10|0,0:0|0:0,0:0:0:0:
97,343,18904,2,0,P|58:328|20:330,1,72.3333333333333,2|0,1:2|0:0,0:0:0:0:
159,292,19235,2,0,P|196:294|236:279,1,72.3333333333333,2|8,0:0|0:0,0:0:0:0:
472,298,19730,5,8,0:3:0:0:
445,368,19896,2,0,L|437:217,1,144.666666666667,2|0,1:0|0:0,0:0:0:0:
351,168,20392,2,0,P|415:190|478:148,1,144.666666666667,10|8,0:0|0:3,0:0:0:0:
409,39,20887,2,0,P|407:75|407:112,1,72.3333333333333,2|0,1:2|0:0,0:0:0:0:
351,168,21218,1,2,0:0:0:0:
287,122,21383,2,0,P|205:104|141:154,1,144.666666666667,8|2,0:0|0:3,0:0:0:0:
0,169,21879,70,0,P|81:166|117:234,1,144.666666666667,2|0,1:0|0:0,0:0:0:0:
208,367,22375,2,0,P|201:295|196:220,1,144.666666666667,10|0,0:0|0:0,0:0:0:0:
303,163,22871,2,0,P|299:198|296:239,1,72.3333333333333,2|0,1:2|0:0,0:0:0:0:
460,366,23202,2,0,P|458:329|454:293,1,72.3333333333333,2|8,0:0|0:0,0:0:0:0:
243,309,23697,5,8,0:3:0:0:
243,309,23863,2,0,B|315:297|304:346|386:331,1,144.666666666667,0|2,1:0|0:2,0:0:0:0:
454,294,24359,1,10,0:0:0:0:
411,78,24689,5,2,1:2:0:0:
335,88,24854,1,0,1:0:0:0:
287,236,25185,5,2,1:2:0:0:
363,246,25350,1,10,0:0:0:0:
252,67,25681,69,2,0:3:0:0:
252,67,25846,2,0,P|196:109|127:96,1,144.666666666667,6|0,1:0|0:0,0:0:0:0:
267,159,26342,1,10,0:0:0:0:
178,28,26507,1,2,0:0:0:0:
155,183,26673,1,2,0:0:0:0:
127,96,26838,6,0,P|58:82|0:123,1,144.666666666667,2|0,1:2|1:0,0:0:0:0:
0,261,27334,2,0,P|57:301|126:289,1,144.666666666667,10|8,0:0|0:3,0:0:0:0:
225,258,27830,6,0,B|297:246|286:295|368:280,1,144.666666666667,2|0,1:0|0:0,0:0:0:0:
447,318,28325,2,0,P|446:282|448:246,1,72.3333333333333,10|0,0:0|0:0,0:0:0:0:
338,128,28656,2,0,P|340:164|339:200,1,72.3333333333333,2|0,0:0|1:0,0:0:0:0:
279,357,29152,5,2,1:2:0:0:
320,289,29317,2,0,P|389:277|447:318,1,144.666666666667,8|2,0:0|0:3,0:0:0:0:
468,224,29813,70,0,B|462:170|462:170|468:133|468:133|462:79,1,144.666666666667,6|0,1:0|0:0,0:0:0:0:
452,4,30309,1,8,0:0:0:0:
44,224,30640,5,2,0:3:0:0:
44,224,30805,2,0,B|49:170|49:170|43:133|43:133|49:79,1,144.666666666667,8|0,1:3|1:0,0:0:0:0:
60,4,31301,2,0,P|100:71|163:67,1,144.666666666667,8|4,0:0|0:3,0:0:0:0:
256,2,31797,5,2,1:2:0:0:
256,261,32127,1,2,0:3:0:0:
322,203,32292,2,0,B|293:181|256:172|256:172|219:181|192:203,1,144.666666666667,8|0,0:0|0:0,0:0:0:0:
256,281,32788,1,10,0:0:0:0:
55,366,33119,69,8,0:0:0:0:
55,366,33284,2,0,L|49:211,1,144.666666666667,8|2,0:3|0:2,0:0:0:0:
43,76,33780,1,4,1:0:0:0:
31,96,34276,70,0,B|103:84|92:133|174:118,1,144.666666666667,8|8,0:0|0:3,0:0:0:0:
250,123,34772,2,0,P|323:98|386:156,1,144.666666666667,0|0,1:0|0:0,0:0:0:0:
256,12,35268,1,8,0:0:0:0:
309,177,35598,5,8,0:3:0:0:
375,132,35764,2,0,P|339:192|365:257,1,144.666666666667,0|0,1:0|0:0,0:0:0:0:
490,208,36259,2,0,L|419:198,1,72.3333333333333,8|0,0:0|0:0,0:0:0:0:
369,365,36590,2,0,L|440:354,1,72.3333333333333,8|0,0:3|1:0,0:0:0:0:
231,273,37086,5,0,0:0:0:0:
180,334,37251,2,0,P|106:347|49:300,1,144.666666666667,8|8,0:0|0:3,0:0:0:0:
32,192,37747,1,0,1:0:0:0:
21,210,38243,86,0,L|177:192,1,144.666666666667,8|8,0:0|0:3,0:0:0:0:
244,183,38739,2,0,L|261:26,1,144.666666666667,0|0,1:0|0:0,0:0:0:0:
217,106,39235,1,8,0:0:0:0:
487,200,39565,5,8,0:3:0:0:
427,151,39730,2,0,P|346:166|316:228,1,144.666666666667,0|0,1:0|0:0,0:0:0:0:
474,361,40226,2,0,L|464:282,1,72.3333333333333,8|0,0:0|0:0,0:0:0:0:
317,216,40557,2,0,L|308:287,1,72.3333333333333,8|0,0:3|1:0,0:0:0:0:
120,344,41053,5,0,0:0:0:0:
108,240,41218,1,8,0:0:0:0:
92,255,41549,85,2,0:3:0:0:
110,67,41714,1,0,1:0:0:0:
97,84,42210,6,0,L|242:72,1,144.666666666667,8|8,0:0|0:3,0:0:0:0:
374,19,42706,2,0,B|339:9|339:9|303:16,1,72.3333333333333,0|0,1:0|0:0,0:0:0:0:
298,130,43036,2,0,B|333:140|333:140|371:134,1,72.3333333333333,0|8,0:0|0:0,0:0:0:0:
450,347,43532,5,8,0:3:0:0:
445,203,43697,2,0,B|450:256|450:256|444:293|444:293|450:347,1,144.666666666667,0|0,1:0|0:0,0:0:0:0:
368,250,44193,2,0,P|332:243|287:248,1,72.3333333333333,8|0,0:0|0:0,0:0:0:0:
220,369,44524,2,0,P|256:373|292:366,1,72.3333333333333,8|0,0:3|1:0,0:0:0:0:
159,162,45020,85,0,1:0:0:0:
196,231,45185,2,0,L|183:75,1,144.666666666667,8|2,0:0|0:3,0:0:0:0:
122,289,45681,1,0,1:0:0:0:
256,54,46177,6,0,B|286:35|325:31|325:31|366:46|396:83,1,144.666666666667,8|8,0:0|0:3,0:0:0:0:
462,84,46673,2,0,P|462:46|460:10,1,72.3333333333333,0|0,1:0|0:0,0:0:0:0:
494,158,47003,2,0,P|492:194|492:230,1,72.3333333333333,0|8,0:0|0:0,0:0:0:0:
385,345,47499,5,2,0:3:0:0:
430,282,47664,2,0,P|397:268|362:271,1,72.3333333333333,0|0,1:0|0:0,0:0:0:0:
127,345,47995,85,0,0:0:0:0:
81,282,48160,2,0,P|114:268|150:271,1,72.3333333333333,10|2,0:0|0:0,0:0:0:0:
256,192,48491,5,8,0:0:0:0:
262,323,48656,2,0,P|285:256|256:192,1,144.666666666667,2|10,1:2|0:0,0:0:0:0:
179,168,49152,1,8,0:3:0:0:
441,70,49483,1,2,0:3:0:0:
441,70,49648,1,4,1:0:0:0:
179,168,50144,6,0,L|88:158,1,72.3333333333333,10|0,0:0|0:0,0:0:0:0:
91,72,50474,1,8,0:3:0:0:
91,72,50640,2,0,L|163:80,1,72.3333333333333,0|0,1:0|0:0,0:0:0:0:
261,114,50970,1,0,0:0:0:0:
261,114,51136,2,0,L|254:43,1,72.3333333333333,10|0,0:0|0:0,0:0:0:0:
349,80,51466,1,8,0:3:0:0:
349,80,51631,1,0,1:0:0:0:
316,289,51962,85,0,0:0:0:0:
370,231,52127,2,0,L|451:222,1,72.3333333333333,10|0,0:0|0:0,0:0:0:0:
441,354,52458,2,0,L|370:347,1,72.3333333333333,8|0,0:3|1:0,0:0:0:0:
395,154,52954,5,2,0:0:0:0:
370,231,53119,2,0,P|289:253|234:214,1,144.666666666667,8|2,0:0|0:3,0:0:0:0:
215,58,53615,1,0,1:0:0:0:
34,252,54111,6,0,P|96:220|163:244,1,144.666666666667,10|8,0:0|0:3,0:0:0:0:
194,317,54606,2,0,P|256:348|323:324,1,144.666666666667,0|0,1:0|0:0,0:0:0:0:
155,384,55102,1,10,0:0:0:0:
339,239,55433,85,8,0:3:0:0:
339,239,55598,2,0,B|327:167|376:178|361:96,1,144.666666666667,0|0,1:0|0:0,0:0:0:0:
274,48,56094,2,0,L|284:120,1,72.3333333333333,10|0,0:0|0:0,0:0:0:0:
410,291,56425,2,0,L|419:219,1,72.3333333333333,2|0,0:0|1:0,0:0:0:0:
455,15,56921,5,2,0:0:0:0:
362,99,57086,2,0,B|414:93|414:93|451:99|451:99|505:94,1,144.666666666667,10|2,0:0|0:3,0:0:0:0:
256,11,57582,1,0,1:0:0:0:
258,35,58078,6,0,B|264:87|264:87|258:124|258:124|263:178,1,144.666666666667,10|8,0:0|0:3,0:0:0:0:
107,93,58573,2,0,P|141:85|179:82,1,72.3333333333333,2|0,1:2|0:0,0:0:0:0:
164,229,58904,1,2,0:0:0:0:
164,229,59069,1,8,0:0:0:0:
344,127,59400,85,8,0:3:0:0:
405,196,59565,2,0,B|427:171|439:134|439:134|434:96|413:66,1,144.666666666667,0|2,1:0|0:0,0:0:0:0:
273,127,60061,2,0,B|308:135|308:135|344:127,1,72.3333333333333,10|0,0:0|0:0,0:0:0:0:
476,197,60392,2,0,B|440:189|440:189|405:196,1,72.3333333333333,2|4,1:2|0:3,0:0:0:0:
442,372,60887,5,0,1:0:0:0:
384,318,61053,2,0,B|291:306|291:306|241:325,1,144.666666666667,10|2,0:0|0:3,0:0:0:0:
60,310,61549,1,0,1:0:0:0:
67,331,62044,5,10,0:0:0:0:
195,157,62375,1,8,0:3:0:0:
195,157,62540,2,0,P|198:193|200:229,1,72.3333333333333,0|0,1:0|0:0,0:0:0:0:
10,184,62871,2,0,P|13:147|17:112,1,72.3333333333333,0|10,0:0|0:0,0:0:0:0:
281,191,63367,85,2,0:3:0:0:
329,127,63532,2,0,P|402:112|469:162,1,144.666666666667,6|2,1:2|0:0,0:0:0:0:
386,278,64028,2,0,P|379:242|383:206,1,72.3333333333333,10|0,0:0|0:0,0:0:0:0:
459,369,64359,5,8,0:0:0:0:
386,278,64524,2,0,P|350:274|314:280,1,72.3333333333333,2|8,0:0|0:1,0:0:0:0:
256,335,64854,1,8,0:0:0:0:
303,178,65020,5,8,0:3:0:0:
209,206,65185,1,8,0:3:0:0:
325,191,65350,1,4,0:3:0:0:
154,94,65516,1,4,1:2:0:0:
173,83,66011,85,10,0:0:0:0:
87,295,66342,1,8,0:3:0:0:
87,295,66507,2,0,L|79:208,1,72.3333333333333,0|0,1:0|0:0,0:0:0:0:
87,151,66838,2,0,L|79:238,1,72.3333333333333,0|10,0:0|0:0,0:0:0:0:
256,61,67334,5,8,0:3:0:0:
256,61,67499,2,0,P|333:47|382:89,1,144.666666666667,0|0,1:0|0:0,0:0:0:0:
456,99,67995,2,0,P|461:62|461:27,1,72.3333333333333,10|0,0:0|0:0,0:0:0:0:
307,129,68325,2,0,P|307:164|311:201,1,72.3333333333333,8|0,0:3|1:0,0:0:0:0:
461,362,68821,5,2,1:2:0:0:
410,300,68987,2,0,P|346:281|280:319,1,144.666666666667,10|2,0:0|0:3,0:0:0:0:
431,220,69483,1,2,1:2:0:0:
449,230,69978,85,10,0:0:0:0:
168,159,70309,1,8,0:3:0:0:
232,113,70474,2,0,P|267:107|305:114,1,72.3333333333333,0|0,1:0|0:0,0:0:0:0:
168,159,70805,2,0,P|132:165|97:159,1,72.3333333333333,2|10,0:2|0:0,0:0:0:0:
452,41,71301,5,8,0:3:0:0:
452,41,71466,2,0,P|454:73|461:117,1,72.3333333333333,0|0,1:0|0:0,0:0:0:0:
510,241,71797,1,2,0:0:0:0:
357,211,71962,2,0,P|392:208|428:200,1,72.3333333333333,10|0,0:0|0:0,0:0:0:0:
377,113,72292,5,8,0:3:0:0:
307,152,72458,2,0,P|252:151|155:141,1,144.666666666667,2|0,1:2|1:0,0:0:0:0:
27,87,72954,2,0,P|62:82|96:92,1,72.3333333333333,10|0,0:0|0:0,0:0:0:0:
172,63,73284,1,2,0:3:0:0:
88,172,73449,86,0,P|69:257|111:325,1,144.666666666667,4|0,1:2|0:0,0:0:0:0:
161,346,73945,2,0,B|233:358|222:309|304:324,1,144.666666666667,10|2,0:0|0:2,0:0:0:0:
346,258,74441,6,0,P|380:318|353:383,1,144.666666666667,0|2,1:0|0:0,0:0:0:0:
493,225,74937,2,0,P|463:229|419:228,1,72.3333333333333,8|0,0:0|0:0,0:0:0:0:
340,149,75268,1,2,0:3:0:0:
340,149,75433,1,0,1:0:0:0:
465,2,75764,5,4,0:3:0:0:
465,2,75929,2,0,B|471:54|471:54|465:91|465:91|470:145,1,144.666666666667,10|8,0:0|0:3,0:0:0:0:
392,47,76425,2,0,B|356:40|356:40|318:48,1,72.3333333333333,2|0,1:2|0:0,0:0:0:0:
256,93,76755,1,0,1:0:0:0:
236,167,76921,2,0,L|212:25,1,144.666666666667,10|2,0:0|0:2,0:0:0:0:
181,222,77416,1,4,1:2:0:0:
304,204,77912,86,0,P|232:245|171:211,1,144.666666666667,10|8,0:0|0:3,0:0:0:0:
43,177,78408,2,0,P|79:169|116:176,1,72.3333333333333,4|0,0:0|0:0,0:0:0:0:
115,287,78739,2,0,P|79:292|44:285,1,72.3333333333333,0|10,0:0|0:0,0:0:0:0:
352,52,79235,5,8,0:0:0:0:
431,250,79400,2,0,B|424:185|424:185|432:140|432:140|424:78,1,173.599994702149,12|8,0:0|0:3,0:0:0:0:
264,219,79896,6,0,B|306:211|306:211|346:228,1,86.7999973510743,12|0,0:0|0:0,0:0:0:0:
231,300,80226,1,8,0:0:0:0:
78,140,80392,85,12,0:0:0:0:
145,227,80557,1,4,0:3:0:0:
160,57,80722,1,8,0:3:0:0:
71,168,80887,37,8,0:3:0:0:
253,131,81053,1,4,0:3:0:0:
71,168,81218,1,8,0:3:0:0:
338,162,81383,6,0,B|428:145|414:210|513:193,1,173.599994702149,4|0,1:2|0:0,0:0:0:0:
298,230,81879,2,0,P|262:318|327:383,1,173.599994702149,10|0,0:0|0:0,0:0:0:0:
471,370,82375,6,0,P|514:299|477:225,1,173.599994702149,2|4,1:2|0:3,0:0:0:0:
430,295,82871,2,0,P|387:299|343:300,1,86.7999973510743,10|0,0:0|0:0,0:0:0:0:
188,151,83202,5,8,0:3:0:0:
218,226,83367,2,0,B|221:160|221:160|211:116|211:116|215:53,1,173.599994702149,4|0,1:2|0:0,0:0:0:0:
390,96,83863,2,0,P|347:102|303:106,1,86.7999973510743,10|0,0:0|0:0,0:0:0:0:
131,216,84193,2,0,P|158:182|188:151,1,86.7999973510743,4|2,0:3|1:2,0:0:0:0:
440,35,84689,5,4,0:3:0:0:
390,96,84854,2,0,P|382:138|394:184,1,86.7999973510743,10|0,0:0|0:0,0:0:0:0:
487,321,85185,69,2,0:3:0:0:
471,212,85350,2,0,B|449:251|409:273|409:273|360:267|327:236,1,173.599994702149,6|0,1:0|0:0,0:0:0:0:
167,338,85846,2,0,B|195:310|244:304|244:304|284:326|305:366,1,173.599994702149,10|0,0:0|0:0,0:0:0:0:
253,271,86342,6,0,P|251:222|256:170,1,86.7999973510743,2|0,1:2|0:0,0:0:0:0:
331,240,86673,1,4,0:3:0:0:
288,69,86838,2,0,P|251:92|212:111,1,86.7999973510743,10|0,0:0|0:0,0:0:0:0:
26,91,87168,5,8,0:3:0:0:
26,91,87334,2,0,P|64:111|173:190,1,173.599994702149,6|2,1:2|0:0,0:0:0:0:
99,329,87830,2,0,P|98:307|105:240,1,86.7999973510743,10|0,0:0|0:0,0:0:0:0:
251,137,88160,2,0,P|256:179|256:223,1,86.7999973510743,0|2,0:0|1:2,0:0:0:0:
394,366,88656,5,4,0:3:0:0:
394,366,88821,2,0,B|398:300|398:300|389:256|389:256|394:193,1,173.599994702149,10|0,0:0|0:0,0:0:0:0:
394,116,89317,1,4,1:2:0:0:
228,336,89813,70,0,L|132:341,1,86.7999973510743,10|0,0:0|0:0,0:0:0:0:
183,258,90144,1,2,0:0:0:0:
96,254,90309,2,0,L|182:258,1,86.7999973510743,0|0,1:0|0:0,0:0:0:0:
56,180,90640,1,2,0:0:0:0:
228,172,90805,2,0,L|141:176,1,86.7999973510743,10|0,0:0|0:0,0:0:0:0:
256,29,91135,5,2,0:0:0:0:
297,97,91301,2,0,P|357:113|451:55,1,173.599994702149,0|2,1:2|0:0,0:0:0:0:
418,133,91797,2,0,P|421:191|426:238,1,86.7999973510743,10|0,0:0|0:0,0:0:0:0:
463,369,92127,2,0,P|466:325|468:282,1,86.7999973510743,2|4,0:0|0:3,0:0:0:0:
297,97,92623,5,2,0:0:0:0:
297,97,92788,2,0,L|306:197,1,86.7999973510743,10|0,0:0|0:0,0:0:0:0:
263,349,93119,1,4,0:3:0:0:
194,307,93284,6,0,B|104:290|118:355|19:338,1,173.599994702149,6|0,1:0|0:0,0:0:0:0:
155,225,93780,2,0,B|192:159|157:101|157:101|162:130|143:176,1,173.599994702149,10|0,0:0|0:0,0:0:0:0:
0,130,94276,2,0,P|40:115|83:116,1,86.7999973510743,0|0,1:0|0:0,0:0:0:0:
259,33,94606,2,0,P|217:21|172:28,1,86.7999973510743,4|10,0:3|0:0,0:0:0:0:
399,288,95102,69,8,0:3:0:0:
392,116,95268,2,0,B|399:181|399:181|391:226|391:226|399:288,1,173.599994702149,4|0,1:2|0:0,0:0:0:0:
120,116,95764,2,0,B|113:181|113:181|121:226|121:226|113:288,1,173.599994702149,12|0,0:0|0:0,0:0:0:0:
295,157,96259,6,0,B|256:142|256:142|215:158,1,86.7999973510743,12|0,0:0|0:0,0:0:0:0:
256,233,96590,1,8,0:0:0:0:
183,71,96755,6,0,P|237:31|335:85,1,173.599994702149,6|0,1:0|0:0,0:0:0:0:
256,233,97251,6,0,B|219:299|254:357|254:357|249:328|268:282,1,173.599994702149,4|0,1:2|0:0,0:0:0:0:
341,209,97747,2,0,P|390:192|477:269,1,173.599994702149,10|0,0:0|0:0,0:0:0:0:
257,314,98243,70,0,B|167:297|181:362|82:345,1,173.599994702149,2|4,1:2|0:3,0:0:0:0:
111,170,98739,2,0,P|119:211|112:260,1,86.7999973510743,10|0,0:0|0:0,0:0:0:0:
41,58,99069,5,8,0:3:0:0:
111,170,99235,2,0,P|199:173|247:96,1,173.599994702149,4|0,1:2|0:0,0:0:0:0:
156,6,99730,2,0,P|150:49|158:92,1,86.7999973510743,10|0,0:0|0:0,0:0:0:0:
393,158,100061,2,0,P|400:115|394:72,1,86.7999973510743,4|2,0:3|1:2,0:0:0:0:
256,293,100557,5,4,0:3:0:0:
341,259,100722,2,0,L|337:355,1,86.7999973510743,10|0,0:0|0:0,0:0:0:0:
141,273,101053,5,8,0:3:0:0:
174,345,101218,2,0,L|166:161,1,173.599994702149,6|0,1:0|0:0,0:0:0:0:
98,19,101714,2,0,L|90:192,1,173.599994702149,10|4,0:0|0:3,0:0:0:0:
127,99,102210,70,0,P|168:89|211:101,1,86.7999973510743,2|0,1:2|0:0,0:0:0:0:
345,173,102540,1,4,0:3:0:0:
385,99,102706,2,0,P|344:89|301:101,1,86.7999973510743,10|0,0:0|0:0,0:0:0:0:
255,337,103036,5,2,0:3:0:0:
256,165,103202,2,0,B|251:230|251:230|260:274|260:274|255:337,1,173.599994702149,4|0,1:2|0:0,0:0:0:0:
94,284,103697,2,0,L|181:278,1,86.7999973510743,10|0,0:0|0:0,0:0:0:0:
414,229,104028,2,0,L|327:222,1,86.7999973510743,0|2,1:0|0:1,0:0:0:0:
61,368,104524,5,2,0:0:0:0:
61,368,104689,2,0,B|56:302|56:302|65:258|65:258|60:195,1,173.599994702149,10|0,0:0|0:0,0:0:0:0:
60,117,105185,1,4,1:2:0:0:
325,362,105681,6,0,P|371:365|416:347,1,86.7999973510743,10|0,0:0|0:0,0:0:0:0:
356,264,106012,1,2,0:0:0:0:
456,242,106177,2,0,P|435:200|397:170,1,86.7999973510743,0|0,1:0|0:0,0:0:0:0:
356,264,106508,1,2,0:0:0:0:
287,189,106673,2,0,P|261:227|254:275,1,86.7999973510743,10|0,0:0|0:0,0:0:0:0:
405,65,107004,69,2,0:0:0:0:
405,65,107168,2,0,B|315:48|329:113|230:96,1,173.599994702149,0|2,1:2|0:0,0:0:0:0:
84,44,107664,2,0,P|127:51|171:54,1,86.7999973510743,10|0,0:0|0:0,0:0:0:0:
274,177,107995,2,0,P|254:138|239:97,1,86.7999973510743,2|4,0:0|0:3,0:0:0:0:
451,270,108491,5,2,0:0:0:0:
383,313,108656,2,0,P|336:307|283:302,1,86.7999973510743,10|0,0:0|0:0,0:0:0:0:
202,350,108987,1,4,0:3:0:0:
165,279,109152,6,0,P|103:261|20:331,1,173.599994702149,6|0,1:0|0:0,0:0:0:0:
163,194,109648,2,0,B|180:104|115:118|130:28,1,173.599994702149,10|0,0:0|0:0,0:0:0:0:
2,171,110144,2,0,P|43:159|86:165,1,86.7999973510743,2|0,1:0|0:0,0:0:0:0:
245,218,110474,1,4,0:3:0:0:
245,218,110640,2,0,P|342:239|405:168,1,173.599994702149,10|8,0:0|0:3,0:0:0:0:
335,48,111135,6,0,P|339:91|346:133,1,86.7999973510743,2|0,1:0|0:0,0:0:0:0:
491,320,111466,2,0,P|451:302|410:287,1,86.7999973510743,2|8,0:2|0:0,0:0:0:0:
137,347,111962,53,2,0:0:0:0:
139,356,112045,1,2,0:0:0:0:
141,365,112127,2,0,L|149:260,1,86.7999973510743,14|0,0:0|0:0,0:0:0:0:
3,221,112458,1,8,0:0:0:0:
66,73,112623,2,0,L|74:178,1,86.7999973510743,4|0,1:2|0:0,0:0:0:0:
224,232,112954,1,8,0:3:0:0:
301,121,113119,6,0,P|237:89|171:111,1,144.666666666667,4|0,1:2|0:0,0:0:0:0:
315,200,113615,2,0,B|387:212|376:163|458:178,1,144.666666666667,10|0,0:0|0:0,0:0:0:0:
433,338,114111,2,0,P|429:302|428:266,1,72.3333333333333,2|0,1:2|0:0,0:0:0:0:
460,105,114441,2,0,P|458:141|454:177,1,72.3333333333333,2|8,0:0|0:0,0:0:0:0:
208,59,114937,5,8,0:3:0:0:
208,59,115102,2,0,P|132:35|68:81,1,144.666666666667,2|0,1:0|0:0,0:0:0:0:
0,122,115598,2,0,P|74:95|135:147,1,144.666666666667,10|8,0:0|0:3,0:0:0:0:
60,174,116094,2,0,P|55:210|60:244,1,72.3333333333333,2|0,1:2|0:0,0:0:0:0:
176,319,116425,1,2,0:0:0:0:
185,240,116590,2,0,P|111:213|50:265,1,144.666666666667,8|2,0:0|0:3,0:0:0:0:
250,289,117086,6,0,B|322:277|311:326|393:311,1,144.666666666667,2|0,1:0|0:0,0:0:0:0:
456,272,117582,2,0,P|477:237|438:146,1,144.666666666667,10|0,0:0|0:0,0:0:0:0:
386,89,118078,2,0,P|422:79|470:59,1,72.3333333333333,2|0,1:2|0:0,0:0:0:0:
272,2,118408,2,0,P|260:37|250:88,1,72.3333333333333,2|8,0:0|0:0,0:0:0:0:
104,218,118904,5,8,0:3:0:0:
99,146,119069,2,0,L|104:219,1,72.3333333333333,0|0,1:0|0:0,0:0:0:0:
194,258,119400,1,2,0:2:0:0:
154,342,119565,2,0,L|226:346,1,72.3333333333333,10|0,0:0|0:0,0:0:0:0:
358,187,119896,69,2,1:2:0:0:
364,330,120061,2,0,B|358:276|358:276|364:239|364:239|358:185,1,144.666666666667,0|2,1:0|1:2,0:0:0:0:
335,33,120557,2,0,P|381:16|451:88,1,144.666666666667,10|2,0:0|0:0,0:0:0:0:
424,147,120970,5,2,0:0:0:0:
424,147,121053,2,0,L|332:159,1,72.3333333333333,6|0,1:0|0:0,0:0:0:0:
206,175,121383,2,0,L|298:163,1,72.3333333333333,2|10,0:0|0:0,0:0:0:0:
256,263,121714,5,2,0:0:0:0:
141,233,121879,1,2,0:0:0:0:
173,348,122044,1,2,1:2:0:0:
371,233,122375,5,0,1:0:0:0:
339,348,122540,2,0,B|304:357|304:357|268:348,1,72.3333333333333,10|0,0:0|0:0,0:0:0:0:
256,263,122871,69,8,0:3:0:0:
291,177,123036,2,0,B|256:168|256:168|220:177,2,72.3333333333333,2|2|2,1:0|0:0|0:0,0:0:0:0:
256,263,123532,1,10,0:0:0:0:
256,73,123863,5,2,0:0:0:0:
325,34,124028,2,0,P|388:36|443:110,1,144.666666666667,0|2,1:0|1:2,0:0:0:0:
429,172,124524,2,0,B|417:244|466:233|451:315,1,144.666666666667,8|2,0:0|0:3,0:0:0:0:
324,293,125020,5,4,1:0:0:0:
256,337,125185,1,2,0:0:0:0:
188,293,125350,1,2,0:0:0:0:
185,372,125516,5,8,0:0:0:0:
256,258,125681,1,2,0:0:0:0:
327,372,125846,1,2,0:0:0:0:
366,227,126011,69,0,1:0:0:0:
256,337,126177,1,2,0:0:0:0:
146,227,126342,1,2,1:2:0:0:
169,368,126507,5,8,0:0:0:0:
256,179,126673,1,2,0:0:0:0:
343,368,126838,1,10,0:0:0:0:
256,153,127003,6,0,B|251:98|251:98|259:62|259:62|255:7,1,144.666666666667,2|2,1:0|0:3,0:0:0:0:
408,106,127499,2,0,L|336:103,1,72.3333333333333,8|0,0:0|0:0,0:0:0:0:
102,55,127830,69,2,0:0:0:0:
102,55,127995,2,0,L|174:51,2,72.3333333333333,10|2|8,0:0|0:0|0:0,0:0:0:0:
218,133,128491,2,0,L|146:137,2,72.3333333333333,8|2|2,0:3|0:0|0:2,0:0:0:0:
189,218,128987,1,4,1:0:0:0:
399,42,129317,69,0,0:0:0:0:
399,42,129483,2,0,P|380:112|433:168,1,144.666666666667,8|8,0:0|0:3,0:0:0:0:
455,94,129978,1,4,1:3:0:0:
113,42,130309,5,0,0:0:0:0:
113,42,130474,2,0,P|132:112|79:168,1,144.666666666667,8|8,0:0|0:3,0:0:0:0:
57,94,130970,1,4,1:3:0:0:
193,260,131301,5,0,0:0:0:0:
193,260,131466,2,0,P|256:230|320:261,1,144.666666666667,8|8,0:0|0:3,0:0:0:0:
256,310,131962,1,8,1:3:0:0:
368,135,132292,1,8,0:3:0:0:
380,213,132458,1,8,0:0:0:0:
144,135,132788,1,8,0:3:0:0:
132,213,132954,1,4,1:3:0:0:
446,243,133449,86,0,P|474:276|443:369,1,144.666666666667,8|8,0:0|0:3,0:0:0:0:
407,305,133945,1,4,1:3:0:0:
66,243,134276,5,0,0:0:0:0:
66,243,134441,2,0,P|38:276|69:369,1,144.666666666667,8|8,0:0|0:3,0:0:0:0:
105,305,134937,1,4,1:3:0:0:
319,123,135268,5,0,0:0:0:0:
319,123,135433,2,0,P|256:153|193:123,1,144.666666666667,8|8,0:0|0:3,0:0:0:0:
256,74,135929,1,4,1:3:0:0:
316,281,136259,85,8,0:3:0:0:
196,243,136425,1,8,0:0:0:0:
187,266,136755,5,4,0:3:0:0:
349,208,136921,1,8,1:3:0:0:
87,339,137416,6,0,P|75:295|81:263,1,72.3333333333333,10|0,0:0|0:0,0:0:0:0:
213,148,137747,1,8,0:3:0:0:
213,148,137912,2,0,P|174:156|135:161,1,72.3333333333333,2|0,1:2|0:0,0:0:0:0:
4,183,138243,1,2,0:0:0:0:
4,183,138408,2,0,P|39:187|75:195,1,72.3333333333333,8|2,0:0|0:0,0:0:0:0:
251,74,138739,85,2,0:0:0:0:
292,141,138904,2,0,P|359:154|420:101,1,144.666666666667,4|2,1:3|0:0,0:0:0:0:
351,238,139400,2,0,P|384:256|417:266,1,72.3333333333333,10|0,0:0|0:0,0:0:0:0:
395,25,139730,2,0,P|365:46|340:72,1,72.3333333333333,8|2,0:3|1:2,0:0:0:0:
282,296,140226,5,0,1:0:0:0:
297,168,140392,2,0,B|274:186|259:227|259:227|263:266|282:296,1,144.666666666667,10|2,0:0|0:3,0:0:0:0:
351,238,140887,1,8,1:3:0:0:
56,76,141383,6,0,P|109:32|175:52,1,144.666666666667,8|8,0:0|0:3,0:0:0:0:
124,106,141879,1,4,1:3:0:0:
56,307,142210,85,0,0:0:0:0:
56,307,142375,2,0,P|112:352|178:329,1,144.666666666667,8|2,0:0|0:3,0:0:0:0:
133,192,142871,1,8,1:3:0:0:
1,257,143202,5,2,0:0:0:0:
31,326,143367,2,0,P|103:330|175:331,1,144.666666666667,10|8,0:0|0:0,0:0:0:0:
243,291,143863,2,0,B|315:279|304:328|386:313,1,144.666666666667,2|10,1:2|0:0,0:0:0:0:
452,274,144359,6,0,P|461:232|446:192,1,72.3333333333333,8|0,0:3|0:0,0:0:0:0:
412,138,144689,1,2,0:3:0:0:
382,313,144854,1,4,1:0:0:0:
256,81,145185,85,0,0:0:0:0:
312,213,145350,2,0,L|306:141,1,72.3333333333333,10|0,0:0|0:0,0:0:0:0:
153,170,145681,1,8,0:3:0:0:
153,170,145846,2,0,L|225:176,1,72.3333333333333,0|0,1:0|0:0,0:0:0:0:
120,254,146177,1,0,0:0:0:0:
120,254,146342,2,0,L|192:260,1,72.3333333333333,10|0,0:0|0:0,0:0:0:0:
332,294,146673,5,2,0:0:0:0:
330,303,146756,1,2,0:0:0:0:
328,312,146839,2,0,P|374:330|455:276,1,144.666666666667,4|0,1:3|0:0,0:0:0:0:
480,205,147334,2,0,P|475:172|465:134,1,72.3333333333333,10|0,0:0|0:0,0:0:0:0:
318,22,147664,2,0,P|293:17|270:15,2,36.1666666666667,2|2|8,0:0|0:0|1:3,0:0:0:0:
294,243,148160,5,2,0:0:0:0:
374,210,148325,2,0,L|371:283,1,72.3333333333333,8|0,0:0|0:0,0:0:0:0:
227,148,148656,85,2,0:0:0:0:
229,157,148739,1,2,0:0:0:0:
231,166,148821,2,0,P|184:155|114:231,1,144.666666666667,4|0,1:3|0:0,0:0:0:0:
34,127,149317,2,0,P|34:88|37:54,1,72.3333333333333,10|0,0:0|0:0,0:0:0:0:
119,90,149648,1,8,0:3:0:0:
38,210,149813,1,0,1:0:0:0:
256,52,150144,5,0,0:0:0:0:
289,123,150309,2,0,P|332:144|429:92,1,144.666666666667,10|8,0:0|0:3,0:0:0:0:
256,205,150805,5,0,1:0:0:0:
401,34,151135,1,2,0:0:0:0:
417,111,151301,1,10,0:0:0:0:
240,128,151631,85,2,0:0:0:0:
256,205,151797,1,2,1:2:0:0:
79,222,152127,5,2,0:0:0:0:
95,299,152292,2,0,B|98:243|98:243|112:209|112:209|116:154,1,144.666666666667,10|2,0:0|0:3,0:0:0:0:
167,360,152788,1,0,1:0:0:0:
395,157,153284,6,0,B|399:209|399:209|413:243|413:243|417:299,1,144.666666666667,10|8,0:0|0:3,0:0:0:0:
300,373,153780,2,0,L|304:289,1,72.3333333333333,2|0,1:2|0:0,0:0:0:0:
216,152,154111,2,0,L|220:225,1,72.3333333333333,2|8,0:0|0:0,0:0:0:0:
318,30,154606,85,2,0:0:0:0:
320,39,154689,1,2,0:0:0:0:
322,48,154772,2,0,P|369:29|461:83,1,144.666666666667,8|2,1:3|0:0,0:0:0:0:
469,142,155268,1,10,0:0:0:0:
400,327,155598,5,2,1:2:0:0:
410,252,155764,1,4,0:3:0:0:
207,304,156094,5,2,1:2:0:0:
224,207,156260,1,10,0:0:0:0:
22,282,156590,85,2,0:3:0:0:
38,162,156755,1,8,1:3:0:0:
27,181,157251,6,0,L|171:167,1,144.666666666667,10|8,0:0|0:3,0:0:0:0:
209,22,157747,2,0,P|210:58|214:94,1,72.3333333333333,0|0,1:0|0:0,0:0:0:0:
264,196,158078,1,0,0:0:0:0:
313,133,158243,2,0,P|354:115|454:164,1,144.666666666667,10|2,0:0|0:3,0:0:0:0:
371,346,158739,6,0,B|366:291|366:291|374:255|374:255|371:203,1,144.666666666667,6|2,1:2|0:0,0:0:0:0:
271,289,159235,2,0,B|235:278|235:278|198:284,1,72.3333333333333,10|0,0:0|0:0,0:0:0:0:
230,358,159565,1,8,0:0:0:0:
197,161,159730,1,6,0:0:0:0:
75,290,160061,85,8,0:0:0:0:
75,290,160226,2,0,B|80:235|80:235|72:199|72:199|75:146,1,144.666666666667,8|4,0:3|0:3,0:0:0:0:
20,89,160722,2,0,P|86:66|143:106,1,144.666666666667,4|0,1:2|0:0,0:0:0:0:
75,146,161218,1,10,0:0:0:0:
310,27,161549,5,8,0:3:0:0:
310,27,161714,2,0,L|299:113,1,72.3333333333333,0|0,1:0|0:0,0:0:0:0:
438,100,162044,2,0,L|428:28,1,72.3333333333333,0|10,0:0|0:0,0:0:0:0:
374,312,162540,5,8,0:3:0:0:
374,169,162705,2,0,B|371:222|371:222|379:258|379:258|374:313,1,144.666666666667,0|0,1:0|0:0,0:0:0:0:
226,271,163202,2,0,P|262:266|298:264,1,72.3333333333333,10|0,0:0|0:0,0:0:0:0:
150,336,163532,2,0,P|114:334|78:329,1,72.3333333333333,8|0,0:3|1:0,0:0:0:0:
63,83,164028,85,2,1:2:0:0:
37,158,164193,2,0,P|112:202|167:176,1,144.666666666667,10|2,0:0|0:3,0:0:0:0:
221,132,164689,2,0,B|293:120|282:169|364:154,1,144.666666666667,2|0,1:2|0:0,0:0:0:0:
431,117,165185,1,10,0:0:0:0:
148,84,165516,5,8,0:3:0:0:
228,60,165681,2,0,L|221:132,1,72.3333333333333,0|0,1:0|0:0,0:0:0:0:
74,131,166011,2,0,L|67:60,1,72.3333333333333,2|10,0:2|0:0,0:0:0:0:
409,99,166507,5,8,0:3:0:0:
369,29,166673,2,0,L|385:198,1,144.666666666667,0|2,1:0|0:0,0:0:0:0:
429,337,167168,2,0,P|436:294|445:253,1,72.3333333333333,10|0,0:0|0:0,0:0:0:0:
287,154,167499,2,0,P|294:189|299:225,1,72.3333333333333,8|2,0:3|1:2,0:0:0:0:
256,382,167995,85,0,1:0:0:0:
345,287,168160,2,0,P|265:295|221:224,1,144.666666666667,10|2,0:0|0:3,0:0:0:0:
72,122,168656,6,0,B|75:175|75:175|67:211|67:211|72:266,1,144.666666666667,4|0,1:2|0:0,0:0:0:0:
151,273,169152,2,0,B|146:218|146:218|154:182|154:182|151:129,1,144.666666666667,10|2,0:0|0:2,0:0:0:0:
197,64,169648,6,0,B|265:38|265:38|325:80,1,144.666666666667,0|2,1:0|0:0,0:0:0:0:
384,182,170144,2,0,L|393:97,1,72.3333333333333,8|0,0:0|0:0,0:0:0:0:
317,224,170474,1,2,0:3:0:0:
317,224,170640,1,0,1:0:0:0:
470,363,170970,85,4,0:3:0:0:
470,363,171135,2,0,P|431:359|388:359,1,72.3333333333333,10|0,0:0|0:0,0:0:0:0:
317,224,171466,2,0,P|321:263|321:306,1,72.3333333333333,2|0,0:0|1:0,0:0:0:0:
92,355,171962,5,0,1:0:0:0:
128,284,172127,2,0,P|98:274|53:286,1,72.3333333333333,10|0,0:0|0:0,0:0:0:0:
169,351,172458,1,2,0:2:0:0:
97,194,172623,6,0,B|102:139|102:139|94:103|94:103|97:50,1,144.666666666667,4|0,1:2|0:0,0:0:0:0:
291,113,173119,2,0,P|250:170|181:172,1,144.666666666667,10|8,0:0|0:3,0:0:0:0:
209,28,173615,2,0,L|216:101,1,72.3333333333333,4|0,0:0|0:0,0:0:0:0:
281,264,173945,2,0,L|287:191,1,72.3333333333333,0|10,0:0|0:0,0:0:0:0:
398,370,174441,85,8,0:0:0:0:
456,145,174606,2,0,B|452:207|452:207|463:251|463:251|461:317,1,173.599994702149,12|8,0:0|0:3,0:0:0:0:
201,355,175102,6,0,L|197:247,1,86.7999973510743,12|0,0:0|0:0,0:0:0:0:
286,351,175433,1,8,0:0:0:0:
98,139,175598,6,0,P|87:192|99:229,1,86.7999973510743,12|4,0:0|0:3,0:0:0:0:
256,75,175929,2,0,L|253:24,2,43.3999986755371,4|8|2,0:3|0:3|0:0,0:0:0:0:
416,222,176259,5,4,0:3:0:0:
352,52,176425,1,8,0:3:0:0:
224,274,176590,6,0,P|142:292|79:236,1,173.599994702149,4|0,1:2|0:0,0:0:0:0:
250,189,177086,2,0,B|340:172|326:237|425:220,1,173.599994702149,10|0,0:0|0:0,0:0:0:0:
434,37,177582,6,0,P|494:96|480:178,1,173.599994702149,2|4,1:2|0:3,0:0:0:0:
395,379,178078,2,0,P|386:336|385:286,1,86.7999973510743,10|0,0:0|0:0,0:0:0:0:
416,221,178408,5,8,0:3:0:0:
295,310,178573,2,0,B|229:305|229:305|185:314|185:314|122:309,1,173.599994702149,4|0,1:2|0:0,0:0:0:0:
28,377,179069,2,0,P|36:335|41:279,1,86.7999973510743,10|0,0:0|0:0,0:0:0:0:
16,97,179400,2,0,P|34:136|64:183,1,86.7999973510743,4|2,0:3|1:2,0:0:0:0:
212,87,179896,5,4,0:3:0:0:
273,34,180061,2,0,P|316:30|366:58,1,86.7999973510743,10|0,0:0|0:0,0:0:0:0:
361,201,180392,69,2,0:3:0:0:
491,139,180557,2,0,P|408:133|361:202,1,173.599994702149,6|0,1:0|0:0,0:0:0:0:
213,267,181053,2,0,P|295:261|343:329,1,173.599994702149,10|0,0:0|0:0,0:0:0:0:
452,295,181549,6,0,P|456:249|444:206,1,86.7999973510743,2|0,1:2|0:0,0:0:0:0:
296,89,181879,1,4,0:3:0:0:
296,89,182044,2,0,P|285:130|289:173,1,86.7999973510743,10|0,0:0|0:0,0:0:0:0:
462,57,182375,5,8,0:3:0:0:
462,57,182540,2,0,B|372:40|386:105|287:88,1,173.599994702149,6|2,1:2|0:0,0:0:0:0:
115,48,183036,2,0,P|157:37|209:27,1,86.7999973510743,10|0,0:0|0:0,0:0:0:0:
165,221,183367,2,0,P|130:195|89:161,1,86.7999973510743,0|2,0:0|1:2,0:0:0:0:
296,89,183863,5,4,0:3:0:0:
333,158,184028,2,0,B|398:151|398:151|443:159|443:159|505:151,1,173.599994702149,10|0,0:0|0:0,0:0:0:0:
506,151,184524,1,4,1:2:0:0:
296,370,185020,70,0,P|299:326|288:285,1,86.7999973510743,10|0,0:0|0:0,0:0:0:0:
256,130,185350,1,2,0:0:0:0:
256,130,185516,2,0,P|245:174|250:220,1,86.7999973510743,0|0,1:0|0:0,0:0:0:0:
288,285,185846,1,2,0:0:0:0:
172,215,186011,2,0,P|130:214|86:233,1,86.7999973510743,10|0,0:0|0:0,0:0:0:0:
38,288,186342,1,2,0:0:0:0:
37,102,186507,6,0,B|70:130|116:136|116:136|159:112|179:72,1,173.599994702149,0|2,1:0|0:0,0:0:0:0:
232,18,187003,2,0,P|274:12|320:32,1,86.7999973510743,10|0,0:0|0:0,0:0:0:0:
447,82,187334,2,0,P|406:97|364:91,1,86.7999973510743,2|4,0:0|0:3,0:0:0:0:
420,315,187830,5,2,0:0:0:0:
420,315,187995,2,0,L|409:200,1,86.7999973510743,10|0,0:0|0:0,0:0:0:0:
319,363,188325,1,4,0:3:0:0:
270,297,188491,6,0,P|221:278|122:338,1,173.599994702149,6|0,1:0|0:0,0:0:0:0:
212,378,188987,2,0,P|175:244|163:205,1,173.599994702149,10|0,0:0|0:0,0:0:0:0:
22,133,189483,2,0,P|89:151|108:154,1,86.7999973510743,0|0,1:0|0:0,0:0:0:0:
245,69,189813,2,0,P|196:117|182:133,1,86.7999973510743,4|10,0:3|0:0,0:0:0:0:
381,312,190309,69,8,0:3:0:0:
405,154,190474,2,0,L|413:259,1,86.7999973510743,4|0,1:2|0:0,0:0:0:0:
381,312,190805,1,8,0:0:0:0:
254,119,190970,6,0,P|172:101|107:154,1,173.599994702149,12|8,0:0|0:3,0:0:0:0:
201,369,191466,2,0,B|194:304|194:304|202:259|202:259|194:197,1,173.599994702149,12|8,0:0|0:0,0:0:0:0:
116,253,191962,5,2,0:1:0:0:
280,222,192127,1,4,0:3:0:0:
116,253,192292,1,8,0:3:0:0:
318,290,192458,6,0,B|408:273|394:338|493:321,1,173.599994702149,4|0,1:2|0:0,0:0:0:0:
474,109,192954,2,0,P|400:144|410:225,1,173.599994702149,10|0,0:0|0:0,0:0:0:0:
474,109,193449,70,0,P|377:117|296:110,1,173.599994702149,2|4,1:2|0:3,0:0:0:0:
203,41,193945,2,0,P|219:80|218:126,1,86.7999973510743,10|0,0:0|0:0,0:0:0:0:
35,185,194276,5,8,0:3:0:0:
35,185,194441,2,0,B|101:148|159:183|159:183|130:178|84:197,1,173.599994702149,4|0,1:2|0:0,0:0:0:0:
151,347,194937,2,0,P|146:303|139:260,1,86.7999973510743,10|0,0:0|0:0,0:0:0:0:
46,99,195268,2,0,P|39:141|34:185,1,86.7999973510743,4|2,0:3|1:2,0:0:0:0:
235,363,195764,5,4,0:3:0:0:
279,295,195929,2,0,P|324:286|372:301,1,86.7999973510743,10|0,0:0|0:0,0:0:0:0:
235,214,196259,5,8,0:3:0:0:
356,124,196425,2,0,B|364:186|364:186|356:231|356:231|363:296,1,173.599994702149,6|0,1:0|0:0,0:0:0:0:
493,365,196921,2,0,P|506:284|441:234,1,173.599994702149,10|4,0:0|0:3,0:0:0:0:
345,106,197416,70,0,P|388:96|440:99,1,86.7999973510743,2|0,1:2|0:0,0:0:0:0:
256,38,197747,1,4,0:3:0:0:
167,106,197912,2,0,P|124:107|80:98,1,86.7999973510743,10|0,0:0|0:0,0:0:0:0:
256,38,198243,5,2,0:3:0:0:
257,210,198408,2,0,B|252:144|252:144|261:100|261:100|256:37,1,173.599994702149,4|0,1:2|0:0,0:0:0:0:
154,222,198904,2,0,B|144:264|144:264|155:306,1,86.7999973510743,10|0,0:0|0:0,0:0:0:0:
357,306,199235,2,0,B|368:264|368:264|358:222,1,86.7999973510743,0|2,1:0|0:1,0:0:0:0:
486,110,199730,5,2,0:0:0:0:
447,180,199896,2,0,B|384:185|384:185|340:176|340:176|274:180,1,173.599994702149,10|0,0:0|0:0,0:0:0:0:
275,181,200392,1,4,1:2:0:0:
451,367,200887,6,0,L|456:271,1,86.7999973510743,10|0,0:0|0:0,0:0:0:0:
317,378,201218,1,2,0:0:0:0:
317,378,201383,2,0,L|312:282,1,86.7999973510743,0|0,1:0|0:0,0:0:0:0:
170,362,201714,1,2,0:0:0:0:
170,362,201879,2,0,L|175:266,1,86.7999973510743,10|0,0:0|0:0,0:0:0:0:
216,113,202210,69,2,0:0:0:0:
97,241,202375,2,0,P|163:191|240:224,1,173.599994702149,0|2,1:2|0:0,0:0:0:0:
41,184,202871,2,0,L|33:97,1,86.7999973510743,10|0,0:0|0:0,0:0:0:0:
208,26,203202,2,0,L|215:112,1,86.7999973510743,2|4,0:0|0:3,0:0:0:0:
486,184,203697,5,2,0:0:0:0:
486,184,203863,2,0,P|435:170|391:183,1,86.7999973510743,10|0,0:0|0:0,0:0:0:0:
284,294,204193,1,4,0:3:0:0:
307,219,204359,6,0,P|354:262|312:367,1,173.599994702149,6|0,1:0|0:0,0:0:0:0:
284,294,204854,2,0,B|194:277|208:342|118:326,1,173.599994702149,10|0,0:0|0:0,0:0:0:0:
227,128,205350,2,0,P|225:171|220:215,1,86.7999973510743,2|0,1:0|0:0,0:0:0:0:
49,278,205681,2,0,P|51:234|56:191,1,86.7999973510743,4|10,0:3|0:0,0:0:0:0:
310,71,206177,5,8,0:3:0:0:
330,148,206342,2,0,B|396:185|454:150|454:150|425:155|379:136,1,173.599994702149,6|8,1:0|0:0,0:0:0:0:
412,147,206838,2,0,P|456:225|401:292,1,173.599994702149,4|2,0:0|0:0,0:0:0:0:
321,264,207334,69,8,0:0:0:0:
256,309,207499,1,8,0:3:0:0:
191,264,207664,1,4,0:3:0:0:
123,309,207830,5,2,0:0:0:0:
108,179,207995,1,8,0:3:0:0:
3,257,208160,1,4,0:3:0:0:
118,154,208325,86,0,B|111:106|111:106|118:72|118:72|112:22,1,130.199996026611,4|2,1:2|0:3,0:0:0:0:
192,40,209317,1,2,0:3:0:0:
271,54,209813,69,2,0:3:0:0:
264,79,209978,1,2,0:3:0:0:
271,104,210144,1,2,0:3:0:0:
341,78,210309,1,4,0:0:0:0:
466,239,210640,5,8,0:0:0:0:
466,239,210805,2,0,P|406:223|341:268,1,144.666666666667,4|8,0:3|0:0,0:0:0:0:
330,340,211218,1,8,0:0:0:0:
330,340,211301,1,8,0:0:0:0:
136,193,211631,5,4,0:3:0:0:
199,241,211797,2,0,P|244:245|288:233,2,72.3333333333333,8|2|2,0:3|0:0|0:0,0:0:0:0:
136,193,212292,54,0,L|132:142,5,36.1666666666667,6|2|2|2|2|2,1:2|0:0|0:0|0:0|0:0|0:0,0:0:0:0:
73,244,212788,2,0,L|70:280,3,36.1666666666667,10|2|2|2,0:0|0:0|0:0|0:0,0:0:0:0:
21,185,213119,101,8,0:3:0:0:
64,117,213284,2,0,L|56:32,1,72.3333333333333,2|0,1:2|0:0,0:0:0:0:
210,136,213615,101,2,0:0:0:0:
210,136,213780,2,0,L|202:51,1,72.3333333333333,10|0,0:0|0:0,0:0:0:0:
356,155,214111,37,2,0:0:0:0:
356,155,214193,1,2,0:0:0:0:
356,155,214276,2,0,L|352:112,5,36.1666666666667,2|2|2|2|2|2,1:2|0:0|0:0|0:0|0:0|0:0,0:0:0:0:
424,199,214772,6,0,P|363:234|297:210,1,144.666666666667,10|8,0:0|0:3,0:0:0:0:
262,282,215268,2,0,P|201:246|135:270,1,144.666666666667,0|4,1:0|0:3,0:0:0:0:
100,340,215764,1,8,0:0:0:0:
136,269,215929,2,0,L|131:197,1,72.3333333333333,2|8,0:0|0:3,0:0:0:0:
22,83,216259,6,0,B|19:136|19:136|27:172|27:172|22:227,1,144.666666666667,2|0,1:2|0:0,0:0:0:0:
138,36,216755,1,10,0:0:0:0:
131,197,216921,1,2,0:0:0:0:
244,83,217086,1,8,0:3:0:0:
92,127,217251,6,0,P|161:122|208:175,1,144.666666666667,2|0,1:2|0:0,0:0:0:0:
270,225,217747,2,0,B|342:237|331:188|413:203,1,144.666666666667,10|8,0:0|0:3,0:0:0:0:
501,234,218243,54,0,P|506:280|498:322,1,72.3333333333333,2|0,1:2|0:0,0:0:0:0:
475,166,218573,1,2,0:0:0:0:
475,166,218739,2,0,P|473:115|479:51,1,108.5,10|2,0:0|0:0,0:0:0:0:
478,57,219069,2,0,P|425:67|393:70,1,72.3333333333333,8|0,0:3|1:0,0:0:0:0:
112,81,219565,101,0,0:0:0:0:
112,81,219730,2,0,P|161:61|235:119,1,144.666666666667,10|2,0:0|0:3,0:0:0:0:
208,184,220226,2,0,B|196:256|245:245|230:327,1,144.666666666667,2|0,1:2|0:0,0:0:0:0:
29,242,220721,101,10,0:0:0:0:
16,321,220887,1,2,0:0:0:0:
78,372,221053,1,8,0:3:0:0:
104,214,221218,38,0,L|97:127,1,72.3333333333333,2|0,1:2|0:0,0:0:0:0:
95,29,221549,1,2,0:0:0:0:
29,73,221714,2,0,P|88:109|153:83,1,144.666666666667,10|8,0:0|0:3,0:0:0:0:
222,122,222210,6,0,P|281:85|345:112,1,144.666666666667,2|0,1:2|0:0,0:0:0:0:
379,184,222706,2,0,B|373:220|373:220|381:269,1,72.3333333333333,10|0,0:0|0:0,0:0:0:0:
458,255,223036,2,0,B|463:219|463:219|457:183,1,72.3333333333333,2|0,0:0|1:0,0:0:0:0:
357,357,223532,5,0,1:0:0:0:
256,285,223697,1,10,0:0:0:0:
256,285,223863,1,2,0:0:0:0:
155,357,224028,1,2,0:3:0:0:
77,339,224193,6,0,P|43:285|70:209,1,144.666666666667,2|0,1:2|0:0,0:0:0:0:
141,184,224689,1,10,0:0:0:0:
60,68,225020,53,8,0:3:0:0:
60,68,225185,1,2,1:2:0:0:
303,150,225516,101,2,0:0:0:0:
303,150,225681,2,0,B|298:95|298:95|306:59|306:59|303:6,1,144.666666666667,10|2,0:0|0:3,0:0:0:0:
384,104,226177,102,0,L|464:109,1,72.3333333333333,6|0,1:2|0:0,0:0:0:0:
303,234,226507,1,2,0:0:0:0:
456,275,226673,38,0,L|384:280,1,72.3333333333333,10|0,0:0|0:0,0:0:0:0:
250,292,227003,1,10,0:0:0:0:
274,368,227168,5,2,1:2:0:0:
303,234,227334,1,2,0:0:0:0:
173,276,227499,1,10,0:0:0:0:
250,292,227664,6,0,L|334:311,2,72.3333333333333,8|8|4,0:3|0:3|0:3,0:0:0:0:
88,378,228160,6,0,B|93:323|93:323|85:287|85:287|88:234,1,144.666666666667,4|0,1:0|0:0,0:0:0:0:
131,167,228656,1,10,0:0:0:0:
6,192,228821,1,2,0:0:0:0:
6,192,228987,1,8,0:3:0:0:
197,229,229152,54,0,B|224:164|224:164|190:99,1,144.666666666667,2|0,1:2|0:0,0:0:0:0:
287,223,229648,1,8,0:0:0:0:
287,223,229813,2,0,L|362:232,1,72.3333333333333,2|8,0:0|0:3,0:0:0:0:
474,104,230144,102,0,B|502:154|483:209|483:209|483:187|474:169,1,144.666666666667,2|0,1:2|0:0,0:0:0:0:
403,142,230640,2,0,P|367:139|333:149,1,72.3333333333333,10|0,0:0|0:0,0:0:0:0:
428,320,230970,101,8,0:3:0:0:
428,320,231135,2,0,L|433:232,1,72.3333333333333,2|0,1:2|0:0,0:0:0:0:
358,360,231466,1,2,0:0:0:0:
309,297,231631,2,0,P|265:278|175:337,1,144.666666666667,10|8,0:0|0:3,0:0:0:0:
96,364,232127,38,0,B|91:309|91:309|99:273|99:273|96:220,1,144.666666666667,2|0,1:2|0:0,0:0:0:0:
22,119,232623,2,0,B|27:174|27:174|19:210|19:210|22:263,1,144.666666666667,10|8,0:0|0:3,0:0:0:0:
131,140,233119,2,0,L|204:148,1,72.3333333333333,2|0,1:2|0:0,0:0:0:0:
211,68,233449,2,0,L|139:60,1,72.3333333333333,2|8,0:0|0:0,0:0:0:0:
280,118,233780,5,2,0:0:0:0:
280,118,233945,1,8,0:3:0:0:
322,50,234111,2,0,P|356:94|321:186,1,144.666666666667,2|0,1:2|0:0,0:0:0:0:
404,214,234606,2,0,P|434:264|400:341,1,144.666666666667,10|8,0:0|0:3,0:0:0:0:
354,275,235102,6,0,B|282:263|293:312|211:297,1,144.666666666667,2|0,1:2|0:0,0:0:0:0:
154,349,235598,2,0,P|117:306|24:321,1,144.666666666667,10|2,0:0|0:3,0:0:0:0:
166,238,236094,5,2,1:2:0:0:
98,196,236259,2,0,P|91:160|97:125,1,72.3333333333333,2|0,0:0|0:0,0:0:0:0:
163,79,236590,2,0,B|235:67|224:116|306:101,1,144.666666666667,10|8,0:0|0:3,0:0:0:0:
371,60,237086,2,0,P|435:63|470:130,1,144.666666666667,2|2,1:2|0:0,0:0:0:0:
436,201,237582,1,8,0:0:0:0:
436,201,237747,2,0,P|434:248|443:284,1,72.3333333333333,2|8,0:0|0:3,0:0:0:0:
504,358,238078,54,0,P|472:320|375:331,1,144.666666666667,2|0,1:2|0:0,0:0:0:0:
298,246,238573,1,10,0:0:0:0:
309,379,238739,1,2,0:0:0:0:
298,246,238904,1,8,0:3:0:0:
250,309,239069,102,0,P|181:321|129:274,1,144.666666666667,2|0,1:2|1:0,0:0:0:0:
58,93,239565,2,0,B|53:148|53:148|61:184|61:184|58:237,1,144.666666666667,10|2,0:0|0:3,0:0:0:0:
167,129,240061,101,2,1:2:0:0:
279,177,240226,1,2,0:0:0:0:
217,72,240392,1,8,0:3:0:0:
204,193,240557,37,10,0:0:0:0:
284,103,240722,1,2,0:0:0:0:
167,129,240887,1,4,0:3:0:0:
301,93,241053,5,2,1:2:0:0:
197,212,241218,1,2,0:2:0:0:
212,53,241383,1,8,0:3:0:0:
293,190,241549,5,10,0:0:0:0:
148,127,241714,1,2,0:0:0:0:
301,93,241879,1,2,0:3:0:0:
197,212,242044,6,0,P|180:293|226:346,1,144.666666666667,2|0,1:0|0:0,0:0:0:0:
293,352,242540,2,0,B|327:341|327:341|370:350,1,72.3333333333333,10|0,0:0|0:0,0:0:0:0:
463,331,242871,1,10,0:0:0:0:
284,277,243036,54,0,B|322:264|322:264|363:272,1,83.1833349199295,2|0,1:2|0:0,0:0:0:0:
465,255,243367,1,10,0:0:0:0:
276,203,243532,70,0,B|319:188|319:188|365:199,1,94.0333290288291,8|8,0:3|0:3,0:0:0:0:
467,182,243863,1,8,0:3:0:0:
279,124,244028,70,0,P|254:60|290:0,1,144.666666666667,6|0,1:0|0:0,0:0:0:0:
472,43,244524,2,0,B|400:31|411:80|333:66,1,144.666666666667,10|8,0:0|0:3,0:0:0:0:
279,124,245020,2,0,P|231:112|194:120,1,72.3333333333333,0|0,1:0|0:0,0:0:0:0:
59,78,245350,2,0,P|93:66|129:68,1,72.3333333333333,0|10,0:0|0:0,0:0:0:0:
139,350,245846,5,8,0:3:0:0:
119,272,246011,2,0,P|71:260|34:268,1,72.3333333333333,2|0,1:0|0:0,0:0:0:0:
139,350,246342,1,0,0:0:0:0:
196,294,246507,2,0,P|244:282|281:290,1,72.3333333333333,10|0,0:0|0:0,0:0:0:0:
417,368,246838,5,8,0:3:0:0:
417,368,247003,2,0,L|406:204,1,144.666666666667,0|2,1:0|1:2,0:0:0:0:
374,150,247499,2,0,L|380:58,1,72.3333333333333,10|0,0:0|0:0,0:0:0:0:
464,54,247830,1,2,0:3:0:0:
407,223,247995,1,2,1:0:0:0:
386,232,248491,85,10,0:0:0:0:
193,117,248821,1,8,0:3:0:0:
260,159,248987,2,0,B|269:194|269:194|263:229,1,72.3333333333333,0|0,1:0|0:0,0:0:0:0:
138,240,249317,2,0,B|129:205|129:205|134:169,1,72.3333333333333,2|10,0:2|0:0,0:0:0:0:
286,344,249813,5,8,0:3:0:0:
286,344,249978,2,0,B|315:363|354:367|354:367|395:352|425:316,1,144.666666666667,0|2,1:0|0:0,0:0:0:0:
411,252,250474,2,0,P|406:206|406:165,1,72.3333333333333,10|0,0:0|0:0,0:0:0:0:
480,71,250805,2,0,P|478:107|475:143,1,72.3333333333333,8|2,0:3|1:0,0:0:0:0:
245,67,251301,5,0,1:0:0:0:
245,67,251466,2,0,B|317:55|306:104|384:90,1,144.666666666667,10|2,0:0|0:3,0:0:0:0:
265,149,251962,86,0,P|236:200|279:283,1,144.666666666667,4|0,1:2|0:0,0:0:0:0:
284,352,252458,2,0,P|254:301|160:297,1,144.666666666667,10|2,0:0|0:2,0:0:0:0:
98,266,252954,6,0,P|167:260|206:201,1,144.666666666667,0|2,1:0|0:0,0:0:0:0:
126,189,253449,2,0,P|122:153|120:117,1,72.3333333333333,8|0,0:0|0:0,0:0:0:0:
210,15,253780,1,2,0:3:0:0:
210,15,253945,1,2,1:0:0:0:
371,216,254276,5,4,0:3:0:0:
418,152,254441,2,0,L|409:75,1,72.3333333333333,10|0,0:0|0:0,0:0:0:0:
371,216,254772,1,8,0:3:0:0:
443,248,254937,2,0,P|465:297|426:373,1,144.666666666667,2|0,1:2|1:0,0:0:0:0:
351,344,255433,2,0,P|316:338|265:341,1,72.3333333333333,10|0,0:0|0:0,0:0:0:0:
205,369,255764,1,2,0:2:0:0:
256,192,255929,1,4,1:2:0:0:
44,352,256425,86,0,B|39:297|39:297|47:261|47:261|44:208,1,144.666666666667,10|8,0:0|0:3,0:0:0:0:
111,37,256921,2,0,L|103:129,1,72.3333333333333,4|0,0:0|0:0,0:0:0:0:
233,200,257251,2,0,L|226:127,1,72.3333333333333,0|10,0:0|0:0,0:0:0:0:
179,297,257747,5,8,0:0:0:0:
397,364,257912,2,0,B|331:359|331:359|287:368|287:368|224:363,1,173.599994702149,12|8,0:0|0:3,0:0:0:0:
453,200,258408,6,0,B|467:240|467:240|456:282,1,86.7999973510743,12|0,0:0|0:0,0:0:0:0:
373,137,258739,1,8,0:0:0:0:
256,286,258904,85,12,0:0:0:0:
256,98,259069,1,4,0:3:0:0:
327,232,259235,5,8,0:3:0:0:
184,151,259400,1,4,0:3:0:0:
328,151,259565,21,8,0:3:0:0:
184,233,259730,1,4,0:3:0:0:
256,74,259896,6,0,P|172:47|96:93,1,173.599994702149,4|0,1:2|0:0,0:0:0:0:
101,298,260392,2,0,P|176:337|256:310,1,173.599994702149,10|0,0:0|0:0,0:0:0:0:
327,232,260887,6,0,B|417:215|403:280|502:263,1,173.599994702149,2|4,1:2|0:3,0:0:0:0:
373,149,261383,2,0,P|366:110|378:54,1,86.7999973510743,10|0,0:0|0:0,0:0:0:0:
256,192,261714,5,8,0:3:0:0:
212,127,261879,2,0,P|126:104|48:175,1,173.599994702149,4|0,1:2|0:0,0:0:0:0:
131,347,262375,2,0,P|138:302|142:261,1,86.7999973510743,10|0,0:0|0:0,0:0:0:0:
72,62,262706,2,0,P|64:106|60:147,1,86.7999973510743,4|2,0:3|1:2,0:0:0:0:
212,301,263202,5,4,0:3:0:0:
142,261,263367,2,0,L|328:287,1,173.599994702149,10|2,0:0|0:3,0:0:0:0:
430,379,263863,70,0,L|405:207,1,173.599994702149,6|0,1:0|0:0,0:0:0:0:
416,43,264359,2,0,P|478:77|467:184,1,173.599994702149,10|0,0:0|0:0,0:0:0:0:
338,163,264854,6,0,P|295:156|256:173,1,86.7999973510743,2|0,1:2|0:0,0:0:0:0:
207,248,265185,1,4,0:3:0:0:
174,163,265350,2,0,P|216:156|256:173,1,86.7999973510743,10|0,0:0|0:0,0:0:0:0:
306,248,265681,5,8,0:3:0:0:
257,1,265846,2,0,B|252:66|252:66|261:110|261:110|256:173,1,173.599994702149,6|2,1:2|0:0,0:0:0:0:
367,370,266342,6,0,L|377:270,1,86.7999973510743,10|0,0:0|0:0,0:0:0:0:
136,283,266673,2,0,L|145:370,1,86.7999973510743,0|2,0:0|1:2,0:0:0:0:
256,174,267168,69,4,0:3:0:0:
202,231,267334,2,0,P|129:240|64:155,1,173.599994702149,10|0,0:0|0:0,0:0:0:0:
65,171,267830,1,4,1:2:0:0:
313,247,268325,6,0,B|352:230|352:230|400:239,1,86.7999973510743,10|0,0:0|0:0,0:0:0:0:
289,97,268656,1,2,0:0:0:0:
289,97,268821,2,0,B|283:139|283:139|255:173,1,86.7999973510743,0|0,1:0|0:0,0:0:0:0:
430,152,269152,1,2,0:0:0:0:
430,152,269317,2,0,B|396:126|396:126|381:84,1,86.7999973510743,10|0,0:0|0:0,0:0:0:0:
349,357,269648,5,2,0:0:0:0:
422,323,269813,2,0,B|357:318|357:318|313:327|313:327|250:322,1,173.599994702149,0|2,1:2|0:0,0:0:0:0:
104,369,270309,2,0,P|146:379|189:371,1,86.7999973510743,10|0,0:0|0:0,0:0:0:0:
190,264,270640,2,0,P|147:256|106:266,1,86.7999973510743,2|4,0:0|0:3,0:0:0:0:
349,357,271135,5,2,0:0:0:0:
411,236,271301,2,0,L|421:322,1,86.7999973510743,10|0,0:0|0:0,0:0:0:0:
288,215,271631,1,4,0:3:0:0:
336,153,271797,70,0,B|401:148|401:148|445:157|445:157|508:152,1,173.599994702149,6|0,1:0|0:0,0:0:0:0:
314,78,272292,2,0,P|258:138|288:215,1,173.599994702149,10|0,0:0|0:0,0:0:0:0:
421,172,272788,2,0,P|379:160|336:153,1,86.7999973510743,0|0,1:0|0:0,0:0:0:0:
156,31,273119,2,0,P|163:73|174:115,1,86.7999973510743,4|10,0:3|0:0,0:0:0:0:
110,353,273615,5,8,0:3:0:0:
98,184,273780,2,0,B|101:228|101:228|117:267|117:267|106:307|106:307|109:352,1,173.599994702149,4|0,1:2|0:0,0:0:0:0:
414,184,274276,2,0,B|410:228|410:228|394:267|394:267|405:307|405:307|402:352,1,173.599994702149,12|0,0:0|0:0,0:0:0:0:
214,225,274772,6,0,B|256:242|256:242|295:227,1,86.7999973510743,12|0,0:0|0:0,0:0:0:0:
256,151,275103,1,8,0:0:0:0:
327,315,275268,6,0,P|254:355|183:313,1,173.599994702149,6|0,1:0|0:0,0:0:0:0:
256,151,275764,70,0,B|293:85|258:27|258:27|261:50|254:69,1,173.599994702149,4|0,1:2|0:0,0:0:0:0:
38,115,276259,2,0,P|78:42|161:45,1,173.599994702149,10|0,0:0|0:0,0:0:0:0:
390,212,276755,6,0,B|386:146|386:146|395:103|395:103|392:40,1,173.599994702149,2|4,1:2|0:3,0:0:0:0:
225,277,277251,2,0,P|270:280|313:283,1,86.7999973510743,10|0,0:0|0:0,0:0:0:0:
471,205,277582,5,8,0:3:0:0:
391,309,277747,2,0,B|301:326|315:261|216:278,1,173.599994702149,4|0,1:2|0:0,0:0:0:0:
137,377,278243,2,0,P|141:327|140:285,1,86.7999973510743,10|0,0:0|0:0,0:0:0:0:
48,117,278573,2,0,P|47:160|51:203,1,86.7999973510743,4|2,0:3|1:2,0:0:0:0:
299,109,279069,5,4,0:3:0:0:
299,109,279235,2,0,B|209:126|223:61|124:78,1,173.599994702149,10|8,0:0|0:3,0:0:0:0:
140,290,279730,70,0,P|196:230|161:156,1,173.599994702149,6|0,1:0|0:0,0:0:0:0:
161,156,280226,2,0,P|178:223|286:236,1,173.599994702149,10|4,0:0|0:3,0:0:0:0:
339,301,280722,6,0,P|379:287|422:291,1,86.7999973510743,2|0,1:2|0:0,0:0:0:0:
496,370,281053,1,4,0:3:0:0:
422,291,281218,2,0,P|408:250|411:206,1,86.7999973510743,10|0,0:0|0:0,0:0:0:0:
453,41,281549,5,2,0:3:0:0:
453,41,281714,2,0,B|437:77|394:101|394:101|348:96|314:69,1,173.599994702149,4|0,1:2|0:0,0:0:0:0:
209,16,282210,2,0,P|218:63|226:117,1,86.7999973510743,10|0,0:0|0:0,0:0:0:0:
35,204,282540,2,0,P|38:160|43:117,1,86.7999973510743,0|2,1:0|0:1,0:0:0:0:
245,303,283036,5,2,0:0:0:0:
245,303,283202,2,0,P|175:255|97:284,1,173.599994702149,10|0,0:0|0:0,0:0:0:0:
68,357,283698,1,4,1:2:0:0:
364,236,284028,69,0,0:0:0:0:
364,236,284193,2,0,P|365:280|372:323,1,86.7999973510743,10|0,0:0|0:0,0:0:0:0:
180,224,284524,1,2,0:0:0:0:
180,224,284689,2,0,P|186:181|188:138,1,86.7999973510743,0|0,1:0|0:0,0:0:0:0:
339,68,285020,1,2,0:0:0:0:
339,68,285185,2,0,P|296:75|252:75,1,86.7999973510743,10|0,0:0|0:0,0:0:0:0:
22,105,285516,5,2,0:0:0:0:
22,105,285681,2,0,B|112:88|98:153|197:136,1,173.599994702149,4|2,1:2|0:0,0:0:0:0:
410,106,286177,2,0,L|400:192,1,86.7999973510743,10|0,0:0|0:0,0:0:0:0:
188,138,286507,2,0,L|179:51,1,86.7999973510743,2|2,0:0|0:1,0:0:0:0:
375,269,287003,5,2,0:0:0:0:
375,269,287168,2,0,L|288:279,1,86.7999973510743,10|0,0:0|0:0,0:0:0:0:
138,209,287499,1,8,0:0:0:0:
261,354,287664,86,0,P|208:291|239:215,1,173.599994702149,6|0,1:0|0:0,0:0:0:0:
310,177,288160,2,0,P|317:141|304:83,1,86.7999973510743,10|0,0:0|0:0,0:0:0:0:
256,34,288491,1,0,0:0:0:0:
133,88,288656,6,0,P|128:142|127:182,2,79.5666690948487,8|8|8,0:0|0:0|0:3,0:0:0:0:
348,188,289152,2,0,P|353:242|353:278,2,68.7166648317338,8|4|4,0:3|0:3|0:3,0:0:0:0:
256,358,289648,85,6,1:0:0:0:
182,275,289978,86,0,P|179:296|180:319,1,36.1666666666667,2|2,0:0|0:0,0:0:0:0:
340,206,290474,54,0,P|342:229|342:250,1,36.1666666666667,2|2,0:0|0:1,0:0:0:0:
154,113,290970,54,0,P|152:133|151:156,1,36.1666666666667,2|2,0:0|0:0,0:0:0:0:
257,21,291466,21,2,0:0:0:0:
257,21,291631,2,0,B|279:102|235:115|256:192,1,173.6,2|0,0:1|0:0,0:0:0:0:
256,192,295598,69,4,1:2:0:0:
333,172,295764,1,8,0:0:0:0:
178,211,295929,1,8,0:0:0:0:
353,244,296094,5,8,0:0:0:0:
159,140,296259,1,8,0:0:0:0:
353,244,296425,1,8,0:0:0:0:
255,107,296590,102,0,P|251:73|248:30,1,72.3333333333333,8|8,0:3|0:3,0:0:0:0:
248,35,296921,1,4,0:3:0:0:
257,277,297086,6,0,P|261:310|264:354,1,72.3333333333333,8|4,0:3|0:3,0:0:0:0:
263,348,297416,1,4,0:3:0:0:
353,244,297582,38,0,P|406:220|505:288,1,173.599994702149,4|0,1:2|0:0,0:0:0:0:
428,380,298078,2,0,B|338:397|352:332|253:349,1,173.599994702149,10|0,0:0|0:0,0:0:0:0:
185,364,298573,6,0,P|89:375|41:319,1,173.599994702149,2|4,1:2|0:3,0:0:0:0:
168,197,299069,2,0,P|171:240|168:284,1,86.7999973510743,10|0,0:0|0:0,0:0:0:0:
46,70,299400,5,8,0:3:0:0:
62,146,299565,2,0,P|154:167|219:106,1,173.599994702149,4|0,1:2|0:0,0:0:0:0:
307,10,300061,2,0,P|297:50|298:96,1,86.7999973510743,10|0,0:0|0:0,0:0:0:0:
465,179,300392,2,0,P|465:134|455:92,1,86.7999973510743,4|2,0:3|1:2,0:0:0:0:
373,334,300887,5,4,0:3:0:0:
373,334,301053,2,0,P|324:272|222:283,1,173.599994702149,10|2,0:0|0:3,0:0:0:0:
173,321,301549,70,0,P|65:340|22:300,1,173.599994702149,4|0,1:0|0:0,0:0:0:0:
37,225,302044,2,0,P|39:181|40:122,1,86.7999973510743,10|0,0:0|0:0,0:0:0:0:
172,164,302375,5,0,0:0:0:0:
172,164,302540,2,0,P|168:120|165:61,1,86.7999973510743,2|0,1:2|0:0,0:0:0:0:
340,164,302871,5,4,0:3:0:0:
340,164,303036,2,0,P|343:120|346:61,1,86.7999973510743,10|0,0:0|0:0,0:0:0:0:
475,225,303367,85,8,0:3:0:0:
475,225,303532,2,0,P|405:252|405:353,1,173.599994702149,6|2,1:2|0:0,0:0:0:0:
466,304,304028,1,10,0:0:0:0:
254,254,304359,5,0,0:0:0:0:
186,292,304524,2,0,B|96:310|109:245|10:264,1,173.599994702149,2|4,1:2|0:3,0:0:0:0:
156,205,305020,2,0,P|177:166|105:71,1,173.599994702149,10|2,0:0|0:3,0:0:0:0:
100,149,305516,6,0,P|190:121|286:86,1,173.599994702149,4|0,1:2|0:0,0:0:0:0:
448,225,306011,2,0,P|358:197|262:162,1,173.599994702149,10|0,0:0|0:0,0:0:0:0:
347,24,306507,6,0,P|357:54|371:121,1,86.7999973510743,2|0,1:2|0:0,0:0:0:0:
261,254,306838,1,4,0:3:0:0:
261,254,307003,2,0,P|269:211|283:170,1,86.7999973510743,10|0,0:0|0:0,0:0:0:0:
406,341,307334,69,8,0:3:0:0:
469,279,307499,2,0,P|401:252|322:312,1,173.599994702149,4|0,1:2|0:0,0:0:0:0:
272,364,307995,2,0,P|225:368|178:352,1,86.7999973510743,10|0,0:0|0:0,0:0:0:0:
35,260,308325,2,0,P|76:248|119:253,1,86.7999973510743,4|2,0:3|1:2,0:0:0:0:
218,50,308821,5,4,0:3:0:0:
218,50,308987,2,0,P|143:36|79:110,1,173.599994702149,10|2,0:0|0:3,0:0:0:0:
256,122,309483,6,0,B|345:140|332:75|431:94,1,173.599994702149,4|0,1:0|0:0,0:0:0:0:
474,150,309978,2,0,P|510:230|449:308,1,173.599994702149,10|0,0:0|0:0,0:0:0:0:
403,337,310474,2,0,P|359:339|316:346,1,86.7999973510743,2|0,1:2|0:0,0:0:0:0:
206,260,310805,2,0,P|248:266|292:267,1,86.7999973510743,4|10,0:3|0:0,0:0:0:0:
123,373,311301,5,8,0:3:0:0:
123,201,311466,2,0,B|118:263|118:263|127:307|127:307|123:373,1,173.599994702149,6|2,1:2|0:0,0:0:0:0:
77,135,311962,2,0,B|117:118|117:118|165:128,1,86.7999973510743,10|0,0:0|0:0,0:0:0:0:
435,135,312292,69,0,0:0:0:0:
435,135,312458,2,0,B|395:118|395:118|352:126,1,86.7999973510743,12|0,0:0|0:0,0:0:0:0:
256,207,312788,5,4,0:3:0:0:
256,35,312954,2,0,B|261:97|261:97|252:141|252:141|256:207,1,173.599994702149,4|8,0:3|0:3,0:0:0:0:
330,358,313449,6,0,P|256:320|183:360,1,173.599994702149,4|0,1:2|0:0,0:0:0:0:
121,311,313945,2,0,P|129:219|135:129,1,173.599994702149,10|0,0:0|0:0,0:0:0:0:
31,45,314441,6,0,P|36:131|44:218,1,173.599994702149,2|4,1:2|0:3,0:0:0:0:
135,138,314937,2,0,P|167:131|231:143,1,86.7999973510743,10|0,0:0|0:0,0:0:0:0:
451,203,315268,69,8,0:3:0:0:
416,133,315433,2,0,P|313:146|285:206,1,173.599994702149,4|0,1:2|0:0,0:0:0:0:
446,289,315929,2,0,P|449:242|451:203,1,86.7999973510743,10|0,0:0|0:0,0:0:0:0:
278,288,316259,2,0,P|279:331|282:374,1,86.7999973510743,4|2,0:3|1:2,0:0:0:0:
485,93,316755,5,4,0:3:0:0:
416,133,316921,2,0,B|327:151|340:86|241:105,1,173.599994702149,10|2,0:0|0:3,0:0:0:0:
200,170,317416,6,0,P|166:94|215:27,1,173.599994702149,4|0,1:0|0:0,0:0:0:0:
293,186,317912,2,0,P|293:228|285:285,1,86.7999973510743,10|0,0:0|0:0,0:0:0:0:
123,191,318243,5,0,0:0:0:0:
123,190,318408,2,0,P|124:234|129:277,1,86.7999973510743,2|0,1:2|0:0,0:0:0:0:
367,181,318739,69,4,0:3:0:0:
367,181,318904,2,0,P|366:226|359:281,1,86.7999973510743,10|0,0:0|0:0,0:0:0:0:
184,368,319235,5,8,0:3:0:0:
184,368,319400,2,0,P|173:260|230:231,1,173.599994702149,6|2,1:2|0:0,0:0:0:0:
235,309,319896,1,10,0:0:0:0:
40,150,320226,5,0,0:0:0:0:
40,150,320392,2,0,B|129:168|116:103|215:122,1,173.599994702149,2|0,1:2|0:0,0:0:0:0:
267,68,320887,2,0,P|345:117|414:68,1,173.599994702149,10|2,0:0|0:3,0:0:0:0:
452,148,321383,6,0,P|438:244|427:341,1,173.599994702149,4|0,1:2|0:0,0:0:0:0:
274,196,321879,2,0,P|286:282|297:369,1,173.599994702149,10|0,0:0|0:0,0:0:0:0:
186,232,322375,2,0,P|138:217|87:214,1,86.7999973510743,2|0,1:2|0:0,0:0:0:0:
42,368,322706,1,4,0:3:0:0:
42,368,322871,2,0,P|93:364|141:350,1,86.7999973510743,10|0,0:0|0:0,0:0:0:0:
186,232,323202,69,8,0:3:0:0:
186,232,323367,2,0,B|181:166|181:166|190:122|190:122|185:59,1,173.599994702149,4|0,1:2|0:0,0:0:0:0:
349,180,323863,2,0,L|262:173,1,86.7999973510743,10|0,0:0|0:0,0:0:0:0:
98,66,324193,2,0,L|185:60,1,86.7999973510743,4|2,0:3|0:0,0:0:0:0:
439,45,324689,5,4,0:3:0:0:
439,45,324854,2,0,L|450:224,1,173.599994702149,10|2,0:0|0:3,0:0:0:0:
373,377,325350,6,0,P|396:317|321:222,1,173.599994702149,4|0,1:0|0:0,0:0:0:0:
139,377,325846,2,0,P|116:317|191:222,1,173.599994702149,10|0,0:0|0:0,0:0:0:0:
298,364,326342,2,0,P|255:372|213:364,1,86.7999973510743,2|0,1:2|0:0,0:0:0:0:
214,169,326673,2,0,P|256:160|298:169,1,86.7999973510743,4|10,0:3|0:0,0:0:0:0:
33,220,327168,5,8,0:3:0:0:
33,220,327334,2,0,L|27:40,1,173.599994702149,6|2,1:2|0:0,0:0:0:0:
121,89,327830,2,0,L|116:175,1,86.7999973510743,10|0,0:0|0:0,0:0:0:0:
395,175,328160,69,0,0:0:0:0:
395,175,328325,2,0,L|391:88,1,86.7999973510743,12|0,0:0|0:0,0:0:0:0:
256,229,328655,5,4,0:3:0:0:
196,176,328821,2,0,B|255:113|255:113|316:175,1,173.599994702149,4|8,0:3|0:3,0:0:0:0:
256,229,329317,6,0,B|219:295|254:353|254:353|249:324|268:278,1,173.599994702149,4|0,1:2|0:0,0:0:0:0:
351,248,329813,2,0,P|431:237|485:313,1,173.599994702149,10|0,0:0|0:0,0:0:0:0:
257,310,330309,6,0,B|168:292|181:357|82:338,1,173.599994702149,2|4,1:2|0:3,0:0:0:0:
40,277,330805,2,0,P|37:243|44:185,1,86.7999973510743,10|0,0:0|0:0,0:0:0:0:
66,34,331135,69,8,0:3:0:0:
66,34,331301,2,0,P|76:115|155:136,1,173.599994702149,4|0,1:2|0:0,0:0:0:0:
206,75,331797,2,0,P|251:66|298:68,1,86.7999973510743,10|0,0:0|0:0,0:0:0:0:
456,35,332127,2,0,P|412:35|370:27,1,86.7999973510743,4|2,0:3|1:2,0:0:0:0:
494,252,332623,5,4,0:3:0:0:
432,188,332788,2,0,P|405:266|455:332,1,173.599994702149,10|2,0:0|0:3,0:0:0:0:
372,243,333284,6,0,B|283:261|296:196|197:215,1,173.599994702149,4|0,1:0|0:0,0:0:0:0:
214,381,333780,2,0,P|226:339|232:296,1,86.7999973510743,10|0,0:0|0:0,0:0:0:0:
45,260,334111,5,0,0:0:0:0:
45,260,334276,2,0,P|32:218|26:175,1,86.7999973510743,2|0,1:2|0:0,0:0:0:0:
248,128,334606,69,4,0:3:0:0:
248,128,334771,2,0,P|260:86|266:43,1,86.7999973510743,10|0,0:0|0:0,0:0:0:0:
12,97,335102,5,8,0:3:0:0:
12,97,335268,2,0,B|101:115|88:50|187:69,1,173.599994702149,6|2,1:2|0:0,0:0:0:0:
321,149,335764,2,0,P|370:157|412:157,1,86.7999973510743,10|0,0:0|0:0,0:0:0:0:
352,35,336094,2,0,P|308:35|265:43,1,86.7999973510743,0|2,0:0|1:2,0:0:0:0:
416,362,336590,5,4,0:3:0:0:
378,291,336755,2,0,P|321:274|228:350,1,173.599994702149,10|2,0:0|0:3,0:0:0:0:
90,300,337251,6,0,P|171:279|233:335,1,173.599994702149,4|0,1:2|0:0,0:0:0:0:
50,231,337747,2,0,B|32:142|97:155|78:56,1,173.599994702149,10|0,0:0|0:0,0:0:0:0:
134,203,338243,2,0,P|175:209|231:199,1,86.7999973510743,2|0,1:2|0:0,0:0:0:0:
259,39,338573,1,4,0:3:0:0:
259,39,338739,2,0,P|256:98|256:148,1,86.7999973510743,10|0,0:0|0:0,0:0:0:0:
476,216,339069,69,8,0:3:0:0:
422,156,339235,2,0,P|353:170|319:266,1,173.599994702149,4|0,1:2|0:0,0:0:0:0:
368,319,339730,2,0,P|416:324|464:316,1,86.7999973510743,10|0,0:0|0:0,0:0:0:0:
317,259,340061,2,0,P|269:254|221:262,1,86.7999973510743,4|2,0:3|1:2,0:0:0:0:
66,367,340557,5,4,0:3:0:0:
66,367,340722,2,0,P|70:305|71:175,1,173.599994702149,10|2,0:0|0:3,0:0:0:0:
40,119,341218,6,0,P|91:169|189:139,1,173.599994702149,4|0,1:0|0:0,0:0:0:0:
197,67,341714,2,0,P|146:17|48:47,1,173.599994702149,10|0,0:0|0:0,0:0:0:0:
183,147,342210,2,0,P|241:148|297:139,1,86.7999973510743,2|0,1:2|0:0,0:0:0:0:
340,3,342540,2,0,P|332:46|328:89,1,86.7999973510743,4|10,0:3|0:0,0:0:0:0:
372,333,343036,5,8,0:3:0:0:
372,333,343201,2,0,P|402:255|355:185,1,173.599994702149,6|2,1:2|0:0,0:0:0:0:
301,290,343697,2,0,B|212:272|225:337|134:319,1,173.599994702149,10|0,0:0|0:0,0:0:0:0:
136,320,344193,1,12,0:0:0:0:
49,129,344524,53,4,0:3:0:0:
49,129,344689,2,0,P|104:107|168:165,1,130.199996026611,4|8,0:3|0:3,0:0:0:0:
99,178,345185,1,4,1:2:0:0:
