osu file format v14

[General]
AudioFilename: audio.mp3
AudioLeadIn: 0
PreviewTime: 279896
Countdown: 0
SampleSet: Normal
StackLeniency: 0.7
Mode: 1
LetterboxInBreaks: 0
EpilepsyWarning: 1
WidescreenStoryboard: 1

[Editor]
Bookmarks: -8,23991,45933,67876,89944,100969,122912,144855,166798,199712,243849,279978,300090,307354,317149,336349,355585,378654,389203
DistanceSpacing: 2.1
BeatDivisor: 12
GridSize: 32
TimelineZoom: 3.599999

[Metadata]
Title:osu!taiko Mashup
TitleUnicode:osu!taiko Mashup
Artist:Various Artists
ArtistUnicode:Various Artists
Creator:Hivie
Version:Capu & Hivie's Reminiscence
Source:
Tags:osutaiko collaboration compilation marathon capu metzo electronic instrumental japanese anime j-pop dnb drum and bass Sakuzyo 削除 Future Coaster ESTi HELIX (Edit ver.) Feryquitous Central Nucleus sanj last minute (sakuraburst remix) neurofunk experimental Camellia かめりあ Σtealth-Δash Stealth-Dash かめるかめりあ KamelCamellia cametek ZYTOKINE Dancing Dollz feat. cold kiss - REDALiCE Remix dolls I Can Fly In The Universe KASAI HARCORES 葛西ハーコーズ Cycle Hit サイクルヒット Light it up RIOT Overkill hardcore dubstep edm AAAA Chazuke ああああ茶漬け Hop Step Adventure☆ Adventure* 梅干茶漬け Umeboshi chiptune Koe 声 feat. Sennzai WHITEOUT Kaneko Chiharu かねこちはる rhythm video game sdvx SOUND VOLTEX IV HEAVENLY HAVEN Expander Move That Body Aqours Thank you, FRIENDS!! (ginka*EX -Farewell Remix-) ラブライブ!サンシャイン!! love live! sunshine!! Exit This Earth's Atomosphere (Camellia's ''PLANETARY//200STEP'' Remix) DJ Sharpnel IVALTEK j-core jcore Nog Aether Ritual 東方Project touhou English atmosphere Rhuzerv
BeatmapID:2686763
BeatmapSetID:1294864

[Difficulty]
HPDrainRate:5
CircleSize:2
OverallDifficulty:7.2
ApproachRate:9
SliderMultiplier:1.4
SliderTickRate:1

[Events]
//Background and Video events
0,0,"capu is a cutie.jpg",0,0
//Break Periods
//Storyboard Layer 0 (Background)
//Storyboard Layer 1 (Fail)
//Storyboard Layer 2 (Pass)
//Storyboard Layer 3 (Foreground)
//Storyboard Layer 4 (Overlay)
//Storyboard Sound Samples

[TimingPoints]
-8,333.333333333333,4,1,0,100,1,0
2239,-125,4,1,0,100,0,0
2573,-100,4,1,0,100,0,0
3489,-111.111111111111,4,1,0,100,0,0
12823,-111.111111111111,4,1,0,100,0,0
12906,-109.090869421502,4,1,0,100,0,0
12989,-107.142895408177,4,1,0,100,0,0
13156,-103.448240190262,4,1,0,100,0,0
13239,-101.694949727102,4,1,0,100,0,0
13323,-100,4,1,0,100,0,0
21323,-100,4,1,0,100,0,0
21406,-99.4671544535921,4,1,0,100,0,0
21489,-98.9399572975144,4,1,0,100,0,0
21573,-98.4183191922612,4,1,0,100,0,0
21656,-97.9020568243118,4,1,0,100,0,0
21739,-97.3912772476446,4,1,0,100,0,0
21823,-96.8857997389896,4,1,0,100,0,0
21878,-96.5517507728968,4,1,0,100,0,0
21934,-96.2199048192702,4,1,0,100,0,0
21989,-95.8904240945786,4,1,0,100,0,0
22073,-95.4003667190097,4,1,0,100,0,0
22156,-94.9152928468988,4,1,0,100,0,0
22212,-94.594581811543,4,1,0,100,0,0
22267,-94.2761196703353,4,1,0,100,0,0
22323,-93.9597063195419,4,1,0,100,0,0
22378,-93.6454974776585,4,1,0,100,0,0
22434,-93.3332960000149,4,1,0,100,0,0
22489,-93.0232558139535,4,1,0,100,0,0
22656,-92.1052873961283,4,1,0,100,0,0
22739,-91.6530638244441,4,1,0,100,0,0
22823,-91.2051760761527,4,1,0,100,0,0
22906,-90.7617268689201,4,1,0,100,0,0
22989,-90.3225689906363,4,1,0,100,0,0
23045,-90.0321775002386,4,1,0,100,0,0
23101,-89.7435667324188,4,1,0,100,0,0
23156,-89.4568804417738,4,1,0,100,0,0
23239,-89.0302293240647,4,1,0,100,0,0
23323,-88.6076285851754,4,1,0,100,0,0
23406,-88.1889430466987,4,1,0,100,0,0
23489,-87.7742726584896,4,1,0,100,0,0
23573,-87.3634836363827,4,1,0,100,0,0
23656,-86.9565217391304,4,1,0,100,0,0
23991,342.857142857143,4,1,0,100,1,0
23991,-100,4,1,0,100,0,0
45933,-100,4,1,0,100,0,1
46103,-86.9565217391304,4,1,0,100,0,1
56562,-86.9565217391304,4,1,0,100,0,0
56905,-86.9565217391304,4,1,0,100,0,1
65303,-86.9565217391304,4,1,0,100,0,1
65389,-86.6666782222238,4,1,0,100,0,1
65474,-86.3787604993383,4,1,0,100,0,1
65560,-86.0927494408276,4,1,0,100,0,1
65646,-85.8085525384315,4,1,0,100,0,1
65731,-85.5262989092831,4,1,0,100,0,1
65817,-85.2458960494494,4,1,0,100,0,1
65903,-84.9673258148579,4,1,0,100,0,1
65988,-84.6905702978313,4,1,0,100,0,1
66074,-84.4156118232506,4,1,0,100,0,1
66160,-84.142362145361,4,1,0,100,0,1
66217,-83.9612233486087,4,1,0,100,0,1
66274,-83.7808627753249,4,1,0,100,0,1
66331,-83.6012754210578,4,1,0,100,0,1
66417,-83.3333333333333,4,1,0,100,0,1
66503,-83.0671032673614,4,1,0,100,0,1
66588,-82.8025688668965,4,1,0,100,0,1
66674,-82.5397139833831,4,1,0,100,0,1
66760,-82.2784549751725,4,1,0,100,0,1
66846,-82.0189119207107,4,1,0,100,0,1
66903,-81.8467909919422,4,1,0,100,0,1
66960,-81.6753909596777,4,1,0,100,0,1
67017,-81.5047073043704,4,1,0,100,0,1
67103,-81.2500152343779,4,1,0,100,0,1
67188,-80.9969099678847,4,1,0,100,0,1
67246,-80.8290473730964,4,1,0,100,0,1
67303,-80.6618140519333,4,1,0,100,0,1
67360,-80.4953361002264,4,1,0,100,0,1
67446,-80.2469036732218,4,1,0,100,0,1
67533,-80,4,1,0,100,0,0
67876,344.827586206897,4,1,0,100,1,0
77874,-100,4,1,0,100,0,0
77960,-98.6547439120158,4,1,0,100,0,0
78046,-97.3451068995291,4,1,0,100,0,0
78132,-96.0698773860155,4,1,0,100,0,0
78218,-94.8276270808737,4,1,0,100,0,0
78305,-93.6170053417863,4,1,0,100,0,0
78391,-92.4369903255446,4,1,0,100,0,0
78563,-90.1639270357437,4,1,0,100,0,0
78736,-87.999971840009,4,1,0,100,0,0
78822,-86.9565217391304,4,1,0,100,0,0
78994,-100,4,1,0,100,0,0
89942,-100,4,1,0,100,0,0
90115,-99.4579541498831,4,1,0,100,0,0
90201,-99.1890304867404,4,1,0,100,0,0
90374,-98.6557171974673,4,1,0,100,0,0
90460,-98.3912054004965,4,1,0,100,0,0
90632,-97.8663185235496,4,1,0,100,0,0
90718,-97.6060172157493,4,1,0,100,0,0
90805,-97.3470969148758,4,1,0,100,0,0
90977,-96.8333556050051,4,1,0,100,0,0
91149,-96.3249154989679,4,1,0,100,0,0
91236,-96.0727385918427,4,1,0,100,0,0
91322,-95.8218786262592,4,1,0,100,0,0
91494,-95.3239776026782,4,1,0,100,0,0
91580,-95.0770076223237,4,1,0,100,0,0
91667,-94.8313140585526,4,1,0,100,0,0
91753,-94.5868870415019,4,1,0,100,0,0
91839,-94.3436277955196,4,1,0,100,0,0
92011,-93.8610199877042,4,1,0,100,0,0
92184,-93.3833245397369,4,1,0,100,0,0
92270,-93.1462088095821,4,1,0,100,0,0
92356,-92.9103805051723,4,1,0,100,0,0
92529,-92.4422882794272,4,1,0,100,0,0
92586,-92.2872755227382,4,1,0,100,0,0
92644,-92.1327817650798,4,1,0,100,0,0
92701,-91.9788044043131,4,1,0,100,0,0
92874,-91.520028700681,4,1,0,100,0,0
92960,-91.292352804775,4,1,0,100,0,0
93132,-90.8403000273429,4,1,0,100,0,0
93218,-90.6159893725568,4,1,0,100,0,0
93305,-90.3927837632866,4,1,0,100,0,0
93391,-90.1706750537417,4,1,0,100,0,0
93563,-89.7296356348686,4,1,0,100,0,0
93649,-89.5107699358387,4,1,0,100,0,0
93736,-89.2929693394731,4,1,0,100,0,0
93908,-88.8604535437549,4,1,0,100,0,0
93994,-88.6458023996419,4,1,0,100,0,0
94080,-88.4321857783359,4,1,0,100,0,0
94253,-88.0080263320015,4,1,0,100,0,0
94339,-87.7973917150869,4,1,0,100,0,0
94425,-87.5878396546937,4,1,0,100,0,0
94511,-87.3792855170582,4,1,0,100,0,0
94598,-87.1717221906951,4,1,0,100,0,0
94770,-86.7594645899921,4,1,0,100,0,0
94856,-86.5548320533316,4,1,0,100,0,0
94942,-86.3511625457014,4,1,0,100,0,0
95029,-86.1484492848386,4,1,0,100,0,0
95115,-85.9466855520184,4,1,0,100,0,0
95287,-85.5459069277642,4,1,0,100,0,0
95345,-85.4131433745025,4,1,0,100,0,0
95402,-85.2807912692937,4,1,0,100,0,0
95460,-85.1489212057428,4,1,0,100,0,0
95546,-84.9517346719461,4,1,0,100,0,0
95632,-84.7555311459626,4,1,0,100,0,0
95718,-84.5602318303316,4,1,0,100,0,0
95805,-84.3658304887988,4,1,0,100,0,0
95891,-84.172320942326,4,1,0,100,0,0
95977,-83.9796265426008,4,1,0,100,0,0
96063,-83.7878825964189,4,1,0,100,0,0
96149,-83.5970122427824,4,1,0,100,0,0
96235,-83.4070095250805,4,1,0,100,0,0
96321,-83.2178685407331,4,1,0,100,0,0
96407,-83.0295145015199,4,1,0,100,0,0
96494,-82.8420798001186,4,1,0,100,0,0
96580,-82.6554894403479,4,1,0,100,0,0
96666,-82.4697377297401,4,1,0,100,0,0
96753,-82.2848190268833,4,1,0,100,0,0
96839,-82.1006603356111,4,1,0,100,0,0
96925,-81.9173912259921,4,1,0,100,0,0
97011,-81.7349384985455,4,1,0,100,0,0
97098,-81.5532967104662,4,1,0,100,0,0
97184,-81.3724604672244,4,1,0,100,0,0
97270,-81.1923584999874,4,1,0,100,0,0
97356,-81.0131176440089,4,1,0,100,0,0
97442,-80.8346664317072,4,1,0,100,0,0
97529,-80.6569996564012,4,1,0,100,0,0
97615,-80.4800473866519,4,1,0,100,0,0
97701,-80.3039343306547,4,1,0,100,0,0
97787,-80.1285903618126,4,1,0,100,0,0
97874,-79.9540104531873,4,1,0,100,0,0
97960,-79.7801896215547,4,1,0,100,0,0
98046,-79.6070595540413,4,1,0,100,0,0
98132,-79.4347423732718,4,1,0,100,0,0
98218,-79.263169575625,4,1,0,100,0,0
98276,-79.1491779962119,4,1,0,100,0,0
98333,-79.0355138177789,4,1,0,100,0,0
98391,-78.9222379189784,4,1,0,100,0,0
98477,-78.7528075375887,4,1,0,100,0,0
98563,-78.5841648192839,4,1,0,100,0,0
98621,-78.4721165028431,4,1,0,100,0,0
98678,-78.3604486605849,4,1,0,100,0,0
98736,-78.2490369499777,4,1,0,100,0,0
98822,-78.0825426174518,4,1,0,100,0,0
98908,-77.9166945868156,4,1,0,100,0,0
98965,-77.8066008007855,4,1,0,100,0,0
99023,-77.696757325833,4,1,0,100,0,0
99080,-77.5872235567225,4,1,0,100,0,0
99167,-77.4235307143017,4,1,0,100,0,0
99253,-77.2605271331245,4,1,0,100,0,0
99310,-77.1522190135472,4,1,0,100,0,0
99368,-77.044214133607,4,1,0,100,0,0
99427,342.857142857143,4,1,0,100,1,8
99427,-76.9365112215748,4,1,0,100,0,0
99598,342.857142857143,4,1,0,100,1,0
99598,-83.3333333333333,4,1,0,100,0,0
100196,-90.9090909090909,4,1,0,100,0,0
100538,-100,4,1,0,100,0,0
100969,-90.9090909090909,4,1,0,100,0,1
111255,-93.4579439252336,4,1,0,100,0,1
111338,-96.1538461538461,4,1,0,100,0,1
111596,-99.009900990099,4,1,0,100,0,1
111940,-102.040816326531,4,1,0,100,0,0
112283,-90.9090909090909,4,1,0,100,0,1
122912,-100,4,1,0,100,0,0
132681,-90.9090909090909,4,1,0,100,0,0
132738,-92.5925925925926,4,1,0,100,0,0
132796,-94.3396226415094,4,1,0,100,0,0
132853,-96.1538461538461,4,1,0,100,0,0
133024,-100,4,1,0,100,0,0
133081,-98.0392156862745,4,1,0,100,0,0
133138,-96.1538461538461,4,1,0,100,0,0
133196,-94.3396226415094,4,1,0,100,0,0
133281,-92.5925925925926,4,1,0,100,0,0
133367,-90.9090909090909,4,1,0,100,0,0
133453,-89.2857142857143,4,1,0,100,0,0
133538,-87.719298245614,4,1,0,100,0,0
133881,-100,4,1,0,100,0,0
142281,-100,4,1,0,100,0,0
142453,-96.9091786559472,4,1,0,100,0,0
142624,-94.0037808320651,4,1,0,100,0,0
142796,-91.2674400669538,4,1,0,100,0,0
142967,-88.6858967252733,4,1,0,100,0,0
143138,-86.2464509585431,4,1,0,100,0,0
143310,-83.9375437524447,4,1,0,100,0,0
143481,-81.7490369963442,4,1,0,100,0,0
143567,-80.6970286547079,4,1,0,100,0,0
143653,-79.6717523801936,4,1,0,100,0,0
143738,-78.6722639360048,4,1,0,100,0,0
143824,-77.6974817469191,4,1,0,100,0,0
143910,-76.7465598354554,4,1,0,100,0,0
143996,-75.8186327322685,4,1,0,100,0,0
144081,-74.9128763248342,4,1,0,100,0,0
144167,-74.0285054162956,4,1,0,100,0,0
144424,-83.3333333333333,4,1,0,100,0,0
144681,-95.2380952380954,4,1,0,100,0,0
144853,-83.3333333333333,4,1,0,100,0,0
145024,-90.9090909090909,4,1,0,100,0,0
145367,-100,4,1,0,100,0,0
145424,-99.009900990099,4,1,0,100,0,0
145481,-98.0392156862745,4,1,0,100,0,0
145538,-97.0873786407767,4,1,0,100,0,0
145624,-95.6937799043062,4,1,0,100,0,0
145710,-94.3396226415094,4,1,0,100,0,0
145796,-93.0232558139535,4,1,0,100,0,0
145881,-91.743119266055,4,1,0,100,0,0
145967,-90.4977375565611,4,1,0,100,0,0
146053,-89.2857142857143,4,1,0,100,0,0
146138,-88.1057268722467,4,1,0,100,0,0
146224,-86.9565217391304,4,1,0,100,0,0
146481,-100,4,1,0,100,0,0
146738,-100,4,1,0,100,0,0
146795,-99.009900990099,4,1,0,100,0,0
146852,-98.0392156862745,4,1,0,100,0,0
146909,-97.0873786407767,4,1,0,100,0,0
146995,-95.6937799043062,4,1,0,100,0,0
147081,-94.3396226415094,4,1,0,100,0,0
147167,-93.0232558139535,4,1,0,100,0,0
147252,-91.743119266055,4,1,0,100,0,0
147338,-90.4977375565611,4,1,0,100,0,0
147424,-89.2857142857143,4,1,0,100,0,0
147509,-88.1057268722467,4,1,0,100,0,0
147595,-86.9565217391304,4,1,0,100,0,0
147767,-89.2857142857143,4,1,0,100,0,0
147853,-91.743119266055,4,1,0,100,0,0
147938,-94.3396226415094,4,1,0,100,0,0
148024,-97.0873786407767,4,1,0,100,0,0
148110,-100,4,1,0,100,0,0
148281,-97.0873786407767,4,1,0,100,0,0
148367,-95.6937799043062,4,1,0,100,0,0
148453,-94.3396226415094,4,1,0,100,0,0
148539,-93.0232558139535,4,1,0,100,0,0
148624,-91.743119266055,4,1,0,100,0,0
148710,-90.4977375565611,4,1,0,100,0,0
148796,-89.2857142857143,4,1,0,100,0,0
148881,-88.1057268722467,4,1,0,100,0,0
150853,-100,4,1,0,100,0,0
150910,-99.009900990099,4,1,0,100,0,0
150967,-98.0392156862745,4,1,0,100,0,0
151024,-97.0873786407767,4,1,0,100,0,0
151110,-95.6937799043062,4,1,0,100,0,0
151196,-94.3396226415094,4,1,0,100,0,0
151282,-93.0232558139535,4,1,0,100,0,0
151367,-91.743119266055,4,1,0,100,0,0
151453,-90.4977375565611,4,1,0,100,0,0
151539,-89.2857142857143,4,1,0,100,0,0
151624,-88.1057268722467,4,1,0,100,0,0
151710,-86.9565217391304,4,1,0,100,0,0
152224,-100,4,1,0,100,0,0
152281,-99.009900990099,4,1,0,100,0,0
152338,-98.0392156862745,4,1,0,100,0,0
152395,-97.0873786407767,4,1,0,100,0,0
152481,-95.6937799043062,4,1,0,100,0,0
152567,-94.3396226415094,4,1,0,100,0,0
152653,-93.0232558139535,4,1,0,100,0,0
152738,-91.743119266055,4,1,0,100,0,0
152824,-90.4977375565611,4,1,0,100,0,0
152910,-89.2857142857143,4,1,0,100,0,0
152995,-88.1057268722467,4,1,0,100,0,0
153081,-86.9565217391304,4,1,0,100,0,0
153253,-89.2857142857143,4,1,0,100,0,0
153339,-91.743119266055,4,1,0,100,0,0
153424,-94.3396226415094,4,1,0,100,0,0
153510,-97.0873786407767,4,1,0,100,0,0
153596,-100,4,1,0,100,0,0
153767,-97.0873786407767,4,1,0,100,0,0
153853,-95.6937799043062,4,1,0,100,0,0
153939,-94.3396226415094,4,1,0,100,0,0
154025,-93.0232558139535,4,1,0,100,0,0
154110,-91.743119266055,4,1,0,100,0,0
154196,-90.4977375565611,4,1,0,100,0,0
154282,-89.2857142857143,4,1,0,100,0,0
154367,-88.1057268722467,4,1,0,100,0,0
154453,-86.9565217391304,4,1,0,100,0,0
156338,-100,4,1,0,100,0,0
156396,-98.3739765417416,4,1,0,100,0,0
156453,-96.799986060802,4,1,0,100,0,0
156510,-95.2755702957449,4,1,0,100,0,0
156596,-93.0769373964519,4,1,0,100,0,0
156681,-90.9774066708274,4,1,0,100,0,0
156767,-88.9705836559259,4,1,0,100,0,0
156853,-87.0503847627006,4,1,0,100,0,0
156938,-85.2112472029408,4,1,0,100,0,0
157024,-83.4482833436392,4,1,0,100,0,0
157110,-81.7567899014013,4,1,0,100,0,0
157196,-80.1324429016278,4,1,0,100,0,0
157453,-86.9565217391304,4,1,0,100,0,0
157710,-100,4,1,0,100,0,0
157768,-98.3739765417416,4,1,0,100,0,0
157825,-96.799986060802,4,1,0,100,0,0
157882,-95.2755702957449,4,1,0,100,0,0
157968,-93.0769373964519,4,1,0,100,0,0
158053,-90.9774066708274,4,1,0,100,0,0
158139,-88.9705836559259,4,1,0,100,0,0
158225,-87.0503847627006,4,1,0,100,0,0
158310,-85.2112472029408,4,1,0,100,0,0
158396,-83.4482833436392,4,1,0,100,0,0
158482,-81.7567899014013,4,1,0,100,0,0
158568,-80.1324429016278,4,1,0,100,0,0
158738,-81.9672131147541,4,1,0,100,0,0
158824,-84.0336134453781,4,1,0,100,0,0
158910,-86.2068965517241,4,1,0,100,0,0
159081,-88.4955752212389,4,1,0,100,0,0
159253,-95.2755702957449,4,1,0,100,0,0
159339,-93.0769373964519,4,1,0,100,0,0
159424,-90.9774066708274,4,1,0,100,0,0
159510,-88.9705836559259,4,1,0,100,0,0
159596,-87.0503847627006,4,1,0,100,0,0
159681,-85.2112472029408,4,1,0,100,0,0
159767,-83.4482833436392,4,1,0,100,0,0
159853,-81.7567899014013,4,1,0,100,0,0
159939,-80.1324429016278,4,1,0,100,0,0
160110,-87.1130221772332,4,1,0,100,0,0
160281,-90.9090909090909,4,1,0,100,0,0
160453,-93.0083744740376,4,1,0,100,0,0
160538,-94.0947100894935,4,1,0,100,0,0
160710,-96.3455181510139,4,1,0,100,0,0
160796,-97.5117916134008,4,1,0,100,0,0
160967,-99.9310475771717,4,1,0,100,0,0
161053,-101.186308278254,4,1,0,100,0,0
161138,-102.473505475159,4,1,0,100,0,0
161224,-103.7938736704,4,1,0,100,0,0
161310,-105.148711823131,4,1,0,100,0,0
161824,-100,4,1,0,100,0,0
161882,-98.3739765417416,4,1,0,100,0,0
161939,-96.799986060802,4,1,0,100,0,0
161996,-95.2755702957449,4,1,0,100,0,0
162082,-93.0769373964519,4,1,0,100,0,0
162167,-90.9774066708274,4,1,0,100,0,0
162253,-88.9705836559259,4,1,0,100,0,0
162339,-87.0503847627006,4,1,0,100,0,0
162424,-85.2112472029408,4,1,0,100,0,0
162510,-83.4482833436392,4,1,0,100,0,0
162596,-81.7567899014013,4,1,0,100,0,0
162682,-80.1324429016278,4,1,0,100,0,0
162938,-87.1130221772332,4,1,0,100,0,0
163196,-100,4,1,0,100,0,0
163254,-98.3739765417416,4,1,0,100,0,0
163311,-96.799986060802,4,1,0,100,0,0
163368,-95.2755702957449,4,1,0,100,0,0
163454,-93.0769373964519,4,1,0,100,0,0
163539,-90.9774066708274,4,1,0,100,0,0
163625,-88.9705836559259,4,1,0,100,0,0
163711,-87.0503847627006,4,1,0,100,0,0
163796,-85.2112472029408,4,1,0,100,0,0
163882,-83.4482833436392,4,1,0,100,0,0
163968,-81.7567899014013,4,1,0,100,0,0
164054,-80.1324429016278,4,1,0,100,0,0
164224,-84.0336134453781,4,1,0,100,0,0
164310,-86.2068965517241,4,1,0,100,0,0
164396,-88.4955752212389,4,1,0,100,0,0
164567,-93.4579439252336,4,1,0,100,0,0
164738,-95.2755702957449,4,1,0,100,0,0
164824,-93.0769373964519,4,1,0,100,0,0
164909,-90.9774066708274,4,1,0,100,0,0
164995,-88.9705836559259,4,1,0,100,0,0
165081,-87.0503847627006,4,1,0,100,0,0
165166,-85.2112472029408,4,1,0,100,0,0
165252,-83.4482833436392,4,1,0,100,0,0
165338,-81.7567899014013,4,1,0,100,0,0
165424,-80.1324429016278,4,1,0,100,0,0
167224,-87.1130221772332,4,1,0,100,0,0
167738,-95.4258569719085,4,1,0,100,0,0
169110,-105.492576487393,4,1,0,100,0,0
177424,-104.166666666667,4,1,0,100,0,0
177510,-103.092783505155,4,1,0,100,0,0
177596,-102.040816326531,4,1,0,100,0,0
177681,-101.010101010101,4,1,0,100,0,0
177767,-100,4,1,0,100,0,0
189767,-95.2380952380952,4,1,0,100,0,0
190024,-100,4,1,0,100,0,0
191138,-95.2380952380952,4,1,0,100,0,0
191396,-100,4,1,0,100,0,0
192510,-95.2380952380952,4,1,0,100,0,0
192938,-100,4,1,0,100,0,0
193498,-95.2380952380952,4,1,0,100,0,0
194224,-100,4,1,0,100,0,0
194310,-99.3788819875776,4,1,0,100,0,0
194396,-98.7654320987654,4,1,0,100,0,0
194481,-98.159509202454,4,1,0,100,0,0
194567,-97.5609756097561,4,1,0,100,0,0
194653,-96.969696969697,4,1,0,100,0,0
194738,-96.3855421686747,4,1,0,100,0,0
194824,-95.8083832335329,4,1,0,100,0,0
194910,-95.2380952380952,4,1,0,100,0,0
194996,-94.6745562130178,4,1,0,100,0,0
195081,-94.1176470588235,4,1,0,100,0,0
195167,-93.5672514619883,4,1,0,100,0,0
195253,-93.0232558139535,4,1,0,100,0,0
195338,-92.485549132948,4,1,0,100,0,0
195424,-91.9540229885058,4,1,0,100,0,0
195510,-91.4285714285714,4,1,0,100,0,0
195596,-90.9090909090909,4,1,0,100,0,0
195681,-90.3954802259887,4,1,0,100,0,0
195767,-89.8876404494382,4,1,0,100,0,0
195853,-89.3854748603352,4,1,0,100,0,0
195938,-88.8888888888889,4,1,0,100,0,0
196024,-88.3977900552486,4,1,0,100,0,0
196110,-87.9120879120879,4,1,0,100,0,0
196196,-87.431693989071,4,1,0,100,0,0
196281,-86.9565217391304,4,1,0,100,0,0
196367,-86.4864864864865,4,1,0,100,0,0
196453,-86.0215053763441,4,1,0,100,0,0
196538,-85.5614973262032,4,1,0,100,0,0
196624,-85.1063829787234,4,1,0,100,0,0
196710,-84.6560846560847,4,1,0,100,0,0
196796,-84.2105263157895,4,1,0,100,0,0
196881,-83.7696335078534,4,1,0,100,0,0
196967,-83.3333333333333,4,1,0,100,0,0
197024,-83.0449597107378,4,1,0,100,0,0
197081,-82.7586435196258,4,1,0,100,0,0
197138,-82.4742268041237,4,1,0,100,0,0
197224,-82.0512820512821,4,1,0,100,0,0
197310,-81.6326530612245,4,1,0,100,0,0
197367,-81.3559101407701,4,1,0,100,0,0
197424,-81.0811029948927,4,1,0,100,0,0
197481,-80.8080808080808,4,1,0,100,0,0
197567,-80.4020100502513,4,1,0,100,0,0
197653,-80,4,1,0,100,0,0
197710,-79.7341980772895,4,1,0,100,0,0
197767,-79.4702197272105,4,1,0,100,0,0
197824,-79.2079207920792,4,1,0,100,0,0
197910,-78.8177339901478,4,1,0,100,0,0
197996,-78.4313725490196,4,1,0,100,0,0
198053,-78.1758753939087,4,1,0,100,0,0
198110,-77.9220981615839,4,1,0,100,0,0
198167,-77.6699029126214,4,1,0,100,0,0
198224,-77.4193348595265,4,1,0,100,0,0
198281,-77.1704378573474,4,1,0,100,0,0
198338,-76.9230769230769,4,1,0,100,0,0
199711,344.827586206897,4,1,0,100,1,0
200312,-125,4,1,0,100,0,0
200743,-100,4,1,0,100,0,0
210053,-83.3333333333333,4,1,0,100,0,0
210398,-90.9090909090909,4,1,0,100,0,0
210743,-100,4,1,0,100,0,0
211002,-111.111111111111,4,1,0,100,0,0
211777,-95.2380952380952,4,1,0,100,0,0
215829,-100,4,1,0,100,0,0
216219,-111.111111111111,4,1,0,100,0,0
220357,-99.9999999999999,4,1,0,100,0,0
221348,-111.111111111111,4,1,0,100,0,0
221736,-90.9090909090909,4,1,0,100,0,0
222726,-90.9090909090909,4,1,0,100,0,0
227209,-100,4,1,0,100,0,0
230312,-90.9090909090909,4,1,0,100,0,0
232381,-100,4,1,0,100,0,0
232726,-111.111111111111,4,1,0,100,0,0
233071,-111.111111111111,4,1,0,100,0,0
233846,-86.9565217391304,4,1,0,100,0,0
237898,-90.9090909090909,4,1,0,100,0,0
238243,-100,4,1,0,100,0,0
242254,-95.2380952380952,4,1,0,100,0,0
242467,-90.9090909090909,4,1,0,100,0,0
242553,-90.3954802259887,4,1,0,100,0,0
242640,-89.8876404494382,4,1,0,100,0,0
242726,-89.3854748603352,4,1,0,100,0,0
242812,-88.8888888888889,4,1,0,100,0,0
242898,-88.3977900552486,4,1,0,100,0,0
242984,-87.9120879120879,4,1,0,100,0,0
243071,-87.431693989071,4,1,0,100,0,0
243157,-86.9565217391304,4,1,0,100,0,0
243243,-86.4864864864865,4,1,0,100,0,0
243329,-86.0215053763441,4,1,0,100,0,0
243415,-85.5614973262032,4,1,0,100,0,0
243502,-85.1063829787234,4,1,0,100,0,0
243588,-84.6560846560847,4,1,0,100,0,0
243674,-84.2105263157895,4,1,0,100,0,0
243760,-83.7696335078534,4,1,0,100,0,0
243848,322.58064516129,4,1,0,100,1,0
243848,-86.9565217391304,4,1,0,100,0,0
274813,-86.9565217391304,4,1,0,100,0,0
274975,-87.3357106113762,4,1,0,100,0,0
275136,-87.7182210043034,4,1,0,100,0,0
275297,-88.1040967523949,4,1,0,100,0,0
275458,-88.4933824648593,4,1,0,100,0,0
275620,-88.8861235428231,4,1,0,100,0,0
275781,-89.2823661969819,4,1,0,100,0,0
275942,-89.6821574657257,4,1,0,100,0,0
276104,-90.0856263878817,4,1,0,100,0,0
276265,-90.492660140336,4,1,0,100,0,0
276426,-90.9033887874306,4,1,0,100,0,0
276587,-91.3178628697917,4,1,0,100,0,0
276749,-91.7361338540276,4,1,0,100,0,0
276910,-92.1582541540333,4,1,0,100,0,0
277071,-92.5842771528853,4,1,0,100,0,0
277233,-93.0142572253475,4,1,0,100,0,0
277313,-93.2307918930233,4,1,0,100,0,0
277394,-93.4482497610061,4,1,0,100,0,0
277555,-93.8863111880562,4,1,0,100,0,0
277716,-94.3284989977597,4,1,0,100,0,0
277878,-94.7748717695985,4,1,0,100,0,0
278039,-95.2254891971444,4,1,0,100,0,0
278200,-95.6804121146711,4,1,0,100,0,0
278362,-96.1397025245324,4,1,0,100,0,0
278523,-96.6034236253333,4,1,0,100,0,0
278684,-97.0717340700431,4,1,0,100,0,0
278846,-97.5445119994382,4,1,0,100,0,0
279007,-98.0219177007979,4,1,0,100,0,0
279168,-98.5040194565139,4,1,0,100,0,0
279329,-98.9908868989521,4,1,0,100,0,0
279491,-99.4825910439803,4,1,0,100,0,0
279652,-99.9792043255003,4,1,0,100,0,0
279975,-111.111111111111,4,1,0,100,0,0
279977,314.13612565445,4,1,0,100,1,0
280681,-142.857142857143,4,1,0,100,0,0
298825,314.13612565445,4,1,0,100,1,8
298878,303.030303030303,4,1,0,100,1,0
302504,-100,4,1,0,100,0,0
302580,-99.5260569169614,4,1,0,100,0,0
302655,-99.0565850836632,4,1,0,100,0,0
302731,-98.5915215235151,4,1,0,100,0,0
302807,-98.1308044370825,4,1,0,100,0,0
302883,-97.6743731747101,4,1,0,100,0,0
302958,-97.2222627314984,4,1,0,100,0,0
303034,-96.774224765879,4,1,0,100,0,0
303110,-96.3302973234627,4,1,0,100,0,0
303186,-95.8904240945786,4,1,0,100,0,0
303261,-95.4545497933886,4,1,0,100,0,0
303337,-95.0226201347231,4,1,0,100,0,0
303413,-94.594581811543,4,1,0,100,0,0
303489,-94.1703824730084,4,1,0,100,0,0
303564,-93.7499707031342,4,1,0,100,0,0
303640,-93.3332960000149,4,1,0,100,0,0
303716,-92.92039509752,4,1,0,100,0,0
303792,-92.5110458188708,4,1,0,100,0,0
303867,-92.1052873961283,4,1,0,100,0,0
303943,-91.7030727865629,4,1,0,100,0,0
304019,-91.3043557655962,4,1,0,100,0,0
304095,-90.9090909090909,4,1,0,100,0,0
304170,-90.5172335761006,4,1,0,100,0,0
304246,-90.1287398920618,4,1,0,100,0,0
304322,-89.7435667324188,4,1,0,100,0,0
304398,-89.361671706665,4,1,0,100,0,0
304473,-88.983013142791,4,1,0,100,0,0
304549,-88.6076285851754,4,1,0,100,0,0
304625,-88.2353200692118,4,1,0,100,0,0
304701,-87.8661271686458,4,1,0,100,0,0
304776,-87.5000109375014,4,1,0,100,0,0
304852,-87.1369330762213,4,1,0,100,0,0
304928,-86.7768559183117,4,1,0,100,0,0
304978,-86.5384282544507,4,1,0,100,0,0
305029,-86.3013816851208,4,1,0,100,0,0
305080,-86.0655561341074,4,1,0,100,0,0
305155,-85.7142612244968,4,1,0,100,0,0
305231,-85.3658224271381,4,1,0,100,0,0
305282,-85.1351477903598,4,1,0,100,0,0
305332,-84.9056443574256,4,1,0,100,0,0
305383,-84.6774466701441,4,1,0,100,0,0
305458,-84.3373697198481,4,1,0,100,0,0
305534,-84.0000134400021,4,1,0,100,0,0
305585,-83.7765812620272,4,1,0,100,0,0
305635,-83.5544043615399,4,1,0,100,0,0
305686,-83.3333333333333,4,1,0,100,0,0
305761,-83.0039460075932,4,1,0,100,0,0
305837,-82.6771523343067,4,1,0,100,0,0
305888,-82.4607610468559,4,1,0,100,0,0
305938,-82.2454318830996,4,1,0,100,0,0
305989,-82.0312243652424,4,1,0,100,0,0
306064,-81.712030462245,4,1,0,100,0,0
306140,-81.3953772309455,4,1,0,100,0,0
306191,-81.1855691027208,4,1,0,100,0,0
306241,-80.9768398140448,4,1,0,100,0,0
306292,-80.7692463017781,4,1,0,100,0,0
306367,-80.459779363193,4,1,0,100,0,0
306443,-80.1526748149876,4,1,0,100,0,0
306494,-79.949216257833,4,1,0,100,0,0
306544,-79.7468515942991,4,1,0,100,0,0
306595,-79.5454455061994,4,1,0,100,0,0
306670,-79.2452680669305,4,1,0,100,0,0
306746,-78.9473476454348,4,1,0,100,0,0
306797,-78.7500167343786,4,1,0,100,0,0
306847,-78.5536081243284,4,1,0,100,0,0
306898,-78.3582381933725,4,1,0,100,0,0
306973,-78.0669377150744,4,1,0,100,0,0
307049,-77.7777950617322,4,1,0,100,0,0
307100,-77.5862002080862,4,1,0,100,0,0
307150,-77.3956068705628,4,1,0,100,0,0
307201,-77.2058880298447,4,1,0,100,0,0
307354,306.122448979592,4,1,0,100,1,0
307354,-76.9230769230769,4,1,0,100,0,0
307505,-78.4313725490196,4,1,0,100,0,0
307581,-79.2079207920792,4,1,0,100,0,0
307658,-80,4,1,0,100,0,0
307811,-81.6326530612245,4,1,0,100,0,0
307887,-82.4742268041237,4,1,0,100,0,0
307964,-83.3333333333333,4,1,0,100,0,0
308040,-84.2105263157895,4,1,0,100,0,0
308117,-85.1063829787234,4,1,0,100,0,0
308193,-86.0215053763441,4,1,0,100,0,0
308270,-86.9565217391304,4,1,0,100,0,0
308423,-88.8888888888889,4,1,0,100,0,0
308576,-90.9090909090909,4,1,0,100,0,0
315999,-95.2380952380952,4,1,0,100,0,0
316153,-100,4,1,0,100,0,0
316459,-105.263157894737,4,1,0,100,0,0
316765,-111.111111111111,4,1,0,100,0,0
316918,-117.647058823529,4,1,0,100,0,0
317149,300,4,1,0,100,1,1
317149,-90.9090909090909,4,1,0,100,0,1
336049,-90.9090909090909,4,1,0,100,0,0
336274,333.333333333333,4,1,0,100,1,8
336357,-58.8235294117647,4,1,0,100,0,0
336367,300,4,1,0,100,1,1
336367,-54.054054054054,4,1,0,100,0,1
336442,-90.9090909090909,4,1,0,100,0,1
341115,-54.054054054054,4,1,0,100,0,1
341215,-90.9090909090909,4,1,0,100,0,1
344765,-90.9090909090909,4,1,0,100,0,1
344965,-83.3333333333333,4,1,0,100,0,1
345165,-90.9090909090909,4,1,0,100,0,1
345615,-83.3333333333333,4,1,0,100,0,1
345915,-90.9090909090909,4,1,0,100,0,1
346215,-100,4,1,0,100,0,1
346515,-54.054054054054,4,1,0,100,0,1
346615,-90.9090909090909,4,1,0,100,0,1
350715,-54.054054054054,4,1,0,100,0,1
350815,-90.9090909090909,4,1,0,100,0,1
352829,-93.8086303939962,4,1,0,100,0,1
352979,-96.8054211035818,4,1,0,100,0,1
353165,-100,4,1,0,100,0,1
353315,-98.5957014246093,4,1,0,100,0,1
353390,-97.9081914888409,4,1,0,100,0,1
353465,-97.2302032014017,4,1,0,100,0,1
353615,-95.9021031331217,4,1,0,100,0,1
353690,-95.251521166793,4,1,0,100,0,1
353765,-94.6097960875065,4,1,0,100,0,1
353840,-93.97657164069,4,1,0,100,0,1
353990,-92.7353019183224,4,1,0,100,0,1
354065,-92.1268402336337,4,1,0,100,0,1
354215,-90.9336429926989,4,1,0,100,0,1
354290,-90.3485194136381,4,1,0,100,0,1
354365,-89.7708777886201,4,1,0,100,0,1
354515,-88.6375521853588,4,1,0,100,0,1
354590,-88.0815141564609,4,1,0,100,0,1
354665,-87.5324854936788,4,1,0,100,0,1
354815,-86.4545590514897,4,1,0,100,0,1
354890,-85.9255644020698,4,1,0,100,0,1
354965,-85.4029310285929,4,1,0,100,0,1
355040,-84.8866169457456,4,1,0,100,0,1
355190,-83.8725640262186,4,1,0,100,0,1
355265,-83.3745342490081,4,1,0,100,0,1
355549,300,4,1,0,100,1,8
355585,288.322921672273,4,1,0,100,1,0
369422,-100,4,1,0,100,0,0
369566,-99.5263540809289,4,1,0,100,0,0
369638,-99.2912589933058,4,1,0,100,0,0
369710,-99.0571738195852,4,1,0,100,0,0
369782,-98.8242874521814,4,1,0,100,0,0
369854,-98.5924935619102,4,1,0,100,0,0
369927,-98.3616877291827,4,1,0,100,0,0
369999,-98.1320563081739,4,1,0,100,0,0
370143,-97.6758996438737,4,1,0,100,0,0
370215,-97.4494554037185,4,1,0,100,0,0
370287,-97.2239641515799,4,1,0,100,0,0
370359,-96.9996081215832,4,1,0,100,0,0
370431,-96.7762851648729,4,1,0,100,0,0
370575,-96.3326172608784,4,1,0,100,0,0
370719,-95.8929987562678,4,1,0,100,0,0
370792,-95.6747365117756,4,1,0,100,0,0
370864,-95.4573744640068,4,1,0,100,0,0
370936,-95.241088529449,4,1,0,100,0,0
371008,-95.0257804942481,4,1,0,100,0,0
371080,-94.8113538492461,4,1,0,100,0,0
371152,-94.5979822250391,4,1,0,100,0,0
371296,-94.174018518379,4,1,0,100,0,0
371368,-93.9635026962827,4,1,0,100,0,0
371440,-93.7538380477451,4,1,0,100,0,0
371512,-93.5451944898139,4,1,0,100,0,0
371584,-93.3374775173351,4,1,0,100,0,0
371729,-92.9247123980151,4,1,0,100,0,0
371873,-92.5155819368877,4,1,0,100,0,0
371945,-92.3124073414211,4,1,0,100,0,0
372017,-92.110038336198,4,1,0,100,0,0
372089,-91.9086391363529,4,1,0,100,0,0
372161,-91.7081187363355,4,1,0,100,0,0
372233,-91.5083876588128,4,1,0,100,0,0
372305,-91.3096080535074,4,1,0,100,0,0
372377,-91.1116071631945,4,1,0,100,0,0
372449,-90.9145457818378,4,1,0,100,0,0
372521,-90.7183349919669,4,1,0,100,0,0
372594,-90.5228873542242,4,1,0,100,0,0
372738,-90.1346702107619,4,1,0,100,0,0
372882,-89.7496881198338,4,1,0,100,0,0
372954,-89.5583875907898,4,1,0,100,0,0
373027,-89.3679807036656,4,1,0,100,0,0
373098,-89.1783817334137,4,1,0,100,0,0
373170,-88.9895063574103,4,1,0,100,0,0
373243,-88.8015082048153,4,1,0,100,0,0
373315,-88.6143027029134,4,1,0,100,0,0
373386,-88.4278066543693,4,1,0,100,0,0
373459,-88.2421718163327,4,1,0,100,0,0
373531,-88.0572372041827,4,1,0,100,0,0
373603,-87.8731533456824,4,1,0,100,0,0
373675,-87.689837537038,4,1,0,100,0,0
373747,-87.5072084062925,4,1,0,100,0,0
373819,-87.3254146647315,4,1,0,100,0,0
373891,-87.1443746998966,4,1,0,100,0,0
374035,-86.7844621099038,4,1,0,100,0,0
374107,-86.6055808636308,4,1,0,100,0,0
374179,-86.4275102222138,4,1,0,100,0,0
374251,-86.2501703440864,4,1,0,100,0,0
374323,-86.073482653611,4,1,0,100,0,0
374396,-85.8975911738507,4,1,0,100,0,0
374468,-85.7223436145855,4,1,0,100,0,0
374540,-85.547882860995,4,1,0,100,0,0
374612,-85.3741307846309,4,1,0,100,0,0
374684,-85.2010104839843,4,1,0,100,0,0
374756,-85.028663162352,4,1,0,100,0,0
374828,-84.8570116924476,4,1,0,100,0,0
374900,-84.6859801513,4,1,0,100,0,0
374972,-84.5157080895055,4,1,0,100,0,0
375044,-84.3460482189489,4,1,0,100,0,0
375116,-84.1771390042349,4,1,0,100,0,0
375188,-84.0089049439241,4,1,0,100,0,0
375261,-83.8412717044092,4,1,0,100,0,0
375333,-83.6743761447701,4,1,0,100,0,0
375405,-83.508143714175,4,1,0,100,0,0
375477,-83.3425010084443,4,1,0,100,0,0
375549,-83.177583308588,4,1,0,100,0,0
375621,-83.0132480842618,4,1,0,100,0,0
375693,-82.8496295793062,4,1,0,100,0,0
375765,-82.6866547873506,4,1,0,100,0,0
375837,-82.524251814502,4,1,0,100,0,0
375909,-82.3625533709346,4,1,0,100,0,0
375981,-82.2014873537122,4,1,0,100,0,0
376053,-82.0409827525242,4,1,0,100,0,0
376126,-81.8811707697321,4,1,0,100,0,0
376198,-81.7219134041917,4,1,0,100,0,0
376342,-81.4053825238925,4,1,0,100,0,0
376414,-81.24796880078,4,1,0,100,0,0
376486,-81.0912284429106,4,1,0,100,0,0
376558,-80.9350916751783,4,1,0,100,0,0
376630,-80.7794897644308,4,1,0,100,0,0
376703,-80.6245500142302,4,1,0,100,0,0
376775,-80.4701387385662,4,1,0,100,0,0
376847,-80.3163822931291,4,1,0,100,0,0
376919,-80.1632123002433,4,1,0,100,0,0
376991,-80.010561394104,4,1,0,100,0,0
377063,-79.8585545282196,4,1,0,100,0,0
377135,-79.707060610843,4,1,0,100,0,0
377207,-79.5562036734282,4,1,0,100,0,0
377279,-79.4059166936647,4,1,0,100,0,0
377351,-79.2561336321818,4,1,0,100,0,0
377423,-79.1069771562782,4,1,0,100,0,0
377495,-78.9583810373552,4,1,0,100,0,0
377568,-78.8102800129249,4,1,0,100,0,0
377640,-78.6627954082953,4,1,0,100,0,0
377712,-78.5158001270386,4,1,0,100,0,0
377784,-78.3694146118206,4,1,0,100,0,0
377856,-78.2235739255797,4,1,0,100,0,0
377928,-78.0782140701626,4,1,0,100,0,0
378000,-77.933454182143,4,1,0,100,0,0
378072,-77.7892300810953,4,1,0,100,0,0
378144,-77.6454785096727,4,1,0,100,0,0
378216,-77.5023173192879,4,1,0,100,0,0
378288,-77.359623227691,4,1,0,100,0,0
378360,-77.2175132408731,4,1,0,100,0,0
378433,-77.0759244100994,4,1,0,100,0,0
378505,-76.9347946841134,4,1,0,100,0,0
378648,329.67032967033,4,1,0,100,1,0
378648,-64.9350649350649,4,1,0,100,0,0
379222,-100,4,1,0,100,0,0
389197,-100,4,1,0,100,0,1
389856,-100,4,1,0,100,0,0

[HitObjects]
256,128,1991,5,8,0:0:0:0:
256,128,2325,1,0,0:0:0:0:
160,128,2658,1,4,0:0:0:0:
64,128,3658,1,8,0:0:0:0:
64,128,3825,1,0,0:0:0:0:
64,128,4491,1,8,0:0:0:0:
64,128,5325,1,0,0:0:0:0:
64,128,6325,1,8,0:0:0:0:
64,128,6491,1,0,0:0:0:0:
64,128,7158,1,8,0:0:0:0:
64,128,7658,1,8,0:0:0:0:
64,128,7991,1,0,0:0:0:0:
64,128,8991,1,8,0:0:0:0:
64,128,9158,1,0,0:0:0:0:
64,128,9825,1,8,0:0:0:0:
64,128,10658,1,0,0:0:0:0:
64,128,11658,1,0,0:0:0:0:
64,128,11825,1,0,0:0:0:0:
64,128,12491,1,8,0:0:0:0:
64,128,12825,5,0,0:0:0:0:
64,128,12908,1,0,0:0:0:0:
64,128,12991,1,8,0:0:0:0:
64,128,13158,1,8,0:0:0:0:
64,128,13241,1,8,0:0:0:0:
64,128,13325,1,0,0:0:0:0:
64,128,13491,1,0,0:0:0:0:
64,128,13991,1,0,0:0:0:0:
64,128,14158,1,8,0:0:0:0:
64,128,14325,1,0,0:0:0:0:
64,128,14491,1,8,0:0:0:0:
64,128,14825,1,8,0:0:0:0:
64,128,14991,1,8,0:0:0:0:
64,128,15158,1,0,0:0:0:0:
64,128,15491,1,0,0:0:0:0:
64,128,15825,1,0,0:0:0:0:
64,128,15991,1,8,0:0:0:0:
64,128,16491,1,8,0:0:0:0:
64,128,16658,1,8,0:0:0:0:
64,128,16825,1,0,0:0:0:0:
64,128,16991,1,8,0:0:0:0:
64,128,17158,1,0,0:0:0:0:
64,128,17491,1,0,0:0:0:0:
64,128,17658,1,0,0:0:0:0:
64,128,17825,1,8,0:0:0:0:
64,128,18158,1,0,0:0:0:0:
64,128,18325,1,8,0:0:0:0:
64,128,18491,1,8,0:0:0:0:
64,128,18658,1,0,0:0:0:0:
64,128,18825,1,8,0:0:0:0:
64,128,18991,1,0,0:0:0:0:
64,128,19325,1,0,0:0:0:0:
64,128,19491,1,8,0:0:0:0:
64,128,19658,1,0,0:0:0:0:
64,128,19825,1,8,0:0:0:0:
64,128,19908,1,8,0:0:0:0:
64,128,19991,1,0,0:0:0:0:
64,128,20158,1,8,0:0:0:0:
64,128,20325,1,0,0:0:0:0:
64,128,20408,1,0,0:0:0:0:
64,128,20491,1,8,0:0:0:0:
64,128,20658,1,0,0:0:0:0:
64,128,20825,1,8,0:0:0:0:
64,128,20908,1,8,0:0:0:0:
64,128,20991,1,0,0:0:0:0:
64,128,21075,1,0,0:0:0:0:
64,128,21158,1,8,0:0:0:0:
64,128,21325,5,0,0:0:0:0:
64,128,21408,1,0,0:0:0:0:
64,128,21491,1,8,0:0:0:0:
64,128,21575,1,0,0:0:0:0:
64,128,21658,1,8,0:0:0:0:
64,128,21741,1,0,0:0:0:0:
64,128,21825,1,8,0:0:0:0:
64,128,21880,1,8,0:0:0:0:
64,128,21936,1,8,0:0:0:0:
64,128,21991,1,0,0:0:0:0:
64,128,22075,1,0,0:0:0:0:
64,128,22158,1,8,0:0:0:0:
64,128,22214,1,0,0:0:0:0:
64,128,22269,1,0,0:0:0:0:
64,128,22325,1,8,0:0:0:0:
64,128,22380,1,0,0:0:0:0:
64,128,22436,1,0,0:0:0:0:
64,128,22491,1,8,0:0:0:0:
64,128,22658,1,0,0:0:0:0:
64,128,22741,1,8,0:0:0:0:
64,128,22825,1,0,0:0:0:0:
64,128,22908,1,0,0:0:0:0:
64,128,22991,1,8,0:0:0:0:
64,128,23047,1,0,0:0:0:0:
64,128,23103,1,0,0:0:0:0:
64,128,23158,1,8,0:0:0:0:
64,128,23241,1,8,0:0:0:0:
64,128,23325,1,0,0:0:0:0:
64,128,23408,1,0,0:0:0:0:
64,128,23491,1,8,0:0:0:0:
64,128,23575,1,8,0:0:0:0:
64,128,23658,1,0,0:0:0:0:
448,128,23991,5,8,0:0:0:0:
448,128,24076,1,0,0:0:0:0:
448,128,24162,1,0,0:0:0:0:
448,128,24333,1,8,0:0:0:0:
448,128,24505,1,8,0:0:0:0:
448,128,24591,1,0,0:0:0:0:
448,128,24676,1,0,0:0:0:0:
448,128,24848,1,8,0:0:0:0:
448,128,25019,1,8,0:0:0:0:
448,128,25105,1,0,0:0:0:0:
448,128,25191,1,0,0:0:0:0:
448,128,25362,1,0,0:0:0:0:
448,128,25448,1,0,0:0:0:0:
448,128,25533,1,8,0:0:0:0:
448,128,25705,1,8,0:0:0:0:
448,128,25876,1,0,0:0:0:0:
448,128,26048,1,8,0:0:0:0:
448,128,26133,1,0,0:0:0:0:
448,128,26219,1,8,0:0:0:0:
448,128,26305,1,8,0:0:0:0:
448,128,26391,1,0,0:0:0:0:
448,128,26562,1,8,0:0:0:0:
448,128,26733,1,8,0:0:0:0:
448,128,26819,1,0,0:0:0:0:
448,128,26905,1,0,0:0:0:0:
448,128,27076,1,8,0:0:0:0:
448,128,27248,1,8,0:0:0:0:
448,128,27333,1,0,0:0:0:0:
448,128,27419,1,0,0:0:0:0:
448,128,27591,1,8,0:0:0:0:
448,128,27762,1,8,0:0:0:0:
448,128,27848,1,0,0:0:0:0:
448,128,27933,1,0,0:0:0:0:
448,128,28105,1,8,0:0:0:0:
448,128,28191,1,0,0:0:0:0:
448,128,28276,1,8,0:0:0:0:
448,128,28448,1,8,0:0:0:0:
448,128,28619,1,0,0:0:0:0:
448,128,28791,1,8,0:0:0:0:
448,128,28876,1,0,0:0:0:0:
448,128,28962,1,8,0:0:0:0:
448,128,29048,1,8,0:0:0:0:
448,128,29133,1,0,0:0:0:0:
448,128,29305,1,8,0:0:0:0:
448,128,29476,1,8,0:0:0:0:
448,128,29562,1,0,0:0:0:0:
448,128,29647,1,0,0:0:0:0:
448,128,29818,1,8,0:0:0:0:
448,128,29990,1,8,0:0:0:0:
448,128,30076,1,0,0:0:0:0:
448,128,30162,1,0,0:0:0:0:
448,128,30333,1,8,0:0:0:0:
448,128,30504,1,8,0:0:0:0:
448,128,30591,1,0,0:0:0:0:
448,128,30676,1,0,0:0:0:0:
448,128,30847,1,0,0:0:0:0:
448,128,30933,1,8,0:0:0:0:
448,128,31018,1,0,0:0:0:0:
448,128,31190,1,0,0:0:0:0:
448,128,31361,1,8,0:0:0:0:
448,128,31447,1,0,0:0:0:0:
448,128,31533,1,8,0:0:0:0:
448,128,31618,1,8,0:0:0:0:
448,128,31704,1,0,0:0:0:0:
448,128,31876,1,8,0:0:0:0:
448,128,32047,1,0,0:0:0:0:
448,128,32133,1,0,0:0:0:0:
448,128,32218,1,8,0:0:0:0:
448,128,32562,1,8,0:0:0:0:
448,128,32648,1,0,0:0:0:0:
448,128,32733,1,8,0:0:0:0:
448,128,32905,1,0,0:0:0:0:
448,128,32991,1,8,0:0:0:0:
448,128,33076,1,0,0:0:0:0:
448,128,33162,1,0,0:0:0:0:
448,128,33248,1,8,0:0:0:0:
448,128,33419,1,0,0:0:0:0:
448,128,33505,1,0,0:0:0:0:
448,128,33591,1,8,0:0:0:0:
448,128,33676,1,8,0:0:0:0:
448,128,33762,1,0,0:0:0:0:
448,128,33848,1,0,0:0:0:0:
448,128,33933,1,8,0:0:0:0:
448,128,34105,1,0,0:0:0:0:
448,128,34276,1,8,0:0:0:0:
448,128,34362,1,0,0:0:0:0:
448,128,34448,1,8,0:0:0:0:
448,128,34533,1,8,0:0:0:0:
448,128,34619,1,0,0:0:0:0:
448,128,34705,1,0,0:0:0:0:
448,128,34791,1,8,0:0:0:0:
448,128,34876,1,0,0:0:0:0:
448,128,34962,1,8,0:0:0:0:
448,128,35305,1,0,0:0:0:0:
448,128,35476,1,8,0:0:0:0:
448,128,35519,1,8,0:0:0:0:
448,128,35648,1,8,0:0:0:0:
448,128,35691,1,8,0:0:0:0:
448,128,35819,1,0,0:0:0:0:
448,128,35862,1,0,0:0:0:0:
448,128,35991,1,8,0:0:0:0:
448,128,36034,1,8,0:0:0:0:
448,128,36162,1,0,0:0:0:0:
448,128,36205,1,0,0:0:0:0:
448,128,36333,1,0,0:0:0:0:
448,128,36376,1,0,0:0:0:0:
448,128,36505,1,8,0:0:0:0:
448,128,36548,1,8,0:0:0:0:
448,128,36676,1,8,0:0:0:0:
448,128,36719,1,8,0:0:0:0:
448,128,36848,1,0,0:0:0:0:
448,128,36891,1,0,0:0:0:0:
448,128,37019,1,8,0:0:0:0:
448,128,37062,1,8,0:0:0:0:
448,128,37191,1,0,0:0:0:0:
448,128,37276,1,0,0:0:0:0:
448,128,37362,1,8,0:0:0:0:
448,128,37448,1,8,0:0:0:0:
448,128,37533,1,0,0:0:0:0:
448,128,37619,1,8,0:0:0:0:
448,128,37705,1,0,0:0:0:0:
448,128,38048,1,8,0:0:0:0:
448,128,38219,1,8,0:0:0:0:
448,128,38262,1,8,0:0:0:0:
448,128,38391,1,8,0:0:0:0:
448,128,38434,1,8,0:0:0:0:
448,128,38562,1,0,0:0:0:0:
448,128,38605,1,0,0:0:0:0:
448,128,38733,1,8,0:0:0:0:
448,128,38776,1,8,0:0:0:0:
448,128,38905,1,0,0:0:0:0:
448,128,38991,1,0,0:0:0:0:
448,128,39076,1,8,0:0:0:0:
448,128,39248,1,8,0:0:0:0:
448,128,39291,1,8,0:0:0:0:
448,128,39419,1,0,0:0:0:0:
448,128,39462,1,0,0:0:0:0:
448,128,39591,1,8,0:0:0:0:
448,128,39634,1,8,0:0:0:0:
448,128,39762,1,8,0:0:0:0:
448,128,39805,1,8,0:0:0:0:
448,128,39933,1,0,0:0:0:0:
448,128,40019,1,0,0:0:0:0:
448,128,40105,1,8,0:0:0:0:
448,128,40191,1,0,0:0:0:0:
448,128,40276,1,8,0:0:0:0:
448,128,40362,1,8,0:0:0:0:
448,128,40448,1,0,0:0:0:0:
448,128,40791,1,0,0:0:0:0:
448,128,40962,1,8,0:0:0:0:
448,128,41005,1,8,0:0:0:0:
448,128,41134,1,0,0:0:0:0:
448,128,41177,1,0,0:0:0:0:
448,128,41305,1,8,0:0:0:0:
448,128,41348,1,8,0:0:0:0:
448,128,41476,1,8,0:0:0:0:
448,128,41519,1,8,0:0:0:0:
448,128,41648,1,0,0:0:0:0:
448,128,41734,1,0,0:0:0:0:
448,128,41819,1,8,0:0:0:0:
448,128,41991,1,0,0:0:0:0:
448,128,42034,1,0,0:0:0:0:
448,128,42162,1,8,0:0:0:0:
448,128,42205,1,8,0:0:0:0:
448,128,42334,1,8,0:0:0:0:
448,128,42377,1,8,0:0:0:0:
448,128,42505,1,0,0:0:0:0:
448,128,42548,1,0,0:0:0:0:
448,128,42676,1,8,0:0:0:0:
448,128,42762,1,0,0:0:0:0:
448,128,42848,1,8,0:0:0:0:
448,128,42933,1,8,0:0:0:0:
448,128,43019,1,0,0:0:0:0:
448,128,43105,1,0,0:0:0:0:
448,128,43191,1,8,0:0:0:0:
448,128,43533,1,0,0:0:0:0:
448,128,43705,1,8,0:0:0:0:
448,128,44048,1,8,0:0:0:0:
448,128,44133,1,8,0:0:0:0:
448,128,44219,1,0,0:0:0:0:
448,128,44391,1,0,0:0:0:0:
448,128,44562,1,8,0:0:0:0:
448,128,44733,1,8,0:0:0:0:
448,128,44905,1,0,0:0:0:0:
448,128,45076,1,0,0:0:0:0:
448,128,45248,1,8,0:0:0:0:
448,128,45333,1,0,0:0:0:0:
448,128,45419,1,0,0:0:0:0:
448,128,45505,1,8,0:0:0:0:
448,128,45591,1,8,0:0:0:0:
448,128,45676,1,0,0:0:0:0:
448,128,45762,1,0,0:0:0:0:
448,128,45848,1,0,0:0:0:0:
160,128,45933,1,12,0:0:0:0:
64,128,46105,1,0,0:0:0:0:
64,128,46191,1,0,0:0:0:0:
64,128,46276,1,8,0:0:0:0:
64,128,46362,1,8,0:0:0:0:
64,128,46448,1,0,0:0:0:0:
64,128,46533,1,0,0:0:0:0:
64,128,46619,1,8,0:0:0:0:
64,128,46705,1,0,0:0:0:0:
64,128,46791,1,8,0:0:0:0:
64,128,46876,1,0,0:0:0:0:
64,128,46962,1,8,0:0:0:0:
64,128,47019,1,0,0:0:0:0:
64,128,47076,1,0,0:0:0:0:
64,128,47133,1,0,0:0:0:0:
64,128,47219,1,0,0:0:0:0:
64,128,47305,1,8,0:0:0:0:
64,128,47362,1,8,0:0:0:0:
64,128,47419,1,8,0:0:0:0:
64,128,47476,1,0,0:0:0:0:
64,128,47648,1,8,0:0:0:0:
64,128,47733,1,8,0:0:0:0:
64,128,47819,1,0,0:0:0:0:
64,128,47905,1,0,0:0:0:0:
64,128,47991,1,8,0:0:0:0:
64,128,48048,1,0,0:0:0:0:
64,128,48105,1,0,0:0:0:0:
64,128,48162,1,8,0:0:0:0:
64,128,48248,1,8,0:0:0:0:
64,128,48333,1,0,0:0:0:0:
64,128,48391,1,8,0:0:0:0:
64,128,48448,1,8,0:0:0:0:
64,128,48505,1,0,0:0:0:0:
64,128,48591,1,0,0:0:0:0:
64,128,48676,1,8,0:0:0:0:
64,128,48733,1,8,0:0:0:0:
64,128,48791,1,8,0:0:0:0:
64,128,48848,1,0,0:0:0:0:
64,128,49019,1,8,0:0:0:0:
64,128,49105,1,8,0:0:0:0:
64,128,49191,1,0,0:0:0:0:
64,128,49276,1,0,0:0:0:0:
64,128,49362,1,8,0:0:0:0:
64,128,49448,1,0,0:0:0:0:
64,128,49533,1,8,0:0:0:0:
64,128,49619,1,8,0:0:0:0:
64,128,49705,1,0,0:0:0:0:
64,128,49762,1,0,0:0:0:0:
64,128,49819,1,0,0:0:0:0:
64,128,49876,1,8,0:0:0:0:
64,128,49962,1,0,0:0:0:0:
64,128,50048,1,8,0:0:0:0:
64,128,50133,1,8,0:0:0:0:
64,128,50219,1,8,0:0:0:0:
64,128,50305,1,8,0:0:0:0:
64,128,50391,1,0,0:0:0:0:
64,128,50448,1,0,0:0:0:0:
64,128,50505,1,0,0:0:0:0:
64,128,50562,1,8,0:0:0:0:
64,128,50648,1,0,0:0:0:0:
64,128,50733,1,8,0:0:0:0:
64,128,50791,1,8,0:0:0:0:
64,128,50848,1,8,0:0:0:0:
64,128,50905,1,0,0:0:0:0:
64,128,50991,1,0,0:0:0:0:
64,128,51076,1,8,0:0:0:0:
64,128,51133,1,0,0:0:0:0:
64,128,51191,1,0,0:0:0:0:
64,128,51248,1,8,0:0:0:0:
64,128,51333,1,8,0:0:0:0:
64,128,51419,1,0,0:0:0:0:
64,128,51476,1,0,0:0:0:0:
64,128,51533,1,0,0:0:0:0:
64,128,51591,1,0,0:0:0:0:
64,128,51762,1,8,0:0:0:0:
64,128,51848,1,8,0:0:0:0:
64,128,51934,1,0,0:0:0:0:
64,128,52019,1,0,0:0:0:0:
64,128,52105,1,8,0:0:0:0:
64,128,52191,1,0,0:0:0:0:
64,128,52277,1,8,0:0:0:0:
64,128,52362,1,0,0:0:0:0:
64,128,52448,1,8,0:0:0:0:
64,128,52505,1,0,0:0:0:0:
64,128,52562,1,0,0:0:0:0:
64,128,52619,1,0,0:0:0:0:
64,128,52705,1,0,0:0:0:0:
64,128,52791,1,8,0:0:0:0:
64,128,52848,1,8,0:0:0:0:
64,128,52905,1,8,0:0:0:0:
64,128,52962,1,0,0:0:0:0:
64,128,53134,1,8,0:0:0:0:
64,128,53219,1,8,0:0:0:0:
64,128,53305,1,0,0:0:0:0:
64,128,53391,1,0,0:0:0:0:
64,128,53477,1,8,0:0:0:0:
64,128,53534,1,8,0:0:0:0:
64,128,53591,1,8,0:0:0:0:
64,128,53648,1,0,0:0:0:0:
64,128,53734,1,0,0:0:0:0:
64,128,53819,1,8,0:0:0:0:
64,128,53877,1,0,0:0:0:0:
64,128,53934,1,0,0:0:0:0:
64,128,53991,1,8,0:0:0:0:
64,128,54077,1,0,0:0:0:0:
64,128,54162,1,8,0:0:0:0:
64,128,54219,1,8,0:0:0:0:
64,128,54277,1,8,0:0:0:0:
64,128,54334,1,0,0:0:0:0:
64,128,54505,1,8,0:0:0:0:
64,128,54591,1,8,0:0:0:0:
64,128,54677,1,0,0:0:0:0:
64,128,54762,1,0,0:0:0:0:
64,128,54848,1,8,0:0:0:0:
64,128,54934,1,0,0:0:0:0:
64,128,55019,1,8,0:0:0:0:
64,128,55105,1,8,0:0:0:0:
64,128,55191,1,0,0:0:0:0:
64,128,55248,1,0,0:0:0:0:
64,128,55305,1,0,0:0:0:0:
64,128,55362,1,8,0:0:0:0:
64,128,55448,1,0,0:0:0:0:
64,128,55534,1,8,0:0:0:0:
64,128,55619,1,8,0:0:0:0:
64,128,55705,1,8,0:0:0:0:
64,128,55791,1,8,0:0:0:0:
64,128,55877,1,0,0:0:0:0:
64,128,55934,1,0,0:0:0:0:
64,128,55991,1,0,0:0:0:0:
64,128,56048,1,8,0:0:0:0:
64,128,56134,1,0,0:0:0:0:
64,128,56219,1,8,0:0:0:0:
64,128,56277,1,8,0:0:0:0:
64,128,56334,1,8,0:0:0:0:
64,128,56391,1,0,0:0:0:0:
64,128,56477,1,0,0:0:0:0:
64,128,56562,1,8,0:0:0:0:
160,128,56905,1,12,0:0:0:0:
64,128,57076,1,0,0:0:0:0:
64,128,57162,1,0,0:0:0:0:
64,128,57247,1,8,0:0:0:0:
64,128,57333,1,0,0:0:0:0:
64,128,57419,1,8,0:0:0:0:
64,128,57504,1,8,0:0:0:0:
64,128,57590,1,0,0:0:0:0:
64,128,57676,1,0,0:0:0:0:
64,128,57762,1,8,0:0:0:0:
64,128,57847,1,0,0:0:0:0:
64,128,57933,1,8,0:0:0:0:
64,128,57990,1,0,0:0:0:0:
64,128,58047,1,0,0:0:0:0:
64,128,58104,1,0,0:0:0:0:
64,128,58190,1,0,0:0:0:0:
64,128,58276,1,8,0:0:0:0:
64,128,58333,1,8,0:0:0:0:
64,128,58390,1,8,0:0:0:0:
64,128,58447,1,0,0:0:0:0:
64,128,58533,1,0,0:0:0:0:
64,128,58619,1,8,0:0:0:0:
64,128,58704,1,8,0:0:0:0:
64,128,58790,1,0,0:0:0:0:
64,128,58876,1,0,0:0:0:0:
64,128,58962,1,8,0:0:0:0:
64,128,59019,1,0,0:0:0:0:
64,128,59076,1,0,0:0:0:0:
64,128,59133,1,8,0:0:0:0:
64,128,59219,1,8,0:0:0:0:
64,128,59304,1,0,0:0:0:0:
64,128,59362,1,8,0:0:0:0:
64,128,59419,1,8,0:0:0:0:
64,128,59476,1,0,0:0:0:0:
64,128,59562,1,0,0:0:0:0:
160,128,59647,1,12,0:0:0:0:
64,128,59819,1,0,0:0:0:0:
64,128,59905,1,0,0:0:0:0:
64,128,59990,1,8,0:0:0:0:
64,128,60076,1,0,0:0:0:0:
64,128,60162,1,8,0:0:0:0:
64,128,60247,1,8,0:0:0:0:
64,128,60333,1,0,0:0:0:0:
64,128,60419,1,0,0:0:0:0:
64,128,60504,1,8,0:0:0:0:
64,128,60590,1,8,0:0:0:0:
64,128,60676,1,0,0:0:0:0:
64,128,60733,1,0,0:0:0:0:
64,128,60790,1,0,0:0:0:0:
64,128,60847,1,8,0:0:0:0:
64,128,60933,1,0,0:0:0:0:
64,128,61019,1,8,0:0:0:0:
64,128,61104,1,8,0:0:0:0:
64,128,61190,1,0,0:0:0:0:
64,128,61276,1,0,0:0:0:0:
64,128,61362,1,8,0:0:0:0:
64,128,61419,1,0,0:0:0:0:
64,128,61476,1,0,0:0:0:0:
64,128,61533,1,8,0:0:0:0:
64,128,61619,1,8,0:0:0:0:
64,128,61704,1,0,0:0:0:0:
64,128,61762,1,8,0:0:0:0:
64,128,61819,1,8,0:0:0:0:
64,128,61876,1,0,0:0:0:0:
64,128,61962,1,0,0:0:0:0:
64,128,62047,1,8,0:0:0:0:
64,128,62104,1,8,0:0:0:0:
64,128,62162,1,8,0:0:0:0:
64,128,62219,1,0,0:0:0:0:
64,128,62304,1,0,0:0:0:0:
160,128,62390,1,12,0:0:0:0:
64,128,62562,1,0,0:0:0:0:
64,128,62648,1,0,0:0:0:0:
64,128,62733,1,8,0:0:0:0:
64,128,62819,1,0,0:0:0:0:
64,128,62905,1,8,0:0:0:0:
64,128,62990,1,8,0:0:0:0:
64,128,63076,1,0,0:0:0:0:
64,128,63162,1,0,0:0:0:0:
64,128,63248,1,8,0:0:0:0:
64,128,63333,1,0,0:0:0:0:
64,128,63419,1,8,0:0:0:0:
64,128,63476,1,0,0:0:0:0:
64,128,63533,1,0,0:0:0:0:
64,128,63590,1,0,0:0:0:0:
64,128,63676,1,0,0:0:0:0:
64,128,63762,1,8,0:0:0:0:
64,128,63819,1,8,0:0:0:0:
64,128,63876,1,8,0:0:0:0:
64,128,63933,1,0,0:0:0:0:
64,128,64019,1,0,0:0:0:0:
64,128,64105,1,8,0:0:0:0:
64,128,64190,1,8,0:0:0:0:
64,128,64276,1,0,0:0:0:0:
64,128,64362,1,0,0:0:0:0:
64,128,64448,1,8,0:0:0:0:
64,128,64505,1,0,0:0:0:0:
64,128,64562,1,0,0:0:0:0:
64,128,64619,1,8,0:0:0:0:
64,128,64705,1,8,0:0:0:0:
64,128,64790,1,0,0:0:0:0:
64,128,64848,1,8,0:0:0:0:
64,128,64905,1,8,0:0:0:0:
64,128,64962,1,0,0:0:0:0:
64,128,65048,1,0,0:0:0:0:
160,128,65133,1,12,0:0:0:0:
64,128,65305,5,0,0:0:0:0:
64,128,65391,1,0,0:0:0:0:
64,128,65476,1,8,0:0:0:0:
64,128,65562,1,0,0:0:0:0:
64,128,65648,1,8,0:0:0:0:
64,128,65733,1,8,0:0:0:0:
64,128,65819,1,0,0:0:0:0:
64,128,65905,1,0,0:0:0:0:
64,128,65990,1,8,0:0:0:0:
64,128,66076,1,0,0:0:0:0:
64,128,66162,1,8,0:0:0:0:
64,128,66219,1,0,0:0:0:0:
64,128,66276,1,0,0:0:0:0:
64,128,66333,1,8,0:0:0:0:
64,128,66419,1,0,0:0:0:0:
64,128,66505,1,8,0:0:0:0:
64,128,66590,1,8,0:0:0:0:
64,128,66676,1,0,0:0:0:0:
64,128,66762,1,0,0:0:0:0:
64,128,66848,1,8,0:0:0:0:
64,128,66905,1,0,0:0:0:0:
64,128,66962,1,0,0:0:0:0:
64,128,67019,1,8,0:0:0:0:
64,128,67105,1,8,0:0:0:0:
64,128,67190,1,0,0:0:0:0:
64,128,67248,1,0,0:0:0:0:
64,128,67305,5,0,0:0:0:0:
64,128,67362,1,8,0:0:0:0:
64,128,67448,1,8,0:0:0:0:
64,128,67533,1,0,0:0:0:0:
352,128,67876,5,12,0:0:0:0:
448,128,68220,1,8,0:0:0:0:
448,128,68307,1,0,0:0:0:0:
448,128,68393,1,0,0:0:0:0:
448,128,68479,1,8,0:0:0:0:
448,128,68565,1,0,0:0:0:0:
448,128,68738,1,0,0:0:0:0:
448,128,68910,1,8,0:0:0:0:
448,128,68996,1,0,0:0:0:0:
448,128,69082,1,0,0:0:0:0:
448,128,69427,1,0,0:0:0:0:
448,128,69600,1,8,0:0:0:0:
448,128,69772,1,0,0:0:0:0:
448,128,69858,1,8,0:0:0:0:
448,128,70117,1,0,0:0:0:0:
448,128,70289,1,8,0:0:0:0:
448,128,70376,1,8,0:0:0:0:
448,128,70462,1,0,0:0:0:0:
448,128,70548,1,0,0:0:0:0:
448,128,70634,1,8,0:0:0:0:
448,128,70807,1,8,0:0:0:0:
448,128,70979,1,0,0:0:0:0:
448,128,71151,1,8,0:0:0:0:
448,128,71238,1,0,0:0:0:0:
448,128,71410,1,0,0:0:0:0:
448,128,71496,1,8,0:0:0:0:
448,128,71669,1,8,0:0:0:0:
448,128,71755,1,0,0:0:0:0:
448,128,71841,1,0,0:0:0:0:
448,128,71927,1,0,0:0:0:0:
448,128,72100,1,0,0:0:0:0:
448,128,72186,1,8,0:0:0:0:
448,128,72358,1,8,0:0:0:0:
448,128,72444,1,0,0:0:0:0:
448,128,72531,1,8,0:0:0:0:
448,128,72617,1,8,0:0:0:0:
448,128,72789,1,8,0:0:0:0:
448,128,72876,1,0,0:0:0:0:
448,128,73048,1,8,0:0:0:0:
448,128,73134,1,0,0:0:0:0:
448,128,73220,1,8,0:0:0:0:
448,128,73307,1,8,0:0:0:0:
448,128,73393,1,0,0:0:0:0:
448,128,73738,1,8,0:0:0:0:
448,128,73824,1,0,0:0:0:0:
448,128,73910,1,0,0:0:0:0:
448,128,73996,1,8,0:0:0:0:
448,128,74169,1,8,0:0:0:0:
448,128,74255,1,0,0:0:0:0:
448,128,74427,1,8,0:0:0:0:
448,128,74513,1,0,0:0:0:0:
448,128,74600,1,8,0:0:0:0:
448,128,74858,1,8,0:0:0:0:
448,128,74944,1,0,0:0:0:0:
448,128,75117,1,8,0:0:0:0:
448,128,75203,1,0,0:0:0:0:
448,128,75289,1,8,0:0:0:0:
448,128,75376,1,0,0:0:0:0:
448,128,75548,1,0,0:0:0:0:
448,128,75634,1,8,0:0:0:0:
448,128,75807,1,8,0:0:0:0:
448,128,75893,1,0,0:0:0:0:
448,128,75979,1,8,0:0:0:0:
448,128,76065,1,8,0:0:0:0:
448,128,76151,1,0,0:0:0:0:
448,128,76324,1,0,0:0:0:0:
448,128,76496,1,8,0:0:0:0:
448,128,76669,1,8,0:0:0:0:
448,128,76755,1,0,0:0:0:0:
448,128,77013,1,0,0:0:0:0:
448,128,77186,1,8,0:0:0:0:
448,128,77272,1,8,0:0:0:0:
448,128,77358,1,0,0:0:0:0:
448,128,77444,1,8,0:0:0:0:
448,128,77531,1,0,0:0:0:0:
448,128,77703,1,0,0:0:0:0:
448,128,77876,5,8,0:0:0:0:
448,128,77962,1,0,0:0:0:0:
448,128,78048,1,0,0:0:0:0:
448,128,78134,1,0,0:0:0:0:
448,128,78220,1,8,0:0:0:0:
448,128,78307,1,8,0:0:0:0:
448,128,78393,1,8,0:0:0:0:
448,128,78565,1,8,0:0:0:0:
448,128,78738,1,0,0:0:0:0:
448,128,78824,1,8,0:0:0:0:
448,128,79082,1,0,0:0:0:0:
448,128,79169,1,8,0:0:0:0:
448,128,79255,1,8,0:0:0:0:
448,128,79342,1,0,0:0:0:0:
448,128,79428,1,0,0:0:0:0:
448,128,79514,1,8,0:0:0:0:
448,128,79600,1,0,0:0:0:0:
448,128,79773,1,0,0:0:0:0:
448,128,79945,1,8,0:0:0:0:
448,128,80031,1,0,0:0:0:0:
448,128,80117,1,0,0:0:0:0:
448,128,80462,1,0,0:0:0:0:
448,128,80635,1,8,0:0:0:0:
448,128,80807,1,0,0:0:0:0:
448,128,80893,1,8,0:0:0:0:
448,128,81152,1,0,0:0:0:0:
448,128,81324,1,8,0:0:0:0:
448,128,81411,1,8,0:0:0:0:
448,128,81497,1,0,0:0:0:0:
448,128,81583,1,0,0:0:0:0:
448,128,81669,1,8,0:0:0:0:
448,128,81842,1,8,0:0:0:0:
448,128,82014,1,0,0:0:0:0:
448,128,82186,1,8,0:0:0:0:
448,128,82273,1,0,0:0:0:0:
448,128,82445,1,0,0:0:0:0:
448,128,82531,1,8,0:0:0:0:
448,128,82704,1,8,0:0:0:0:
448,128,82790,1,0,0:0:0:0:
448,128,82876,1,0,0:0:0:0:
448,128,82962,1,0,0:0:0:0:
448,128,83135,1,0,0:0:0:0:
448,128,83221,1,8,0:0:0:0:
448,128,83393,1,8,0:0:0:0:
448,128,83479,1,0,0:0:0:0:
448,128,83566,1,8,0:0:0:0:
448,128,83652,1,8,0:0:0:0:
448,128,83824,1,8,0:0:0:0:
448,128,83911,1,0,0:0:0:0:
448,128,84083,1,8,0:0:0:0:
448,128,84169,1,0,0:0:0:0:
448,128,84255,1,8,0:0:0:0:
448,128,84342,1,8,0:0:0:0:
448,128,84428,1,0,0:0:0:0:
448,128,84773,1,8,0:0:0:0:
448,128,84859,1,0,0:0:0:0:
448,128,84945,1,0,0:0:0:0:
448,128,85031,1,8,0:0:0:0:
448,128,85204,1,8,0:0:0:0:
448,128,85290,1,0,0:0:0:0:
448,128,85462,1,8,0:0:0:0:
448,128,85548,1,0,0:0:0:0:
448,128,85635,1,8,0:0:0:0:
448,128,85893,1,8,0:0:0:0:
448,128,85979,1,0,0:0:0:0:
448,128,86152,1,8,0:0:0:0:
448,128,86238,1,0,0:0:0:0:
448,128,86324,1,8,0:0:0:0:
448,128,86411,1,0,0:0:0:0:
448,128,86583,1,0,0:0:0:0:
448,128,86669,1,8,0:0:0:0:
448,128,86842,1,8,0:0:0:0:
448,128,86928,1,0,0:0:0:0:
448,128,87014,1,8,0:0:0:0:
448,128,87100,1,8,0:0:0:0:
448,128,87186,1,0,0:0:0:0:
448,128,87359,1,0,0:0:0:0:
448,128,87531,1,8,0:0:0:0:
448,128,87704,1,8,0:0:0:0:
448,128,87790,1,0,0:0:0:0:
448,128,88048,1,0,0:0:0:0:
448,128,88134,1,0,0:0:0:0:
448,128,88221,1,8,0:0:0:0:
448,128,88307,1,8,0:0:0:0:
448,128,88393,1,0,0:0:0:0:
448,128,88479,1,8,0:0:0:0:
448,128,88566,1,0,0:0:0:0:
448,128,88738,1,0,0:0:0:0:
448,128,88824,1,0,0:0:0:0:
448,128,88910,1,8,0:0:0:0:
448,128,88997,1,0,0:0:0:0:
256,192,89082,12,0,89771,0:0:0:0:
160,128,89944,5,12,0:0:0:0:
64,128,90117,1,0,0:0:0:0:
64,128,90203,1,0,0:0:0:0:
64,128,90376,1,0,0:0:0:0:
64,128,90462,1,8,0:0:0:0:
64,128,90634,1,8,0:0:0:0:
64,128,90720,1,0,0:0:0:0:
64,128,90807,1,0,0:0:0:0:
64,128,90979,1,8,0:0:0:0:
64,128,91151,1,0,0:0:0:0:
64,128,91238,1,8,0:0:0:0:
64,128,91324,1,0,0:0:0:0:
64,128,91496,1,8,0:0:0:0:
64,128,91582,1,8,0:0:0:0:
64,128,91669,1,0,0:0:0:0:
64,128,91755,1,0,0:0:0:0:
64,128,91841,1,8,0:0:0:0:
64,128,92013,1,8,0:0:0:0:
64,128,92186,1,0,0:0:0:0:
64,128,92272,1,0,0:0:0:0:
64,128,92358,1,8,0:0:0:0:
64,128,92531,1,8,0:0:0:0:
64,128,92588,1,8,0:0:0:0:
64,128,92646,1,8,0:0:0:0:
64,128,92703,1,0,0:0:0:0:
64,128,92876,1,0,0:0:0:0:
64,128,92962,1,8,0:0:0:0:
64,128,93134,1,8,0:0:0:0:
64,128,93220,1,0,0:0:0:0:
64,128,93307,1,0,0:0:0:0:
64,128,93393,1,8,0:0:0:0:
64,128,93565,1,0,0:0:0:0:
64,128,93651,1,0,0:0:0:0:
64,128,93738,1,8,0:0:0:0:
64,128,93910,1,8,0:0:0:0:
64,128,93996,1,8,0:0:0:0:
64,128,94082,1,0,0:0:0:0:
64,128,94255,1,0,0:0:0:0:
64,128,94341,1,8,0:0:0:0:
64,128,94427,1,0,0:0:0:0:
64,128,94513,1,8,0:0:0:0:
64,128,94600,1,0,0:0:0:0:
64,128,94772,1,8,0:0:0:0:
64,128,94858,1,8,0:0:0:0:
64,128,94944,1,0,0:0:0:0:
64,128,95031,1,0,0:0:0:0:
64,128,95117,1,8,0:0:0:0:
64,128,95289,1,8,0:0:0:0:
64,128,95347,1,0,0:0:0:0:
64,128,95404,1,0,0:0:0:0:
64,128,95462,1,8,0:0:0:0:
64,128,95548,1,0,0:0:0:0:
64,128,95634,1,0,0:0:0:0:
64,128,95720,1,8,0:0:0:0:
64,128,95807,1,0,0:0:0:0:
64,128,95893,1,0,0:0:0:0:
64,128,95979,1,8,0:0:0:0:
64,128,96065,1,0,0:0:0:0:
64,128,96151,1,0,0:0:0:0:
64,128,96237,1,8,0:0:0:0:
64,128,96323,1,0,0:0:0:0:
64,128,96409,1,0,0:0:0:0:
64,128,96496,1,8,0:0:0:0:
64,128,96582,1,0,0:0:0:0:
64,128,96668,1,8,0:0:0:0:
64,128,96755,1,8,0:0:0:0:
64,128,96841,1,0,0:0:0:0:
64,128,96927,1,8,0:0:0:0:
64,128,97013,1,8,0:0:0:0:
64,128,97100,1,0,0:0:0:0:
64,128,97186,1,8,0:0:0:0:
64,128,97272,1,8,0:0:0:0:
64,128,97358,1,0,0:0:0:0:
64,128,97444,1,8,0:0:0:0:
64,128,97531,1,8,0:0:0:0:
64,128,97617,1,0,0:0:0:0:
64,128,97703,1,8,0:0:0:0:
64,128,97789,1,8,0:0:0:0:
64,128,97876,1,0,0:0:0:0:
64,128,97962,1,8,0:0:0:0:
64,128,98048,1,0,0:0:0:0:
64,128,98134,1,0,0:0:0:0:
64,128,98220,1,8,0:0:0:0:
64,128,98278,1,8,0:0:0:0:
64,128,98335,1,8,0:0:0:0:
64,128,98393,1,0,0:0:0:0:
64,128,98479,1,0,0:0:0:0:
64,128,98565,1,8,0:0:0:0:
64,128,98623,1,0,0:0:0:0:
64,128,98680,1,0,0:0:0:0:
64,128,98738,1,8,0:0:0:0:
64,128,98824,1,8,0:0:0:0:
64,128,98910,1,0,0:0:0:0:
64,128,98967,1,0,0:0:0:0:
64,128,99025,1,0,0:0:0:0:
64,128,99082,1,8,0:0:0:0:
64,128,99169,1,0,0:0:0:0:
64,128,99255,1,8,0:0:0:0:
64,128,99312,1,8,0:0:0:0:
64,128,99370,1,8,0:0:0:0:
64,128,99427,1,0,0:0:0:0:
448,128,100283,5,0,0:0:0:0:
64,128,100626,1,0,0:0:0:0:
448,128,100969,5,8,0:0:0:0:
448,128,101055,1,0,0:0:0:0:
448,128,101140,1,0,0:0:0:0:
448,128,101312,1,8,0:0:0:0:
448,128,101483,1,0,0:0:0:0:
448,128,101569,1,8,0:0:0:0:
448,128,101655,1,8,0:0:0:0:
448,128,101740,1,8,0:0:0:0:
448,128,101826,1,0,0:0:0:0:
448,128,101998,1,8,0:0:0:0:
448,128,102169,1,0,0:0:0:0:
448,128,102340,1,8,0:0:0:0:
448,128,102426,1,8,0:0:0:0:
448,128,102512,1,0,0:0:0:0:
448,128,102683,1,8,0:0:0:0:
448,128,102855,1,8,0:0:0:0:
448,128,102940,1,0,0:0:0:0:
448,128,103026,1,8,0:0:0:0:
448,128,103112,1,8,0:0:0:0:
448,128,103198,1,0,0:0:0:0:
448,128,103283,1,0,0:0:0:0:
448,128,103369,1,8,0:0:0:0:
448,128,103540,1,0,0:0:0:0:
448,128,103626,1,8,0:0:0:0:
448,128,103712,1,0,0:0:0:0:
448,128,103883,1,8,0:0:0:0:
448,128,104055,1,8,0:0:0:0:
448,128,104226,1,0,0:0:0:0:
448,128,104312,1,0,0:0:0:0:
448,128,104398,1,8,0:0:0:0:
448,128,104569,1,8,0:0:0:0:
448,128,104740,1,0,0:0:0:0:
448,128,104912,1,8,0:0:0:0:
448,128,104998,1,0,0:0:0:0:
448,128,105083,1,8,0:0:0:0:
448,128,105255,1,0,0:0:0:0:
448,128,105426,1,8,0:0:0:0:
448,128,105598,1,8,0:0:0:0:
448,128,105683,1,8,0:0:0:0:
448,128,105769,1,0,0:0:0:0:
448,128,105940,1,0,0:0:0:0:
448,128,106112,1,8,0:0:0:0:
448,128,106198,1,0,0:0:0:0:
448,128,106283,1,8,0:0:0:0:
448,128,106455,5,8,0:0:0:0:
448,128,106541,1,0,0:0:0:0:
448,128,106626,1,0,0:0:0:0:
448,128,106798,1,8,0:0:0:0:
448,128,106969,1,0,0:0:0:0:
448,128,107055,1,8,0:0:0:0:
448,128,107141,1,8,0:0:0:0:
448,128,107226,1,8,0:0:0:0:
448,128,107312,1,0,0:0:0:0:
448,128,107484,1,8,0:0:0:0:
448,128,107655,1,0,0:0:0:0:
448,128,107826,1,8,0:0:0:0:
448,128,107912,1,8,0:0:0:0:
448,128,107998,1,0,0:0:0:0:
448,128,108169,1,8,0:0:0:0:
448,128,108341,1,8,0:0:0:0:
448,128,108426,1,0,0:0:0:0:
448,128,108512,1,8,0:0:0:0:
448,128,108598,1,8,0:0:0:0:
448,128,108684,1,0,0:0:0:0:
448,128,108769,1,0,0:0:0:0:
448,128,108855,1,8,0:0:0:0:
448,128,109026,1,0,0:0:0:0:
448,128,109112,1,8,0:0:0:0:
448,128,109198,1,0,0:0:0:0:
448,128,109369,1,8,0:0:0:0:
448,128,109540,1,0,0:0:0:0:
448,128,109712,1,0,0:0:0:0:
448,128,109798,1,0,0:0:0:0:
448,128,109883,1,8,0:0:0:0:
448,128,109969,1,8,0:0:0:0:
448,128,110055,1,0,0:0:0:0:
448,128,110226,1,8,0:0:0:0:
448,128,110312,1,8,0:0:0:0:
448,128,110398,1,0,0:0:0:0:
448,128,110483,1,0,0:0:0:0:
448,128,110569,1,8,0:0:0:0:
448,128,110740,1,0,0:0:0:0:
448,128,110912,1,8,0:0:0:0:
448,128,111255,1,8,0:0:0:0:
448,128,111340,1,8,0:0:0:0:
448,128,111598,1,8,0:0:0:0:
448,128,111940,1,0,0:0:0:0:
352,128,112283,1,12,0:0:0:0:
448,128,112455,1,0,0:0:0:0:
448,128,112540,1,0,0:0:0:0:
448,128,112626,1,8,0:0:0:0:
448,128,112798,1,0,0:0:0:0:
448,128,112969,1,8,0:0:0:0:
448,128,113140,1,0,0:0:0:0:
448,128,113312,1,8,0:0:0:0:
448,128,113398,1,8,0:0:0:0:
448,128,113483,1,0,0:0:0:0:
448,128,113569,1,0,0:0:0:0:
448,128,113655,1,8,0:0:0:0:
448,128,113826,1,0,0:0:0:0:
448,128,113998,1,8,0:0:0:0:
448,128,114083,1,0,0:0:0:0:
448,128,114169,1,0,0:0:0:0:
448,128,114340,1,8,0:0:0:0:
448,128,114512,1,0,0:0:0:0:
448,128,114598,1,8,0:0:0:0:
448,128,114683,1,0,0:0:0:0:
448,128,114855,1,8,0:0:0:0:
448,128,115026,1,8,0:0:0:0:
448,128,115112,1,0,0:0:0:0:
448,128,115198,1,0,0:0:0:0:
448,128,115369,1,8,0:0:0:0:
448,128,115455,1,0,0:0:0:0:
448,128,115540,1,8,0:0:0:0:
448,128,115626,1,0,0:0:0:0:
448,128,115798,1,0,0:0:0:0:
448,128,115883,1,8,0:0:0:0:
448,128,116055,1,8,0:0:0:0:
448,128,116140,1,0,0:0:0:0:
448,128,116312,1,0,0:0:0:0:
448,128,116398,1,8,0:0:0:0:
448,128,116569,1,8,0:0:0:0:
448,128,116655,1,0,0:0:0:0:
448,128,116740,1,8,0:0:0:0:
448,128,116826,1,8,0:0:0:0:
448,128,116912,1,8,0:0:0:0:
448,128,117083,1,0,0:0:0:0:
448,128,117255,1,8,0:0:0:0:
448,128,117426,5,8,0:0:0:0:
448,128,117512,1,0,0:0:0:0:
448,128,117597,1,0,0:0:0:0:
448,128,117769,1,8,0:0:0:0:
448,128,117940,1,0,0:0:0:0:
448,128,118026,1,8,0:0:0:0:
448,128,118112,1,8,0:0:0:0:
448,128,118197,1,8,0:0:0:0:
448,128,118283,1,0,0:0:0:0:
448,128,118455,1,8,0:0:0:0:
448,128,118626,1,0,0:0:0:0:
448,128,118797,1,8,0:0:0:0:
448,128,118883,1,8,0:0:0:0:
448,128,118969,1,0,0:0:0:0:
448,128,119140,1,8,0:0:0:0:
448,128,119312,1,8,0:0:0:0:
448,128,119397,1,0,0:0:0:0:
448,128,119483,1,8,0:0:0:0:
448,128,119569,1,8,0:0:0:0:
448,128,119655,1,0,0:0:0:0:
448,128,119740,1,0,0:0:0:0:
448,128,119826,1,8,0:0:0:0:
448,128,119997,1,0,0:0:0:0:
448,128,120083,1,8,0:0:0:0:
448,128,120169,1,0,0:0:0:0:
448,128,120340,1,8,0:0:0:0:
448,128,120426,1,0,0:0:0:0:
448,128,120512,1,8,0:0:0:0:
448,128,120683,1,8,0:0:0:0:
448,128,120769,1,8,0:0:0:0:
448,128,120855,1,0,0:0:0:0:
448,128,121026,1,0,0:0:0:0:
448,128,121112,1,0,0:0:0:0:
448,128,121198,1,8,0:0:0:0:
448,128,121369,1,8,0:0:0:0:
448,128,121455,1,0,0:0:0:0:
448,128,121540,1,8,0:0:0:0:
448,128,121712,1,0,0:0:0:0:
448,128,121883,1,8,0:0:0:0:
448,128,121940,1,0,0:0:0:0:
448,128,121998,1,0,0:0:0:0:
448,128,122055,1,8,0:0:0:0:
448,128,122140,1,8,0:0:0:0:
448,128,122226,1,0,0:0:0:0:
448,128,122398,1,0,0:0:0:0:
448,128,122569,1,8,0:0:0:0:
64,128,122912,1,8,0:0:0:0:
64,128,122998,1,8,0:0:0:0:
64,128,123083,1,8,0:0:0:0:
64,128,123169,1,8,0:0:0:0:
64,128,123255,1,0,0:0:0:0:
64,128,123340,1,0,0:0:0:0:
64,128,123426,1,8,0:0:0:0:
64,128,123512,1,8,0:0:0:0:
64,128,123598,1,0,0:0:0:0:
64,128,123683,1,0,0:0:0:0:
64,128,123769,1,8,0:0:0:0:
64,128,123855,1,0,0:0:0:0:
64,128,123940,1,8,0:0:0:0:
64,128,124026,1,0,0:0:0:0:
64,128,124112,1,8,0:0:0:0:
64,128,124198,1,8,0:0:0:0:
64,128,124283,1,0,0:0:0:0:
64,128,124369,1,8,0:0:0:0:
64,128,124455,1,0,0:0:0:0:
64,128,124540,1,0,0:0:0:0:
64,128,124626,1,8,0:0:0:0:
64,128,124712,1,0,0:0:0:0:
64,128,124798,1,8,0:0:0:0:
64,128,124883,1,0,0:0:0:0:
64,128,124969,1,8,0:0:0:0:
64,128,125055,1,8,0:0:0:0:
64,128,125140,1,8,0:0:0:0:
64,128,125226,1,0,0:0:0:0:
64,128,125312,1,8,0:0:0:0:
64,128,125398,1,0,0:0:0:0:
64,128,125483,1,0,0:0:0:0:
64,128,125569,1,0,0:0:0:0:
64,128,125655,1,8,0:0:0:0:
64,128,125740,1,0,0:0:0:0:
64,128,125826,1,8,0:0:0:0:
64,128,125912,1,8,0:0:0:0:
64,128,125998,1,0,0:0:0:0:
64,128,126083,1,0,0:0:0:0:
64,128,126169,1,8,0:0:0:0:
64,128,126255,1,0,0:0:0:0:
64,128,126341,1,0,0:0:0:0:
64,128,126426,1,8,0:0:0:0:
64,128,126512,1,0,0:0:0:0:
64,128,126598,1,0,0:0:0:0:
64,128,126683,1,8,0:0:0:0:
64,128,126769,1,0,0:0:0:0:
64,128,126855,1,8,0:0:0:0:
64,128,126941,1,8,0:0:0:0:
64,128,127026,1,0,0:0:0:0:
64,128,127112,1,8,0:0:0:0:
64,128,127198,1,0,0:0:0:0:
64,128,127283,1,0,0:0:0:0:
64,128,127369,1,8,0:0:0:0:
64,128,127455,1,0,0:0:0:0:
64,128,127541,1,8,0:0:0:0:
64,128,127626,1,0,0:0:0:0:
64,128,127712,1,8,0:0:0:0:
64,128,127798,1,8,0:0:0:0:
64,128,127883,1,8,0:0:0:0:
64,128,127969,1,0,0:0:0:0:
64,128,128055,1,8,0:0:0:0:
64,128,128141,1,8,0:0:0:0:
64,128,128226,1,0,0:0:0:0:
64,128,128312,1,0,0:0:0:0:
64,128,128398,1,8,0:0:0:0:
64,128,128740,1,0,0:0:0:0:
64,128,128826,1,0,0:0:0:0:
64,128,128912,1,0,0:0:0:0:
64,128,128998,1,0,0:0:0:0:
64,128,129083,1,8,0:0:0:0:
64,128,129340,1,8,0:0:0:0:
64,128,129426,1,0,0:0:0:0:
64,128,129598,1,8,0:0:0:0:
64,128,129769,1,0,0:0:0:0:
64,128,129940,1,0,0:0:0:0:
64,128,130026,1,0,0:0:0:0:
64,128,130112,1,8,0:0:0:0:
64,128,130283,1,0,0:0:0:0:
64,128,130455,1,8,0:0:0:0:
64,128,130540,1,0,0:0:0:0:
64,128,130626,1,8,0:0:0:0:
64,128,130712,1,8,0:0:0:0:
64,128,130798,1,0,0:0:0:0:
64,128,130883,1,0,0:0:0:0:
64,128,130969,1,8,0:0:0:0:
64,128,131140,1,0,0:0:0:0:
64,128,131312,1,8,0:0:0:0:
64,128,131398,1,8,0:0:0:0:
64,128,131483,1,8,0:0:0:0:
64,128,131655,1,0,0:0:0:0:
64,128,131826,1,8,0:0:0:0:
64,128,131912,1,0,0:0:0:0:
64,128,131998,1,8,0:0:0:0:
64,128,132169,1,0,0:0:0:0:
64,128,132340,1,0,0:0:0:0:
64,128,132426,1,0,0:0:0:0:
64,128,132512,1,8,0:0:0:0:
64,128,132683,1,8,0:0:0:0:
64,128,132740,1,8,0:0:0:0:
64,128,132798,1,8,0:0:0:0:
64,128,132855,1,0,0:0:0:0:
64,128,133026,1,0,0:0:0:0:
64,128,133083,1,0,0:0:0:0:
64,128,133140,1,0,0:0:0:0:
64,128,133198,1,8,0:0:0:0:
64,128,133283,1,8,0:0:0:0:
64,128,133369,1,8,0:0:0:0:
64,128,133455,1,8,0:0:0:0:
64,128,133540,1,0,0:0:0:0:
64,128,133883,1,8,0:0:0:0:
64,128,133969,1,8,0:0:0:0:
64,128,134054,1,8,0:0:0:0:
64,128,134140,1,8,0:0:0:0:
64,128,134226,1,0,0:0:0:0:
64,128,134311,1,0,0:0:0:0:
64,128,134397,1,8,0:0:0:0:
64,128,134483,1,8,0:0:0:0:
64,128,134569,1,0,0:0:0:0:
64,128,134654,1,0,0:0:0:0:
64,128,134740,1,8,0:0:0:0:
64,128,134826,1,0,0:0:0:0:
64,128,134911,1,8,0:0:0:0:
64,128,134997,1,0,0:0:0:0:
64,128,135083,1,8,0:0:0:0:
64,128,135169,1,8,0:0:0:0:
64,128,135254,1,0,0:0:0:0:
64,128,135340,1,8,0:0:0:0:
64,128,135426,1,0,0:0:0:0:
64,128,135511,1,0,0:0:0:0:
64,128,135597,1,8,0:0:0:0:
64,128,135683,1,0,0:0:0:0:
64,128,135769,1,8,0:0:0:0:
64,128,135854,1,0,0:0:0:0:
64,128,135940,1,8,0:0:0:0:
64,128,136026,1,8,0:0:0:0:
64,128,136111,1,8,0:0:0:0:
64,128,136197,1,0,0:0:0:0:
64,128,136283,1,8,0:0:0:0:
64,128,136369,1,0,0:0:0:0:
64,128,136454,1,0,0:0:0:0:
64,128,136540,1,0,0:0:0:0:
64,128,136626,1,8,0:0:0:0:
64,128,136711,1,0,0:0:0:0:
64,128,136797,1,8,0:0:0:0:
64,128,136883,1,8,0:0:0:0:
64,128,136969,1,0,0:0:0:0:
64,128,137054,1,0,0:0:0:0:
64,128,137140,1,8,0:0:0:0:
64,128,137226,1,0,0:0:0:0:
64,128,137312,1,0,0:0:0:0:
64,128,137397,1,8,0:0:0:0:
64,128,137483,1,0,0:0:0:0:
64,128,137569,1,0,0:0:0:0:
64,128,137654,1,8,0:0:0:0:
64,128,137740,1,0,0:0:0:0:
64,128,137826,1,8,0:0:0:0:
64,128,137912,1,8,0:0:0:0:
64,128,137997,1,0,0:0:0:0:
64,128,138083,1,8,0:0:0:0:
64,128,138169,1,0,0:0:0:0:
64,128,138254,1,0,0:0:0:0:
64,128,138340,1,8,0:0:0:0:
64,128,138426,1,0,0:0:0:0:
64,128,138512,1,8,0:0:0:0:
64,128,138597,1,0,0:0:0:0:
64,128,138683,1,8,0:0:0:0:
64,128,138769,1,8,0:0:0:0:
64,128,138854,1,8,0:0:0:0:
64,128,138940,1,0,0:0:0:0:
64,128,139026,1,8,0:0:0:0:
64,128,139112,1,8,0:0:0:0:
64,128,139197,1,0,0:0:0:0:
64,128,139283,1,0,0:0:0:0:
64,128,139369,1,8,0:0:0:0:
64,128,139711,1,0,0:0:0:0:
64,128,139797,1,0,0:0:0:0:
64,128,139883,1,0,0:0:0:0:
64,128,139969,1,0,0:0:0:0:
64,128,140054,1,8,0:0:0:0:
64,128,140311,1,8,0:0:0:0:
64,128,140397,1,0,0:0:0:0:
64,128,140569,1,8,0:0:0:0:
64,128,140740,1,0,0:0:0:0:
64,128,140911,1,0,0:0:0:0:
64,128,140997,1,0,0:0:0:0:
64,128,141083,1,8,0:0:0:0:
64,128,141254,1,0,0:0:0:0:
64,128,141426,1,8,0:0:0:0:
64,128,141511,1,0,0:0:0:0:
64,128,141597,1,8,0:0:0:0:
64,128,141683,1,0,0:0:0:0:
64,128,141769,1,8,0:0:0:0:
64,128,141854,1,8,0:0:0:0:
64,128,141940,1,0,0:0:0:0:
64,128,142026,1,8,0:0:0:0:
64,128,142111,5,0,0:0:0:0:
64,128,142283,1,0,0:0:0:0:
64,128,142455,1,0,0:0:0:0:
64,128,142626,1,0,0:0:0:0:
64,128,142798,1,0,0:0:0:0:
64,128,142969,1,0,0:0:0:0:
64,128,143140,1,0,0:0:0:0:
64,128,143312,1,0,0:0:0:0:
64,128,143483,1,8,0:0:0:0:
64,128,143569,1,0,0:0:0:0:
64,128,143655,1,8,0:0:0:0:
64,128,143740,1,8,0:0:0:0:
64,128,143826,1,0,0:0:0:0:
64,128,143912,1,0,0:0:0:0:
64,128,143998,1,8,0:0:0:0:
64,128,144083,1,0,0:0:0:0:
64,128,144169,1,8,0:0:0:0:
448,128,144426,1,8,0:0:0:0:
64,128,144683,1,8,0:0:0:0:
352,128,144855,5,4,0:0:0:0:
448,128,145026,1,0,0:0:0:0:
448,128,145198,1,8,0:0:0:0:
448,128,145369,5,0,0:0:0:0:
448,128,145426,1,0,0:0:0:0:
448,128,145483,1,0,0:0:0:0:
448,128,145540,1,8,0:0:0:0:
448,128,145626,1,8,0:0:0:0:
448,128,145712,1,0,0:0:0:0:
448,128,145798,1,0,0:0:0:0:
448,128,145883,1,8,0:0:0:0:
448,128,145969,1,8,0:0:0:0:
448,128,146055,1,0,0:0:0:0:
448,128,146140,1,0,0:0:0:0:
448,128,146226,1,8,0:0:0:0:
448,128,146569,1,0,0:0:0:0:
448,128,146740,1,0,0:0:0:0:
448,128,146797,1,0,0:0:0:0:
448,128,146854,1,0,0:0:0:0:
448,128,146911,1,8,0:0:0:0:
448,128,146997,1,8,0:0:0:0:
448,128,147083,1,0,0:0:0:0:
448,128,147169,1,0,0:0:0:0:
448,128,147254,1,8,0:0:0:0:
448,128,147340,1,8,0:0:0:0:
448,128,147426,1,0,0:0:0:0:
448,128,147511,1,0,0:0:0:0:
448,128,147597,1,8,0:0:0:0:
448,128,147769,1,0,0:0:0:0:
448,128,147855,1,0,0:0:0:0:
448,128,147940,1,8,0:0:0:0:
448,128,148026,1,0,0:0:0:0:
448,128,148112,1,8,0:0:0:0:
448,128,148283,1,8,0:0:0:0:
448,128,148369,1,8,0:0:0:0:
448,128,148455,1,0,0:0:0:0:
448,128,148540,1,0,0:0:0:0:
448,128,148626,1,8,0:0:0:0:
448,128,148712,1,8,0:0:0:0:
448,128,148798,1,0,0:0:0:0:
448,128,148883,1,0,0:0:0:0:
448,128,149140,1,0,0:0:0:0:
448,128,149183,1,0,0:0:0:0:
448,128,149312,1,0,0:0:0:0:
448,128,149355,1,0,0:0:0:0:
448,128,149483,1,0,0:0:0:0:
448,128,149526,1,0,0:0:0:0:
448,128,149655,1,8,0:0:0:0:
448,128,149826,1,0,0:0:0:0:
448,128,149869,1,0,0:0:0:0:
448,128,149998,1,8,0:0:0:0:
448,128,150041,1,8,0:0:0:0:
352,128,150340,1,4,0:0:0:0:
448,128,150683,1,8,0:0:0:0:
448,128,150855,1,0,0:0:0:0:
448,128,150912,1,0,0:0:0:0:
448,128,150969,1,0,0:0:0:0:
448,128,151026,1,8,0:0:0:0:
448,128,151112,1,8,0:0:0:0:
448,128,151198,1,0,0:0:0:0:
448,128,151284,1,0,0:0:0:0:
448,128,151369,1,8,0:0:0:0:
448,128,151455,1,8,0:0:0:0:
448,128,151541,1,0,0:0:0:0:
448,128,151626,1,0,0:0:0:0:
448,128,151712,1,8,0:0:0:0:
448,128,152055,1,0,0:0:0:0:
448,128,152226,1,0,0:0:0:0:
448,128,152283,1,0,0:0:0:0:
448,128,152340,1,0,0:0:0:0:
448,128,152397,1,8,0:0:0:0:
448,128,152483,1,8,0:0:0:0:
448,128,152569,1,0,0:0:0:0:
448,128,152655,1,0,0:0:0:0:
448,128,152740,1,8,0:0:0:0:
448,128,152826,1,8,0:0:0:0:
448,128,152912,1,0,0:0:0:0:
448,128,152997,1,0,0:0:0:0:
448,128,153083,1,8,0:0:0:0:
448,128,153255,1,0,0:0:0:0:
448,128,153341,1,0,0:0:0:0:
448,128,153426,1,8,0:0:0:0:
448,128,153512,1,0,0:0:0:0:
448,128,153598,1,8,0:0:0:0:
448,128,153769,1,8,0:0:0:0:
448,128,153855,1,8,0:0:0:0:
448,128,153940,1,0,0:0:0:0:
448,128,154026,1,0,0:0:0:0:
448,128,154112,1,8,0:0:0:0:
448,128,154198,1,8,0:0:0:0:
448,128,154283,1,0,0:0:0:0:
448,128,154369,1,0,0:0:0:0:
448,128,154455,1,8,0:0:0:0:
256,192,154626,12,0,155483,0:0:0:0:
352,128,155826,5,12,0:0:0:0:
448,128,156340,5,8,0:0:0:0:
448,128,156398,1,0,0:0:0:0:
448,128,156455,1,0,0:0:0:0:
448,128,156512,1,8,0:0:0:0:
448,128,156598,1,8,0:0:0:0:
448,128,156683,1,8,0:0:0:0:
448,128,156769,1,0,0:0:0:0:
448,128,156855,1,8,0:0:0:0:
448,128,156940,1,8,0:0:0:0:
448,128,157026,1,8,0:0:0:0:
448,128,157112,1,0,0:0:0:0:
448,128,157198,1,8,0:0:0:0:
448,128,157540,1,0,0:0:0:0:
448,128,157712,1,8,0:0:0:0:
448,128,157770,1,0,0:0:0:0:
448,128,157827,1,0,0:0:0:0:
448,128,157884,1,8,0:0:0:0:
448,128,157970,1,8,0:0:0:0:
448,128,158055,1,8,0:0:0:0:
448,128,158141,1,0,0:0:0:0:
448,128,158227,1,8,0:0:0:0:
448,128,158312,1,8,0:0:0:0:
448,128,158398,1,8,0:0:0:0:
448,128,158484,1,0,0:0:0:0:
448,128,158570,1,8,0:0:0:0:
448,128,158740,1,0,0:0:0:0:
448,128,158826,1,8,0:0:0:0:
448,128,158912,1,0,0:0:0:0:
448,128,159083,1,0,0:0:0:0:
448,128,159255,1,8,0:0:0:0:
448,128,159340,1,8,0:0:0:0:
448,128,159426,1,8,0:0:0:0:
448,128,159512,1,0,0:0:0:0:
448,128,159598,1,8,0:0:0:0:
448,128,159683,1,8,0:0:0:0:
448,128,159769,1,8,0:0:0:0:
448,128,159855,1,0,0:0:0:0:
448,128,159940,1,8,0:0:0:0:
448,128,160112,1,0,0:0:0:0:
448,128,160283,5,8,0:0:0:0:
448,128,160455,1,0,0:0:0:0:
448,128,160540,1,8,0:0:0:0:
448,128,160712,1,0,0:0:0:0:
448,128,160798,1,8,0:0:0:0:
448,128,160969,1,0,0:0:0:0:
448,128,161055,1,8,0:0:0:0:
448,128,161140,1,0,0:0:0:0:
448,128,161226,1,0,0:0:0:0:
448,128,161312,1,8,0:0:0:0:
448,128,161826,1,8,0:0:0:0:
448,128,161884,1,0,0:0:0:0:
448,128,161941,1,0,0:0:0:0:
448,128,161998,1,8,0:0:0:0:
448,128,162084,1,8,0:0:0:0:
448,128,162169,1,8,0:0:0:0:
448,128,162255,1,0,0:0:0:0:
448,128,162341,1,8,0:0:0:0:
448,128,162426,1,8,0:0:0:0:
448,128,162512,1,8,0:0:0:0:
448,128,162598,1,0,0:0:0:0:
448,128,162684,1,8,0:0:0:0:
448,128,163026,1,0,0:0:0:0:
448,128,163198,1,8,0:0:0:0:
448,128,163256,1,0,0:0:0:0:
448,128,163313,1,0,0:0:0:0:
448,128,163370,1,8,0:0:0:0:
448,128,163456,1,8,0:0:0:0:
448,128,163541,1,8,0:0:0:0:
448,128,163627,1,0,0:0:0:0:
448,128,163713,1,8,0:0:0:0:
448,128,163798,1,8,0:0:0:0:
448,128,163884,1,8,0:0:0:0:
448,128,163970,1,0,0:0:0:0:
448,128,164056,1,8,0:0:0:0:
448,128,164226,1,0,0:0:0:0:
448,128,164312,1,0,0:0:0:0:
448,128,164398,1,8,0:0:0:0:
448,128,164569,1,8,0:0:0:0:
448,128,164740,1,8,0:0:0:0:
448,128,164826,1,8,0:0:0:0:
448,128,164912,1,0,0:0:0:0:
448,128,164998,1,0,0:0:0:0:
448,128,165083,1,8,0:0:0:0:
448,128,165169,1,8,0:0:0:0:
448,128,165255,1,0,0:0:0:0:
448,128,165340,1,0,0:0:0:0:
448,128,165426,5,8,0:0:0:0:
448,128,165483,1,0,0:0:0:0:
448,128,165540,1,0,0:0:0:0:
448,128,165598,1,8,0:0:0:0:
448,128,165683,1,0,0:0:0:0:
448,128,165769,1,8,0:0:0:0:
448,128,165826,1,8,0:0:0:0:
448,128,165883,1,8,0:0:0:0:
448,128,165940,1,0,0:0:0:0:
448,128,166026,1,8,0:0:0:0:
448,128,166112,1,0,0:0:0:0:
448,128,166169,1,0,0:0:0:0:
448,128,166226,1,0,0:0:0:0:
448,128,166283,1,8,0:0:0:0:
448,128,166369,1,0,0:0:0:0:
448,128,166455,1,8,0:0:0:0:
448,128,166512,1,0,0:0:0:0:
448,128,166569,1,0,0:0:0:0:
448,128,166626,1,8,0:0:0:0:
448,128,166712,1,8,0:0:0:0:
160,128,166798,1,4,0:0:0:0:
160,128,167312,1,4,0:0:0:0:
160,128,167826,1,4,0:0:0:0:
64,128,169198,1,8,0:0:0:0:
64,128,169283,1,0,0:0:0:0:
64,128,169369,1,0,0:0:0:0:
160,128,169540,1,12,0:0:0:0:
160,128,170055,1,12,0:0:0:0:
160,128,170912,1,4,0:0:0:0:
160,128,171426,1,12,0:0:0:0:
160,128,172283,1,4,0:0:0:0:
160,128,172798,1,4,0:0:0:0:
160,128,173312,1,4,0:0:0:0:
64,128,174683,1,8,0:0:0:0:
160,128,175026,1,4,0:0:0:0:
160,128,175540,1,4,0:0:0:0:
160,128,176398,1,12,0:0:0:0:
160,128,176912,1,12,0:0:0:0:
64,128,177426,5,8,0:0:0:0:
64,128,177512,1,0,0:0:0:0:
64,128,177598,1,8,0:0:0:0:
64,128,177683,1,8,0:0:0:0:
160,128,177769,1,4,0:0:0:0:
64,128,177940,1,0,0:0:0:0:
64,128,178112,1,8,0:0:0:0:
64,128,178283,1,0,0:0:0:0:
64,128,178369,1,0,0:0:0:0:
64,128,178455,1,8,0:0:0:0:
64,128,178626,1,0,0:0:0:0:
64,128,178798,1,8,0:0:0:0:
64,128,178969,1,8,0:0:0:0:
64,128,179140,1,0,0:0:0:0:
64,128,179312,1,8,0:0:0:0:
64,128,179398,1,8,0:0:0:0:
64,128,179483,1,0,0:0:0:0:
64,128,179655,1,8,0:0:0:0:
64,128,179826,1,0,0:0:0:0:
64,128,179998,1,0,0:0:0:0:
64,128,180169,1,8,0:0:0:0:
64,128,180254,1,0,0:0:0:0:
64,128,180340,1,0,0:0:0:0:
64,128,180512,1,8,0:0:0:0:
64,128,180683,1,0,0:0:0:0:
64,128,180855,1,8,0:0:0:0:
64,128,180940,1,8,0:0:0:0:
64,128,181026,1,0,0:0:0:0:
64,128,181112,1,8,0:0:0:0:
64,128,181198,1,0,0:0:0:0:
64,128,181369,1,0,0:0:0:0:
64,128,181541,1,8,0:0:0:0:
64,128,181626,1,0,0:0:0:0:
64,128,181712,1,8,0:0:0:0:
64,128,181883,1,0,0:0:0:0:
64,128,182055,1,8,0:0:0:0:
64,128,182141,1,8,0:0:0:0:
64,128,182226,1,0,0:0:0:0:
64,128,182398,1,8,0:0:0:0:
64,128,182569,1,0,0:0:0:0:
64,128,182741,1,0,0:0:0:0:
64,128,182912,1,8,0:0:0:0:
64,128,182998,1,8,0:0:0:0:
64,128,183083,1,0,0:0:0:0:
64,128,183169,1,0,0:0:0:0:
64,128,183255,1,8,0:0:0:0:
64,128,183426,1,0,0:0:0:0:
64,128,183598,1,8,0:0:0:0:
64,128,183769,1,0,0:0:0:0:
64,128,183855,1,0,0:0:0:0:
64,128,183941,1,8,0:0:0:0:
64,128,184112,1,0,0:0:0:0:
64,128,184284,1,8,0:0:0:0:
64,128,184455,1,8,0:0:0:0:
64,128,184540,1,0,0:0:0:0:
64,128,184626,1,0,0:0:0:0:
64,128,184798,1,8,0:0:0:0:
64,128,184884,1,8,0:0:0:0:
64,128,184969,1,0,0:0:0:0:
64,128,185055,1,0,0:0:0:0:
64,128,185141,1,8,0:0:0:0:
64,128,185312,1,0,0:0:0:0:
64,128,185484,1,0,0:0:0:0:
64,128,185655,1,0,0:0:0:0:
64,128,185740,1,8,0:0:0:0:
64,128,185826,1,8,0:0:0:0:
64,128,185912,1,8,0:0:0:0:
64,128,185998,1,0,0:0:0:0:
64,128,186169,1,0,0:0:0:0:
64,128,186341,1,8,0:0:0:0:
64,128,186426,1,8,0:0:0:0:
64,128,186512,1,0,0:0:0:0:
64,128,186598,1,8,0:0:0:0:
64,128,186684,1,0,0:0:0:0:
64,128,186855,1,0,0:0:0:0:
64,128,187027,1,8,0:0:0:0:
64,128,187198,1,0,0:0:0:0:
64,128,187369,1,8,0:0:0:0:
64,128,187541,1,8,0:0:0:0:
64,128,187627,1,0,0:0:0:0:
64,128,187712,1,8,0:0:0:0:
64,128,187798,1,8,0:0:0:0:
64,128,187884,1,0,0:0:0:0:
64,128,188055,1,8,0:0:0:0:
64,128,188140,1,0,0:0:0:0:
64,128,188227,1,8,0:0:0:0:
64,128,188312,1,0,0:0:0:0:
64,128,188398,1,8,0:0:0:0:
64,128,188483,1,8,0:0:0:0:
64,128,188569,1,0,0:0:0:0:
64,128,188655,1,8,0:0:0:0:
160,128,188741,1,4,0:0:0:0:
64,128,188912,1,0,0:0:0:0:
64,128,188998,1,8,0:0:0:0:
64,128,189083,1,0,0:0:0:0:
64,128,189255,1,0,0:0:0:0:
64,128,189426,1,8,0:0:0:0:
64,128,189512,1,0,0:0:0:0:
64,128,189598,1,0,0:0:0:0:
64,128,189769,1,8,0:0:0:0:
64,128,189826,1,8,0:0:0:0:
64,128,189883,1,8,0:0:0:0:
64,128,189940,1,8,0:0:0:0:
64,128,190112,1,0,0:0:0:0:
64,128,190198,1,8,0:0:0:0:
64,128,190283,1,0,0:0:0:0:
64,128,190455,1,8,0:0:0:0:
64,128,190626,1,0,0:0:0:0:
64,128,190712,1,0,0:0:0:0:
64,128,190798,1,8,0:0:0:0:
64,128,190969,1,0,0:0:0:0:
64,128,191140,1,8,0:0:0:0:
64,128,191183,1,8,0:0:0:0:
64,128,191312,1,8,0:0:0:0:
64,128,191355,1,8,0:0:0:0:
64,128,191483,1,0,0:0:0:0:
64,128,191655,1,0,0:0:0:0:
64,128,191740,1,8,0:0:0:0:
64,128,191826,1,0,0:0:0:0:
64,128,191998,1,0,0:0:0:0:
64,128,192169,1,8,0:0:0:0:
64,128,192255,1,0,0:0:0:0:
64,128,192340,1,0,0:0:0:0:
64,128,192512,1,8,0:0:0:0:
64,128,192598,1,8,0:0:0:0:
64,128,192683,1,8,0:0:0:0:
64,128,192769,1,8,0:0:0:0:
64,128,192855,1,0,0:0:0:0:
64,128,193026,1,0,0:0:0:0:
64,128,193112,1,8,0:0:0:0:
64,128,193198,1,0,0:0:0:0:
64,128,193369,1,0,0:0:0:0:
64,128,193540,1,8,0:0:0:0:
64,128,193798,1,8,0:0:0:0:
64,128,193883,1,0,0:0:0:0:
64,128,194055,1,8,0:0:0:0:
64,128,194226,5,0,0:0:0:0:
64,128,194312,1,0,0:0:0:0:
64,128,194398,1,8,0:0:0:0:
64,128,194483,1,0,0:0:0:0:
64,128,194569,1,8,0:0:0:0:
64,128,194655,1,8,0:0:0:0:
64,128,194740,1,0,0:0:0:0:
64,128,194826,1,8,0:0:0:0:
64,128,194912,1,0,0:0:0:0:
64,128,194998,1,0,0:0:0:0:
64,128,195083,1,8,0:0:0:0:
64,128,195169,1,0,0:0:0:0:
64,128,195255,1,8,0:0:0:0:
64,128,195340,1,8,0:0:0:0:
64,128,195426,1,0,0:0:0:0:
64,128,195512,1,8,0:0:0:0:
64,128,195598,1,0,0:0:0:0:
64,128,195683,1,0,0:0:0:0:
64,128,195769,1,8,0:0:0:0:
64,128,195855,1,8,0:0:0:0:
64,128,195940,1,0,0:0:0:0:
64,128,196026,1,0,0:0:0:0:
64,128,196112,1,8,0:0:0:0:
64,128,196198,1,8,0:0:0:0:
64,128,196283,1,0,0:0:0:0:
64,128,196369,1,0,0:0:0:0:
64,128,196455,1,8,0:0:0:0:
64,128,196540,1,0,0:0:0:0:
64,128,196626,1,8,0:0:0:0:
64,128,196712,1,8,0:0:0:0:
64,128,196798,1,0,0:0:0:0:
64,128,196883,1,8,0:0:0:0:
64,128,196969,1,0,0:0:0:0:
64,128,197026,1,0,0:0:0:0:
64,128,197083,1,0,0:0:0:0:
64,128,197140,1,8,0:0:0:0:
64,128,197226,1,8,0:0:0:0:
64,128,197312,1,0,0:0:0:0:
64,128,197369,1,0,0:0:0:0:
64,128,197426,1,0,0:0:0:0:
64,128,197483,1,8,0:0:0:0:
64,128,197569,1,8,0:0:0:0:
64,128,197655,1,0,0:0:0:0:
64,128,197712,1,0,0:0:0:0:
64,128,197769,1,0,0:0:0:0:
64,128,197826,1,8,0:0:0:0:
64,128,197912,1,8,0:0:0:0:
64,128,197998,1,0,0:0:0:0:
64,128,198055,1,0,0:0:0:0:
64,128,198112,1,0,0:0:0:0:
64,128,198169,1,8,0:0:0:0:
64,128,198226,1,8,0:0:0:0:
64,128,198283,1,8,0:0:0:0:
64,128,198340,1,0,0:0:0:0:
352,128,199711,5,4,0:0:0:0:
64,128,200400,1,8,0:0:0:0:
352,128,200745,1,0,0:0:0:0:
448,128,200917,1,0,0:0:0:0:
448,128,201090,1,8,0:0:0:0:
448,128,201176,1,0,0:0:0:0:
448,128,201262,1,8,0:0:0:0:
448,128,201348,1,0,0:0:0:0:
448,128,201435,1,8,0:0:0:0:
448,128,201607,1,0,0:0:0:0:
448,128,201779,1,8,0:0:0:0:
448,128,201866,1,8,0:0:0:0:
448,128,201952,1,0,0:0:0:0:
448,128,202038,1,0,0:0:0:0:
448,128,202124,1,8,0:0:0:0:
448,128,202297,1,8,0:0:0:0:
448,128,202469,1,0,0:0:0:0:
448,128,202555,1,0,0:0:0:0:
448,128,202642,1,0,0:0:0:0:
448,128,202728,1,0,0:0:0:0:
448,128,202814,1,8,0:0:0:0:
448,128,202986,1,8,0:0:0:0:
448,128,203159,1,8,0:0:0:0:
448,128,203245,1,8,0:0:0:0:
448,128,203331,1,8,0:0:0:0:
448,128,203417,1,8,0:0:0:0:
448,128,203504,1,0,0:0:0:0:
448,128,203676,1,8,0:0:0:0:
448,128,203848,1,0,0:0:0:0:
448,128,203935,1,8,0:0:0:0:
448,128,204021,1,8,0:0:0:0:
448,128,204107,1,0,0:0:0:0:
448,128,204193,1,8,0:0:0:0:
448,128,204366,1,0,0:0:0:0:
448,128,204538,1,8,0:0:0:0:
448,128,204624,1,0,0:0:0:0:
448,128,204711,1,8,0:0:0:0:
448,128,204797,1,8,0:0:0:0:
448,128,204883,1,0,0:0:0:0:
352,128,205228,1,4,0:0:0:0:
448,128,205573,1,8,0:0:0:0:
448,128,205745,1,8,0:0:0:0:
448,128,205917,1,0,0:0:0:0:
448,128,205961,1,0,0:0:0:0:
448,128,206262,1,0,0:0:0:0:
448,128,206305,1,0,0:0:0:0:
448,128,206607,1,0,0:0:0:0:
448,128,206650,1,0,0:0:0:0:
448,128,206779,1,0,0:0:0:0:
448,128,206823,1,0,0:0:0:0:
448,128,206952,1,0,0:0:0:0:
448,128,206995,1,0,0:0:0:0:
448,128,207297,1,0,0:0:0:0:
448,128,207340,1,0,0:0:0:0:
448,128,207642,1,0,0:0:0:0:
448,128,207685,1,0,0:0:0:0:
448,128,207986,1,8,0:0:0:0:
448,128,208331,1,8,0:0:0:0:
448,128,208417,1,0,0:0:0:0:
448,128,208504,1,8,0:0:0:0:
448,128,208590,1,0,0:0:0:0:
448,128,208676,1,8,0:0:0:0:
448,128,208762,1,8,0:0:0:0:
448,128,208848,1,0,0:0:0:0:
448,128,208935,1,0,0:0:0:0:
448,128,209021,1,8,0:0:0:0:
448,128,209107,1,0,0:0:0:0:
448,128,209193,1,8,0:0:0:0:
448,128,209279,1,0,0:0:0:0:
448,128,209366,1,8,0:0:0:0:
448,128,209452,1,8,0:0:0:0:
448,128,209538,1,0,0:0:0:0:
448,128,209624,1,0,0:0:0:0:
448,128,209711,1,8,0:0:0:0:
448,128,209797,1,0,0:0:0:0:
448,128,209883,1,8,0:0:0:0:
352,128,210055,1,4,0:0:0:0:
352,128,210400,1,4,0:0:0:0:
352,128,210745,1,12,0:0:0:0:
448,128,211090,1,0,0:0:0:0:
448,128,211262,1,0,0:0:0:0:
448,128,211435,1,8,0:0:0:0:
448,128,211779,1,8,0:0:0:0:
448,128,211952,1,0,0:0:0:0:
448,128,212038,1,0,0:0:0:0:
448,128,212124,1,8,0:0:0:0:
448,128,212211,1,8,0:0:0:0:
448,128,212297,1,8,0:0:0:0:
448,128,212383,1,0,0:0:0:0:
448,128,212469,1,8,0:0:0:0:
448,128,212642,1,0,0:0:0:0:
448,128,212728,1,0,0:0:0:0:
448,128,212814,1,8,0:0:0:0:
448,128,212986,1,0,0:0:0:0:
448,128,213159,1,8,0:0:0:0:
448,128,213245,1,0,0:0:0:0:
448,128,213331,1,0,0:0:0:0:
448,128,213504,1,8,0:0:0:0:
448,128,213561,1,8,0:0:0:0:
448,128,213619,1,8,0:0:0:0:
448,128,213676,1,0,0:0:0:0:
448,128,213762,1,0,0:0:0:0:
448,128,213848,1,8,0:0:0:0:
448,128,213935,1,0,0:0:0:0:
448,128,214021,1,8,0:0:0:0:
448,128,214107,1,8,0:0:0:0:
448,128,214193,1,0,0:0:0:0:
448,128,214366,1,8,0:0:0:0:
448,128,214452,1,0,0:0:0:0:
448,128,214538,1,8,0:0:0:0:
448,128,214711,1,0,0:0:0:0:
448,128,214883,1,8,0:0:0:0:
448,128,214969,1,8,0:0:0:0:
448,128,215055,1,0,0:0:0:0:
448,128,215142,1,0,0:0:0:0:
448,128,215228,1,8,0:0:0:0:
448,128,215314,1,0,0:0:0:0:
448,128,215400,1,8,0:0:0:0:
448,128,215486,1,0,0:0:0:0:
352,128,215573,1,12,0:0:0:0:
448,128,215917,1,0,0:0:0:0:
352,128,216262,1,4,0:0:0:0:
448,128,216607,1,0,0:0:0:0:
448,128,216779,1,0,0:0:0:0:
448,128,216952,1,8,0:0:0:0:
448,128,217038,1,0,0:0:0:0:
448,128,217297,1,0,0:0:0:0:
448,128,217642,1,8,0:0:0:0:
448,128,217986,1,8,0:0:0:0:
448,128,218159,1,0,0:0:0:0:
448,128,218331,1,8,0:0:0:0:
448,128,218504,1,8,0:0:0:0:
448,128,218547,1,8,0:0:0:0:
448,128,218676,1,0,0:0:0:0:
448,128,218719,1,0,0:0:0:0:
448,128,218848,1,0,0:0:0:0:
448,128,219021,1,8,0:0:0:0:
448,128,219366,1,0,0:0:0:0:
448,128,219538,1,0,0:0:0:0:
448,128,219711,1,8,0:0:0:0:
448,128,219883,1,8,0:0:0:0:
448,128,220055,1,8,0:0:0:0:
448,128,220228,1,8,0:0:0:0:
352,128,220400,1,4,0:0:0:0:
448,128,221435,1,8,0:0:0:0:
448,128,221492,1,8,0:0:0:0:
448,128,221550,1,8,0:0:0:0:
448,128,221607,1,8,0:0:0:0:
352,128,221779,1,4,0:0:0:0:
352,128,222814,1,12,0:0:0:0:
448,128,222986,1,0,0:0:0:0:
448,128,223073,1,0,0:0:0:0:
448,128,223159,1,8,0:0:0:0:
448,128,223245,1,0,0:0:0:0:
448,128,223331,1,8,0:0:0:0:
448,128,223417,1,8,0:0:0:0:
448,128,223504,1,8,0:0:0:0:
448,128,223590,1,0,0:0:0:0:
448,128,223676,1,8,0:0:0:0:
448,128,223762,1,0,0:0:0:0:
448,128,223848,1,8,0:0:0:0:
448,128,224021,1,0,0:0:0:0:
448,128,224107,1,0,0:0:0:0:
448,128,224193,1,8,0:0:0:0:
448,128,224366,1,8,0:0:0:0:
448,128,224538,1,0,0:0:0:0:
448,128,224624,1,8,0:0:0:0:
448,128,224711,1,8,0:0:0:0:
448,128,224797,1,8,0:0:0:0:
448,128,224883,1,0,0:0:0:0:
448,128,224969,1,0,0:0:0:0:
448,128,225055,1,8,0:0:0:0:
448,128,225142,1,0,0:0:0:0:
448,128,225228,1,8,0:0:0:0:
448,128,225400,1,0,0:0:0:0:
448,128,225486,1,0,0:0:0:0:
448,128,225573,1,8,0:0:0:0:
448,128,225745,1,8,0:0:0:0:
448,128,225917,1,0,0:0:0:0:
448,128,226004,1,0,0:0:0:0:
448,128,226090,1,8,0:0:0:0:
448,128,226176,1,8,0:0:0:0:
448,128,226262,1,0,0:0:0:0:
448,128,226348,1,8,0:0:0:0:
448,128,226435,1,0,0:0:0:0:
448,128,226521,1,0,0:0:0:0:
448,128,226607,1,8,0:0:0:0:
448,128,226779,1,8,0:0:0:0:
448,128,226866,1,8,0:0:0:0:
448,128,226952,1,0,0:0:0:0:
352,128,227297,1,4,0:0:0:0:
448,128,227642,1,0,0:0:0:0:
448,128,227814,1,0,0:0:0:0:
448,128,227986,1,8,0:0:0:0:
448,128,228030,1,8,0:0:0:0:
448,128,228331,1,8,0:0:0:0:
448,128,228374,1,8,0:0:0:0:
448,128,228676,1,8,0:0:0:0:
448,128,228719,1,8,0:0:0:0:
448,128,228848,1,8,0:0:0:0:
448,128,228892,1,8,0:0:0:0:
448,128,229021,1,8,0:0:0:0:
448,128,229064,1,8,0:0:0:0:
448,128,229366,1,8,0:0:0:0:
448,128,229409,1,8,0:0:0:0:
448,128,229711,1,8,0:0:0:0:
448,128,229754,1,8,0:0:0:0:
352,128,230055,1,4,0:0:0:0:
448,128,230400,1,8,0:0:0:0:
448,128,230486,1,8,0:0:0:0:
448,128,230573,1,0,0:0:0:0:
448,128,230659,1,0,0:0:0:0:
448,128,230745,1,8,0:0:0:0:
448,128,230831,1,0,0:0:0:0:
448,128,230917,1,8,0:0:0:0:
448,128,231004,1,0,0:0:0:0:
448,128,231090,1,8,0:0:0:0:
448,128,231176,1,8,0:0:0:0:
448,128,231262,1,0,0:0:0:0:
448,128,231348,1,0,0:0:0:0:
448,128,231435,1,8,0:0:0:0:
448,128,231521,1,0,0:0:0:0:
448,128,231607,1,8,0:0:0:0:
448,128,231693,1,0,0:0:0:0:
448,128,231779,1,8,0:0:0:0:
448,128,231866,1,8,0:0:0:0:
448,128,231952,1,0,0:0:0:0:
448,128,232038,1,0,0:0:0:0:
352,128,232124,1,12,0:0:0:0:
352,128,232469,1,4,0:0:0:0:
352,128,232814,1,12,0:0:0:0:
448,128,233159,1,0,0:0:0:0:
448,128,233331,1,0,0:0:0:0:
448,128,233504,1,8,0:0:0:0:
448,128,233848,1,8,0:0:0:0:
448,128,233935,1,8,0:0:0:0:
448,128,234021,1,0,0:0:0:0:
448,128,234107,1,0,0:0:0:0:
448,128,234193,1,8,0:0:0:0:
448,128,234279,1,0,0:0:0:0:
448,128,234366,1,8,0:0:0:0:
448,128,234452,1,8,0:0:0:0:
448,128,234538,1,0,0:0:0:0:
448,128,234624,1,0,0:0:0:0:
448,128,234711,1,8,0:0:0:0:
448,128,234797,1,0,0:0:0:0:
448,128,234883,1,8,0:0:0:0:
448,128,234969,1,8,0:0:0:0:
448,128,235055,1,0,0:0:0:0:
448,128,235142,1,0,0:0:0:0:
448,128,235228,1,8,0:0:0:0:
448,128,235400,1,0,0:0:0:0:
448,128,235573,1,8,0:0:0:0:
448,128,235630,1,0,0:0:0:0:
448,128,235688,1,0,0:0:0:0:
448,128,235745,1,8,0:0:0:0:
448,128,235831,1,8,0:0:0:0:
448,128,235917,1,0,0:0:0:0:
448,128,236004,1,0,0:0:0:0:
448,128,236090,1,8,0:0:0:0:
448,128,236176,1,0,0:0:0:0:
448,128,236262,1,8,0:0:0:0:
448,128,236348,1,8,0:0:0:0:
448,128,236435,1,0,0:0:0:0:
448,128,236521,1,0,0:0:0:0:
448,128,236607,1,8,0:0:0:0:
448,128,236693,1,0,0:0:0:0:
448,128,236779,1,8,0:0:0:0:
448,128,236952,1,0,0:0:0:0:
448,128,237038,1,8,0:0:0:0:
448,128,237124,1,0,0:0:0:0:
448,128,237211,1,0,0:0:0:0:
448,128,237297,1,8,0:0:0:0:
448,128,237383,1,8,0:0:0:0:
448,128,237469,1,0,0:0:0:0:
448,128,237555,1,0,0:0:0:0:
448,128,237642,1,8,0:0:0:0:
448,128,237986,1,0,0:0:0:0:
352,128,238331,1,12,0:0:0:0:
448,128,238676,1,8,0:0:0:0:
448,128,238719,1,8,0:0:0:0:
448,128,238848,1,8,0:0:0:0:
448,128,238892,1,8,0:0:0:0:
448,128,239021,1,0,0:0:0:0:
448,128,239064,1,0,0:0:0:0:
448,128,239366,1,0,0:0:0:0:
448,128,239409,1,0,0:0:0:0:
448,128,239711,1,8,0:0:0:0:
448,128,239754,1,8,0:0:0:0:
448,128,239883,1,0,0:0:0:0:
448,128,239926,1,0,0:0:0:0:
448,128,240055,1,8,0:0:0:0:
448,128,240098,1,8,0:0:0:0:
448,128,240400,1,8,0:0:0:0:
448,128,240443,1,8,0:0:0:0:
448,128,240745,1,0,0:0:0:0:
448,128,240788,1,0,0:0:0:0:
352,128,241090,1,12,0:0:0:0:
448,128,241435,1,0,0:0:0:0:
448,128,241607,1,0,0:0:0:0:
448,128,241779,1,8,0:0:0:0:
448,128,241952,1,0,0:0:0:0:
448,128,242038,1,8,0:0:0:0:
448,128,242124,1,0,0:0:0:0:
448,128,242297,1,8,0:0:0:0:
448,128,242469,5,8,0:0:0:0:
448,128,242555,1,8,0:0:0:0:
448,128,242642,1,0,0:0:0:0:
448,128,242728,1,0,0:0:0:0:
448,128,242814,1,8,0:0:0:0:
448,128,242900,1,0,0:0:0:0:
448,128,242986,1,0,0:0:0:0:
448,128,243073,1,0,0:0:0:0:
448,128,243159,1,8,0:0:0:0:
448,128,243245,1,0,0:0:0:0:
448,128,243331,1,8,0:0:0:0:
448,128,243417,1,0,0:0:0:0:
448,128,243504,1,8,0:0:0:0:
448,128,243590,1,8,0:0:0:0:
448,128,243676,1,0,0:0:0:0:
448,128,243762,1,0,0:0:0:0:
160,128,243848,1,12,0:0:0:0:
64,128,244009,1,0,0:0:0:0:
64,128,244089,1,0,0:0:0:0:
64,128,244170,1,8,0:0:0:0:
64,128,244331,1,0,0:0:0:0:
64,128,244493,1,8,0:0:0:0:
64,128,244573,1,8,0:0:0:0:
64,128,244654,1,0,0:0:0:0:
64,128,244735,1,0,0:0:0:0:
64,128,244815,1,8,0:0:0:0:
64,128,244977,1,0,0:0:0:0:
64,128,245057,1,8,0:0:0:0:
64,128,245138,1,0,0:0:0:0:
64,128,245299,1,8,0:0:0:0:
64,128,245380,1,0,0:0:0:0:
64,128,245541,1,0,0:0:0:0:
64,128,245622,1,0,0:0:0:0:
64,128,245783,1,8,0:0:0:0:
64,128,245944,1,0,0:0:0:0:
64,128,246025,1,0,0:0:0:0:
64,128,246106,1,8,0:0:0:0:
64,128,246186,1,0,0:0:0:0:
64,128,246267,1,8,0:0:0:0:
64,128,246348,1,8,0:0:0:0:
64,128,246428,1,0,0:0:0:0:
64,128,246589,1,0,0:0:0:0:
64,128,246751,1,8,0:0:0:0:
64,128,246912,1,8,0:0:0:0:
64,128,246993,1,8,0:0:0:0:
64,128,247073,1,0,0:0:0:0:
64,128,247154,1,0,0:0:0:0:
64,128,247235,1,0,0:0:0:0:
64,128,247396,1,8,0:0:0:0:
64,128,247557,1,0,0:0:0:0:
64,128,247638,1,0,0:0:0:0:
64,128,247718,1,8,0:0:0:0:
64,128,247880,1,0,0:0:0:0:
64,128,247960,1,8,0:0:0:0:
64,128,248041,1,0,0:0:0:0:
64,128,248122,1,0,0:0:0:0:
64,128,248202,1,8,0:0:0:0:
64,128,248364,1,0,0:0:0:0:
64,128,248525,1,0,0:0:0:0:
64,128,248686,1,8,0:0:0:0:
64,128,248767,1,8,0:0:0:0:
64,128,248848,1,0,0:0:0:0:
64,128,248928,1,0,0:0:0:0:
64,128,249009,1,8,0:0:0:0:
64,128,249170,1,0,0:0:0:0:
64,128,249331,1,8,0:0:0:0:
64,128,249493,1,8,0:0:0:0:
64,128,249573,1,8,0:0:0:0:
64,128,249654,1,0,0:0:0:0:
64,128,249735,1,0,0:0:0:0:
64,128,249815,1,0,0:0:0:0:
64,128,249977,1,8,0:0:0:0:
64,128,250138,1,0,0:0:0:0:
64,128,250218,1,0,0:0:0:0:
64,128,250299,1,8,0:0:0:0:
64,128,250460,1,0,0:0:0:0:
64,128,250541,1,0,0:0:0:0:
64,128,250622,1,8,0:0:0:0:
64,128,250783,1,0,0:0:0:0:
64,128,250944,1,8,0:0:0:0:
64,128,251025,1,8,0:0:0:0:
64,128,251106,1,8,0:0:0:0:
64,128,251186,1,8,0:0:0:0:
64,128,251267,1,0,0:0:0:0:
64,128,251348,1,0,0:0:0:0:
64,128,251428,1,0,0:0:0:0:
64,128,251509,1,0,0:0:0:0:
64,128,251589,1,8,0:0:0:0:
64,128,251751,1,0,0:0:0:0:
64,128,251831,1,0,0:0:0:0:
64,128,251912,1,8,0:0:0:0:
64,128,251966,1,0,0:0:0:0:
64,128,252020,1,0,0:0:0:0:
64,128,252073,1,8,0:0:0:0:
64,128,252127,1,0,0:0:0:0:
64,128,252181,1,0,0:0:0:0:
64,128,252235,1,8,0:0:0:0:
64,128,252315,1,0,0:0:0:0:
64,128,252396,1,8,0:0:0:0:
64,128,252477,1,0,0:0:0:0:
64,128,252557,1,8,0:0:0:0:
64,128,252638,1,0,0:0:0:0:
64,128,252718,1,8,0:0:0:0:
64,128,252799,1,8,0:0:0:0:
64,128,252880,1,0,0:0:0:0:
64,128,253041,1,0,0:0:0:0:
64,128,253122,1,0,0:0:0:0:
64,128,253202,1,8,0:0:0:0:
64,128,253283,1,0,0:0:0:0:
64,128,253364,1,8,0:0:0:0:
64,128,253444,1,0,0:0:0:0:
64,128,253525,1,8,0:0:0:0:
64,128,253606,1,8,0:0:0:0:
64,128,253686,1,8,0:0:0:0:
64,128,253767,1,0,0:0:0:0:
64,128,253848,1,8,0:0:0:0:
64,128,253928,1,8,0:0:0:0:
64,128,254009,1,0,0:0:0:0:
64,128,254089,1,0,0:0:0:0:
160,128,254170,1,12,0:0:0:0:
64,128,254331,1,0,0:0:0:0:
64,128,254412,1,0,0:0:0:0:
64,128,254493,1,8,0:0:0:0:
64,128,254573,1,8,0:0:0:0:
64,128,254654,1,0,0:0:0:0:
64,128,254815,1,8,0:0:0:0:
64,128,254976,1,0,0:0:0:0:
64,128,255057,1,0,0:0:0:0:
64,128,255137,1,8,0:0:0:0:
64,128,255299,1,0,0:0:0:0:
64,128,255379,1,8,0:0:0:0:
64,128,255460,1,0,0:0:0:0:
64,128,255621,1,8,0:0:0:0:
64,128,255702,1,0,0:0:0:0:
64,128,255863,1,0,0:0:0:0:
64,128,255944,1,8,0:0:0:0:
64,128,256105,1,8,0:0:0:0:
64,128,256266,1,0,0:0:0:0:
64,128,256347,1,0,0:0:0:0:
64,128,256428,1,8,0:0:0:0:
64,128,256508,1,0,0:0:0:0:
64,128,256589,1,8,0:0:0:0:
64,128,256670,1,8,0:0:0:0:
64,128,256750,1,0,0:0:0:0:
64,128,256911,1,8,0:0:0:0:
64,128,256993,1,8,0:0:0:0:
64,128,257154,1,0,0:0:0:0:
64,128,257234,1,8,0:0:0:0:
64,128,257315,1,0,0:0:0:0:
64,128,257395,1,8,0:0:0:0:
64,128,257476,1,8,0:0:0:0:
64,128,257557,1,8,0:0:0:0:
64,128,257638,1,0,0:0:0:0:
64,128,257718,1,8,0:0:0:0:
64,128,257879,1,0,0:0:0:0:
64,128,257960,1,0,0:0:0:0:
64,128,258040,1,8,0:0:0:0:
64,128,258202,1,0,0:0:0:0:
64,128,258282,1,8,0:0:0:0:
64,128,258363,1,0,0:0:0:0:
64,128,258444,1,0,0:0:0:0:
64,128,258524,1,8,0:0:0:0:
64,128,258686,1,0,0:0:0:0:
64,128,258847,1,0,0:0:0:0:
64,128,258928,1,0,0:0:0:0:
64,128,259008,1,8,0:0:0:0:
64,128,259089,1,0,0:0:0:0:
64,128,259170,1,8,0:0:0:0:
64,128,259250,1,8,0:0:0:0:
64,128,259331,1,0,0:0:0:0:
64,128,259493,1,8,0:0:0:0:
64,128,259573,1,0,0:0:0:0:
64,128,259654,1,0,0:0:0:0:
64,128,259735,1,0,0:0:0:0:
64,128,259815,1,8,0:0:0:0:
64,128,259896,1,0,0:0:0:0:
64,128,259977,1,8,0:0:0:0:
64,128,260138,1,0,0:0:0:0:
64,128,260218,1,0,0:0:0:0:
64,128,260299,1,8,0:0:0:0:
64,128,260380,1,0,0:0:0:0:
64,128,260460,1,8,0:0:0:0:
64,128,260541,1,8,0:0:0:0:
64,128,260622,1,0,0:0:0:0:
64,128,260783,1,0,0:0:0:0:
64,128,260944,1,8,0:0:0:0:
64,128,261106,1,0,0:0:0:0:
64,128,261267,1,8,0:0:0:0:
64,128,261348,1,8,0:0:0:0:
64,128,261428,1,8,0:0:0:0:
64,128,261509,1,0,0:0:0:0:
64,128,261589,1,8,0:0:0:0:
64,128,261670,1,8,0:0:0:0:
64,128,261751,1,0,0:0:0:0:
64,128,261831,1,0,0:0:0:0:
64,128,261912,1,8,0:0:0:0:
64,128,262073,1,0,0:0:0:0:
64,128,262153,1,0,0:0:0:0:
64,128,262234,1,8,0:0:0:0:
64,128,262288,1,0,0:0:0:0:
64,128,262342,1,0,0:0:0:0:
64,128,262395,1,8,0:0:0:0:
64,128,262449,1,0,0:0:0:0:
64,128,262503,1,0,0:0:0:0:
64,128,262557,1,8,0:0:0:0:
64,128,262637,1,0,0:0:0:0:
64,128,262718,1,8,0:0:0:0:
64,128,262799,1,0,0:0:0:0:
64,128,262879,1,8,0:0:0:0:
64,128,262960,1,0,0:0:0:0:
64,128,263040,1,8,0:0:0:0:
64,128,263121,1,8,0:0:0:0:
64,128,263202,1,0,0:0:0:0:
64,128,263363,1,0,0:0:0:0:
64,128,263444,1,0,0:0:0:0:
64,128,263524,1,8,0:0:0:0:
64,128,263605,1,0,0:0:0:0:
64,128,263686,1,8,0:0:0:0:
64,128,263766,1,0,0:0:0:0:
64,128,263847,1,8,0:0:0:0:
64,128,263928,1,8,0:0:0:0:
64,128,264008,1,8,0:0:0:0:
64,128,264089,1,0,0:0:0:0:
64,128,264170,1,8,0:0:0:0:
64,128,264250,1,8,0:0:0:0:
64,128,264331,1,0,0:0:0:0:
64,128,264411,1,0,0:0:0:0:
160,128,264492,1,12,0:0:0:0:
64,128,264654,1,0,0:0:0:0:
64,128,264815,1,8,0:0:0:0:
64,128,264977,1,0,0:0:0:0:
64,128,265057,1,8,0:0:0:0:
64,128,265138,1,0,0:0:0:0:
64,128,265299,1,0,0:0:0:0:
64,128,265380,1,0,0:0:0:0:
64,128,265460,1,8,0:0:0:0:
64,128,265541,1,0,0:0:0:0:
64,128,265622,1,8,0:0:0:0:
64,128,265702,1,8,0:0:0:0:
64,128,265783,1,8,0:0:0:0:
64,128,265944,1,0,0:0:0:0:
64,128,266106,1,8,0:0:0:0:
64,128,266267,1,8,0:0:0:0:
64,128,266428,1,8,0:0:0:0:
64,128,266509,1,8,0:0:0:0:
64,128,266589,1,8,0:0:0:0:
64,128,266670,1,8,0:0:0:0:
64,128,266751,1,0,0:0:0:0:
64,128,266831,1,0,0:0:0:0:
64,128,266912,1,0,0:0:0:0:
64,128,266993,1,0,0:0:0:0:
64,128,267073,1,8,0:0:0:0:
64,128,267235,1,0,0:0:0:0:
64,128,267396,1,8,0:0:0:0:
64,128,267477,1,0,0:0:0:0:
64,128,267557,1,8,0:0:0:0:
64,128,267638,1,8,0:0:0:0:
64,128,267718,1,0,0:0:0:0:
64,128,267799,1,0,0:0:0:0:
64,128,267880,1,0,0:0:0:0:
64,128,268041,1,8,0:0:0:0:
64,128,268202,1,0,0:0:0:0:
64,128,268364,1,8,0:0:0:0:
64,128,268444,1,0,0:0:0:0:
64,128,268525,1,0,0:0:0:0:
64,128,268606,1,8,0:0:0:0:
64,128,268686,1,0,0:0:0:0:
64,128,268767,1,0,0:0:0:0:
64,128,268848,1,8,0:0:0:0:
64,128,268929,1,0,0:0:0:0:
64,128,269009,1,8,0:0:0:0:
64,128,269089,1,8,0:0:0:0:
64,128,269170,1,0,0:0:0:0:
64,128,269251,1,0,0:0:0:0:
64,128,269331,1,8,0:0:0:0:
64,128,269493,1,0,0:0:0:0:
160,128,269654,1,4,0:0:0:0:
160,128,269815,1,4,0:0:0:0:
64,128,269977,1,8,0:0:0:0:
64,128,270030,1,8,0:0:0:0:
64,128,270084,1,8,0:0:0:0:
64,128,270138,1,8,0:0:0:0:
160,128,270299,1,4,0:0:0:0:
160,128,270460,1,4,0:0:0:0:
64,128,270622,1,8,0:0:0:0:
64,128,270675,1,8,0:0:0:0:
64,128,270729,1,8,0:0:0:0:
64,128,270783,1,8,0:0:0:0:
160,128,270944,1,4,0:0:0:0:
160,128,271105,1,4,0:0:0:0:
64,128,271267,1,8,0:0:0:0:
64,128,271320,1,8,0:0:0:0:
64,128,271374,1,8,0:0:0:0:
64,128,271428,1,8,0:0:0:0:
160,128,271589,1,4,0:0:0:0:
160,128,271750,1,4,0:0:0:0:
64,128,271912,1,8,0:0:0:0:
64,128,271965,1,8,0:0:0:0:
64,128,272019,1,8,0:0:0:0:
64,128,272073,1,8,0:0:0:0:
160,128,272235,1,4,0:0:0:0:
64,128,272396,1,0,0:0:0:0:
64,128,272477,1,0,0:0:0:0:
64,128,272557,1,8,0:0:0:0:
64,128,272638,1,0,0:0:0:0:
64,128,272718,1,0,0:0:0:0:
64,128,272799,1,0,0:0:0:0:
64,128,272880,1,8,0:0:0:0:
64,128,272961,1,0,0:0:0:0:
64,128,273041,1,0,0:0:0:0:
64,128,273122,1,0,0:0:0:0:
64,128,273202,1,8,0:0:0:0:
64,128,273283,1,0,0:0:0:0:
64,128,273363,1,0,0:0:0:0:
64,128,273444,1,0,0:0:0:0:
64,128,273525,1,8,0:0:0:0:
64,128,273606,1,8,0:0:0:0:
64,128,273686,1,0,0:0:0:0:
64,128,273767,1,0,0:0:0:0:
64,128,273848,1,8,0:0:0:0:
64,128,273928,1,8,0:0:0:0:
64,128,274009,1,0,0:0:0:0:
64,128,274089,1,0,0:0:0:0:
64,128,274170,1,8,0:0:0:0:
64,128,274224,1,8,0:0:0:0:
64,128,274278,1,8,0:0:0:0:
64,128,274331,1,0,0:0:0:0:
64,128,274412,1,0,0:0:0:0:
64,128,274493,1,8,0:0:0:0:
64,128,274573,1,8,0:0:0:0:
64,128,274654,1,0,0:0:0:0:
64,128,274735,1,0,0:0:0:0:
64,128,274815,5,8,0:0:0:0:
64,128,274977,1,0,0:0:0:0:
64,128,275138,1,8,0:0:0:0:
64,128,275299,1,0,0:0:0:0:
64,128,275460,1,8,0:0:0:0:
64,128,275622,1,0,0:0:0:0:
64,128,275783,1,8,0:0:0:0:
64,128,275944,1,0,0:0:0:0:
64,128,276106,1,8,0:0:0:0:
64,128,276267,1,0,0:0:0:0:
64,128,276428,1,8,0:0:0:0:
64,128,276589,1,0,0:0:0:0:
64,128,276751,1,8,0:0:0:0:
64,128,276912,1,0,0:0:0:0:
64,128,277073,1,8,0:0:0:0:
64,128,277235,1,0,0:0:0:0:
64,128,277315,1,0,0:0:0:0:
64,128,277396,1,8,0:0:0:0:
64,128,277557,1,0,0:0:0:0:
64,128,277718,1,8,0:0:0:0:
64,128,277880,1,0,0:0:0:0:
64,128,278041,1,8,0:0:0:0:
64,128,278202,1,0,0:0:0:0:
64,128,278364,1,8,0:0:0:0:
64,128,278525,1,0,0:0:0:0:
64,128,278686,1,8,0:0:0:0:
64,128,278848,1,0,0:0:0:0:
64,128,279009,1,8,0:0:0:0:
64,128,279170,1,0,0:0:0:0:
64,128,279331,1,8,0:0:0:0:
64,128,279493,1,8,0:0:0:0:
64,128,279654,1,0,0:0:0:0:
352,128,279977,5,12,0:0:0:0:
448,128,281233,1,0,0:0:0:0:
448,128,281861,1,0,0:0:0:0:
448,128,282490,1,0,0:0:0:0:
448,128,283746,1,8,0:0:0:0:
448,128,284374,1,0,0:0:0:0:
448,128,285003,1,0,0:0:0:0:
448,128,286259,1,8,0:0:0:0:
448,128,286887,1,8,0:0:0:0:
448,128,287516,1,0,0:0:0:0:
448,128,288772,1,8,0:0:0:0:
448,128,290029,1,0,0:0:0:0:
448,128,291285,1,0,0:0:0:0:
448,128,291914,1,8,0:0:0:0:
448,128,292542,1,0,0:0:0:0:
448,128,293798,1,0,0:0:0:0:
448,128,294427,1,0,0:0:0:0:
448,128,295055,1,8,0:0:0:0:
448,128,296312,1,8,0:0:0:0:
448,128,296940,1,8,0:0:0:0:
448,128,297568,1,0,0:0:0:0:
160,128,300090,5,12,0:0:0:0:
64,128,300241,1,0,0:0:0:0:
64,128,300393,1,0,0:0:0:0:
64,128,300544,1,8,0:0:0:0:
64,128,300847,1,0,0:0:0:0:
64,128,300999,1,8,0:0:0:0:
64,128,301150,1,0,0:0:0:0:
64,128,301302,1,0,0:0:0:0:
64,128,301453,1,8,0:0:0:0:
64,128,301756,1,8,0:0:0:0:
64,128,301907,1,0,0:0:0:0:
64,128,301983,1,0,0:0:0:0:
64,128,302059,1,0,0:0:0:0:
64,128,302135,1,0,0:0:0:0:
160,128,302211,1,12,0:0:0:0:
64,128,302362,1,8,0:0:0:0:
64,128,302514,5,0,0:0:0:0:
64,128,302590,1,0,0:0:0:0:
64,128,302665,1,8,0:0:0:0:
64,128,302741,1,0,0:0:0:0:
64,128,302817,1,8,0:0:0:0:
64,128,302893,1,0,0:0:0:0:
64,128,302968,1,8,0:0:0:0:
64,128,303044,1,8,0:0:0:0:
64,128,303120,1,0,0:0:0:0:
64,128,303196,1,0,0:0:0:0:
64,128,303271,1,8,0:0:0:0:
64,128,303347,1,0,0:0:0:0:
64,128,303423,1,8,0:0:0:0:
64,128,303499,1,8,0:0:0:0:
64,128,303574,1,0,0:0:0:0:
64,128,303650,1,0,0:0:0:0:
64,128,303726,1,8,0:0:0:0:
64,128,303802,1,0,0:0:0:0:
64,128,303877,1,8,0:0:0:0:
64,128,303953,1,8,0:0:0:0:
64,128,304029,1,0,0:0:0:0:
64,128,304105,1,8,0:0:0:0:
64,128,304180,1,8,0:0:0:0:
64,128,304256,1,8,0:0:0:0:
64,128,304332,1,0,0:0:0:0:
64,128,304408,1,8,0:0:0:0:
64,128,304483,1,0,0:0:0:0:
64,128,304559,1,0,0:0:0:0:
64,128,304635,1,8,0:0:0:0:
64,128,304711,1,0,0:0:0:0:
64,128,304786,1,8,0:0:0:0:
64,128,304862,1,8,0:0:0:0:
64,128,304938,1,0,0:0:0:0:
64,128,304988,1,0,0:0:0:0:
64,128,305039,1,0,0:0:0:0:
64,128,305090,1,8,0:0:0:0:
64,128,305165,1,0,0:0:0:0:
64,128,305241,1,8,0:0:0:0:
64,128,305292,1,0,0:0:0:0:
64,128,305342,1,0,0:0:0:0:
64,128,305393,1,8,0:0:0:0:
64,128,305468,1,0,0:0:0:0:
64,128,305544,1,8,0:0:0:0:
64,128,305595,1,8,0:0:0:0:
64,128,305645,1,8,0:0:0:0:
64,128,305696,1,0,0:0:0:0:
64,128,305771,1,8,0:0:0:0:
64,128,305847,1,0,0:0:0:0:
64,128,305898,1,8,0:0:0:0:
64,128,305948,1,8,0:0:0:0:
64,128,305999,1,0,0:0:0:0:
64,128,306074,1,8,0:0:0:0:
64,128,306150,1,0,0:0:0:0:
64,128,306201,1,0,0:0:0:0:
64,128,306251,1,0,0:0:0:0:
64,128,306302,1,8,0:0:0:0:
64,128,306377,1,0,0:0:0:0:
64,128,306453,1,8,0:0:0:0:
64,128,306504,1,0,0:0:0:0:
64,128,306554,1,0,0:0:0:0:
64,128,306605,1,8,0:0:0:0:
64,128,306680,1,8,0:0:0:0:
64,128,306756,1,0,0:0:0:0:
64,128,306807,1,8,0:0:0:0:
64,128,306857,1,8,0:0:0:0:
64,128,306908,1,0,0:0:0:0:
64,128,306983,1,0,0:0:0:0:
64,128,307059,1,8,0:0:0:0:
64,128,307110,1,8,0:0:0:0:
64,128,307160,1,8,0:0:0:0:
64,128,307211,1,0,0:0:0:0:
352,128,307354,5,12,0:0:0:0:
448,128,307507,1,0,0:0:0:0:
448,128,307583,1,0,0:0:0:0:
448,128,307660,1,8,0:0:0:0:
448,128,307813,1,0,0:0:0:0:
448,128,307889,1,8,0:0:0:0:
448,128,307966,1,0,0:0:0:0:
448,128,308042,1,0,0:0:0:0:
448,128,308119,1,8,0:0:0:0:
448,128,308195,1,0,0:0:0:0:
448,128,308272,1,8,0:0:0:0:
448,128,308425,1,0,0:0:0:0:
448,128,308578,1,8,0:0:0:0:
448,128,308655,1,8,0:0:0:0:
448,128,308731,1,0,0:0:0:0:
448,128,308808,1,0,0:0:0:0:
448,128,308884,1,8,0:0:0:0:
448,128,308935,1,8,0:0:0:0:
448,128,308986,1,8,0:0:0:0:
448,128,309037,1,0,0:0:0:0:
448,128,309114,1,0,0:0:0:0:
448,128,309190,1,8,0:0:0:0:
448,128,309241,1,0,0:0:0:0:
448,128,309292,1,0,0:0:0:0:
448,128,309343,1,0,0:0:0:0:
448,128,309420,1,8,0:0:0:0:
448,128,309471,1,0,0:0:0:0:
448,128,309522,1,0,0:0:0:0:
448,128,309573,1,0,0:0:0:0:
448,128,309649,1,8,0:0:0:0:
448,128,309802,1,8,0:0:0:0:
448,128,309854,1,8,0:0:0:0:
448,128,309905,1,8,0:0:0:0:
448,128,309956,1,0,0:0:0:0:
448,128,310032,1,0,0:0:0:0:
448,128,310109,1,8,0:0:0:0:
448,128,310160,1,8,0:0:0:0:
448,128,310211,1,0,0:0:0:0:
448,128,310262,1,8,0:0:0:0:
448,128,310313,1,0,0:0:0:0:
448,128,310364,1,0,0:0:0:0:
448,128,310415,1,8,0:0:0:0:
448,128,310568,1,8,0:0:0:0:
448,128,310644,1,0,0:0:0:0:
448,128,310721,1,8,0:0:0:0:
448,128,310874,1,0,0:0:0:0:
448,128,310950,1,0,0:0:0:0:
448,128,311027,1,8,0:0:0:0:
448,128,311180,1,0,0:0:0:0:
448,128,311257,1,0,0:0:0:0:
448,128,311333,1,8,0:0:0:0:
448,128,311384,1,8,0:0:0:0:
448,128,311435,1,8,0:0:0:0:
448,128,311486,1,0,0:0:0:0:
448,128,311639,1,8,0:0:0:0:
448,128,311716,1,0,0:0:0:0:
448,128,311792,1,8,0:0:0:0:
448,128,311869,1,0,0:0:0:0:
448,128,311945,1,8,0:0:0:0:
448,128,312022,1,8,0:0:0:0:
448,128,312098,1,0,0:0:0:0:
448,128,312175,1,0,0:0:0:0:
448,128,312251,1,8,0:0:0:0:
448,128,312302,1,0,0:0:0:0:
448,128,312354,1,0,0:0:0:0:
448,128,312405,1,0,0:0:0:0:
448,128,312481,1,0,0:0:0:0:
448,128,312558,1,8,0:0:0:0:
448,128,312711,1,8,0:0:0:0:
448,128,312864,1,0,0:0:0:0:
448,128,312940,1,8,0:0:0:0:
448,128,313017,1,0,0:0:0:0:
448,128,313093,1,0,0:0:0:0:
448,128,313170,1,8,0:0:0:0:
448,128,313246,1,0,0:0:0:0:
448,128,313323,1,8,0:0:0:0:
448,128,313476,1,8,0:0:0:0:
448,128,313552,1,8,0:0:0:0:
448,128,313629,1,0,0:0:0:0:
448,128,313706,1,0,0:0:0:0:
448,128,313782,1,8,0:0:0:0:
448,128,313833,1,8,0:0:0:0:
448,128,313884,1,8,0:0:0:0:
448,128,313935,1,0,0:0:0:0:
448,128,314012,1,0,0:0:0:0:
448,128,314088,1,8,0:0:0:0:
448,128,314139,1,0,0:0:0:0:
448,128,314190,1,0,0:0:0:0:
448,128,314241,1,0,0:0:0:0:
448,128,314318,1,8,0:0:0:0:
448,128,314369,1,0,0:0:0:0:
448,128,314420,1,0,0:0:0:0:
448,128,314471,1,0,0:0:0:0:
448,128,314547,1,8,0:0:0:0:
448,128,314624,1,0,0:0:0:0:
448,128,314700,1,8,0:0:0:0:
448,128,314751,1,8,0:0:0:0:
448,128,314802,1,8,0:0:0:0:
448,128,314854,1,0,0:0:0:0:
448,128,315007,1,8,0:0:0:0:
448,128,315160,1,0,0:0:0:0:
448,128,315313,1,8,0:0:0:0:
448,128,315389,1,0,0:0:0:0:
448,128,315466,1,0,0:0:0:0:
448,128,315542,1,0,0:0:0:0:
448,128,315619,1,8,0:0:0:0:
448,128,315772,1,8,0:0:0:0:
448,128,315848,1,8,0:0:0:0:
448,128,315925,1,0,0:0:0:0:
448,128,316078,1,0,0:0:0:0:
448,128,316231,1,8,0:0:0:0:
448,128,316537,1,0,0:0:0:0:
448,128,316843,1,8,0:0:0:0:
448,128,316996,1,8,0:0:0:0:
160,128,317149,1,4,0:0:0:0:
64,128,317449,1,8,0:0:0:0:
64,128,317599,1,0,0:0:0:0:
64,128,317749,1,8,0:0:0:0:
64,128,317824,1,8,0:0:0:0:
64,128,317899,1,0,0:0:0:0:
64,128,318049,1,8,0:0:0:0:
64,128,318199,1,0,0:0:0:0:
64,128,318274,1,0,0:0:0:0:
64,128,318349,1,8,0:0:0:0:
64,128,318424,1,0,0:0:0:0:
64,128,318499,1,8,0:0:0:0:
64,128,318649,1,0,0:0:0:0:
64,128,318799,1,8,0:0:0:0:
64,128,318874,1,0,0:0:0:0:
64,128,318949,1,0,0:0:0:0:
64,128,319099,1,8,0:0:0:0:
64,128,319249,1,8,0:0:0:0:
64,128,319324,1,0,0:0:0:0:
64,128,319399,1,8,0:0:0:0:
64,128,319474,1,8,0:0:0:0:
64,128,319549,1,0,0:0:0:0:
64,128,319699,1,0,0:0:0:0:
64,128,319849,1,8,0:0:0:0:
64,128,319999,1,0,0:0:0:0:
64,128,320074,1,0,0:0:0:0:
64,128,320149,1,8,0:0:0:0:
64,128,320224,1,8,0:0:0:0:
64,128,320299,1,0,0:0:0:0:
64,128,320449,1,0,0:0:0:0:
64,128,320599,1,0,0:0:0:0:
64,128,320674,1,8,0:0:0:0:
64,128,320749,1,0,0:0:0:0:
64,128,320824,1,0,0:0:0:0:
64,128,320899,1,8,0:0:0:0:
64,128,321049,1,0,0:0:0:0:
64,128,321199,1,8,0:0:0:0:
64,128,321274,1,8,0:0:0:0:
64,128,321349,1,0,0:0:0:0:
64,128,321499,1,8,0:0:0:0:
64,128,321574,1,8,0:0:0:0:
64,128,321649,1,8,0:0:0:0:
64,128,321799,1,0,0:0:0:0:
64,128,321874,1,0,0:0:0:0:
64,128,321949,1,8,0:0:0:0:
64,128,322099,1,0,0:0:0:0:
64,128,322249,1,8,0:0:0:0:
64,128,322399,1,0,0:0:0:0:
64,128,322549,1,0,0:0:0:0:
64,128,322624,1,0,0:0:0:0:
64,128,322699,1,8,0:0:0:0:
64,128,322849,1,0,0:0:0:0:
64,128,322999,1,8,0:0:0:0:
64,128,323074,1,0,0:0:0:0:
64,128,323149,1,8,0:0:0:0:
64,128,323224,1,8,0:0:0:0:
64,128,323299,1,0,0:0:0:0:
64,128,323449,1,0,0:0:0:0:
64,128,323599,1,8,0:0:0:0:
64,128,323674,1,8,0:0:0:0:
64,128,323749,1,0,0:0:0:0:
64,128,323824,1,0,0:0:0:0:
64,128,323899,1,8,0:0:0:0:
64,128,323974,1,0,0:0:0:0:
64,128,324049,1,8,0:0:0:0:
64,128,324199,1,8,0:0:0:0:
64,128,324349,1,0,0:0:0:0:
64,128,324499,1,0,0:0:0:0:
64,128,324649,1,8,0:0:0:0:
64,128,324724,1,8,0:0:0:0:
64,128,324799,1,0,0:0:0:0:
64,128,324874,1,0,0:0:0:0:
64,128,324949,1,8,0:0:0:0:
64,128,325099,1,0,0:0:0:0:
64,128,325249,1,8,0:0:0:0:
64,128,325324,1,0,0:0:0:0:
64,128,325399,1,8,0:0:0:0:
64,128,325474,1,8,0:0:0:0:
64,128,325549,1,0,0:0:0:0:
64,128,325699,1,0,0:0:0:0:
64,128,325849,1,8,0:0:0:0:
64,128,325924,1,8,0:0:0:0:
64,128,325999,1,0,0:0:0:0:
64,128,326074,1,0,0:0:0:0:
160,128,326149,1,12,0:0:0:0:
64,128,326299,1,0,0:0:0:0:
64,128,326449,1,8,0:0:0:0:
64,128,326599,1,0,0:0:0:0:
64,128,326674,1,0,0:0:0:0:
160,128,326749,1,12,0:0:0:0:
64,128,326899,1,0,0:0:0:0:
64,128,327049,1,8,0:0:0:0:
64,128,327199,1,0,0:0:0:0:
64,128,327274,1,0,0:0:0:0:
64,128,327349,1,8,0:0:0:0:
64,128,327424,1,0,0:0:0:0:
64,128,327499,1,8,0:0:0:0:
64,128,327649,1,0,0:0:0:0:
64,128,327799,1,8,0:0:0:0:
64,128,327874,1,0,0:0:0:0:
64,128,327949,1,8,0:0:0:0:
64,128,328099,1,0,0:0:0:0:
64,128,328249,1,8,0:0:0:0:
64,128,328324,1,0,0:0:0:0:
64,128,328399,1,8,0:0:0:0:
64,128,328474,1,8,0:0:0:0:
64,128,328549,1,0,0:0:0:0:
64,128,328699,1,0,0:0:0:0:
64,128,328849,1,8,0:0:0:0:
64,128,328924,1,8,0:0:0:0:
64,128,328999,1,0,0:0:0:0:
64,128,329149,1,0,0:0:0:0:
64,128,329299,1,0,0:0:0:0:
64,128,329449,1,8,0:0:0:0:
64,128,329599,1,0,0:0:0:0:
64,128,329674,1,0,0:0:0:0:
64,128,329749,1,8,0:0:0:0:
64,128,329824,1,8,0:0:0:0:
64,128,329899,1,0,0:0:0:0:
64,128,330049,1,0,0:0:0:0:
64,128,330199,1,8,0:0:0:0:
64,128,330274,1,8,0:0:0:0:
64,128,330349,1,0,0:0:0:0:
64,128,330499,1,0,0:0:0:0:
64,128,330574,1,0,0:0:0:0:
64,128,330649,1,8,0:0:0:0:
64,128,330799,1,0,0:0:0:0:
64,128,330949,1,8,0:0:0:0:
64,128,331024,1,8,0:0:0:0:
64,128,331099,1,0,0:0:0:0:
64,128,331249,1,8,0:0:0:0:
64,128,331324,1,8,0:0:0:0:
64,128,331399,1,0,0:0:0:0:
64,128,331474,1,0,0:0:0:0:
160,128,331549,5,12,0:0:0:0:
64,128,331699,1,0,0:0:0:0:
64,128,331849,1,8,0:0:0:0:
64,128,331999,1,0,0:0:0:0:
64,128,332074,1,8,0:0:0:0:
64,128,332149,1,0,0:0:0:0:
64,128,332299,1,0,0:0:0:0:
160,128,332449,1,12,0:0:0:0:
64,128,332599,1,8,0:0:0:0:
64,128,332749,1,0,0:0:0:0:
64,128,332899,1,0,0:0:0:0:
64,128,332974,1,0,0:0:0:0:
160,128,333049,1,12,0:0:0:0:
64,128,333199,1,0,0:0:0:0:
160,128,333349,1,12,0:0:0:0:
64,128,333499,1,0,0:0:0:0:
64,128,333649,1,8,0:0:0:0:
64,128,333799,1,0,0:0:0:0:
64,128,333874,1,0,0:0:0:0:
160,128,333949,1,12,0:0:0:0:
64,128,334099,1,0,0:0:0:0:
64,128,334249,1,8,0:0:0:0:
64,128,334324,1,8,0:0:0:0:
64,128,334399,1,0,0:0:0:0:
160,128,334549,1,12,0:0:0:0:
64,128,334699,1,0,0:0:0:0:
64,128,334849,1,8,0:0:0:0:
64,128,334924,1,8,0:0:0:0:
64,128,334999,1,0,0:0:0:0:
64,128,335149,1,8,0:0:0:0:
64,128,335224,1,8,0:0:0:0:
64,128,335299,1,0,0:0:0:0:
64,128,335374,1,0,0:0:0:0:
64,128,335449,1,8,0:0:0:0:
64,128,335599,1,0,0:0:0:0:
64,128,335749,1,8,0:0:0:0:
64,128,335824,1,8,0:0:0:0:
64,128,335899,1,8,0:0:0:0:
64,128,335974,1,8,0:0:0:0:
64,128,336049,1,0,0:0:0:0:
64,128,336199,1,0,0:0:0:0:
352,128,336367,5,12,0:0:0:0:
448,128,336667,5,8,0:0:0:0:
448,128,336717,1,8,0:0:0:0:
448,128,336767,1,8,0:0:0:0:
448,128,336817,1,0,0:0:0:0:
448,128,336892,1,0,0:0:0:0:
448,128,336967,1,8,0:0:0:0:
448,128,337042,1,0,0:0:0:0:
448,128,337117,1,8,0:0:0:0:
448,128,337192,1,8,0:0:0:0:
448,128,337342,1,0,0:0:0:0:
448,128,337417,1,0,0:0:0:0:
448,128,337492,1,0,0:0:0:0:
448,128,337567,1,8,0:0:0:0:
448,128,337642,1,0,0:0:0:0:
448,128,337717,1,8,0:0:0:0:
448,128,337792,1,8,0:0:0:0:
448,128,337942,1,0,0:0:0:0:
448,128,338017,1,8,0:0:0:0:
448,128,338092,1,8,0:0:0:0:
448,128,338167,1,0,0:0:0:0:
448,128,338317,1,8,0:0:0:0:
448,128,338392,1,0,0:0:0:0:
448,128,338467,1,8,0:0:0:0:
448,128,338542,1,0,0:0:0:0:
448,128,338617,1,8,0:0:0:0:
448,128,338692,1,8,0:0:0:0:
448,128,338767,1,0,0:0:0:0:
448,128,338917,1,8,0:0:0:0:
448,128,339067,1,0,0:0:0:0:
448,128,339117,1,0,0:0:0:0:
448,128,339167,1,0,0:0:0:0:
448,128,339217,1,8,0:0:0:0:
448,128,339292,1,0,0:0:0:0:
448,128,339367,1,8,0:0:0:0:
448,128,339442,1,8,0:0:0:0:
448,128,339517,1,0,0:0:0:0:
448,128,339592,1,8,0:0:0:0:
448,128,339742,1,0,0:0:0:0:
448,128,339817,1,8,0:0:0:0:
448,128,339867,1,8,0:0:0:0:
448,128,339917,1,8,0:0:0:0:
448,128,339967,1,0,0:0:0:0:
448,128,340042,1,0,0:0:0:0:
448,128,340117,1,8,0:0:0:0:
448,128,340192,1,0,0:0:0:0:
448,128,340267,1,8,0:0:0:0:
448,128,340342,1,8,0:0:0:0:
448,128,340417,1,0,0:0:0:0:
448,128,340492,1,0,0:0:0:0:
448,128,340567,1,8,0:0:0:0:
448,128,340717,1,0,0:0:0:0:
448,128,340792,1,0,0:0:0:0:
448,128,340867,1,8,0:0:0:0:
448,128,341017,1,0,0:0:0:0:
352,128,341167,1,12,0:0:0:0:
448,128,341467,1,0,0:0:0:0:
448,128,341517,1,0,0:0:0:0:
448,128,341567,1,0,0:0:0:0:
448,128,341617,1,0,0:0:0:0:
448,128,341692,1,0,0:0:0:0:
448,128,341767,1,8,0:0:0:0:
448,128,341842,1,8,0:0:0:0:
448,128,341917,1,0,0:0:0:0:
448,128,341992,1,8,0:0:0:0:
448,128,342142,1,0,0:0:0:0:
448,128,342217,1,0,0:0:0:0:
448,128,342292,1,0,0:0:0:0:
448,128,342367,1,8,0:0:0:0:
448,128,342442,1,8,0:0:0:0:
448,128,342517,1,0,0:0:0:0:
448,128,342592,1,8,0:0:0:0:
448,128,342742,1,0,0:0:0:0:
448,128,342817,1,8,0:0:0:0:
448,128,342892,1,0,0:0:0:0:
448,128,342967,1,8,0:0:0:0:
448,128,343042,1,8,0:0:0:0:
448,128,343117,1,0,0:0:0:0:
448,128,343267,1,8,0:0:0:0:
448,128,343342,1,0,0:0:0:0:
448,128,343417,1,8,0:0:0:0:
448,128,343492,1,8,0:0:0:0:
448,128,343567,1,0,0:0:0:0:
448,128,343642,1,0,0:0:0:0:
448,128,343717,1,8,0:0:0:0:
448,128,343867,1,8,0:0:0:0:
448,128,344017,1,0,0:0:0:0:
448,128,344092,1,8,0:0:0:0:
448,128,344167,1,0,0:0:0:0:
448,128,344242,1,0,0:0:0:0:
448,128,344317,1,8,0:0:0:0:
448,128,344467,1,8,0:0:0:0:
352,128,344767,1,4,0:0:0:0:
352,128,344992,1,12,0:0:0:0:
352,128,345217,1,4,0:0:0:0:
352,128,345442,1,4,0:0:0:0:
352,128,345667,1,12,0:0:0:0:
352,128,345817,1,12,0:0:0:0:
448,128,345967,1,0,0:0:0:0:
448,128,346267,1,0,0:0:0:0:
352,128,346567,1,12,0:0:0:0:
448,128,346717,1,0,0:0:0:0:
448,128,346792,1,8,0:0:0:0:
448,128,346942,1,8,0:0:0:0:
448,128,347017,1,0,0:0:0:0:
448,128,347092,1,0,0:0:0:0:
448,128,347167,1,8,0:0:0:0:
448,128,347242,1,0,0:0:0:0:
448,128,347317,1,8,0:0:0:0:
448,128,347392,1,8,0:0:0:0:
448,128,347542,1,8,0:0:0:0:
448,128,347617,1,8,0:0:0:0:
448,128,347692,1,0,0:0:0:0:
448,128,347767,1,8,0:0:0:0:
448,128,347917,1,0,0:0:0:0:
448,128,347992,1,0,0:0:0:0:
448,128,348067,1,8,0:0:0:0:
448,128,348142,1,0,0:0:0:0:
448,128,348217,1,8,0:0:0:0:
448,128,348292,1,8,0:0:0:0:
448,128,348367,1,0,0:0:0:0:
448,128,348517,1,0,0:0:0:0:
448,128,348667,1,8,0:0:0:0:
448,128,348717,1,8,0:0:0:0:
448,128,348767,1,0,0:0:0:0:
448,128,348817,1,8,0:0:0:0:
448,128,348892,1,0,0:0:0:0:
448,128,348967,1,8,0:0:0:0:
448,128,349042,1,0,0:0:0:0:
448,128,349117,1,0,0:0:0:0:
448,128,349192,1,8,0:0:0:0:
448,128,349342,1,0,0:0:0:0:
448,128,349417,1,8,0:0:0:0:
448,128,349467,1,8,0:0:0:0:
448,128,349517,1,8,0:0:0:0:
448,128,349567,1,0,0:0:0:0:
448,128,349642,1,0,0:0:0:0:
448,128,349717,1,8,0:0:0:0:
448,128,349792,1,8,0:0:0:0:
448,128,349867,1,0,0:0:0:0:
448,128,349942,1,8,0:0:0:0:
448,128,350017,1,0,0:0:0:0:
448,128,350092,1,0,0:0:0:0:
448,128,350167,1,8,0:0:0:0:
448,128,350317,1,0,0:0:0:0:
448,128,350467,1,8,0:0:0:0:
352,128,350767,1,4,0:0:0:0:
448,128,351067,1,8,0:0:0:0:
448,128,351117,1,8,0:0:0:0:
448,128,351167,1,8,0:0:0:0:
448,128,351217,1,0,0:0:0:0:
448,128,351292,1,0,0:0:0:0:
448,128,351367,1,8,0:0:0:0:
448,128,351442,1,0,0:0:0:0:
448,128,351517,1,8,0:0:0:0:
448,128,351592,1,8,0:0:0:0:
448,128,351817,1,0,0:0:0:0:
448,128,351967,1,8,0:0:0:0:
448,128,352117,1,8,0:0:0:0:
448,128,352192,1,8,0:0:0:0:
448,128,352417,1,0,0:0:0:0:
448,128,352492,1,0,0:0:0:0:
448,128,352567,1,8,0:0:0:0:
448,128,352642,1,0,0:0:0:0:
448,128,352717,1,0,0:0:0:0:
448,128,352867,1,8,0:0:0:0:
448,128,353017,1,8,0:0:0:0:
352,128,353167,5,4,0:0:0:0:
448,128,353317,1,8,0:0:0:0:
448,128,353392,1,8,0:0:0:0:
448,128,353467,1,0,0:0:0:0:
448,128,353617,1,8,0:0:0:0:
448,128,353692,1,0,0:0:0:0:
448,128,353767,1,8,0:0:0:0:
448,128,353842,1,0,0:0:0:0:
448,128,353992,1,8,0:0:0:0:
448,128,354067,1,0,0:0:0:0:
448,128,354217,1,8,0:0:0:0:
448,128,354292,1,8,0:0:0:0:
448,128,354367,1,0,0:0:0:0:
448,128,354517,1,8,0:0:0:0:
448,128,354592,1,8,0:0:0:0:
448,128,354667,1,0,0:0:0:0:
448,128,354817,1,8,0:0:0:0:
448,128,354892,1,8,0:0:0:0:
448,128,354967,1,0,0:0:0:0:
448,128,355042,1,8,0:0:0:0:
448,128,355192,1,8,0:0:0:0:
448,128,355267,1,0,0:0:0:0:
160,128,355585,5,4,0:0:0:0:
64,128,355729,1,8,0:0:0:0:
64,128,355801,1,8,0:0:0:0:
64,128,355873,1,0,0:0:0:0:
64,128,356017,1,8,0:0:0:0:
64,128,356161,1,0,0:0:0:0:
64,128,356233,1,0,0:0:0:0:
64,128,356305,1,8,0:0:0:0:
64,128,356377,1,8,0:0:0:0:
64,128,356449,1,0,0:0:0:0:
64,128,356594,1,0,0:0:0:0:
64,128,356738,1,8,0:0:0:0:
64,128,356810,1,0,0:0:0:0:
64,128,356882,1,8,0:0:0:0:
64,128,356954,1,8,0:0:0:0:
64,128,357026,1,0,0:0:0:0:
64,128,357170,1,0,0:0:0:0:
64,128,357314,1,0,0:0:0:0:
64,128,357387,1,8,0:0:0:0:
64,128,357459,1,8,0:0:0:0:
64,128,357603,1,0,0:0:0:0:
64,128,357747,1,8,0:0:0:0:
64,128,357891,1,0,0:0:0:0:
64,128,358035,1,8,0:0:0:0:
64,128,358107,1,8,0:0:0:0:
64,128,358179,1,0,0:0:0:0:
64,128,358323,1,8,0:0:0:0:
64,128,358467,1,0,0:0:0:0:
64,128,358539,1,8,0:0:0:0:
64,128,358611,1,8,0:0:0:0:
64,128,358684,1,0,0:0:0:0:
64,128,358756,1,8,0:0:0:0:
64,128,358900,1,0,0:0:0:0:
64,128,359044,1,8,0:0:0:0:
64,128,359116,1,0,0:0:0:0:
64,128,359188,1,8,0:0:0:0:
64,128,359260,1,8,0:0:0:0:
64,128,359332,1,0,0:0:0:0:
64,128,359476,1,0,0:0:0:0:
64,128,359620,1,8,0:0:0:0:
64,128,359693,1,0,0:0:0:0:
64,128,359765,1,0,0:0:0:0:
64,128,359909,1,8,0:0:0:0:
64,128,360053,1,8,0:0:0:0:
160,128,360197,1,4,0:0:0:0:
64,128,360342,1,8,0:0:0:0:
64,128,360414,1,8,0:0:0:0:
64,128,360486,1,0,0:0:0:0:
64,128,360630,1,8,0:0:0:0:
64,128,360774,1,8,0:0:0:0:
64,128,360846,1,0,0:0:0:0:
64,128,360918,1,0,0:0:0:0:
64,128,360990,1,8,0:0:0:0:
64,128,361063,1,8,0:0:0:0:
64,128,361207,1,0,0:0:0:0:
64,128,361351,1,8,0:0:0:0:
64,128,361423,1,0,0:0:0:0:
64,128,361495,1,8,0:0:0:0:
64,128,361567,1,8,0:0:0:0:
64,128,361639,1,0,0:0:0:0:
64,128,361783,1,0,0:0:0:0:
64,128,361927,1,0,0:0:0:0:
64,128,362000,1,8,0:0:0:0:
64,128,362072,1,8,0:0:0:0:
64,128,362216,1,0,0:0:0:0:
64,128,362360,1,8,0:0:0:0:
64,128,362504,1,0,0:0:0:0:
64,128,362648,1,8,0:0:0:0:
64,128,362720,1,8,0:0:0:0:
64,128,362792,1,0,0:0:0:0:
64,128,362865,1,0,0:0:0:0:
64,128,362936,1,8,0:0:0:0:
64,128,363080,1,0,0:0:0:0:
64,128,363152,1,8,0:0:0:0:
64,128,363224,1,8,0:0:0:0:
64,128,363296,1,0,0:0:0:0:
64,128,363368,1,8,0:0:0:0:
64,128,363513,1,0,0:0:0:0:
64,128,363657,1,0,0:0:0:0:
64,128,363729,1,0,0:0:0:0:
64,128,363802,1,8,0:0:0:0:
64,128,363873,1,0,0:0:0:0:
64,128,363945,1,8,0:0:0:0:
64,128,364018,1,8,0:0:0:0:
64,128,364090,1,0,0:0:0:0:
64,128,364234,1,0,0:0:0:0:
64,128,364306,1,8,0:0:0:0:
64,128,364378,1,8,0:0:0:0:
64,128,364450,1,0,0:0:0:0:
64,128,364522,1,8,0:0:0:0:
64,128,364595,1,0,0:0:0:0:
64,128,364666,1,8,0:0:0:0:
64,128,364811,1,0,0:0:0:0:
64,128,364955,1,8,0:0:0:0:
64,128,365027,1,8,0:0:0:0:
64,128,365099,1,0,0:0:0:0:
64,128,365171,1,0,0:0:0:0:
64,128,365243,1,8,0:0:0:0:
64,128,365387,1,0,0:0:0:0:
64,128,365460,1,8,0:0:0:0:
64,128,365532,1,8,0:0:0:0:
64,128,365604,1,0,0:0:0:0:
64,128,365676,1,8,0:0:0:0:
64,128,365820,1,8,0:0:0:0:
64,128,365964,1,0,0:0:0:0:
64,128,366108,1,8,0:0:0:0:
64,128,366180,1,0,0:0:0:0:
64,128,366252,1,8,0:0:0:0:
64,128,366325,1,8,0:0:0:0:
64,128,366397,1,0,0:0:0:0:
64,128,366541,1,0,0:0:0:0:
64,128,366613,1,0,0:0:0:0:
64,128,366685,1,8,0:0:0:0:
64,128,366757,1,0,0:0:0:0:
64,128,366829,1,8,0:0:0:0:
64,128,366973,1,8,0:0:0:0:
64,128,367117,1,0,0:0:0:0:
64,128,367262,1,8,0:0:0:0:
64,128,367334,1,8,0:0:0:0:
64,128,367406,1,0,0:0:0:0:
64,128,367550,1,8,0:0:0:0:
64,128,367694,1,8,0:0:0:0:
64,128,367766,1,0,0:0:0:0:
64,128,367838,1,0,0:0:0:0:
64,128,367910,1,8,0:0:0:0:
64,128,367983,1,8,0:0:0:0:
64,128,368127,1,0,0:0:0:0:
64,128,368271,1,0,0:0:0:0:
64,128,368343,1,0,0:0:0:0:
64,128,368416,1,8,0:0:0:0:
64,128,368487,1,0,0:0:0:0:
64,128,368559,1,8,0:0:0:0:
64,128,368632,1,8,0:0:0:0:
64,128,368704,1,0,0:0:0:0:
64,128,368848,1,0,0:0:0:0:
64,128,368920,1,8,0:0:0:0:
64,128,368992,1,8,0:0:0:0:
64,128,369064,1,0,0:0:0:0:
64,128,369136,1,8,0:0:0:0:
64,128,369209,1,0,0:0:0:0:
64,128,369280,1,8,0:0:0:0:
64,128,369352,1,8,0:0:0:0:
160,128,369424,5,4,0:0:0:0:
64,128,369568,1,8,0:0:0:0:
64,128,369640,1,0,0:0:0:0:
64,128,369712,1,8,0:0:0:0:
64,128,369784,1,8,0:0:0:0:
64,128,369856,1,0,0:0:0:0:
64,128,369929,1,0,0:0:0:0:
64,128,370001,1,8,0:0:0:0:
64,128,370145,1,8,0:0:0:0:
64,128,370217,1,0,0:0:0:0:
64,128,370289,1,8,0:0:0:0:
64,128,370361,1,0,0:0:0:0:
64,128,370433,1,0,0:0:0:0:
64,128,370577,1,0,0:0:0:0:
64,128,370721,1,8,0:0:0:0:
64,128,370794,1,8,0:0:0:0:
64,128,370866,1,0,0:0:0:0:
64,128,370938,1,0,0:0:0:0:
64,128,371010,1,8,0:0:0:0:
64,128,371082,1,0,0:0:0:0:
64,128,371154,1,8,0:0:0:0:
64,128,371298,1,0,0:0:0:0:
64,128,371370,1,8,0:0:0:0:
64,128,371442,1,0,0:0:0:0:
64,128,371514,1,0,0:0:0:0:
64,128,371586,1,8,0:0:0:0:
64,128,371731,1,0,0:0:0:0:
64,128,371875,1,8,0:0:0:0:
64,128,371947,1,0,0:0:0:0:
64,128,372019,1,8,0:0:0:0:
64,128,372091,1,8,0:0:0:0:
64,128,372163,1,0,0:0:0:0:
64,128,372235,1,0,0:0:0:0:
64,128,372307,1,8,0:0:0:0:
64,128,372379,1,0,0:0:0:0:
64,128,372451,1,8,0:0:0:0:
64,128,372523,1,8,0:0:0:0:
64,128,372596,1,0,0:0:0:0:
64,128,372740,1,0,0:0:0:0:
64,128,372884,1,0,0:0:0:0:
64,128,372956,1,0,0:0:0:0:
64,128,373029,1,8,0:0:0:0:
64,128,373100,1,0,0:0:0:0:
64,128,373172,1,8,0:0:0:0:
64,128,373245,1,8,0:0:0:0:
64,128,373317,1,0,0:0:0:0:
64,128,373388,1,8,0:0:0:0:
64,128,373461,1,0,0:0:0:0:
64,128,373533,1,0,0:0:0:0:
64,128,373605,1,8,0:0:0:0:
64,128,373677,1,0,0:0:0:0:
64,128,373749,1,8,0:0:0:0:
64,128,373821,1,0,0:0:0:0:
64,128,373893,1,8,0:0:0:0:
64,128,374037,1,0,0:0:0:0:
64,128,374109,1,0,0:0:0:0:
64,128,374181,1,8,0:0:0:0:
64,128,374253,1,0,0:0:0:0:
64,128,374325,1,8,0:0:0:0:
64,128,374398,1,8,0:0:0:0:
64,128,374470,1,0,0:0:0:0:
64,128,374542,1,0,0:0:0:0:
64,128,374614,1,8,0:0:0:0:
64,128,374686,1,0,0:0:0:0:
64,128,374758,1,0,0:0:0:0:
64,128,374830,1,8,0:0:0:0:
64,128,374902,1,0,0:0:0:0:
64,128,374974,1,0,0:0:0:0:
64,128,375046,1,8,0:0:0:0:
64,128,375118,1,0,0:0:0:0:
64,128,375190,1,8,0:0:0:0:
64,128,375263,1,8,0:0:0:0:
64,128,375335,1,8,0:0:0:0:
64,128,375407,1,0,0:0:0:0:
64,128,375479,1,8,0:0:0:0:
64,128,375551,1,8,0:0:0:0:
64,128,375623,1,0,0:0:0:0:
64,128,375695,1,0,0:0:0:0:
64,128,375767,1,8,0:0:0:0:
64,128,375839,1,0,0:0:0:0:
64,128,375911,1,0,0:0:0:0:
64,128,375983,1,8,0:0:0:0:
64,128,376055,1,0,0:0:0:0:
64,128,376128,1,0,0:0:0:0:
64,128,376200,1,8,0:0:0:0:
64,128,376344,1,0,0:0:0:0:
64,128,376416,1,0,0:0:0:0:
64,128,376488,1,8,0:0:0:0:
64,128,376560,1,0,0:0:0:0:
64,128,376632,1,8,0:0:0:0:
64,128,376705,1,8,0:0:0:0:
64,128,376777,1,0,0:0:0:0:
64,128,376849,1,0,0:0:0:0:
64,128,376921,1,8,0:0:0:0:
64,128,376993,1,0,0:0:0:0:
64,128,377065,1,0,0:0:0:0:
64,128,377137,1,8,0:0:0:0:
64,128,377209,1,0,0:0:0:0:
64,128,377281,1,0,0:0:0:0:
64,128,377353,1,8,0:0:0:0:
64,128,377425,1,0,0:0:0:0:
64,128,377497,1,8,0:0:0:0:
64,128,377570,1,8,0:0:0:0:
64,128,377642,1,8,0:0:0:0:
64,128,377714,1,0,0:0:0:0:
64,128,377786,1,8,0:0:0:0:
64,128,377858,1,8,0:0:0:0:
64,128,377930,1,8,0:0:0:0:
64,128,378002,1,0,0:0:0:0:
64,128,378074,1,8,0:0:0:0:
64,128,378146,1,0,0:0:0:0:
64,128,378218,1,0,0:0:0:0:
64,128,378290,1,8,0:0:0:0:
64,128,378362,1,0,0:0:0:0:
64,128,378435,1,0,0:0:0:0:
64,128,378507,1,8,0:0:0:0:
160,128,378648,5,4,0:0:0:0:
64,128,379307,1,8,0:0:0:0:
64,128,379637,1,0,0:0:0:0:
64,128,379801,1,8,0:0:0:0:
64,128,379966,1,0,0:0:0:0:
64,128,380955,1,0,0:0:0:0:
64,128,381285,1,0,0:0:0:0:
64,128,381944,1,8,0:0:0:0:
64,128,382274,1,0,0:0:0:0:
64,128,382439,1,8,0:0:0:0:
64,128,382604,1,0,0:0:0:0:
64,128,383098,1,0,0:0:0:0:
64,128,383593,1,0,0:0:0:0:
64,128,383922,1,0,0:0:0:0:
64,128,384582,1,8,0:0:0:0:
64,128,384911,1,0,0:0:0:0:
64,128,385076,1,8,0:0:0:0:
64,128,385241,1,0,0:0:0:0:
64,128,386230,1,0,0:0:0:0:
64,128,386560,1,0,0:0:0:0:
64,128,387219,1,8,0:0:0:0:
64,128,387549,1,0,0:0:0:0:
64,128,387713,1,8,0:0:0:0:
64,128,387878,1,0,0:0:0:0:
64,128,388373,1,0,0:0:0:0:
64,128,388867,1,0,0:0:0:0:
256,128,389197,1,12,0:0:0:0:
