osu file format v14

[General]
AudioFilename: audio.mp3
AudioLeadIn: 0
PreviewTime: 2146
Countdown: 0
SampleSet: Normal
StackLeniency: 0.7
Mode: 3
LetterboxInBreaks: 0
SpecialStyle: 0
WidescreenStoryboard: 1

[Editor]
Bookmarks: 2313,13479,29479,51479,67479,71813,83146,94146,104813,114813,125479,136813,146146,158146,168813,190146,219479,243479,252813,264813,275479,286146,296813,306146,318146,328146,339479,363479,379479,387479,395479,397479,399479,401479,403479,405479,407479,409479,411479,427479,443479,463479
DistanceSpacing: 0.8
BeatDivisor: 4
GridSize: 32
TimelineZoom: 2.2

[Metadata]
Title:osu!memories
TitleUnicode:osu!memories
Artist:Various Artists
ArtistUnicode:Various Artists
Creator:Raveille
Version:7K Flow Festivity
Source:SakiZ
Tags:osumemories osu memories compilation marathon mashup aoir eir ignite toyosaki aki diamond reol no title maffalda pensamento tipico de esquerda Abraxos Aras25 Aste- Chronocide Critical_Star Dellvangel Eternalie Exe Ibrahim Julie Katio-kun Lenfried- Leonita Maxus MEGAtive Minseo2000 MrDorian noftrahtcehe Virtue- arcwinolivirus -BlueFire- JztCallMeRon SurfChu85 Syaro-sama
BeatmapID:1203547
BeatmapSetID:535878

[Difficulty]
HPDrainRate:7
CircleSize:7
OverallDifficulty:7.2
ApproachRate:5
SliderMultiplier:1.4
SliderTickRate:1

[Events]
//Background and Video events
0,0,"osu!memoriesbg.jpg",0,0
//Break Periods
//Storyboard Layer 0 (Background)
//Storyboard Layer 1 (Fail)
//Storyboard Layer 2 (Pass)
//Storyboard Layer 3 (Foreground)
//Storyboard Sound Samples

[TimingPoints]
3540,333.333333333333,4,1,0,30,1,0
3540,-100,4,1,0,30,0,0
24706,-76.9230769230769,4,1,0,30,0,0
24789,-142.857142857143,4,1,0,30,0,0
24873,-100,4,1,0,30,0,0
25206,-76.9230769230769,4,1,0,30,0,0
25289,-142.857142857143,4,1,0,30,0,0
25373,-100,4,1,0,30,0,0
25706,-76.9230769230769,4,1,0,30,0,0
25789,-142.857142857143,4,1,0,30,0,0
25873,-76.9230769230769,4,1,0,30,0,0
25956,-142.857142857143,4,1,0,30,0,0
26039,-100,4,1,0,30,0,0
27456,-76.9230769230769,4,1,0,30,0,0
27498,-142.857142857143,4,1,0,30,0,0
27539,-100,4,1,0,30,0,0
27873,-76.9230769230769,4,1,0,30,0,0
27956,-142.857142857143,4,1,0,30,0,0
28039,-100,4,1,0,30,0,0
28373,-76.9230769230769,4,1,0,30,0,0
28456,-200,4,1,0,30,0,0
28539,-76.9230769230769,4,1,0,30,0,0
28623,-142.857142857143,4,1,0,30,0,0
28706,-100,4,1,0,30,0,0
28873,-76.9230769230769,4,1,0,30,0,0
28956,-142.857142857143,4,1,0,30,0,0
29039,-76.9230769230769,4,1,0,30,0,0
29123,-142.857142857143,4,1,0,30,0,0
29206,-76.9230769230769,4,1,0,30,0,0
29289,-142.857142857143,4,1,0,30,0,0
29373,-76.9230769230769,4,1,0,30,0,0
29456,-142.857142857143,4,1,0,30,0,0
29539,-100,4,1,0,30,0,0
156873,-55.5555555555556,4,1,0,30,0,0
156914,-500,4,1,0,30,0,0
156956,-55.5555555555556,4,1,0,30,0,0
156998,-500,4,1,0,30,0,0
157039,-55.5555555555556,4,1,0,30,0,0
157123,-500,4,1,0,30,0,0
157206,-55.5555555555556,4,1,0,30,0,0
157289,-500,4,1,0,30,0,0
157373,-55.5555555555556,4,1,0,30,0,0
157414,-500,4,1,0,30,0,0
157456,-55.5555555555556,4,1,0,30,0,0
157498,-500,4,1,0,30,0,0
157539,-55.5555555555556,4,1,0,30,0,0
157581,-500,4,1,0,30,0,0
157623,-55.5555555555556,4,1,0,30,0,0
157664,-500,4,1,0,30,0,0
157706,-55.5555555555556,4,1,0,30,0,0
157748,-500,4,1,0,30,0,0
157789,-55.5555555555556,4,1,0,30,0,0
157831,-500,4,1,0,30,0,0
157873,-55.5555555555556,4,1,0,30,0,0
157914,-500,4,1,0,30,0,0
157956,-55.5555555555556,4,1,0,30,0,0
157998,-500,4,1,0,30,0,0
158039,-55.5555555555556,4,1,0,30,0,0
158123,-500,4,1,0,30,0,0
158206,-100,4,1,0,30,0,0
168539,-125,4,1,0,30,0,0
168873,-142.857142857143,4,1,0,30,0,0
187539,-133.333333333333,4,1,0,30,0,0
188873,-117.647058823529,4,1,0,30,0,0
189873,-105.263157894737,4,1,0,30,0,0
211539,-100,4,1,0,30,0,0
252873,-66.6666666666667,4,1,0,30,0,0
252956,-200,4,1,0,30,0,0
253039,-100,4,1,0,30,0,0
253123,-66.6666666666667,4,1,0,30,0,0
253206,-200,4,1,0,30,0,0
253289,-100,4,1,0,30,0,0
253373,-66.6666666666667,4,1,0,30,0,0
253456,-200,4,1,0,30,0,0
253539,-100,4,1,0,30,0,0
253623,-66.6666666666667,4,1,0,30,0,0
253706,-200,4,1,0,30,0,0
253789,-100,4,1,0,30,0,0
253873,-66.6666666666667,4,1,0,30,0,0
253914,-200,4,1,0,30,0,0
253998,-66.6666666666667,4,1,0,30,0,0
254081,-200,4,1,0,30,0,0
254164,-66.6666666666667,4,1,0,30,0,0
254205,-58.8235294117647,4,1,0,30,0,0
254247,-333.333333333333,4,1,0,30,0,0
254288,-58.8235294117647,4,1,0,30,0,0
254330,-333.333333333333,4,1,0,30,0,0
254372,-58.8235294117647,4,1,0,30,0,0
254413,-333.333333333333,4,1,0,30,0,0
254455,-58.8235294117647,4,1,0,30,0,0
254497,-333.333333333333,4,1,0,30,0,0
254538,-58.8235294117647,4,1,0,30,0,0
254580,-333.333333333333,4,1,0,30,0,0
254621,-58.8235294117647,4,1,0,30,0,0
254663,-333.333333333333,4,1,0,30,0,0
254705,-58.8235294117647,4,1,0,30,0,0
254746,-333.333333333333,4,1,0,30,0,0
254788,-58.8235294117647,4,1,0,30,0,0
254830,-333.333333333333,4,1,0,30,0,0
254871,-58.8235294117647,4,1,0,30,0,0
254913,-333.333333333333,4,1,0,30,0,0
254954,-58.8235294117647,4,1,0,30,0,0
254996,-333.333333333333,4,1,0,30,0,0
255038,-58.8235294117647,4,1,0,30,0,0
255079,-333.333333333333,4,1,0,30,0,0
255121,-58.8235294117647,4,1,0,30,0,0
255163,-333.333333333333,4,1,0,30,0,0
255204,-58.8235294117647,4,1,0,30,0,0
255246,-333.333333333333,4,1,0,30,0,0
255287,-58.8235294117647,4,1,0,30,0,0
255329,-333.333333333333,4,1,0,30,0,0
255371,-58.8235294117647,4,1,0,30,0,0
255412,-333.333333333333,4,1,0,30,0,0
255454,-58.8235294117647,4,1,0,30,0,0
255496,-333.333333333333,4,1,0,30,0,0
255538,-100,4,1,0,30,0,0
255788,-58.8235294117647,4,1,0,30,0,0
255830,-333.333333333333,4,1,0,30,0,0
255872,-100,4,1,0,30,0,0
255955,-58.8235294117647,4,1,0,30,0,0
255997,-333.333333333333,4,1,0,30,0,0
256038,-100,4,1,0,30,0,0
256122,-58.8235294117647,4,1,0,30,0,0
256163,-333.333333333333,4,1,0,30,0,0
256205,-100,4,1,0,30,0,0
256288,-58.8235294117647,4,1,0,30,0,0
256330,-333.333333333333,4,1,0,30,0,0
256372,-100,4,1,0,30,0,0
256455,-58.8235294117647,4,1,0,30,0,0
256497,-333.333333333333,4,1,0,30,0,0
256538,-100,4,1,0,30,0,0
256622,-58.8235294117647,4,1,0,30,0,0
256663,-333.333333333333,4,1,0,30,0,0
256705,-100,4,1,0,30,0,0
256788,-58.8235294117647,4,1,0,30,0,0
256830,-333.333333333333,4,1,0,30,0,0
256872,-58.8235294117647,4,1,0,30,0,0
256914,-333.333333333333,4,1,0,30,0,0
256955,-58.8235294117647,4,1,0,30,0,0
256997,-333.333333333333,4,1,0,30,0,0
257039,-58.8235294117647,4,1,0,30,0,0
257080,-333.333333333333,4,1,0,30,0,0
257122,-58.8235294117647,4,1,0,30,0,0
257164,-333.333333333333,4,1,0,30,0,0
257205,-58.8235294117647,4,1,0,30,0,0
257247,-333.333333333333,4,1,0,30,0,0
257288,-58.8235294117647,4,1,0,30,0,0
257330,-333.333333333333,4,1,0,30,0,0
257372,-58.8235294117647,4,1,0,30,0,0
257413,-333.333333333333,4,1,0,30,0,0
257455,-58.8235294117647,4,1,0,30,0,0
257497,-333.333333333333,4,1,0,30,0,0
257538,-58.8235294117647,4,1,0,30,0,0
257580,-333.333333333333,4,1,0,30,0,0
257621,-58.8235294117647,4,1,0,30,0,0
257663,-333.333333333333,4,1,0,30,0,0
257705,-58.8235294117647,4,1,0,30,0,0
257746,-333.333333333333,4,1,0,30,0,0
257788,-58.8235294117647,4,1,0,30,0,0
257830,-333.333333333333,4,1,0,30,0,0
257871,-58.8235294117647,4,1,0,30,0,0
257913,-333.333333333333,4,1,0,30,0,0
257954,-58.8235294117647,4,1,0,30,0,0
257996,-333.333333333333,4,1,0,30,0,0
258038,-58.8235294117647,4,1,0,30,0,0
258079,-333.333333333333,4,1,0,30,0,0
258121,-58.8235294117647,4,1,0,30,0,0
258163,-333.333333333333,4,1,0,30,0,0
258205,-100,4,1,0,30,0,0
258455,-58.8235294117647,4,1,0,30,0,0
258497,-333.333333333333,4,1,0,30,0,0
258539,-100,4,1,0,30,0,0
258622,-58.8235294117647,4,1,0,30,0,0
258664,-333.333333333333,4,1,0,30,0,0
258705,-100,4,1,0,30,0,0
258789,-58.8235294117647,4,1,0,30,0,0
258830,-333.333333333333,4,1,0,30,0,0
258872,-100,4,1,0,30,0,0
258955,-58.8235294117647,4,1,0,30,0,0
258997,-333.333333333333,4,1,0,30,0,0
259039,-100,4,1,0,30,0,0
259122,-58.8235294117647,4,1,0,30,0,0
259164,-333.333333333333,4,1,0,30,0,0
259205,-100,4,1,0,30,0,0
259289,-58.8235294117647,4,1,0,30,0,0
259330,-333.333333333333,4,1,0,30,0,0
259372,-100,4,1,0,30,0,0
259455,-58.8235294117647,4,1,0,30,0,0
259497,-333.333333333333,4,1,0,30,0,0
259539,-58.8235294117647,4,1,0,30,0,0
259581,-333.333333333333,4,1,0,30,0,0
259622,-58.8235294117647,4,1,0,30,0,0
259664,-333.333333333333,4,1,0,30,0,0
259706,-58.8235294117647,4,1,0,30,0,0
259747,-333.333333333333,4,1,0,30,0,0
259789,-58.8235294117647,4,1,0,30,0,0
259831,-333.333333333333,4,1,0,30,0,0
259872,-58.8235294117647,4,1,0,30,0,0
259914,-333.333333333333,4,1,0,30,0,0
259955,-58.8235294117647,4,1,0,30,0,0
259997,-333.333333333333,4,1,0,30,0,0
260039,-58.8235294117647,4,1,0,30,0,0
260080,-333.333333333333,4,1,0,30,0,0
260122,-58.8235294117647,4,1,0,30,0,0
260164,-333.333333333333,4,1,0,30,0,0
260205,-58.8235294117647,4,1,0,30,0,0
260247,-333.333333333333,4,1,0,30,0,0
260288,-58.8235294117647,4,1,0,30,0,0
260330,-333.333333333333,4,1,0,30,0,0
260372,-58.8235294117647,4,1,0,30,0,0
260413,-333.333333333333,4,1,0,30,0,0
260455,-58.8235294117647,4,1,0,30,0,0
260497,-333.333333333333,4,1,0,30,0,0
260538,-58.8235294117647,4,1,0,30,0,0
260580,-333.333333333333,4,1,0,30,0,0
260621,-58.8235294117647,4,1,0,30,0,0
260663,-333.333333333333,4,1,0,30,0,0
260705,-58.8235294117647,4,1,0,30,0,0
260746,-333.333333333333,4,1,0,30,0,0
260788,-58.8235294117647,4,1,0,30,0,0
260830,-333.333333333333,4,1,0,30,0,0
260872,-100,4,1,0,30,0,0
261122,-58.8235294117647,4,1,0,30,0,0
261164,-333.333333333333,4,1,0,30,0,0
261206,-100,4,1,0,30,0,0
261289,-58.8235294117647,4,1,0,30,0,0
261331,-333.333333333333,4,1,0,30,0,0
261372,-100,4,1,0,30,0,0
261456,-58.8235294117647,4,1,0,30,0,0
261497,-333.333333333333,4,1,0,30,0,0
261539,-100,4,1,0,30,0,0
261622,-58.8235294117647,4,1,0,30,0,0
261664,-333.333333333333,4,1,0,30,0,0
261706,-100,4,1,0,30,0,0
261789,-58.8235294117647,4,1,0,30,0,0
261831,-333.333333333333,4,1,0,30,0,0
261872,-100,4,1,0,30,0,0
261956,-58.8235294117647,4,1,0,30,0,0
261997,-333.333333333333,4,1,0,30,0,0
262039,-100,4,1,0,30,0,0
262122,-58.8235294117647,4,1,0,30,0,0
262164,-333.333333333333,4,1,0,30,0,0
262206,-58.8235294117647,4,1,0,30,0,0
262248,-333.333333333333,4,1,0,30,0,0
262289,-58.8235294117647,4,1,0,30,0,0
262331,-333.333333333333,4,1,0,30,0,0
262373,-58.8235294117647,4,1,0,30,0,0
262414,-333.333333333333,4,1,0,30,0,0
262456,-58.8235294117647,4,1,0,30,0,0
262498,-333.333333333333,4,1,0,30,0,0
262539,-58.8235294117647,4,1,0,30,0,0
262581,-333.333333333333,4,1,0,30,0,0
262622,-58.8235294117647,4,1,0,30,0,0
262664,-333.333333333333,4,1,0,30,0,0
262706,-58.8235294117647,4,1,0,30,0,0
262747,-333.333333333333,4,1,0,30,0,0
262789,-58.8235294117647,4,1,0,30,0,0
262831,-333.333333333333,4,1,0,30,0,0
262872,-58.8235294117647,4,1,0,30,0,0
262914,-333.333333333333,4,1,0,30,0,0
262955,-58.8235294117647,4,1,0,30,0,0
262997,-333.333333333333,4,1,0,30,0,0
263039,-58.8235294117647,4,1,0,30,0,0
263080,-333.333333333333,4,1,0,30,0,0
263122,-58.8235294117647,4,1,0,30,0,0
263164,-333.333333333333,4,1,0,30,0,0
263205,-58.8235294117647,4,1,0,30,0,0
263247,-333.333333333333,4,1,0,30,0,0
263288,-58.8235294117647,4,1,0,30,0,0
263330,-333.333333333333,4,1,0,30,0,0
263372,-58.8235294117647,4,1,0,30,0,0
263413,-333.333333333333,4,1,0,30,0,0
263455,-58.8235294117647,4,1,0,30,0,0
263497,-333.333333333333,4,1,0,30,0,0
263539,-50,4,1,0,30,0,0
263581,-500,4,1,0,30,0,0
263664,-50,4,1,0,30,0,0
263789,-500,4,1,0,30,0,0
263873,-50,4,1,0,30,0,0
263914,-500,4,1,0,30,0,0
263998,-50,4,1,0,30,0,0
264123,-500,4,1,0,30,0,0
264206,-50,4,1,0,30,0,0
264248,-500,4,1,0,30,0,0
264331,-50,4,1,0,30,0,0
264456,-500,4,1,0,30,0,0
264539,-50,4,1,0,30,0,0
264581,-500,4,1,0,30,0,0
264664,-50,4,1,0,30,0,0
264789,-500,4,1,0,30,0,0
264873,-100,4,1,0,30,0,0
315373,-66.6666666666667,4,1,0,30,0,0
315456,-200,4,1,0,30,0,0
315539,-100,4,1,0,30,0,0
316039,-66.6666666666667,4,1,0,30,0,0
316123,-200,4,1,0,30,0,0
316206,-100,4,1,0,30,0,0
316706,-66.6666666666667,4,1,0,30,0,0
316789,-200,4,1,0,30,0,0
316873,-100,4,1,0,30,0,0
317039,-66.6666666666667,4,1,0,30,0,0
317123,-200,4,1,0,30,0,0
317206,-100,4,1,0,30,0,0
317373,-66.6666666666667,4,1,0,30,0,0
317456,-200,4,1,0,30,0,0
317539,-100,4,1,0,30,0,0
317622,-200,4,1,0,30,0,0
317705,-100,4,1,0,30,0,0
363550,250,4,1,0,30,1,0
363550,-133.333333333333,4,1,0,30,0,0
411535,250,4,1,0,30,1,0
411535,-133.333333333333,4,1,0,30,0,0
434535,-222.222222222222,4,1,0,30,0,0
434660,-95.2380952380952,4,1,0,30,0,0
434785,-222.222222222222,4,1,0,30,0,0
434910,-95.2380952380952,4,1,0,30,0,0
435035,-222.222222222222,4,1,0,30,0,0
435160,-95.2380952380952,4,1,0,30,0,0
435285,-222.222222222222,4,1,0,30,0,0
435410,-95.2380952380952,4,1,0,30,0,0
435535,-133.333333333333,4,1,0,30,0,0
442535,-222.222222222222,4,1,0,30,0,0
442660,-95.2380952380952,4,1,0,30,0,0
442785,-222.222222222222,4,1,0,30,0,0
442910,-95.2380952380952,4,1,0,30,0,0
443035,-222.222222222222,4,1,0,30,0,0
443160,-95.2380952380952,4,1,0,30,0,0
443285,-222.222222222222,4,1,0,30,0,0
443410,-95.2380952380952,4,1,0,30,0,0
443535,-133.333333333333,4,1,0,30,0,0

[HitObjects]
475,192,2373,128,0,2540:0:0:0:0:
109,192,2540,128,0,2706:0:0:0:0:
256,192,2706,128,0,2873:0:0:0:0:
402,192,2873,128,0,3040:0:0:0:0:
329,192,3040,128,0,3206:0:0:0:0:
182,192,3206,128,0,3373:0:0:0:0:
256,192,3373,128,0,4873:0:0:0:0:
475,192,3539,128,0,4873:0:0:0:0:
36,192,3539,128,0,4873:0:0:0:0:
329,192,3539,1,0,0:0:0:0:
109,192,3539,1,0,0:0:0:0:
402,192,3706,1,0,0:0:0:0:
182,192,3873,1,0,0:0:0:0:
329,192,4039,1,0,0:0:0:0:
109,192,4206,1,0,0:0:0:0:
402,192,4206,1,0,0:0:0:0:
329,192,4373,1,0,0:0:0:0:
182,192,4539,1,0,0:0:0:0:
329,192,4706,1,0,0:0:0:0:
182,192,4873,1,0,0:0:0:0:
402,192,5039,128,0,5206:0:0:0:0:
109,192,5206,128,0,5539:0:0:0:0:
329,192,5206,1,0,0:0:0:0:
36,192,5373,1,0,0:0:0:0:
475,192,5539,128,0,5706:0:0:0:0:
402,192,5539,1,0,0:0:0:0:
256,192,5706,128,0,5873:0:0:0:0:
36,192,5873,128,0,6039:0:0:0:0:
329,192,5873,128,0,6039:0:0:0:0:
182,192,6039,128,0,6706:0:0:0:0:
402,192,6039,128,0,6706:0:0:0:0:
475,192,6206,1,0,0:0:0:0:
109,192,6206,1,0,0:0:0:0:
329,192,6373,1,0,0:0:0:0:
36,192,6539,1,0,0:0:0:0:
109,192,6706,128,0,6873:0:0:0:0:
256,192,6873,128,0,7539:0:0:0:0:
475,192,6873,1,0,0:0:0:0:
329,192,7039,1,0,0:0:0:0:
36,192,7206,1,0,0:0:0:0:
109,192,7373,1,0,0:0:0:0:
329,192,7539,1,0,0:0:0:0:
182,192,7539,128,0,8206:0:0:0:0:
402,192,7539,128,0,8206:0:0:0:0:
475,192,7706,1,0,0:0:0:0:
329,192,7873,1,0,0:0:0:0:
36,192,8039,1,0,0:0:0:0:
109,192,8206,128,0,8873:0:0:0:0:
256,192,8206,128,0,8539:0:0:0:0:
329,192,8206,1,0,0:0:0:0:
475,192,8539,1,0,0:0:0:0:
182,192,8706,1,0,0:0:0:0:
36,192,8873,128,0,9539:0:0:0:0:
256,192,8873,128,0,9539:0:0:0:0:
329,192,8873,1,0,0:0:0:0:
402,192,8873,1,0,0:0:0:0:
475,192,9039,1,0,0:0:0:0:
109,192,9206,1,0,0:0:0:0:
329,192,9373,1,0,0:0:0:0:
182,192,9539,128,0,10206:0:0:0:0:
402,192,9539,128,0,10206:0:0:0:0:
475,192,9539,1,0,0:0:0:0:
109,192,9706,1,0,0:0:0:0:
36,192,9873,1,0,0:0:0:0:
329,192,10039,1,0,0:0:0:0:
109,192,10206,128,0,10873:0:0:0:0:
475,192,10206,128,0,10873:0:0:0:0:
256,192,10206,1,0,0:0:0:0:
36,192,10373,1,0,0:0:0:0:
329,192,10539,1,0,0:0:0:0:
182,192,10706,1,0,0:0:0:0:
402,192,10873,1,0,0:0:0:0:
256,192,10873,128,0,11206:0:0:0:0:
329,192,10873,128,0,11539:0:0:0:0:
182,192,11039,1,0,0:0:0:0:
36,192,11206,1,0,0:0:0:0:
475,192,11373,1,0,0:0:0:0:
109,192,11539,1,0,0:0:0:0:
402,192,11539,128,0,11706:0:0:0:0:
36,192,11539,128,0,12706:0:0:0:0:
475,192,11706,128,0,12039:0:0:0:0:
182,192,11706,1,0,0:0:0:0:
256,192,11873,1,0,0:0:0:0:
329,192,12039,128,0,12373:0:0:0:0:
109,192,12039,1,0,0:0:0:0:
402,192,12206,1,0,0:0:0:0:
256,192,12373,128,0,12706:0:0:0:0:
182,192,12373,1,0,0:0:0:0:
475,192,12539,1,0,0:0:0:0:
109,192,12706,128,0,13539:0:0:0:0:
402,192,12706,128,0,13539:0:0:0:0:
182,192,12873,1,0,0:0:0:0:
329,192,12873,1,0,0:0:0:0:
36,192,13206,1,0,0:0:0:0:
475,192,13206,1,0,0:0:0:0:
182,192,13539,1,0,0:0:0:0:
329,192,13539,1,0,0:0:0:0:
36,192,13706,1,0,0:0:0:0:
475,192,13706,1,0,0:0:0:0:
109,192,13873,1,0,0:0:0:0:
182,192,13956,1,0,0:0:0:0:
256,192,14039,1,0,0:0:0:0:
329,192,14123,1,0,0:0:0:0:
109,192,14206,1,0,0:0:0:0:
402,192,14206,1,0,0:0:0:0:
182,192,14373,1,0,0:0:0:0:
256,192,14373,1,0,0:0:0:0:
329,192,14539,1,0,0:0:0:0:
402,192,14539,1,0,0:0:0:0:
109,192,14539,1,0,0:0:0:0:
256,192,14706,1,0,0:0:0:0:
329,192,14706,1,0,0:0:0:0:
182,192,14706,1,0,0:0:0:0:
109,192,14873,1,0,0:0:0:0:
402,192,14873,1,0,0:0:0:0:
182,192,15039,1,0,0:0:0:0:
256,192,15039,1,0,0:0:0:0:
329,192,15039,1,0,0:0:0:0:
329,192,15206,1,0,0:0:0:0:
402,192,15206,1,0,0:0:0:0:
109,192,15206,1,0,0:0:0:0:
182,192,15373,1,0,0:0:0:0:
256,192,15373,1,0,0:0:0:0:
402,192,15539,128,0,16539:0:0:0:0:
109,192,15539,1,0,0:0:0:0:
329,192,15539,1,0,0:0:0:0:
182,192,15706,1,0,0:0:0:0:
475,192,15706,1,0,0:0:0:0:
256,192,15873,1,0,0:0:0:0:
329,192,15873,1,0,0:0:0:0:
109,192,15873,1,0,0:0:0:0:
109,192,16039,128,0,16873:0:0:0:0:
256,192,16039,1,0,0:0:0:0:
182,192,16039,1,0,0:0:0:0:
475,192,16039,1,0,0:0:0:0:
36,192,16206,1,0,0:0:0:0:
329,192,16206,1,0,0:0:0:0:
182,192,16373,1,0,0:0:0:0:
256,192,16373,1,0,0:0:0:0:
475,192,16373,1,0,0:0:0:0:
329,192,16539,128,0,17539:0:0:0:0:
182,192,16539,1,0,0:0:0:0:
36,192,16539,1,0,0:0:0:0:
402,192,16706,1,0,0:0:0:0:
256,192,16706,1,0,0:0:0:0:
182,192,16873,128,0,17539:0:0:0:0:
36,192,16873,1,0,0:0:0:0:
475,192,16873,1,0,0:0:0:0:
109,192,17039,1,0,0:0:0:0:
402,192,17039,1,0,0:0:0:0:
36,192,17206,1,0,0:0:0:0:
256,192,17206,1,0,0:0:0:0:
475,192,17206,1,0,0:0:0:0:
36,192,17373,128,0,17539:0:0:0:0:
475,192,17373,128,0,17539:0:0:0:0:
109,192,17539,1,0,0:0:0:0:
402,192,17539,1,0,0:0:0:0:
36,192,17706,1,0,0:0:0:0:
475,192,17706,1,0,0:0:0:0:
402,192,17873,128,0,19206:0:0:0:0:
109,192,17873,128,0,19206:0:0:0:0:
182,192,17873,1,0,0:0:0:0:
256,192,17873,1,0,0:0:0:0:
329,192,17873,1,0,0:0:0:0:
475,192,18039,1,0,0:0:0:0:
329,192,18039,1,0,0:0:0:0:
36,192,18206,1,0,0:0:0:0:
256,192,18206,1,0,0:0:0:0:
475,192,18373,1,0,0:0:0:0:
36,192,18373,1,0,0:0:0:0:
256,192,18539,1,0,0:0:0:0:
329,192,18539,1,0,0:0:0:0:
182,192,18539,1,0,0:0:0:0:
182,192,18706,1,0,0:0:0:0:
475,192,18706,1,0,0:0:0:0:
329,192,18873,1,0,0:0:0:0:
36,192,18873,1,0,0:0:0:0:
256,192,18873,1,0,0:0:0:0:
329,192,19039,1,0,0:0:0:0:
475,192,19039,1,0,0:0:0:0:
475,192,19206,1,0,0:0:0:0:
256,192,19206,1,0,0:0:0:0:
36,192,19206,1,0,0:0:0:0:
329,192,19289,1,0,0:0:0:0:
109,192,19289,1,0,0:0:0:0:
402,192,19373,1,0,0:0:0:0:
182,192,19373,1,0,0:0:0:0:
475,192,19456,1,0,0:0:0:0:
256,192,19456,1,0,0:0:0:0:
182,192,19539,128,0,21373:0:0:0:0:
329,192,19539,128,0,20873:0:0:0:0:
36,192,19539,1,0,0:0:0:0:
475,192,19706,1,0,0:0:0:0:
109,192,19706,1,0,0:0:0:0:
256,192,19873,1,0,0:0:0:0:
402,192,19873,1,0,0:0:0:0:
256,192,20039,1,0,0:0:0:0:
109,192,20039,1,0,0:0:0:0:
36,192,20206,1,0,0:0:0:0:
475,192,20206,1,0,0:0:0:0:
109,192,20373,1,0,0:0:0:0:
256,192,20373,1,0,0:0:0:0:
256,192,20539,1,0,0:0:0:0:
402,192,20539,1,0,0:0:0:0:
36,192,20706,1,0,0:0:0:0:
475,192,20706,1,0,0:0:0:0:
402,192,20873,128,0,21873:0:0:0:0:
109,192,20873,1,0,0:0:0:0:
256,192,20873,1,0,0:0:0:0:
475,192,21039,1,0,0:0:0:0:
329,192,21039,1,0,0:0:0:0:
256,192,21206,1,0,0:0:0:0:
36,192,21206,1,0,0:0:0:0:
109,192,21373,128,0,22206:0:0:0:0:
36,192,21373,1,0,0:0:0:0:
329,192,21373,1,0,0:0:0:0:
475,192,21539,1,0,0:0:0:0:
256,192,21539,1,0,0:0:0:0:
182,192,21706,1,0,0:0:0:0:
36,192,21706,1,0,0:0:0:0:
475,192,21873,128,0,22873:0:0:0:0:
182,192,21873,1,0,0:0:0:0:
329,192,21873,1,0,0:0:0:0:
256,192,22039,1,0,0:0:0:0:
402,192,22039,1,0,0:0:0:0:
36,192,22039,1,0,0:0:0:0:
36,192,22206,128,0,22873:0:0:0:0:
182,192,22206,1,0,0:0:0:0:
329,192,22206,1,0,0:0:0:0:
256,192,22373,1,0,0:0:0:0:
256,192,22539,1,0,0:0:0:0:
402,192,22539,1,0,0:0:0:0:
109,192,22539,1,0,0:0:0:0:
109,192,22706,128,0,22873:0:0:0:0:
402,192,22706,128,0,22873:0:0:0:0:
182,192,22873,1,0,0:0:0:0:
329,192,22873,1,0,0:0:0:0:
109,192,23039,1,0,0:0:0:0:
402,192,23039,1,0,0:0:0:0:
36,192,23206,128,0,24539:0:0:0:0:
182,192,23206,1,0,0:0:0:0:
329,192,23206,1,0,0:0:0:0:
256,192,23206,1,0,0:0:0:0:
475,192,23206,128,0,24539:0:0:0:0:
109,192,23373,1,0,0:0:0:0:
402,192,23373,1,0,0:0:0:0:
109,192,23539,1,0,0:0:0:0:
182,192,23539,1,0,0:0:0:0:
402,192,23539,1,0,0:0:0:0:
256,192,23706,1,0,0:0:0:0:
329,192,23706,1,0,0:0:0:0:
329,192,23873,1,0,0:0:0:0:
402,192,23873,1,0,0:0:0:0:
109,192,23873,1,0,0:0:0:0:
182,192,24039,1,0,0:0:0:0:
256,192,24039,1,0,0:0:0:0:
109,192,24206,128,0,24539:0:0:0:0:
402,192,24206,128,0,24539:0:0:0:0:
329,192,24206,1,0,0:0:0:0:
182,192,24206,1,0,0:0:0:0:
256,192,24373,1,0,0:0:0:0:
182,192,24539,1,0,0:0:0:0:
329,192,24539,1,0,0:0:0:0:
36,192,24706,1,0,0:0:0:0:
475,192,24706,1,0,0:0:0:0:
109,192,24873,1,0,0:0:0:0:
182,192,24873,1,0,0:0:0:0:
256,192,24873,1,0,0:0:0:0:
329,192,24873,1,0,0:0:0:0:
36,192,25039,1,0,0:0:0:0:
475,192,25039,1,0,0:0:0:0:
475,192,25206,1,0,0:0:0:0:
36,192,25206,1,0,0:0:0:0:
256,192,25373,1,0,0:0:0:0:
329,192,25373,1,0,0:0:0:0:
402,192,25373,1,0,0:0:0:0:
182,192,25373,1,0,0:0:0:0:
36,192,25539,1,0,0:0:0:0:
475,192,25539,1,0,0:0:0:0:
36,192,25706,1,0,0:0:0:0:
475,192,25706,1,0,0:0:0:0:
109,192,25873,1,0,0:0:0:0:
182,192,25873,1,0,0:0:0:0:
256,192,25873,1,0,0:0:0:0:
329,192,25873,1,0,0:0:0:0:
256,192,26039,1,0,0:0:0:0:
402,192,26039,1,0,0:0:0:0:
475,192,26039,1,0,0:0:0:0:
36,192,26206,1,0,0:0:0:0:
182,192,26206,1,0,0:0:0:0:
475,192,26206,1,0,0:0:0:0:
109,192,26373,1,0,0:0:0:0:
402,192,26373,1,0,0:0:0:0:
475,192,26539,1,0,0:0:0:0:
182,192,26539,1,0,0:0:0:0:
329,192,26539,1,0,0:0:0:0:
109,192,26706,1,0,0:0:0:0:
256,192,26706,1,0,0:0:0:0:
182,192,26873,1,0,0:0:0:0:
329,192,26873,1,0,0:0:0:0:
475,192,26873,1,0,0:0:0:0:
36,192,27039,1,0,0:0:0:0:
256,192,27039,1,0,0:0:0:0:
109,192,27123,1,0,0:0:0:0:
329,192,27123,1,0,0:0:0:0:
182,192,27206,1,0,0:0:0:0:
402,192,27206,1,0,0:0:0:0:
256,192,27289,1,0,0:0:0:0:
475,192,27289,1,0,0:0:0:0:
182,192,27373,1,0,0:0:0:0:
402,192,27373,1,0,0:0:0:0:
329,192,27456,1,0,0:0:0:0:
109,192,27456,1,0,0:0:0:0:
36,192,27539,1,0,0:0:0:0:
256,192,27539,1,0,0:0:0:0:
475,192,27539,1,0,0:0:0:0:
182,192,27539,1,0,0:0:0:0:
109,192,27706,1,0,0:0:0:0:
402,192,27706,1,0,0:0:0:0:
109,192,27873,1,0,0:0:0:0:
402,192,27873,1,0,0:0:0:0:
256,192,28039,1,0,0:0:0:0:
329,192,28039,1,0,0:0:0:0:
475,192,28039,1,0,0:0:0:0:
36,192,28039,1,0,0:0:0:0:
109,192,28206,1,0,0:0:0:0:
402,192,28206,1,0,0:0:0:0:
109,192,28373,1,0,0:0:0:0:
402,192,28373,1,0,0:0:0:0:
36,192,28539,1,0,0:0:0:0:
182,192,28539,1,0,0:0:0:0:
329,192,28539,1,0,0:0:0:0:
475,192,28539,1,0,0:0:0:0:
256,192,28539,1,0,0:0:0:0:
182,192,28706,1,0,0:0:0:0:
36,192,28706,1,0,0:0:0:0:
329,192,28706,1,0,0:0:0:0:
475,192,28706,1,0,0:0:0:0:
109,192,28873,1,0,0:0:0:0:
402,192,28873,1,0,0:0:0:0:
36,192,29039,5,0,0:0:0:0:
182,192,29039,1,0,0:0:0:0:
256,192,29039,1,0,0:0:0:0:
109,192,29206,1,0,0:0:0:0:
256,192,29206,1,0,0:0:0:0:
329,192,29206,1,0,0:0:0:0:
182,192,29373,1,0,0:0:0:0:
329,192,29373,1,0,0:0:0:0:
402,192,29373,1,0,0:0:0:0:
256,192,29539,1,0,0:0:0:0:
402,192,29539,1,0,0:0:0:0:
475,192,29539,1,0,0:0:0:0:
36,192,29706,1,0,0:0:0:0:
109,192,29706,1,0,0:0:0:0:
182,192,29873,1,0,0:0:0:0:
256,192,29873,1,0,0:0:0:0:
402,192,30039,1,0,0:0:0:0:
475,192,30039,1,0,0:0:0:0:
36,192,30206,5,0,0:0:0:0:
182,192,30206,1,0,0:0:0:0:
329,192,30206,1,0,0:0:0:0:
475,192,30206,1,0,0:0:0:0:
256,192,30373,1,0,0:0:0:0:
329,192,30539,1,0,0:0:0:0:
475,192,30539,1,0,0:0:0:0:
402,192,30706,1,0,0:0:0:0:
256,192,30706,1,0,0:0:0:0:
329,192,30873,1,0,0:0:0:0:
182,192,30873,1,0,0:0:0:0:
475,192,31039,1,0,0:0:0:0:
256,192,31206,1,0,0:0:0:0:
109,192,31206,1,0,0:0:0:0:
182,192,31373,1,0,0:0:0:0:
329,192,31373,1,0,0:0:0:0:
256,192,31539,1,0,0:0:0:0:
402,192,31539,1,0,0:0:0:0:
182,192,31706,1,0,0:0:0:0:
109,192,31873,1,0,0:0:0:0:
329,192,31873,1,0,0:0:0:0:
256,192,32039,1,0,0:0:0:0:
475,192,32039,1,0,0:0:0:0:
329,192,32206,1,0,0:0:0:0:
182,192,32206,1,0,0:0:0:0:
256,192,32373,1,0,0:0:0:0:
36,192,32373,1,0,0:0:0:0:
182,192,32539,1,0,0:0:0:0:
329,192,32539,1,0,0:0:0:0:
475,192,32539,1,0,0:0:0:0:
402,192,32706,1,0,0:0:0:0:
256,192,32873,1,0,0:0:0:0:
109,192,32873,1,0,0:0:0:0:
329,192,33039,1,0,0:0:0:0:
475,192,33039,1,0,0:0:0:0:
182,192,33206,1,0,0:0:0:0:
36,192,33206,1,0,0:0:0:0:
256,192,33373,1,0,0:0:0:0:
402,192,33373,1,0,0:0:0:0:
109,192,33539,1,0,0:0:0:0:
475,192,33539,1,0,0:0:0:0:
329,192,33706,1,0,0:0:0:0:
182,192,33706,1,0,0:0:0:0:
402,192,33873,1,0,0:0:0:0:
36,192,33873,1,0,0:0:0:0:
256,192,34039,1,0,0:0:0:0:
109,192,34039,1,0,0:0:0:0:
329,192,34206,1,0,0:0:0:0:
475,192,34206,1,0,0:0:0:0:
182,192,34373,1,0,0:0:0:0:
36,192,34373,1,0,0:0:0:0:
329,192,34539,1,0,0:0:0:0:
475,192,34539,1,0,0:0:0:0:
256,192,34706,1,0,0:0:0:0:
109,192,34706,1,0,0:0:0:0:
329,192,34873,1,0,0:0:0:0:
475,192,34873,1,0,0:0:0:0:
256,192,35039,1,0,0:0:0:0:
182,192,35206,1,0,0:0:0:0:
402,192,35206,1,0,0:0:0:0:
36,192,35206,1,0,0:0:0:0:
329,192,35373,1,0,0:0:0:0:
109,192,35373,1,0,0:0:0:0:
182,192,35539,1,0,0:0:0:0:
402,192,35539,1,0,0:0:0:0:
256,192,35706,1,0,0:0:0:0:
329,192,35873,1,0,0:0:0:0:
475,192,35873,1,0,0:0:0:0:
256,192,36039,1,0,0:0:0:0:
402,192,36039,1,0,0:0:0:0:
329,192,36206,1,0,0:0:0:0:
182,192,36206,1,0,0:0:0:0:
109,192,36373,1,0,0:0:0:0:
256,192,36539,1,0,0:0:0:0:
402,192,36539,1,0,0:0:0:0:
329,192,36706,1,0,0:0:0:0:
475,192,36706,1,0,0:0:0:0:
402,192,36873,1,0,0:0:0:0:
256,192,36873,1,0,0:0:0:0:
182,192,37039,1,0,0:0:0:0:
329,192,37206,1,0,0:0:0:0:
475,192,37206,1,0,0:0:0:0:
402,192,37373,1,0,0:0:0:0:
256,192,37373,1,0,0:0:0:0:
329,192,37539,1,0,0:0:0:0:
182,192,37539,1,0,0:0:0:0:
475,192,37706,1,0,0:0:0:0:
402,192,37706,1,0,0:0:0:0:
329,192,37873,1,0,0:0:0:0:
182,192,37873,1,0,0:0:0:0:
36,192,37873,1,0,0:0:0:0:
256,192,38039,1,0,0:0:0:0:
402,192,38039,1,0,0:0:0:0:
329,192,38206,1,0,0:0:0:0:
475,192,38206,1,0,0:0:0:0:
182,192,38373,1,0,0:0:0:0:
36,192,38373,1,0,0:0:0:0:
256,192,38539,1,0,0:0:0:0:
402,192,38539,1,0,0:0:0:0:
109,192,38706,1,0,0:0:0:0:
475,192,38706,1,0,0:0:0:0:
329,192,38873,1,0,0:0:0:0:
182,192,38873,1,0,0:0:0:0:
36,192,39039,1,0,0:0:0:0:
402,192,39039,1,0,0:0:0:0:
256,192,39206,1,0,0:0:0:0:
109,192,39206,1,0,0:0:0:0:
475,192,39373,1,0,0:0:0:0:
329,192,39373,1,0,0:0:0:0:
182,192,39539,1,0,0:0:0:0:
36,192,39539,1,0,0:0:0:0:
402,192,39706,1,0,0:0:0:0:
402,192,39789,1,0,0:0:0:0:
329,192,39873,1,0,0:0:0:0:
182,192,39873,1,0,0:0:0:0:
256,192,40039,1,0,0:0:0:0:
402,192,40039,1,0,0:0:0:0:
329,192,40206,1,0,0:0:0:0:
475,192,40206,1,0,0:0:0:0:
329,192,40373,1,0,0:0:0:0:
475,192,40373,1,0,0:0:0:0:
182,192,40539,1,0,0:0:0:0:
36,192,40539,1,0,0:0:0:0:
402,192,40539,1,0,0:0:0:0:
256,192,40706,1,0,0:0:0:0:
329,192,40873,1,0,0:0:0:0:
475,192,40873,1,0,0:0:0:0:
182,192,41039,1,0,0:0:0:0:
256,192,41206,1,0,0:0:0:0:
402,192,41206,1,0,0:0:0:0:
182,192,41373,1,0,0:0:0:0:
329,192,41373,1,0,0:0:0:0:
256,192,41539,1,0,0:0:0:0:
109,192,41539,1,0,0:0:0:0:
402,192,41706,1,0,0:0:0:0:
256,192,41873,1,0,0:0:0:0:
109,192,41873,1,0,0:0:0:0:
182,192,42039,1,0,0:0:0:0:
329,192,42039,1,0,0:0:0:0:
256,192,42206,1,0,0:0:0:0:
402,192,42206,1,0,0:0:0:0:
109,192,42373,1,0,0:0:0:0:
182,192,42539,1,0,0:0:0:0:
402,192,42539,1,0,0:0:0:0:
256,192,42706,1,0,0:0:0:0:
475,192,42706,1,0,0:0:0:0:
329,192,42873,1,0,0:0:0:0:
36,192,42873,1,0,0:0:0:0:
256,192,43039,1,0,0:0:0:0:
475,192,43039,1,0,0:0:0:0:
402,192,43206,1,0,0:0:0:0:
182,192,43206,1,0,0:0:0:0:
36,192,43206,1,0,0:0:0:0:
329,192,43373,1,0,0:0:0:0:
256,192,43539,1,0,0:0:0:0:
109,192,43539,1,0,0:0:0:0:
475,192,43706,1,0,0:0:0:0:
329,192,43873,1,0,0:0:0:0:
182,192,43873,1,0,0:0:0:0:
256,192,44039,1,0,0:0:0:0:
109,192,44039,1,0,0:0:0:0:
182,192,44206,1,0,0:0:0:0:
36,192,44206,1,0,0:0:0:0:
402,192,44373,1,0,0:0:0:0:
256,192,44539,1,0,0:0:0:0:
109,192,44539,1,0,0:0:0:0:
182,192,44706,1,0,0:0:0:0:
329,192,44706,1,0,0:0:0:0:
256,192,44873,1,0,0:0:0:0:
402,192,44873,1,0,0:0:0:0:
36,192,45039,1,0,0:0:0:0:
182,192,45039,1,0,0:0:0:0:
329,192,45206,1,0,0:0:0:0:
475,192,45206,1,0,0:0:0:0:
256,192,45373,1,0,0:0:0:0:
109,192,45373,1,0,0:0:0:0:
402,192,45539,1,0,0:0:0:0:
36,192,45539,1,0,0:0:0:0:
182,192,45706,1,0,0:0:0:0:
329,192,45706,1,0,0:0:0:0:
475,192,45873,1,0,0:0:0:0:
109,192,45873,1,0,0:0:0:0:
36,192,45873,1,0,0:0:0:0:
256,192,46039,1,0,0:0:0:0:
329,192,46206,1,0,0:0:0:0:
475,192,46206,1,0,0:0:0:0:
182,192,46373,1,0,0:0:0:0:
256,192,46539,1,0,0:0:0:0:
475,192,46539,1,0,0:0:0:0:
329,192,46706,1,0,0:0:0:0:
36,192,46706,1,0,0:0:0:0:
402,192,46873,1,0,0:0:0:0:
109,192,46873,1,0,0:0:0:0:
329,192,47039,1,0,0:0:0:0:
256,192,47206,1,0,0:0:0:0:
475,192,47206,1,0,0:0:0:0:
402,192,47373,1,0,0:0:0:0:
182,192,47373,1,0,0:0:0:0:
329,192,47539,1,0,0:0:0:0:
109,192,47539,1,0,0:0:0:0:
475,192,47706,1,0,0:0:0:0:
36,192,47706,1,0,0:0:0:0:
182,192,47873,1,0,0:0:0:0:
402,192,47873,1,0,0:0:0:0:
109,192,48039,1,0,0:0:0:0:
36,192,48039,1,0,0:0:0:0:
256,192,48206,1,0,0:0:0:0:
475,192,48206,1,0,0:0:0:0:
182,192,48373,1,0,0:0:0:0:
109,192,48373,1,0,0:0:0:0:
329,192,48539,1,0,0:0:0:0:
36,192,48539,1,0,0:0:0:0:
475,192,48539,1,0,0:0:0:0:
256,192,48706,1,0,0:0:0:0:
182,192,48873,1,0,0:0:0:0:
402,192,48873,1,0,0:0:0:0:
329,192,49039,1,0,0:0:0:0:
256,192,49206,1,0,0:0:0:0:
109,192,49206,1,0,0:0:0:0:
182,192,49373,1,0,0:0:0:0:
329,192,49373,1,0,0:0:0:0:
256,192,49539,1,0,0:0:0:0:
402,192,49539,1,0,0:0:0:0:
36,192,49706,1,0,0:0:0:0:
329,192,49873,1,0,0:0:0:0:
475,192,49873,1,0,0:0:0:0:
402,192,50039,1,0,0:0:0:0:
256,192,50039,1,0,0:0:0:0:
329,192,50206,1,0,0:0:0:0:
182,192,50206,1,0,0:0:0:0:
109,192,50289,1,0,0:0:0:0:
36,192,50289,1,0,0:0:0:0:
256,192,50373,1,0,0:0:0:0:
402,192,50373,1,0,0:0:0:0:
182,192,50456,1,0,0:0:0:0:
109,192,50456,1,0,0:0:0:0:
329,192,50539,1,0,0:0:0:0:
475,192,50539,1,0,0:0:0:0:
329,192,50706,1,0,0:0:0:0:
475,192,50706,1,0,0:0:0:0:
402,192,50873,1,0,0:0:0:0:
256,192,50873,1,0,0:0:0:0:
329,192,51039,1,0,0:0:0:0:
182,192,51039,1,0,0:0:0:0:
256,192,51206,1,0,0:0:0:0:
109,192,51206,1,0,0:0:0:0:
475,192,51206,1,0,0:0:0:0:
402,192,51373,1,0,0:0:0:0:
329,192,51373,1,0,0:0:0:0:
256,192,51539,5,0,0:0:0:0:
475,192,51539,1,0,0:0:0:0:
182,192,51539,1,0,0:0:0:0:
36,192,51539,1,0,0:0:0:0:
109,192,51873,1,0,0:0:0:0:
329,192,51873,1,0,0:0:0:0:
256,192,52039,1,0,0:0:0:0:
36,192,52039,1,0,0:0:0:0:
402,192,52206,1,0,0:0:0:0:
182,192,52206,1,0,0:0:0:0:
256,192,52373,1,0,0:0:0:0:
109,192,52539,1,0,0:0:0:0:
329,192,52539,1,0,0:0:0:0:
475,192,52706,1,0,0:0:0:0:
36,192,52706,128,0,52956:0:0:0:0:
182,192,52706,128,0,52956:0:0:0:0:
475,192,52873,1,0,0:0:0:0:
256,192,52873,1,0,0:0:0:0:
256,192,53206,1,0,0:0:0:0:
36,192,53206,1,0,0:0:0:0:
402,192,53373,1,0,0:0:0:0:
182,192,53373,1,0,0:0:0:0:
256,192,53539,1,0,0:0:0:0:
475,192,53539,1,0,0:0:0:0:
329,192,53706,1,0,0:0:0:0:
475,192,53873,1,0,0:0:0:0:
256,192,53873,1,0,0:0:0:0:
109,192,53873,1,0,0:0:0:0:
402,192,54039,1,0,0:0:0:0:
36,192,54039,128,0,54289:0:0:0:0:
182,192,54039,128,0,54289:0:0:0:0:
402,192,54206,1,0,0:0:0:0:
256,192,54206,1,0,0:0:0:0:
475,192,54539,1,0,0:0:0:0:
256,192,54539,1,0,0:0:0:0:
36,192,54706,1,0,0:0:0:0:
329,192,54706,1,0,0:0:0:0:
109,192,54873,1,0,0:0:0:0:
402,192,54873,1,0,0:0:0:0:
256,192,55039,1,0,0:0:0:0:
402,192,55206,1,0,0:0:0:0:
109,192,55206,1,0,0:0:0:0:
329,192,55373,1,0,0:0:0:0:
36,192,55373,128,0,55623:0:0:0:0:
182,192,55373,128,0,55623:0:0:0:0:
329,192,55539,1,0,0:0:0:0:
475,192,55539,1,0,0:0:0:0:
256,192,55706,1,0,0:0:0:0:
109,192,55873,1,0,0:0:0:0:
329,192,55873,1,0,0:0:0:0:
182,192,56039,1,0,0:0:0:0:
36,192,56206,1,0,0:0:0:0:
256,192,56206,1,0,0:0:0:0:
182,192,56373,1,0,0:0:0:0:
402,192,56539,1,0,0:0:0:0:
109,192,56539,1,0,0:0:0:0:
256,192,56539,1,0,0:0:0:0:
329,192,56706,128,0,56956:0:0:0:0:
475,192,56706,128,0,56956:0:0:0:0:
36,192,56873,1,0,0:0:0:0:
182,192,56873,1,0,0:0:0:0:
109,192,57206,1,0,0:0:0:0:
402,192,57206,1,0,0:0:0:0:
182,192,57373,1,0,0:0:0:0:
329,192,57373,1,0,0:0:0:0:
475,192,57539,1,0,0:0:0:0:
256,192,57539,1,0,0:0:0:0:
36,192,57706,1,0,0:0:0:0:
402,192,57873,1,0,0:0:0:0:
182,192,57873,1,0,0:0:0:0:
36,192,58039,1,0,0:0:0:0:
109,192,58039,1,0,0:0:0:0:
475,192,58039,128,0,58289:0:0:0:0:
329,192,58039,128,0,58289:0:0:0:0:
256,192,58206,1,0,0:0:0:0:
36,192,58206,1,0,0:0:0:0:
402,192,58539,1,0,0:0:0:0:
182,192,58539,1,0,0:0:0:0:
109,192,58706,1,0,0:0:0:0:
329,192,58706,1,0,0:0:0:0:
475,192,58873,1,0,0:0:0:0:
256,192,58873,1,0,0:0:0:0:
329,192,59039,1,0,0:0:0:0:
182,192,59206,1,0,0:0:0:0:
36,192,59206,1,0,0:0:0:0:
402,192,59206,1,0,0:0:0:0:
109,192,59373,1,0,0:0:0:0:
329,192,59373,128,0,59623:0:0:0:0:
475,192,59373,128,0,59623:0:0:0:0:
256,192,59539,1,0,0:0:0:0:
109,192,59539,1,0,0:0:0:0:
182,192,59873,1,0,0:0:0:0:
36,192,59873,1,0,0:0:0:0:
109,192,60039,1,0,0:0:0:0:
256,192,60039,1,0,0:0:0:0:
475,192,60206,1,0,0:0:0:0:
329,192,60206,1,0,0:0:0:0:
402,192,60373,1,0,0:0:0:0:
256,192,60373,1,0,0:0:0:0:
109,192,60539,1,0,0:0:0:0:
36,192,60539,1,0,0:0:0:0:
182,192,60706,1,0,0:0:0:0:
475,192,60873,128,0,61206:0:0:0:0:
36,192,60873,1,0,0:0:0:0:
256,192,60873,1,0,0:0:0:0:
329,192,61039,1,0,0:0:0:0:
182,192,61039,1,0,0:0:0:0:
256,192,61123,1,0,0:0:0:0:
109,192,61123,1,0,0:0:0:0:
402,192,61206,1,0,0:0:0:0:
36,192,61206,128,0,61539:0:0:0:0:
182,192,61206,1,0,0:0:0:0:
256,192,61373,1,0,0:0:0:0:
329,192,61373,128,0,61539:0:0:0:0:
109,192,61373,1,0,0:0:0:0:
402,192,61539,1,0,0:0:0:0:
182,192,61539,128,0,61873:0:0:0:0:
475,192,61539,1,0,0:0:0:0:
256,192,61706,1,0,0:0:0:0:
109,192,61706,1,0,0:0:0:0:
475,192,61873,128,0,62289:0:0:0:0:
36,192,61873,1,0,0:0:0:0:
329,192,61873,1,0,0:0:0:0:
109,192,62039,128,0,62289:0:0:0:0:
256,192,62039,128,0,62289:0:0:0:0:
329,192,62206,1,0,0:0:0:0:
182,192,62206,1,0,0:0:0:0:
402,192,62373,128,0,62539:0:0:0:0:
256,192,62539,1,0,0:0:0:0:
475,192,62539,128,0,62873:0:0:0:0:
109,192,62539,1,0,0:0:0:0:
329,192,62706,1,0,0:0:0:0:
182,192,62706,1,0,0:0:0:0:
402,192,62873,1,0,0:0:0:0:
256,192,62873,1,0,0:0:0:0:
36,192,62873,128,0,63206:0:0:0:0:
329,192,63039,1,0,0:0:0:0:
402,192,63206,1,0,0:0:0:0:
256,192,63206,1,0,0:0:0:0:
109,192,63206,128,0,63373:0:0:0:0:
475,192,63373,1,0,0:0:0:0:
36,192,63373,1,0,0:0:0:0:
182,192,63373,128,0,63623:0:0:0:0:
329,192,63373,128,0,63623:0:0:0:0:
36,192,63539,1,0,0:0:0:0:
256,192,63539,1,0,0:0:0:0:
475,192,63706,128,0,64206:0:0:0:0:
402,192,63873,1,0,0:0:0:0:
256,192,63873,1,0,0:0:0:0:
329,192,64039,1,0,0:0:0:0:
182,192,64039,1,0,0:0:0:0:
109,192,64206,1,0,0:0:0:0:
256,192,64206,1,0,0:0:0:0:
36,192,64206,128,0,64539:0:0:0:0:
329,192,64373,1,0,0:0:0:0:
475,192,64373,1,0,0:0:0:0:
402,192,64539,1,0,0:0:0:0:
182,192,64539,1,0,0:0:0:0:
256,192,64539,128,0,64706:0:0:0:0:
109,192,64539,1,0,0:0:0:0:
36,192,64706,1,0,0:0:0:0:
329,192,64706,128,0,64956:0:0:0:0:
475,192,64706,128,0,64956:0:0:0:0:
109,192,64873,1,0,0:0:0:0:
36,192,64873,1,0,0:0:0:0:
182,192,65039,128,0,65373:0:0:0:0:
329,192,65206,1,0,0:0:0:0:
475,192,65206,1,0,0:0:0:0:
402,192,65373,1,0,0:0:0:0:
256,192,65373,1,0,0:0:0:0:
109,192,65373,128,0,65539:0:0:0:0:
182,192,65539,1,0,0:0:0:0:
329,192,65539,1,0,0:0:0:0:
256,192,65706,1,0,0:0:0:0:
36,192,65706,128,0,65873:0:0:0:0:
402,192,65873,1,0,0:0:0:0:
109,192,65873,1,0,0:0:0:0:
329,192,65873,128,0,66039:0:0:0:0:
256,192,66039,1,0,0:0:0:0:
182,192,66039,128,0,66206:0:0:0:0:
36,192,66206,1,0,0:0:0:0:
402,192,66206,1,0,0:0:0:0:
475,192,66206,128,0,66373:0:0:0:0:
182,192,66373,5,0,0:0:0:0:
329,192,66373,128,0,66706:0:0:0:0:
256,192,66539,1,0,0:0:0:0:
109,192,66539,1,0,0:0:0:0:
402,192,66706,1,0,0:0:0:0:
475,192,66706,1,0,0:0:0:0:
36,192,66706,128,0,66956:0:0:0:0:
109,192,66789,128,0,66956:0:0:0:0:
329,192,66873,1,0,0:0:0:0:
256,192,66873,1,0,0:0:0:0:
182,192,66873,128,0,67206:0:0:0:0:
475,192,67039,1,0,0:0:0:0:
36,192,67206,1,0,0:0:0:0:
109,192,67206,1,0,0:0:0:0:
402,192,67206,1,0,0:0:0:0:
329,192,67206,128,0,67539:0:0:0:0:
109,192,67373,128,0,67539:0:0:0:0:
256,192,67373,128,0,67539:0:0:0:0:
182,192,67539,5,0,0:0:0:0:
36,192,67539,1,0,0:0:0:0:
402,192,67539,128,0,67873:0:0:0:0:
256,192,67706,128,0,67873:0:0:0:0:
475,192,67873,128,0,68206:0:0:0:0:
109,192,67873,1,0,0:0:0:0:
329,192,68039,128,0,68206:0:0:0:0:
182,192,68039,1,0,0:0:0:0:
36,192,68206,128,0,68539:0:0:0:0:
182,192,68206,1,0,0:0:0:0:
256,192,68373,1,0,0:0:0:0:
475,192,68539,1,0,0:0:0:0:
402,192,68539,1,0,0:0:0:0:
182,192,68539,1,0,0:0:0:0:
329,192,68706,1,0,0:0:0:0:
256,192,68706,1,0,0:0:0:0:
109,192,68706,1,0,0:0:0:0:
182,192,68873,128,0,68956:0:0:0:0:
475,192,68873,1,0,0:0:0:0:
36,192,68873,1,0,0:0:0:0:
402,192,68956,1,0,0:0:0:0:
329,192,69039,128,0,69123:0:0:0:0:
109,192,69039,1,0,0:0:0:0:
182,192,69123,1,0,0:0:0:0:
109,192,69206,128,0,69373:0:0:0:0:
329,192,69206,1,0,0:0:0:0:
256,192,69289,1,0,0:0:0:0:
182,192,69373,1,0,0:0:0:0:
402,192,69373,1,0,0:0:0:0:
329,192,69456,1,0,0:0:0:0:
36,192,69539,1,0,0:0:0:0:
256,192,69539,1,0,0:0:0:0:
475,192,69539,128,0,69706:0:0:0:0:
109,192,69623,1,0,0:0:0:0:
182,192,69706,1,0,0:0:0:0:
329,192,69706,1,0,0:0:0:0:
182,192,69873,1,0,0:0:0:0:
36,192,69873,1,0,0:0:0:0:
329,192,69873,1,0,0:0:0:0:
475,192,69873,1,0,0:0:0:0:
256,192,70039,1,0,0:0:0:0:
402,192,70206,128,0,70373:0:0:0:0:
109,192,70206,1,0,0:0:0:0:
36,192,70206,1,0,0:0:0:0:
182,192,70373,1,0,0:0:0:0:
329,192,70539,128,0,70706:0:0:0:0:
109,192,70539,1,0,0:0:0:0:
475,192,70539,1,0,0:0:0:0:
182,192,70706,1,0,0:0:0:0:
36,192,70706,128,0,71039:0:0:0:0:
256,192,70873,128,0,71039:0:0:0:0:
402,192,70873,128,0,71206:0:0:0:0:
475,192,70873,1,0,0:0:0:0:
109,192,71039,128,0,71206:0:0:0:0:
329,192,71039,1,0,0:0:0:0:
182,192,71206,128,0,71373:0:0:0:0:
256,192,71206,1,0,0:0:0:0:
475,192,71206,128,0,71539:0:0:0:0:
36,192,71373,1,0,0:0:0:0:
402,192,71373,128,0,71539:0:0:0:0:
329,192,71539,1,0,0:0:0:0:
182,192,71539,1,0,0:0:0:0:
109,192,71623,1,0,0:0:0:0:
36,192,71706,1,0,0:0:0:0:
256,192,71706,1,0,0:0:0:0:
329,192,71789,1,0,0:0:0:0:
402,192,71873,1,0,0:0:0:0:
36,192,71873,128,0,72206:0:0:0:0:
475,192,71873,128,0,72206:0:0:0:0:
256,192,72039,1,0,0:0:0:0:
109,192,72206,1,0,0:0:0:0:
402,192,72206,1,0,0:0:0:0:
182,192,72289,1,0,0:0:0:0:
329,192,72289,1,0,0:0:0:0:
36,192,72373,1,0,0:0:0:0:
475,192,72373,1,0,0:0:0:0:
109,192,72456,1,0,0:0:0:0:
402,192,72456,1,0,0:0:0:0:
182,192,72539,1,0,0:0:0:0:
329,192,72539,1,0,0:0:0:0:
36,192,72623,1,0,0:0:0:0:
475,192,72623,1,0,0:0:0:0:
109,192,72706,1,0,0:0:0:0:
402,192,72706,1,0,0:0:0:0:
329,192,72789,1,0,0:0:0:0:
182,192,72789,1,0,0:0:0:0:
36,192,72873,1,0,0:0:0:0:
256,192,72873,1,0,0:0:0:0:
475,192,72873,128,0,74206:0:0:0:0:
402,192,72873,1,0,0:0:0:0:
109,192,72873,1,0,0:0:0:0:
182,192,73039,1,0,0:0:0:0:
109,192,73206,1,0,0:0:0:0:
329,192,73206,1,0,0:0:0:0:
402,192,73206,1,0,0:0:0:0:
256,192,73373,1,0,0:0:0:0:
36,192,73539,1,0,0:0:0:0:
182,192,73539,1,0,0:0:0:0:
109,192,73706,1,0,0:0:0:0:
256,192,73873,1,0,0:0:0:0:
402,192,73873,1,0,0:0:0:0:
182,192,73873,1,0,0:0:0:0:
329,192,74039,1,0,0:0:0:0:
109,192,74206,128,0,75539:0:0:0:0:
36,192,74206,1,0,0:0:0:0:
256,192,74373,1,0,0:0:0:0:
402,192,74539,1,0,0:0:0:0:
475,192,74539,1,0,0:0:0:0:
182,192,74539,1,0,0:0:0:0:
329,192,74706,1,0,0:0:0:0:
182,192,74873,1,0,0:0:0:0:
256,192,74873,1,0,0:0:0:0:
402,192,75039,1,0,0:0:0:0:
36,192,75206,1,0,0:0:0:0:
329,192,75206,1,0,0:0:0:0:
475,192,75206,1,0,0:0:0:0:
256,192,75373,1,0,0:0:0:0:
402,192,75373,1,0,0:0:0:0:
182,192,75456,1,0,0:0:0:0:
329,192,75456,1,0,0:0:0:0:
402,192,75539,1,0,0:0:0:0:
475,192,75539,128,0,76539:0:0:0:0:
182,192,75706,1,0,0:0:0:0:
36,192,75873,1,0,0:0:0:0:
109,192,75873,1,0,0:0:0:0:
402,192,75873,1,0,0:0:0:0:
329,192,76039,1,0,0:0:0:0:
256,192,76206,1,0,0:0:0:0:
182,192,76206,1,0,0:0:0:0:
36,192,76373,1,0,0:0:0:0:
109,192,76539,1,0,0:0:0:0:
402,192,76539,1,0,0:0:0:0:
329,192,76539,1,0,0:0:0:0:
256,192,76706,128,0,76873:0:0:0:0:
36,192,76706,128,0,77039:0:0:0:0:
475,192,76873,128,0,77373:0:0:0:0:
329,192,76873,128,0,77206:0:0:0:0:
109,192,77039,1,0,0:0:0:0:
402,192,77206,1,0,0:0:0:0:
182,192,77206,128,0,77373:0:0:0:0:
36,192,77206,128,0,77539:0:0:0:0:
402,192,77373,128,0,77539:0:0:0:0:
256,192,77373,128,0,77706:0:0:0:0:
475,192,77539,1,0,0:0:0:0:
109,192,77539,128,0,77873:0:0:0:0:
329,192,77706,1,0,0:0:0:0:
182,192,77873,1,0,0:0:0:0:
36,192,77873,128,0,78039:0:0:0:0:
475,192,77873,128,0,78206:0:0:0:0:
402,192,77873,1,0,0:0:0:0:
256,192,78039,128,0,78206:0:0:0:0:
109,192,78206,1,0,0:0:0:0:
182,192,78206,1,0,0:0:0:0:
329,192,78206,1,0,0:0:0:0:
402,192,78206,1,0,0:0:0:0:
256,192,78373,1,0,0:0:0:0:
36,192,78539,1,0,0:0:0:0:
329,192,78539,1,0,0:0:0:0:
475,192,78539,1,0,0:0:0:0:
109,192,78706,1,0,0:0:0:0:
182,192,78873,1,0,0:0:0:0:
256,192,78873,1,0,0:0:0:0:
402,192,79039,1,0,0:0:0:0:
329,192,79206,1,0,0:0:0:0:
36,192,79206,1,0,0:0:0:0:
109,192,79206,1,0,0:0:0:0:
256,192,79373,1,0,0:0:0:0:
475,192,79539,1,0,0:0:0:0:
182,192,79539,1,0,0:0:0:0:
329,192,79706,1,0,0:0:0:0:
256,192,79873,1,0,0:0:0:0:
36,192,79873,1,0,0:0:0:0:
109,192,79873,1,0,0:0:0:0:
182,192,80039,1,0,0:0:0:0:
36,192,80206,1,0,0:0:0:0:
475,192,80206,1,0,0:0:0:0:
109,192,80289,1,0,0:0:0:0:
402,192,80289,1,0,0:0:0:0:
182,192,80373,1,0,0:0:0:0:
329,192,80373,1,0,0:0:0:0:
109,192,80456,1,0,0:0:0:0:
402,192,80456,1,0,0:0:0:0:
36,192,80539,1,0,0:0:0:0:
475,192,80539,1,0,0:0:0:0:
256,192,80706,1,0,0:0:0:0:
109,192,80873,1,0,0:0:0:0:
182,192,80873,1,0,0:0:0:0:
402,192,80873,1,0,0:0:0:0:
475,192,80873,1,0,0:0:0:0:
36,192,81039,1,0,0:0:0:0:
256,192,81039,1,0,0:0:0:0:
329,192,81039,1,0,0:0:0:0:
109,192,81206,1,0,0:0:0:0:
402,192,81206,1,0,0:0:0:0:
475,192,81206,1,0,0:0:0:0:
329,192,81373,1,0,0:0:0:0:
182,192,81373,1,0,0:0:0:0:
36,192,81539,1,0,0:0:0:0:
109,192,81539,1,0,0:0:0:0:
402,192,81539,1,0,0:0:0:0:
475,192,81539,1,0,0:0:0:0:
256,192,81706,1,0,0:0:0:0:
182,192,81706,1,0,0:0:0:0:
109,192,81873,1,0,0:0:0:0:
329,192,81873,1,0,0:0:0:0:
182,192,82039,1,0,0:0:0:0:
402,192,82039,1,0,0:0:0:0:
36,192,82206,1,0,0:0:0:0:
109,192,82206,1,0,0:0:0:0:
329,192,82206,1,0,0:0:0:0:
475,192,82206,1,0,0:0:0:0:
256,192,82373,1,0,0:0:0:0:
182,192,82373,1,0,0:0:0:0:
109,192,82539,1,0,0:0:0:0:
36,192,82539,1,0,0:0:0:0:
475,192,82539,1,0,0:0:0:0:
402,192,82539,1,0,0:0:0:0:
256,192,82706,1,0,0:0:0:0:
329,192,82706,1,0,0:0:0:0:
36,192,82873,1,0,0:0:0:0:
475,192,82873,1,0,0:0:0:0:
182,192,82956,1,0,0:0:0:0:
329,192,82956,1,0,0:0:0:0:
36,192,83039,1,0,0:0:0:0:
475,192,83039,1,0,0:0:0:0:
109,192,83123,1,0,0:0:0:0:
402,192,83123,1,0,0:0:0:0:
256,192,83206,5,0,0:0:0:0:
329,192,83206,1,0,0:0:0:0:
182,192,83206,1,0,0:0:0:0:
402,192,83289,1,0,0:0:0:0:
109,192,83289,1,0,0:0:0:0:
182,192,83373,1,0,0:0:0:0:
329,192,83373,1,0,0:0:0:0:
109,192,83456,1,0,0:0:0:0:
402,192,83456,1,0,0:0:0:0:
475,192,83539,1,0,0:0:0:0:
329,192,83539,1,0,0:0:0:0:
36,192,83539,128,0,83873:0:0:0:0:
182,192,83539,128,0,83873:0:0:0:0:
402,192,83873,1,0,0:0:0:0:
256,192,83873,1,0,0:0:0:0:
109,192,83873,128,0,84206:0:0:0:0:
329,192,84039,128,0,84206:0:0:0:0:
182,192,84206,128,0,84539:0:0:0:0:
402,192,84206,128,0,84539:0:0:0:0:
36,192,84206,1,0,0:0:0:0:
256,192,84539,128,0,84873:0:0:0:0:
109,192,84539,1,0,0:0:0:0:
475,192,84539,1,0,0:0:0:0:
329,192,84706,128,0,84873:0:0:0:0:
36,192,84873,1,0,0:0:0:0:
475,192,84873,1,0,0:0:0:0:
402,192,84873,128,0,85206:0:0:0:0:
182,192,84873,128,0,85206:0:0:0:0:
109,192,85206,128,0,85539:0:0:0:0:
329,192,85206,128,0,85539:0:0:0:0:
36,192,85206,1,0,0:0:0:0:
475,192,85206,1,0,0:0:0:0:
256,192,85539,128,0,85873:0:0:0:0:
36,192,85539,128,0,85873:0:0:0:0:
402,192,85539,1,0,0:0:0:0:
475,192,85873,1,0,0:0:0:0:
109,192,85873,1,0,0:0:0:0:
182,192,85873,128,0,86206:0:0:0:0:
329,192,85873,128,0,86206:0:0:0:0:
256,192,86206,128,0,86539:0:0:0:0:
402,192,86206,128,0,86539:0:0:0:0:
36,192,86206,1,0,0:0:0:0:
109,192,86206,1,0,0:0:0:0:
329,192,86539,128,0,86873:0:0:0:0:
475,192,86539,128,0,86873:0:0:0:0:
182,192,86539,1,0,0:0:0:0:
36,192,86539,1,0,0:0:0:0:
182,192,86873,128,0,87206:0:0:0:0:
402,192,86873,128,0,87206:0:0:0:0:
36,192,86873,1,0,0:0:0:0:
256,192,87039,128,0,87206:0:0:0:0:
109,192,87206,128,0,87706:0:0:0:0:
329,192,87206,128,0,87539:0:0:0:0:
475,192,87206,1,0,0:0:0:0:
36,192,87206,1,0,0:0:0:0:
182,192,87373,128,0,87539:0:0:0:0:
36,192,87539,1,0,0:0:0:0:
475,192,87539,1,0,0:0:0:0:
256,192,87539,128,0,87706:0:0:0:0:
402,192,87539,128,0,87873:0:0:0:0:
182,192,87706,128,0,87873:0:0:0:0:
109,192,87873,128,0,88206:0:0:0:0:
329,192,87873,128,0,88206:0:0:0:0:
475,192,87873,1,0,0:0:0:0:
256,192,88206,128,0,88539:0:0:0:0:
36,192,88206,128,0,88373:0:0:0:0:
402,192,88206,1,0,0:0:0:0:
182,192,88206,1,0,0:0:0:0:
475,192,88539,1,0,0:0:0:0:
36,192,88539,1,0,0:0:0:0:
109,192,88539,128,0,88706:0:0:0:0:
329,192,88539,128,0,88706:0:0:0:0:
182,192,88706,128,0,88873:0:0:0:0:
402,192,88706,128,0,88873:0:0:0:0:
36,192,88873,1,0,0:0:0:0:
329,192,88873,1,0,0:0:0:0:
256,192,88873,128,0,89206:0:0:0:0:
475,192,88873,128,0,89206:0:0:0:0:
402,192,89206,1,0,0:0:0:0:
36,192,89206,1,0,0:0:0:0:
182,192,89206,128,0,89539:0:0:0:0:
329,192,89373,128,0,89539:0:0:0:0:
256,192,89539,128,0,89873:0:0:0:0:
402,192,89539,128,0,89873:0:0:0:0:
109,192,89539,1,0,0:0:0:0:
329,192,89873,128,0,90206:0:0:0:0:
475,192,89873,1,0,0:0:0:0:
109,192,89873,1,0,0:0:0:0:
36,192,89873,1,0,0:0:0:0:
182,192,90039,128,0,90206:0:0:0:0:
475,192,90206,128,0,90539:0:0:0:0:
36,192,90206,128,0,90539:0:0:0:0:
402,192,90206,1,0,0:0:0:0:
256,192,90206,1,0,0:0:0:0:
109,192,90539,128,0,90873:0:0:0:0:
402,192,90539,128,0,90873:0:0:0:0:
329,192,90539,1,0,0:0:0:0:
182,192,90539,1,0,0:0:0:0:
329,192,90873,128,0,91206:0:0:0:0:
182,192,90873,128,0,91206:0:0:0:0:
475,192,90873,1,0,0:0:0:0:
475,192,91206,128,0,91539:0:0:0:0:
256,192,91206,128,0,91373:0:0:0:0:
36,192,91206,1,0,0:0:0:0:
109,192,91206,1,0,0:0:0:0:
329,192,91373,128,0,91539:0:0:0:0:
36,192,91539,1,0,0:0:0:0:
402,192,91539,128,0,91873:0:0:0:0:
182,192,91539,128,0,91873:0:0:0:0:
109,192,91539,1,0,0:0:0:0:
256,192,91873,128,0,92206:0:0:0:0:
475,192,91873,128,0,92206:0:0:0:0:
109,192,91873,1,0,0:0:0:0:
36,192,91873,1,0,0:0:0:0:
329,192,92039,128,0,92373:0:0:0:0:
182,192,92206,128,0,92539:0:0:0:0:
402,192,92206,128,0,92539:0:0:0:0:
36,192,92206,1,0,0:0:0:0:
256,192,92373,128,0,92706:0:0:0:0:
109,192,92539,128,0,92873:0:0:0:0:
329,192,92539,128,0,92873:0:0:0:0:
36,192,92539,1,0,0:0:0:0:
475,192,92539,1,0,0:0:0:0:
182,192,92706,128,0,93039:0:0:0:0:
36,192,92873,128,0,93039:0:0:0:0:
256,192,92873,1,0,0:0:0:0:
402,192,92873,1,0,0:0:0:0:
109,192,93039,128,0,93206:0:0:0:0:
182,192,93206,128,0,93539:0:0:0:0:
329,192,93206,128,0,93539:0:0:0:0:
475,192,93206,1,0,0:0:0:0:
36,192,93206,1,0,0:0:0:0:
402,192,93539,1,0,0:0:0:0:
256,192,93539,1,0,0:0:0:0:
475,192,93539,1,0,0:0:0:0:
109,192,93623,1,0,0:0:0:0:
36,192,93623,1,0,0:0:0:0:
329,192,93706,1,0,0:0:0:0:
475,192,93706,1,0,0:0:0:0:
182,192,93789,1,0,0:0:0:0:
109,192,93789,1,0,0:0:0:0:
402,192,93873,1,0,0:0:0:0:
36,192,93873,1,0,0:0:0:0:
329,192,93873,1,0,0:0:0:0:
182,192,93956,1,0,0:0:0:0:
256,192,93956,1,0,0:0:0:0:
475,192,94039,1,0,0:0:0:0:
109,192,94039,1,0,0:0:0:0:
182,192,94123,1,0,0:0:0:0:
256,192,94123,1,0,0:0:0:0:
475,192,94206,5,0,0:0:0:0:
36,192,94206,128,0,94539:0:0:0:0:
109,192,94206,1,0,0:0:0:0:
329,192,94206,1,0,0:0:0:0:
182,192,94373,128,0,94539:0:0:0:0:
402,192,94373,1,0,0:0:0:0:
329,192,94373,1,0,0:0:0:0:
256,192,94456,1,0,0:0:0:0:
109,192,94539,1,0,0:0:0:0:
402,192,94539,1,0,0:0:0:0:
475,192,94539,128,0,94873:0:0:0:0:
36,192,94706,1,0,0:0:0:0:
182,192,94706,1,0,0:0:0:0:
329,192,94706,128,0,94873:0:0:0:0:
256,192,94873,1,0,0:0:0:0:
109,192,94873,1,0,0:0:0:0:
182,192,94873,128,0,95206:0:0:0:0:
36,192,95039,128,0,95206:0:0:0:0:
402,192,95039,1,0,0:0:0:0:
475,192,95039,1,0,0:0:0:0:
256,192,95123,1,0,0:0:0:0:
109,192,95206,1,0,0:0:0:0:
402,192,95206,1,0,0:0:0:0:
329,192,95206,128,0,95539:0:0:0:0:
36,192,95373,1,0,0:0:0:0:
256,192,95373,1,0,0:0:0:0:
475,192,95373,128,0,95539:0:0:0:0:
402,192,95539,1,0,0:0:0:0:
182,192,95539,1,0,0:0:0:0:
36,192,95539,128,0,95873:0:0:0:0:
329,192,95706,1,0,0:0:0:0:
182,192,95706,128,0,96039:0:0:0:0:
402,192,95789,1,0,0:0:0:0:
109,192,95873,1,0,0:0:0:0:
475,192,95873,1,0,0:0:0:0:
329,192,95873,128,0,96206:0:0:0:0:
36,192,96039,1,0,0:0:0:0:
256,192,96039,1,0,0:0:0:0:
475,192,96039,128,0,96373:0:0:0:0:
109,192,96206,1,0,0:0:0:0:
402,192,96206,1,0,0:0:0:0:
256,192,96206,128,0,96539:0:0:0:0:
329,192,96373,1,0,0:0:0:0:
182,192,96373,1,0,0:0:0:0:
109,192,96456,1,0,0:0:0:0:
475,192,96539,1,0,0:0:0:0:
36,192,96539,1,0,0:0:0:0:
402,192,96539,128,0,96873:0:0:0:0:
182,192,96706,1,0,0:0:0:0:
329,192,96706,1,0,0:0:0:0:
109,192,96706,128,0,96873:0:0:0:0:
256,192,96873,1,0,0:0:0:0:
36,192,96873,128,0,97206:0:0:0:0:
475,192,96873,1,0,0:0:0:0:
109,192,97039,1,0,0:0:0:0:
402,192,97039,1,0,0:0:0:0:
182,192,97123,1,0,0:0:0:0:
329,192,97123,1,0,0:0:0:0:
475,192,97206,128,0,97539:0:0:0:0:
256,192,97206,1,0,0:0:0:0:
109,192,97206,1,0,0:0:0:0:
329,192,97373,1,0,0:0:0:0:
182,192,97373,1,0,0:0:0:0:
36,192,97373,1,0,0:0:0:0:
182,192,97539,128,0,97873:0:0:0:0:
402,192,97539,1,0,0:0:0:0:
36,192,97539,1,0,0:0:0:0:
329,192,97623,1,0,0:0:0:0:
109,192,97623,1,0,0:0:0:0:
256,192,97706,1,0,0:0:0:0:
475,192,97706,1,0,0:0:0:0:
402,192,97789,1,0,0:0:0:0:
36,192,97789,1,0,0:0:0:0:
329,192,97873,128,0,98206:0:0:0:0:
109,192,97873,1,0,0:0:0:0:
256,192,97873,1,0,0:0:0:0:
182,192,98039,1,0,0:0:0:0:
475,192,98039,1,0,0:0:0:0:
36,192,98206,128,0,98706:0:0:0:0:
402,192,98206,1,0,0:0:0:0:
109,192,98206,128,0,98289:0:0:0:0:
182,192,98289,128,0,98373:0:0:0:0:
256,192,98373,128,0,98456:0:0:0:0:
475,192,98373,1,0,0:0:0:0:
109,192,98456,1,0,0:0:0:0:
329,192,98456,128,0,98539:0:0:0:0:
182,192,98539,1,0,0:0:0:0:
402,192,98539,128,0,98623:0:0:0:0:
256,192,98623,128,0,98706:0:0:0:0:
475,192,98706,128,0,99206:0:0:0:0:
402,192,98706,128,0,98789:0:0:0:0:
109,192,98706,1,0,0:0:0:0:
329,192,98789,128,0,98873:0:0:0:0:
256,192,98873,128,0,98956:0:0:0:0:
36,192,98873,1,0,0:0:0:0:
182,192,98956,128,0,99039:0:0:0:0:
109,192,99039,128,0,99123:0:0:0:0:
402,192,99039,1,0,0:0:0:0:
36,192,99123,128,0,99206:0:0:0:0:
329,192,99123,1,0,0:0:0:0:
182,192,99206,1,0,0:0:0:0:
256,192,99206,128,0,99262:0:0:0:0:
329,192,99262,128,0,99317:0:0:0:0:
402,192,99317,128,0,99373:0:0:0:0:
475,192,99373,128,0,99428:0:0:0:0:
182,192,99428,128,0,99484:0:0:0:0:
109,192,99484,128,0,99539:0:0:0:0:
329,192,99539,1,0,0:0:0:0:
475,192,99539,1,0,0:0:0:0:
256,192,99539,1,0,0:0:0:0:
36,192,99539,128,0,99873:0:0:0:0:
182,192,99706,128,0,99873:0:0:0:0:
402,192,99706,1,0,0:0:0:0:
329,192,99706,1,0,0:0:0:0:
256,192,99789,1,0,0:0:0:0:
402,192,99873,1,0,0:0:0:0:
475,192,99873,128,0,100206:0:0:0:0:
109,192,99873,1,0,0:0:0:0:
329,192,100039,128,0,100206:0:0:0:0:
36,192,100039,1,0,0:0:0:0:
182,192,100039,1,0,0:0:0:0:
109,192,100206,128,0,100539:0:0:0:0:
256,192,100206,1,0,0:0:0:0:
182,192,100206,1,0,0:0:0:0:
256,192,100373,128,0,100539:0:0:0:0:
475,192,100373,1,0,0:0:0:0:
402,192,100373,1,0,0:0:0:0:
329,192,100456,1,0,0:0:0:0:
402,192,100539,128,0,100873:0:0:0:0:
182,192,100539,1,0,0:0:0:0:
36,192,100539,1,0,0:0:0:0:
256,192,100706,128,0,100873:0:0:0:0:
182,192,100706,1,0,0:0:0:0:
36,192,100873,128,0,101039:0:0:0:0:
109,192,100873,128,0,100956:0:0:0:0:
329,192,100873,1,0,0:0:0:0:
475,192,101039,128,0,101206:0:0:0:0:
402,192,101039,128,0,101123:0:0:0:0:
329,192,101039,1,0,0:0:0:0:
256,192,101123,1,0,0:0:0:0:
36,192,101206,128,0,101373:0:0:0:0:
182,192,101206,128,0,101289:0:0:0:0:
402,192,101206,1,0,0:0:0:0:
475,192,101373,128,0,101539:0:0:0:0:
329,192,101373,128,0,101456:0:0:0:0:
109,192,101373,1,0,0:0:0:0:
109,192,101539,128,0,101873:0:0:0:0:
256,192,101539,128,0,101623:0:0:0:0:
402,192,101539,1,0,0:0:0:0:
182,192,101706,1,0,0:0:0:0:
475,192,101706,1,0,0:0:0:0:
256,192,101789,1,0,0:0:0:0:
402,192,101873,128,0,102206:0:0:0:0:
329,192,101873,1,0,0:0:0:0:
36,192,101873,1,0,0:0:0:0:
256,192,102039,128,0,102206:0:0:0:0:
109,192,102039,1,0,0:0:0:0:
475,192,102039,1,0,0:0:0:0:
329,192,102206,1,0,0:0:0:0:
182,192,102206,1,0,0:0:0:0:
36,192,102206,128,0,102539:0:0:0:0:
256,192,102289,1,0,0:0:0:0:
329,192,102373,1,0,0:0:0:0:
109,192,102373,1,0,0:0:0:0:
402,192,102456,1,0,0:0:0:0:
182,192,102456,1,0,0:0:0:0:
475,192,102539,128,0,102873:0:0:0:0:
256,192,102539,1,0,0:0:0:0:
182,192,102623,1,0,0:0:0:0:
402,192,102706,1,0,0:0:0:0:
36,192,102706,1,0,0:0:0:0:
109,192,102706,1,0,0:0:0:0:
329,192,102789,1,0,0:0:0:0:
109,192,102873,128,0,103206:0:0:0:0:
256,192,102873,1,0,0:0:0:0:
36,192,102873,1,0,0:0:0:0:
182,192,102956,1,0,0:0:0:0:
475,192,102956,1,0,0:0:0:0:
402,192,103039,1,0,0:0:0:0:
329,192,103039,1,0,0:0:0:0:
36,192,103123,1,0,0:0:0:0:
256,192,103123,1,0,0:0:0:0:
402,192,103206,128,0,103539:0:0:0:0:
475,192,103206,1,0,0:0:0:0:
182,192,103206,1,0,0:0:0:0:
256,192,103289,1,0,0:0:0:0:
109,192,103373,1,0,0:0:0:0:
329,192,103373,1,0,0:0:0:0:
182,192,103456,1,0,0:0:0:0:
256,192,103539,1,0,0:0:0:0:
475,192,103539,128,0,103623:0:0:0:0:
36,192,103539,128,0,104039:0:0:0:0:
402,192,103623,128,0,103706:0:0:0:0:
329,192,103706,128,0,103789:0:0:0:0:
109,192,103706,1,0,0:0:0:0:
475,192,103789,1,0,0:0:0:0:
182,192,103789,128,0,103873:0:0:0:0:
256,192,103873,128,0,103956:0:0:0:0:
402,192,103873,1,0,0:0:0:0:
329,192,103956,128,0,104039:0:0:0:0:
109,192,104039,128,0,104123:0:0:0:0:
475,192,104039,128,0,104206:0:0:0:0:
182,192,104039,1,0,0:0:0:0:
256,192,104123,128,0,104206:0:0:0:0:
182,192,104206,128,0,104289:0:0:0:0:
36,192,104206,128,0,104289:0:0:0:0:
329,192,104289,128,0,104373:0:0:0:0:
402,192,104289,128,0,104373:0:0:0:0:
256,192,104373,128,0,104456:0:0:0:0:
109,192,104373,128,0,104456:0:0:0:0:
402,192,104456,128,0,104539:0:0:0:0:
475,192,104456,128,0,104539:0:0:0:0:
329,192,104539,128,0,104623:0:0:0:0:
182,192,104539,128,0,104623:0:0:0:0:
109,192,104623,128,0,104706:0:0:0:0:
36,192,104623,128,0,104706:0:0:0:0:
256,192,104706,128,0,104789:0:0:0:0:
402,192,104706,128,0,104789:0:0:0:0:
182,192,104789,128,0,104873:0:0:0:0:
36,192,104789,128,0,104873:0:0:0:0:
109,192,104873,5,0,0:0:0:0:
475,192,104873,1,0,0:0:0:0:
329,192,104873,1,0,0:0:0:0:
256,192,104873,128,0,105123:0:0:0:0:
475,192,105123,1,0,0:0:0:0:
402,192,105164,1,0,0:0:0:0:
329,192,105206,1,0,0:0:0:0:
256,192,105206,1,0,0:0:0:0:
36,192,105206,1,0,0:0:0:0:
109,192,105289,1,0,0:0:0:0:
182,192,105373,1,0,0:0:0:0:
109,192,105456,1,0,0:0:0:0:
36,192,105539,1,0,0:0:0:0:
256,192,105539,1,0,0:0:0:0:
329,192,105706,1,0,0:0:0:0:
402,192,105789,1,0,0:0:0:0:
475,192,105873,1,0,0:0:0:0:
182,192,105873,1,0,0:0:0:0:
256,192,106039,1,0,0:0:0:0:
475,192,106039,1,0,0:0:0:0:
109,192,106206,1,0,0:0:0:0:
402,192,106206,1,0,0:0:0:0:
329,192,106289,1,0,0:0:0:0:
256,192,106373,1,0,0:0:0:0:
182,192,106456,1,0,0:0:0:0:
36,192,106539,1,0,0:0:0:0:
109,192,106539,1,0,0:0:0:0:
402,192,106539,1,0,0:0:0:0:
329,192,106623,1,0,0:0:0:0:
256,192,106706,1,0,0:0:0:0:
182,192,106789,1,0,0:0:0:0:
109,192,106873,1,0,0:0:0:0:
475,192,106873,1,0,0:0:0:0:
402,192,106956,1,0,0:0:0:0:
329,192,107039,1,0,0:0:0:0:
402,192,107123,1,0,0:0:0:0:
475,192,107206,1,0,0:0:0:0:
256,192,107206,128,0,107539:0:0:0:0:
36,192,107539,1,0,0:0:0:0:
402,192,107539,1,0,0:0:0:0:
109,192,107623,1,0,0:0:0:0:
182,192,107706,128,0,107873:0:0:0:0:
256,192,107873,1,0,0:0:0:0:
475,192,107873,1,0,0:0:0:0:
36,192,107873,1,0,0:0:0:0:
402,192,107956,1,0,0:0:0:0:
329,192,108039,1,0,0:0:0:0:
256,192,108123,1,0,0:0:0:0:
402,192,108206,1,0,0:0:0:0:
182,192,108206,1,0,0:0:0:0:
475,192,108289,1,0,0:0:0:0:
36,192,108373,1,0,0:0:0:0:
109,192,108456,1,0,0:0:0:0:
182,192,108539,1,0,0:0:0:0:
256,192,108539,1,0,0:0:0:0:
475,192,108539,1,0,0:0:0:0:
402,192,108623,1,0,0:0:0:0:
329,192,108706,1,0,0:0:0:0:
256,192,108789,1,0,0:0:0:0:
402,192,108873,1,0,0:0:0:0:
182,192,108873,1,0,0:0:0:0:
109,192,109039,1,0,0:0:0:0:
182,192,109123,1,0,0:0:0:0:
109,192,109206,1,0,0:0:0:0:
256,192,109206,1,0,0:0:0:0:
329,192,109206,1,0,0:0:0:0:
329,192,109373,1,0,0:0:0:0:
182,192,109373,1,0,0:0:0:0:
475,192,109539,1,0,0:0:0:0:
36,192,109539,1,0,0:0:0:0:
402,192,109623,1,0,0:0:0:0:
329,192,109706,1,0,0:0:0:0:
256,192,109789,1,0,0:0:0:0:
402,192,109873,1,0,0:0:0:0:
182,192,109873,1,0,0:0:0:0:
109,192,109873,1,0,0:0:0:0:
329,192,109956,1,0,0:0:0:0:
256,192,110039,1,0,0:0:0:0:
182,192,110123,1,0,0:0:0:0:
109,192,110206,1,0,0:0:0:0:
36,192,110206,1,0,0:0:0:0:
402,192,110206,1,0,0:0:0:0:
329,192,110206,1,0,0:0:0:0:
329,192,110373,1,0,0:0:0:0:
256,192,110373,1,0,0:0:0:0:
256,192,110539,1,0,0:0:0:0:
329,192,110539,1,0,0:0:0:0:
182,192,110539,1,0,0:0:0:0:
109,192,110539,1,0,0:0:0:0:
402,192,110706,1,0,0:0:0:0:
475,192,110706,1,0,0:0:0:0:
36,192,110873,1,0,0:0:0:0:
109,192,110873,1,0,0:0:0:0:
182,192,110873,1,0,0:0:0:0:
256,192,111039,1,0,0:0:0:0:
329,192,111039,1,0,0:0:0:0:
182,192,111206,1,0,0:0:0:0:
109,192,111206,1,0,0:0:0:0:
402,192,111206,1,0,0:0:0:0:
475,192,111206,1,0,0:0:0:0:
109,192,111373,1,0,0:0:0:0:
182,192,111373,1,0,0:0:0:0:
36,192,111539,1,0,0:0:0:0:
329,192,111539,1,0,0:0:0:0:
256,192,111539,128,0,112206:0:0:0:0:
109,192,111873,128,0,111956:0:0:0:0:
36,192,111873,1,0,0:0:0:0:
182,192,111956,128,0,112039:0:0:0:0:
402,192,112039,128,0,112123:0:0:0:0:
475,192,112039,1,0,0:0:0:0:
329,192,112123,128,0,112206:0:0:0:0:
109,192,112206,128,0,112373:0:0:0:0:
36,192,112206,1,0,0:0:0:0:
182,192,112289,1,0,0:0:0:0:
402,192,112373,128,0,112539:0:0:0:0:
256,192,112373,1,0,0:0:0:0:
329,192,112456,1,0,0:0:0:0:
475,192,112539,1,0,0:0:0:0:
182,192,112539,1,0,0:0:0:0:
256,192,112623,1,0,0:0:0:0:
329,192,112706,1,0,0:0:0:0:
402,192,112789,1,0,0:0:0:0:
36,192,112873,1,0,0:0:0:0:
256,192,112873,1,0,0:0:0:0:
329,192,112873,1,0,0:0:0:0:
475,192,112873,128,0,113206:0:0:0:0:
109,192,112956,1,0,0:0:0:0:
182,192,113039,1,0,0:0:0:0:
256,192,113123,1,0,0:0:0:0:
182,192,113206,1,0,0:0:0:0:
402,192,113206,1,0,0:0:0:0:
329,192,113206,128,0,113539:0:0:0:0:
109,192,113289,1,0,0:0:0:0:
36,192,113373,1,0,0:0:0:0:
256,192,113456,1,0,0:0:0:0:
475,192,113539,1,0,0:0:0:0:
182,192,113539,1,0,0:0:0:0:
109,192,113539,1,0,0:0:0:0:
36,192,113539,128,0,113873:0:0:0:0:
402,192,113623,1,0,0:0:0:0:
329,192,113706,5,0,0:0:0:0:
256,192,113789,1,0,0:0:0:0:
329,192,113873,1,0,0:0:0:0:
109,192,113873,1,0,0:0:0:0:
182,192,113873,128,0,114206:0:0:0:0:
402,192,113956,1,0,0:0:0:0:
475,192,114039,1,0,0:0:0:0:
256,192,114123,1,0,0:0:0:0:
402,192,114206,1,0,0:0:0:0:
475,192,114206,1,0,0:0:0:0:
36,192,114206,1,0,0:0:0:0:
109,192,114206,1,0,0:0:0:0:
109,192,114539,1,0,0:0:0:0:
182,192,114539,1,0,0:0:0:0:
329,192,114539,1,0,0:0:0:0:
402,192,114539,1,0,0:0:0:0:
402,192,114873,5,0,0:0:0:0:
36,192,114873,1,0,0:0:0:0:
329,192,114873,1,0,0:0:0:0:
475,192,114873,1,0,0:0:0:0:
109,192,114956,1,0,0:0:0:0:
182,192,114956,1,0,0:0:0:0:
256,192,115039,1,0,0:0:0:0:
329,192,115039,1,0,0:0:0:0:
402,192,115123,1,0,0:0:0:0:
475,192,115123,1,0,0:0:0:0:
256,192,115206,1,0,0:0:0:0:
109,192,115206,1,0,0:0:0:0:
36,192,115206,1,0,0:0:0:0:
182,192,115206,1,0,0:0:0:0:
329,192,115373,1,0,0:0:0:0:
402,192,115539,1,0,0:0:0:0:
475,192,115539,1,0,0:0:0:0:
109,192,115539,1,0,0:0:0:0:
329,192,115539,1,0,0:0:0:0:
182,192,115539,1,0,0:0:0:0:
36,192,115623,1,0,0:0:0:0:
109,192,115706,1,0,0:0:0:0:
182,192,115789,1,0,0:0:0:0:
256,192,115873,1,0,0:0:0:0:
475,192,115873,1,0,0:0:0:0:
402,192,115873,1,0,0:0:0:0:
329,192,115956,1,0,0:0:0:0:
256,192,116039,1,0,0:0:0:0:
182,192,116123,1,0,0:0:0:0:
109,192,116206,1,0,0:0:0:0:
402,192,116206,1,0,0:0:0:0:
475,192,116206,1,0,0:0:0:0:
329,192,116289,1,0,0:0:0:0:
256,192,116373,1,0,0:0:0:0:
36,192,116373,1,0,0:0:0:0:
109,192,116456,1,0,0:0:0:0:
182,192,116539,1,0,0:0:0:0:
256,192,116539,1,0,0:0:0:0:
475,192,116539,1,0,0:0:0:0:
402,192,116623,1,0,0:0:0:0:
329,192,116706,1,0,0:0:0:0:
109,192,116706,1,0,0:0:0:0:
182,192,116789,1,0,0:0:0:0:
256,192,116873,1,0,0:0:0:0:
36,192,116873,1,0,0:0:0:0:
475,192,116873,1,0,0:0:0:0:
402,192,116956,1,0,0:0:0:0:
329,192,117039,1,0,0:0:0:0:
256,192,117123,1,0,0:0:0:0:
109,192,117206,1,0,0:0:0:0:
182,192,117206,1,0,0:0:0:0:
36,192,117289,1,0,0:0:0:0:
329,192,117373,1,0,0:0:0:0:
256,192,117373,1,0,0:0:0:0:
182,192,117456,1,0,0:0:0:0:
329,192,117539,1,0,0:0:0:0:
402,192,117539,1,0,0:0:0:0:
256,192,117623,1,0,0:0:0:0:
182,192,117706,1,0,0:0:0:0:
475,192,117706,1,0,0:0:0:0:
402,192,117789,1,0,0:0:0:0:
329,192,117873,1,0,0:0:0:0:
36,192,117873,1,0,0:0:0:0:
109,192,117873,1,0,0:0:0:0:
182,192,117873,1,0,0:0:0:0:
256,192,117956,1,0,0:0:0:0:
329,192,118039,1,0,0:0:0:0:
182,192,118039,1,0,0:0:0:0:
109,192,118123,1,0,0:0:0:0:
36,192,118206,1,0,0:0:0:0:
402,192,118206,128,0,118456:0:0:0:0:
475,192,118206,128,0,118456:0:0:0:0:
182,192,118373,1,0,0:0:0:0:
256,192,118456,1,0,0:0:0:0:
329,192,118539,1,0,0:0:0:0:
36,192,118539,1,0,0:0:0:0:
182,192,118539,128,0,118789:0:0:0:0:
109,192,118539,128,0,118789:0:0:0:0:
256,192,118706,1,0,0:0:0:0:
329,192,118789,1,0,0:0:0:0:
256,192,118873,1,0,0:0:0:0:
402,192,118873,128,0,119123:0:0:0:0:
475,192,118873,128,0,119123:0:0:0:0:
329,192,119039,1,0,0:0:0:0:
256,192,119123,1,0,0:0:0:0:
182,192,119206,1,0,0:0:0:0:
329,192,119206,128,0,119456:0:0:0:0:
402,192,119206,128,0,119456:0:0:0:0:
475,192,119206,1,0,0:0:0:0:
256,192,119373,1,0,0:0:0:0:
182,192,119456,1,0,0:0:0:0:
256,192,119539,1,0,0:0:0:0:
36,192,119539,128,0,119789:0:0:0:0:
109,192,119539,128,0,119789:0:0:0:0:
475,192,119623,1,0,0:0:0:0:
329,192,119706,1,0,0:0:0:0:
402,192,119706,1,0,0:0:0:0:
256,192,119789,1,0,0:0:0:0:
182,192,119873,1,0,0:0:0:0:
109,192,119873,1,0,0:0:0:0:
36,192,119956,1,0,0:0:0:0:
402,192,120039,1,0,0:0:0:0:
475,192,120039,1,0,0:0:0:0:
109,192,120123,1,0,0:0:0:0:
182,192,120206,1,0,0:0:0:0:
329,192,120206,1,0,0:0:0:0:
256,192,120289,1,0,0:0:0:0:
182,192,120373,1,0,0:0:0:0:
402,192,120373,1,0,0:0:0:0:
109,192,120456,1,0,0:0:0:0:
36,192,120539,1,0,0:0:0:0:
475,192,120539,1,0,0:0:0:0:
256,192,120539,1,0,0:0:0:0:
329,192,120539,1,0,0:0:0:0:
402,192,120623,1,0,0:0:0:0:
329,192,120706,1,0,0:0:0:0:
182,192,120706,1,0,0:0:0:0:
256,192,120789,1,0,0:0:0:0:
182,192,120873,1,0,0:0:0:0:
109,192,120873,1,0,0:0:0:0:
402,192,120873,1,0,0:0:0:0:
329,192,120873,1,0,0:0:0:0:
36,192,120873,1,0,0:0:0:0:
475,192,120956,1,0,0:0:0:0:
402,192,121039,1,0,0:0:0:0:
329,192,121123,1,0,0:0:0:0:
256,192,121206,1,0,0:0:0:0:
109,192,121206,1,0,0:0:0:0:
36,192,121206,1,0,0:0:0:0:
475,192,121289,1,0,0:0:0:0:
402,192,121373,1,0,0:0:0:0:
329,192,121456,1,0,0:0:0:0:
256,192,121539,1,0,0:0:0:0:
475,192,121539,1,0,0:0:0:0:
109,192,121539,1,0,0:0:0:0:
182,192,121623,1,0,0:0:0:0:
256,192,121706,1,0,0:0:0:0:
36,192,121706,1,0,0:0:0:0:
329,192,121789,1,0,0:0:0:0:
402,192,121873,1,0,0:0:0:0:
109,192,121873,1,0,0:0:0:0:
182,192,121873,1,0,0:0:0:0:
475,192,121956,1,0,0:0:0:0:
402,192,122039,1,0,0:0:0:0:
36,192,122039,1,0,0:0:0:0:
329,192,122123,1,0,0:0:0:0:
256,192,122206,1,0,0:0:0:0:
109,192,122206,1,0,0:0:0:0:
182,192,122289,1,0,0:0:0:0:
109,192,122373,1,0,0:0:0:0:
36,192,122456,1,0,0:0:0:0:
402,192,122539,1,0,0:0:0:0:
475,192,122539,1,0,0:0:0:0:
256,192,122539,1,0,0:0:0:0:
182,192,122539,1,0,0:0:0:0:
109,192,122623,1,0,0:0:0:0:
402,192,122706,1,0,0:0:0:0:
329,192,122706,1,0,0:0:0:0:
36,192,122789,1,0,0:0:0:0:
329,192,122873,1,0,0:0:0:0:
256,192,122873,1,0,0:0:0:0:
182,192,122873,1,0,0:0:0:0:
109,192,122956,1,0,0:0:0:0:
402,192,123039,1,0,0:0:0:0:
475,192,123039,1,0,0:0:0:0:
36,192,123123,1,0,0:0:0:0:
329,192,123206,1,0,0:0:0:0:
109,192,123206,1,0,0:0:0:0:
256,192,123206,1,0,0:0:0:0:
182,192,123206,1,0,0:0:0:0:
475,192,123289,1,0,0:0:0:0:
329,192,123373,1,0,0:0:0:0:
402,192,123373,1,0,0:0:0:0:
256,192,123456,1,0,0:0:0:0:
182,192,123539,1,0,0:0:0:0:
109,192,123539,1,0,0:0:0:0:
402,192,123539,1,0,0:0:0:0:
329,192,123623,1,0,0:0:0:0:
36,192,123706,1,0,0:0:0:0:
109,192,123706,1,0,0:0:0:0:
475,192,123789,1,0,0:0:0:0:
182,192,123873,1,0,0:0:0:0:
256,192,123873,1,0,0:0:0:0:
402,192,123873,1,0,0:0:0:0:
329,192,123956,1,0,0:0:0:0:
36,192,124039,1,0,0:0:0:0:
109,192,124039,1,0,0:0:0:0:
256,192,124123,1,0,0:0:0:0:
109,192,124206,1,0,0:0:0:0:
182,192,124206,1,0,0:0:0:0:
329,192,124206,1,0,0:0:0:0:
402,192,124289,1,0,0:0:0:0:
182,192,124373,5,0,0:0:0:0:
109,192,124373,1,0,0:0:0:0:
36,192,124456,1,0,0:0:0:0:
256,192,124539,1,0,0:0:0:0:
329,192,124539,1,0,0:0:0:0:
402,192,124539,1,0,0:0:0:0:
475,192,124539,1,0,0:0:0:0:
182,192,124623,1,0,0:0:0:0:
36,192,124706,1,0,0:0:0:0:
109,192,124706,1,0,0:0:0:0:
475,192,124789,1,0,0:0:0:0:
329,192,124873,1,0,0:0:0:0:
402,192,124873,1,0,0:0:0:0:
182,192,124873,1,0,0:0:0:0:
256,192,124956,1,0,0:0:0:0:
329,192,125039,1,0,0:0:0:0:
402,192,125039,1,0,0:0:0:0:
109,192,125123,1,0,0:0:0:0:
256,192,125206,1,0,0:0:0:0:
182,192,125206,1,0,0:0:0:0:
475,192,125206,1,0,0:0:0:0:
36,192,125206,1,0,0:0:0:0:
402,192,125289,1,0,0:0:0:0:
109,192,125373,1,0,0:0:0:0:
182,192,125373,1,0,0:0:0:0:
329,192,125456,1,0,0:0:0:0:
36,192,125539,128,0,125706:0:0:0:0:
256,192,125539,1,0,0:0:0:0:
475,192,125623,1,0,0:0:0:0:
182,192,125706,128,0,125873:0:0:0:0:
109,192,125706,1,0,0:0:0:0:
402,192,125789,1,0,0:0:0:0:
329,192,125873,128,0,126039:0:0:0:0:
36,192,125873,1,0,0:0:0:0:
256,192,125956,1,0,0:0:0:0:
109,192,126039,1,0,0:0:0:0:
402,192,126123,1,0,0:0:0:0:
36,192,126206,1,0,0:0:0:0:
475,192,126206,128,0,127539:0:0:0:0:
182,192,126206,1,0,0:0:0:0:
256,192,126289,1,0,0:0:0:0:
109,192,126373,128,0,126456:0:0:0:0:
402,192,126373,1,0,0:0:0:0:
256,192,126456,128,0,126539:0:0:0:0:
36,192,126456,1,0,0:0:0:0:
402,192,126539,128,0,126623:0:0:0:0:
182,192,126539,1,0,0:0:0:0:
329,192,126623,1,0,0:0:0:0:
36,192,126706,128,0,126789:0:0:0:0:
109,192,126706,1,0,0:0:0:0:
182,192,126789,128,0,126873:0:0:0:0:
256,192,126789,1,0,0:0:0:0:
329,192,126873,128,0,126956:0:0:0:0:
402,192,126873,1,0,0:0:0:0:
36,192,126956,1,0,0:0:0:0:
402,192,127039,128,0,127206:0:0:0:0:
182,192,127039,1,0,0:0:0:0:
329,192,127123,1,0,0:0:0:0:
182,192,127206,128,0,127373:0:0:0:0:
256,192,127206,1,0,0:0:0:0:
36,192,127289,1,0,0:0:0:0:
329,192,127373,1,0,0:0:0:0:
109,192,127373,128,0,127539:0:0:0:0:
402,192,127456,1,0,0:0:0:0:
182,192,127539,128,0,128873:0:0:0:0:
36,192,127539,1,0,0:0:0:0:
329,192,127539,128,0,127706:0:0:0:0:
256,192,127623,1,0,0:0:0:0:
109,192,127706,128,0,127873:0:0:0:0:
402,192,127706,1,0,0:0:0:0:
36,192,127789,1,0,0:0:0:0:
475,192,127873,128,0,128039:0:0:0:0:
256,192,127873,1,0,0:0:0:0:
329,192,127873,1,0,0:0:0:0:
402,192,127956,1,0,0:0:0:0:
36,192,128039,1,0,0:0:0:0:
256,192,128039,128,0,128206:0:0:0:0:
329,192,128123,1,0,0:0:0:0:
109,192,128206,1,0,0:0:0:0:
475,192,128206,1,0,0:0:0:0:
329,192,128289,1,0,0:0:0:0:
36,192,128373,128,0,128539:0:0:0:0:
402,192,128373,1,0,0:0:0:0:
256,192,128456,1,0,0:0:0:0:
475,192,128539,128,0,128706:0:0:0:0:
109,192,128539,1,0,0:0:0:0:
402,192,128539,1,0,0:0:0:0:
329,192,128623,1,0,0:0:0:0:
402,192,128706,128,0,128873:0:0:0:0:
256,192,128706,1,0,0:0:0:0:
36,192,128789,1,0,0:0:0:0:
329,192,128873,128,0,129456:0:0:0:0:
109,192,128873,128,0,129039:0:0:0:0:
475,192,128873,1,0,0:0:0:0:
256,192,128956,1,0,0:0:0:0:
36,192,129039,128,0,129206:0:0:0:0:
182,192,129039,1,0,0:0:0:0:
475,192,129123,1,0,0:0:0:0:
402,192,129206,128,0,129373:0:0:0:0:
256,192,129206,1,0,0:0:0:0:
109,192,129289,1,0,0:0:0:0:
36,192,129373,128,0,129539:0:0:0:0:
182,192,129373,1,0,0:0:0:0:
256,192,129456,128,0,129539:0:0:0:0:
182,192,129539,128,0,130123:0:0:0:0:
402,192,129539,128,0,129706:0:0:0:0:
475,192,129623,1,0,0:0:0:0:
109,192,129706,128,0,129873:0:0:0:0:
329,192,129706,1,0,0:0:0:0:
36,192,129789,1,0,0:0:0:0:
402,192,129873,128,0,130039:0:0:0:0:
256,192,129873,1,0,0:0:0:0:
475,192,129873,1,0,0:0:0:0:
36,192,129956,1,0,0:0:0:0:
475,192,130039,128,0,130206:0:0:0:0:
329,192,130039,1,0,0:0:0:0:
109,192,130123,128,0,130206:0:0:0:0:
256,192,130123,1,0,0:0:0:0:
402,192,130206,1,0,0:0:0:0:
36,192,130206,128,0,131539:0:0:0:0:
182,192,130289,1,0,0:0:0:0:
329,192,130373,1,0,0:0:0:0:
182,192,130456,1,0,0:0:0:0:
475,192,130456,1,0,0:0:0:0:
402,192,130539,1,0,0:0:0:0:
109,192,130539,1,0,0:0:0:0:
329,192,130623,1,0,0:0:0:0:
256,192,130706,1,0,0:0:0:0:
182,192,130789,1,0,0:0:0:0:
475,192,130789,1,0,0:0:0:0:
109,192,130873,1,0,0:0:0:0:
402,192,130873,1,0,0:0:0:0:
329,192,130956,1,0,0:0:0:0:
182,192,131039,128,0,131206:0:0:0:0:
256,192,131039,1,0,0:0:0:0:
475,192,131039,1,0,0:0:0:0:
109,192,131123,1,0,0:0:0:0:
329,192,131206,128,0,131373:0:0:0:0:
402,192,131206,1,0,0:0:0:0:
256,192,131289,1,0,0:0:0:0:
109,192,131373,1,0,0:0:0:0:
402,192,131373,128,0,131539:0:0:0:0:
182,192,131456,1,0,0:0:0:0:
109,192,131539,1,0,0:0:0:0:
329,192,131539,1,0,0:0:0:0:
475,192,131539,128,0,132873:0:0:0:0:
182,192,131623,1,0,0:0:0:0:
256,192,131706,128,0,131789:0:0:0:0:
402,192,131706,1,0,0:0:0:0:
36,192,131789,1,0,0:0:0:0:
329,192,131789,128,0,131873:0:0:0:0:
402,192,131873,128,0,131956:0:0:0:0:
109,192,131873,1,0,0:0:0:0:
182,192,131956,1,0,0:0:0:0:
36,192,132039,128,0,132123:0:0:0:0:
256,192,132039,1,0,0:0:0:0:
109,192,132123,128,0,132206:0:0:0:0:
329,192,132123,1,0,0:0:0:0:
402,192,132206,1,0,0:0:0:0:
182,192,132206,128,0,132289:0:0:0:0:
256,192,132289,1,0,0:0:0:0:
36,192,132373,1,0,0:0:0:0:
402,192,132373,128,0,132539:0:0:0:0:
109,192,132456,1,0,0:0:0:0:
329,192,132539,128,0,132706:0:0:0:0:
182,192,132539,1,0,0:0:0:0:
36,192,132623,1,0,0:0:0:0:
109,192,132706,128,0,132873:0:0:0:0:
256,192,132706,1,0,0:0:0:0:
402,192,132789,1,0,0:0:0:0:
256,192,132873,128,0,133039:0:0:0:0:
182,192,132873,128,0,134206:0:0:0:0:
36,192,132873,1,0,0:0:0:0:
329,192,132873,1,0,0:0:0:0:
402,192,132956,1,0,0:0:0:0:
329,192,133039,1,0,0:0:0:0:
36,192,133039,128,0,133206:0:0:0:0:
109,192,133123,1,0,0:0:0:0:
329,192,133206,1,0,0:0:0:0:
475,192,133206,128,0,133373:0:0:0:0:
256,192,133206,1,0,0:0:0:0:
402,192,133289,1,0,0:0:0:0:
36,192,133373,1,0,0:0:0:0:
256,192,133373,128,0,133539:0:0:0:0:
329,192,133456,1,0,0:0:0:0:
109,192,133539,1,0,0:0:0:0:
475,192,133539,1,0,0:0:0:0:
329,192,133623,1,0,0:0:0:0:
36,192,133706,128,0,133873:0:0:0:0:
402,192,133706,1,0,0:0:0:0:
256,192,133789,1,0,0:0:0:0:
402,192,133873,1,0,0:0:0:0:
109,192,133873,1,0,0:0:0:0:
475,192,133873,128,0,134039:0:0:0:0:
329,192,133956,1,0,0:0:0:0:
256,192,134039,1,0,0:0:0:0:
402,192,134039,128,0,134206:0:0:0:0:
36,192,134123,1,0,0:0:0:0:
329,192,134206,128,0,135456:0:0:0:0:
256,192,134206,1,0,0:0:0:0:
109,192,134206,128,0,134373:0:0:0:0:
475,192,134289,1,0,0:0:0:0:
36,192,134373,128,0,134539:0:0:0:0:
182,192,134373,1,0,0:0:0:0:
256,192,134456,1,0,0:0:0:0:
475,192,134539,1,0,0:0:0:0:
402,192,134539,128,0,134706:0:0:0:0:
109,192,134539,1,0,0:0:0:0:
256,192,134623,1,0,0:0:0:0:
475,192,134706,128,0,134873:0:0:0:0:
182,192,134706,1,0,0:0:0:0:
36,192,134789,1,0,0:0:0:0:
402,192,134873,1,0,0:0:0:0:
109,192,134873,128,0,135039:0:0:0:0:
256,192,134956,1,0,0:0:0:0:
182,192,135039,128,0,135206:0:0:0:0:
475,192,135039,1,0,0:0:0:0:
402,192,135123,1,0,0:0:0:0:
36,192,135206,1,0,0:0:0:0:
256,192,135206,128,0,135373:0:0:0:0:
109,192,135289,1,0,0:0:0:0:
402,192,135373,128,0,135539:0:0:0:0:
36,192,135373,1,0,0:0:0:0:
182,192,135456,128,0,135539:0:0:0:0:
475,192,135539,128,0,135873:0:0:0:0:
36,192,135539,128,0,136873:0:0:0:0:
109,192,135539,1,0,0:0:0:0:
256,192,135623,1,0,0:0:0:0:
182,192,135706,1,0,0:0:0:0:
109,192,135789,1,0,0:0:0:0:
402,192,135873,128,0,136206:0:0:0:0:
329,192,135873,1,0,0:0:0:0:
256,192,135873,1,0,0:0:0:0:
182,192,135956,1,0,0:0:0:0:
109,192,136039,1,0,0:0:0:0:
256,192,136123,1,0,0:0:0:0:
182,192,136206,128,0,136539:0:0:0:0:
475,192,136206,1,0,0:0:0:0:
329,192,136206,1,0,0:0:0:0:
109,192,136289,1,0,0:0:0:0:
402,192,136373,1,0,0:0:0:0:
329,192,136456,1,0,0:0:0:0:
109,192,136539,128,0,136873:0:0:0:0:
475,192,136539,1,0,0:0:0:0:
256,192,136539,1,0,0:0:0:0:
402,192,136623,1,0,0:0:0:0:
329,192,136706,1,0,0:0:0:0:
256,192,136789,1,0,0:0:0:0:
182,192,136873,128,0,137206:0:0:0:0:
475,192,136873,1,0,0:0:0:0:
402,192,136873,1,0,0:0:0:0:
329,192,136956,1,0,0:0:0:0:
256,192,137039,1,0,0:0:0:0:
329,192,137123,1,0,0:0:0:0:
475,192,137206,1,0,0:0:0:0:
402,192,137206,1,0,0:0:0:0:
109,192,137206,1,0,0:0:0:0:
182,192,137289,1,0,0:0:0:0:
256,192,137373,128,0,137706:0:0:0:0:
402,192,137373,1,0,0:0:0:0:
182,192,137456,1,0,0:0:0:0:
475,192,137539,128,0,137873:0:0:0:0:
329,192,137539,1,0,0:0:0:0:
109,192,137539,1,0,0:0:0:0:
402,192,137623,1,0,0:0:0:0:
182,192,137706,128,0,138039:0:0:0:0:
36,192,137706,1,0,0:0:0:0:
256,192,137789,1,0,0:0:0:0:
402,192,137873,128,0,138206:0:0:0:0:
329,192,137873,1,0,0:0:0:0:
36,192,137873,1,0,0:0:0:0:
256,192,137956,1,0,0:0:0:0:
109,192,138039,128,0,138206:0:0:0:0:
475,192,138039,1,0,0:0:0:0:
182,192,138123,1,0,0:0:0:0:
329,192,138206,128,0,138539:0:0:0:0:
475,192,138206,128,0,138873:0:0:0:0:
36,192,138206,1,0,0:0:0:0:
256,192,138289,1,0,0:0:0:0:
36,192,138373,128,0,138456:0:0:0:0:
182,192,138373,128,0,138456:0:0:0:0:
402,192,138456,1,0,0:0:0:0:
109,192,138539,128,0,138623:0:0:0:0:
256,192,138539,128,0,138623:0:0:0:0:
36,192,138623,1,0,0:0:0:0:
182,192,138706,128,0,138789:0:0:0:0:
329,192,138706,128,0,138789:0:0:0:0:
109,192,138789,1,0,0:0:0:0:
36,192,138873,1,0,0:0:0:0:
256,192,138873,128,0,138956:0:0:0:0:
402,192,138873,128,0,138956:0:0:0:0:
182,192,138956,1,0,0:0:0:0:
256,192,139039,128,0,139373:0:0:0:0:
475,192,139039,1,0,0:0:0:0:
329,192,139123,1,0,0:0:0:0:
402,192,139206,128,0,139539:0:0:0:0:
182,192,139206,1,0,0:0:0:0:
36,192,139206,1,0,0:0:0:0:
109,192,139289,1,0,0:0:0:0:
329,192,139373,128,0,139873:0:0:0:0:
182,192,139373,1,0,0:0:0:0:
36,192,139456,1,0,0:0:0:0:
475,192,139539,128,0,139873:0:0:0:0:
109,192,139539,1,0,0:0:0:0:
256,192,139539,1,0,0:0:0:0:
182,192,139623,1,0,0:0:0:0:
109,192,139706,1,0,0:0:0:0:
256,192,139789,1,0,0:0:0:0:
182,192,139873,1,0,0:0:0:0:
402,192,139873,1,0,0:0:0:0:
36,192,139873,1,0,0:0:0:0:
329,192,139956,1,0,0:0:0:0:
256,192,140039,1,0,0:0:0:0:
109,192,140039,128,0,140206:0:0:0:0:
329,192,140123,1,0,0:0:0:0:
402,192,140206,1,0,0:0:0:0:
36,192,140206,1,0,0:0:0:0:
182,192,140206,128,0,140373:0:0:0:0:
329,192,140289,1,0,0:0:0:0:
475,192,140373,1,0,0:0:0:0:
256,192,140373,128,0,140539:0:0:0:0:
402,192,140456,1,0,0:0:0:0:
329,192,140539,1,0,0:0:0:0:
36,192,140539,1,0,0:0:0:0:
182,192,140539,128,0,140706:0:0:0:0:
402,192,140623,1,0,0:0:0:0:
475,192,140706,1,0,0:0:0:0:
109,192,140706,128,0,140873:0:0:0:0:
182,192,140789,1,0,0:0:0:0:
256,192,140873,1,0,0:0:0:0:
402,192,140873,1,0,0:0:0:0:
329,192,140873,1,0,0:0:0:0:
182,192,140956,1,0,0:0:0:0:
329,192,141039,1,0,0:0:0:0:
475,192,141039,1,0,0:0:0:0:
36,192,141039,1,0,0:0:0:0:
256,192,141123,1,0,0:0:0:0:
402,192,141123,1,0,0:0:0:0:
109,192,141123,1,0,0:0:0:0:
182,192,141206,1,0,0:0:0:0:
329,192,141206,1,0,0:0:0:0:
475,192,141206,1,0,0:0:0:0:
256,192,141289,1,0,0:0:0:0:
109,192,141289,1,0,0:0:0:0:
182,192,141373,1,0,0:0:0:0:
36,192,141373,1,0,0:0:0:0:
329,192,141456,1,0,0:0:0:0:
475,192,141456,1,0,0:0:0:0:
182,192,141539,1,0,0:0:0:0:
36,192,141539,1,0,0:0:0:0:
256,192,141539,1,0,0:0:0:0:
109,192,141873,1,0,0:0:0:0:
256,192,141873,1,0,0:0:0:0:
475,192,141873,1,0,0:0:0:0:
182,192,142206,1,0,0:0:0:0:
329,192,142206,1,0,0:0:0:0:
475,192,142206,1,0,0:0:0:0:
36,192,142206,1,0,0:0:0:0:
402,192,142539,1,0,0:0:0:0:
36,192,142539,1,0,0:0:0:0:
256,192,142539,1,0,0:0:0:0:
182,192,142706,1,0,0:0:0:0:
329,192,142706,1,0,0:0:0:0:
402,192,142789,1,0,0:0:0:0:
256,192,142873,1,0,0:0:0:0:
109,192,142873,1,0,0:0:0:0:
182,192,143039,1,0,0:0:0:0:
36,192,143039,1,0,0:0:0:0:
402,192,143206,1,0,0:0:0:0:
256,192,143206,1,0,0:0:0:0:
36,192,143206,1,0,0:0:0:0:
329,192,143373,1,0,0:0:0:0:
475,192,143373,1,0,0:0:0:0:
329,192,143706,1,0,0:0:0:0:
475,192,143706,1,0,0:0:0:0:
182,192,143789,1,0,0:0:0:0:
329,192,143873,1,0,0:0:0:0:
475,192,143873,1,0,0:0:0:0:
36,192,143873,1,0,0:0:0:0:
402,192,144039,1,0,0:0:0:0:
256,192,144039,1,0,0:0:0:0:
329,192,144206,1,0,0:0:0:0:
182,192,144206,1,0,0:0:0:0:
256,192,144373,1,0,0:0:0:0:
109,192,144373,1,0,0:0:0:0:
329,192,144456,1,0,0:0:0:0:
475,192,144456,1,0,0:0:0:0:
256,192,144539,1,0,0:0:0:0:
109,192,144539,1,0,0:0:0:0:
36,192,144539,1,0,0:0:0:0:
182,192,144706,1,0,0:0:0:0:
329,192,144706,1,0,0:0:0:0:
256,192,144873,1,0,0:0:0:0:
402,192,144873,1,0,0:0:0:0:
36,192,144873,1,0,0:0:0:0:
475,192,144873,1,0,0:0:0:0:
329,192,145039,128,0,145373:0:0:0:0:
256,192,145123,128,0,145373:0:0:0:0:
182,192,145206,128,0,145373:0:0:0:0:
36,192,145206,1,0,0:0:0:0:
475,192,145206,1,0,0:0:0:0:
402,192,145373,128,0,145539:0:0:0:0:
329,192,145539,1,0,0:0:0:0:
182,192,145539,1,0,0:0:0:0:
36,192,145539,1,0,0:0:0:0:
109,192,145706,128,0,146039:0:0:0:0:
256,192,145789,128,0,146039:0:0:0:0:
402,192,145873,128,0,146039:0:0:0:0:
36,192,145873,1,0,0:0:0:0:
475,192,145873,1,0,0:0:0:0:
182,192,146039,128,0,146206:0:0:0:0:
36,192,146206,5,0,0:0:0:0:
475,192,146206,1,0,0:0:0:0:
256,192,146206,1,0,0:0:0:0:
402,192,146206,1,0,0:0:0:0:
109,192,146289,1,0,0:0:0:0:
329,192,146289,1,0,0:0:0:0:
182,192,146373,1,0,0:0:0:0:
402,192,146373,1,0,0:0:0:0:
256,192,146456,1,0,0:0:0:0:
329,192,146539,1,0,0:0:0:0:
475,192,146539,1,0,0:0:0:0:
36,192,146539,1,0,0:0:0:0:
402,192,146539,1,0,0:0:0:0:
109,192,146623,1,0,0:0:0:0:
256,192,146623,1,0,0:0:0:0:
182,192,146706,1,0,0:0:0:0:
402,192,146706,1,0,0:0:0:0:
329,192,146789,1,0,0:0:0:0:
36,192,146873,1,0,0:0:0:0:
256,192,146873,1,0,0:0:0:0:
475,192,146873,1,0,0:0:0:0:
109,192,146873,1,0,0:0:0:0:
182,192,146956,1,0,0:0:0:0:
329,192,146956,1,0,0:0:0:0:
475,192,147039,1,0,0:0:0:0:
402,192,147039,1,0,0:0:0:0:
256,192,147123,1,0,0:0:0:0:
109,192,147206,1,0,0:0:0:0:
36,192,147206,1,0,0:0:0:0:
329,192,147206,1,0,0:0:0:0:
475,192,147206,1,0,0:0:0:0:
182,192,147373,1,0,0:0:0:0:
402,192,147373,1,0,0:0:0:0:
256,192,147539,1,0,0:0:0:0:
36,192,147539,1,0,0:0:0:0:
475,192,147539,1,0,0:0:0:0:
109,192,147539,1,0,0:0:0:0:
329,192,147623,1,0,0:0:0:0:
402,192,147706,1,0,0:0:0:0:
182,192,147706,1,0,0:0:0:0:
329,192,147789,1,0,0:0:0:0:
109,192,147789,1,0,0:0:0:0:
256,192,147873,1,0,0:0:0:0:
36,192,147873,1,0,0:0:0:0:
475,192,147873,1,0,0:0:0:0:
402,192,147956,1,0,0:0:0:0:
182,192,148039,1,0,0:0:0:0:
109,192,148039,1,0,0:0:0:0:
329,192,148123,1,0,0:0:0:0:
36,192,148206,1,0,0:0:0:0:
182,192,148206,1,0,0:0:0:0:
402,192,148206,1,0,0:0:0:0:
256,192,148289,1,0,0:0:0:0:
109,192,148373,1,0,0:0:0:0:
329,192,148373,1,0,0:0:0:0:
182,192,148456,1,0,0:0:0:0:
256,192,148539,1,0,0:0:0:0:
475,192,148539,1,0,0:0:0:0:
402,192,148539,1,0,0:0:0:0:
36,192,148623,1,0,0:0:0:0:
109,192,148706,1,0,0:0:0:0:
329,192,148706,1,0,0:0:0:0:
256,192,148789,1,0,0:0:0:0:
182,192,148873,1,0,0:0:0:0:
475,192,148873,1,0,0:0:0:0:
402,192,148873,1,0,0:0:0:0:
329,192,148956,1,0,0:0:0:0:
256,192,149039,1,0,0:0:0:0:
36,192,149039,1,0,0:0:0:0:
109,192,149123,1,0,0:0:0:0:
329,192,149123,1,0,0:0:0:0:
182,192,149206,1,0,0:0:0:0:
402,192,149206,1,0,0:0:0:0:
475,192,149206,1,0,0:0:0:0:
256,192,149289,1,0,0:0:0:0:
329,192,149373,1,0,0:0:0:0:
109,192,149373,1,0,0:0:0:0:
182,192,149428,1,0,0:0:0:0:
402,192,149456,1,0,0:0:0:0:
256,192,149484,1,0,0:0:0:0:
36,192,149539,1,0,0:0:0:0:
329,192,149539,1,0,0:0:0:0:
109,192,149539,1,0,0:0:0:0:
475,192,149623,1,0,0:0:0:0:
182,192,149706,1,0,0:0:0:0:
402,192,149706,1,0,0:0:0:0:
329,192,149789,1,0,0:0:0:0:
36,192,149873,1,0,0:0:0:0:
256,192,149873,1,0,0:0:0:0:
109,192,149873,1,0,0:0:0:0:
402,192,149956,1,0,0:0:0:0:
182,192,150039,1,0,0:0:0:0:
329,192,150039,1,0,0:0:0:0:
109,192,150123,1,0,0:0:0:0:
36,192,150206,1,0,0:0:0:0:
256,192,150206,1,0,0:0:0:0:
475,192,150206,1,0,0:0:0:0:
329,192,150289,1,0,0:0:0:0:
402,192,150373,1,0,0:0:0:0:
109,192,150373,1,0,0:0:0:0:
182,192,150456,1,0,0:0:0:0:
329,192,150456,1,0,0:0:0:0:
256,192,150539,1,0,0:0:0:0:
36,192,150539,1,0,0:0:0:0:
475,192,150539,1,0,0:0:0:0:
109,192,150623,1,0,0:0:0:0:
402,192,150706,1,0,0:0:0:0:
329,192,150706,1,0,0:0:0:0:
256,192,150789,1,0,0:0:0:0:
182,192,150873,1,0,0:0:0:0:
36,192,150873,1,0,0:0:0:0:
475,192,150873,1,0,0:0:0:0:
329,192,150956,1,0,0:0:0:0:
402,192,151039,1,0,0:0:0:0:
256,192,151039,1,0,0:0:0:0:
182,192,151123,1,0,0:0:0:0:
36,192,151206,1,0,0:0:0:0:
109,192,151206,1,0,0:0:0:0:
329,192,151206,1,0,0:0:0:0:
256,192,151289,1,0,0:0:0:0:
182,192,151373,1,0,0:0:0:0:
475,192,151373,1,0,0:0:0:0:
402,192,151456,1,0,0:0:0:0:
329,192,151539,1,0,0:0:0:0:
36,192,151539,1,0,0:0:0:0:
256,192,151539,1,0,0:0:0:0:
182,192,151623,1,0,0:0:0:0:
109,192,151706,1,0,0:0:0:0:
402,192,151706,1,0,0:0:0:0:
329,192,151789,1,0,0:0:0:0:
256,192,151789,1,0,0:0:0:0:
182,192,151873,1,0,0:0:0:0:
36,192,151873,1,0,0:0:0:0:
475,192,151873,1,0,0:0:0:0:
402,192,151956,1,0,0:0:0:0:
109,192,152039,1,0,0:0:0:0:
256,192,152039,1,0,0:0:0:0:
182,192,152123,1,0,0:0:0:0:
329,192,152123,1,0,0:0:0:0:
475,192,152206,1,0,0:0:0:0:
402,192,152206,1,0,0:0:0:0:
36,192,152206,1,0,0:0:0:0:
182,192,152289,1,0,0:0:0:0:
256,192,152373,1,0,0:0:0:0:
109,192,152456,1,0,0:0:0:0:
182,192,152539,1,0,0:0:0:0:
475,192,152539,1,0,0:0:0:0:
329,192,152539,1,0,0:0:0:0:
36,192,152623,1,0,0:0:0:0:
256,192,152706,1,0,0:0:0:0:
182,192,152789,1,0,0:0:0:0:
36,192,152873,1,0,0:0:0:0:
475,192,152873,1,0,0:0:0:0:
109,192,152873,1,0,0:0:0:0:
402,192,152873,1,0,0:0:0:0:
329,192,152873,128,0,153039:0:0:0:0:
256,192,152956,1,0,0:0:0:0:
182,192,153039,128,0,153123:0:0:0:0:
36,192,153039,1,0,0:0:0:0:
256,192,153123,128,0,153206:0:0:0:0:
402,192,153123,1,0,0:0:0:0:
109,192,153206,1,0,0:0:0:0:
475,192,153206,1,0,0:0:0:0:
329,192,153206,128,0,153373:0:0:0:0:
182,192,153289,1,0,0:0:0:0:
256,192,153373,128,0,153539:0:0:0:0:
402,192,153373,1,0,0:0:0:0:
36,192,153456,1,0,0:0:0:0:
182,192,153539,128,0,153706:0:0:0:0:
475,192,153539,1,0,0:0:0:0:
329,192,153539,1,0,0:0:0:0:
402,192,153623,1,0,0:0:0:0:
109,192,153706,128,0,153873:0:0:0:0:
329,192,153706,1,0,0:0:0:0:
256,192,153789,1,0,0:0:0:0:
36,192,153873,128,0,154039:0:0:0:0:
182,192,153873,1,0,0:0:0:0:
475,192,153873,1,0,0:0:0:0:
402,192,153956,1,0,0:0:0:0:
329,192,154039,128,0,154206:0:0:0:0:
109,192,154039,1,0,0:0:0:0:
182,192,154123,1,0,0:0:0:0:
36,192,154206,1,0,0:0:0:0:
475,192,154206,1,0,0:0:0:0:
256,192,154206,128,0,154373:0:0:0:0:
402,192,154289,1,0,0:0:0:0:
182,192,154373,128,0,154456:0:0:0:0:
109,192,154373,1,0,0:0:0:0:
329,192,154456,128,0,154539:0:0:0:0:
475,192,154456,1,0,0:0:0:0:
256,192,154539,1,0,0:0:0:0:
36,192,154539,1,0,0:0:0:0:
109,192,154539,128,0,154706:0:0:0:0:
329,192,154623,1,0,0:0:0:0:
402,192,154706,1,0,0:0:0:0:
182,192,154706,128,0,154762:0:0:0:0:
256,192,154762,128,0,154817:0:0:0:0:
36,192,154789,1,0,0:0:0:0:
329,192,154817,128,0,154873:0:0:0:0:
109,192,154873,1,0,0:0:0:0:
475,192,154873,1,0,0:0:0:0:
402,192,154873,128,0,155039:0:0:0:0:
182,192,154956,1,0,0:0:0:0:
329,192,155039,128,0,155206:0:0:0:0:
36,192,155039,1,0,0:0:0:0:
475,192,155123,1,0,0:0:0:0:
256,192,155206,128,0,155373:0:0:0:0:
109,192,155206,1,0,0:0:0:0:
36,192,155206,1,0,0:0:0:0:
402,192,155289,1,0,0:0:0:0:
182,192,155373,128,0,155539:0:0:0:0:
329,192,155373,1,0,0:0:0:0:
475,192,155456,1,0,0:0:0:0:
402,192,155539,1,0,0:0:0:0:
329,192,155539,1,0,0:0:0:0:
36,192,155539,128,0,155706:0:0:0:0:
256,192,155706,128,0,155789:0:0:0:0:
109,192,155706,1,0,0:0:0:0:
329,192,155789,128,0,155873:0:0:0:0:
475,192,155789,1,0,0:0:0:0:
182,192,155873,1,0,0:0:0:0:
36,192,155873,1,0,0:0:0:0:
402,192,155873,128,0,156039:0:0:0:0:
256,192,155956,1,0,0:0:0:0:
109,192,156039,1,0,0:0:0:0:
182,192,156039,128,0,156206:0:0:0:0:
402,192,156123,1,0,0:0:0:0:
329,192,156206,128,0,156373:0:0:0:0:
36,192,156206,1,0,0:0:0:0:
475,192,156206,1,0,0:0:0:0:
182,192,156289,1,0,0:0:0:0:
109,192,156373,128,0,156539:0:0:0:0:
402,192,156373,1,0,0:0:0:0:
329,192,156456,1,0,0:0:0:0:
256,192,156539,128,0,156706:0:0:0:0:
475,192,156539,1,0,0:0:0:0:
182,192,156539,1,0,0:0:0:0:
36,192,156623,1,0,0:0:0:0:
402,192,156706,128,0,156873:0:0:0:0:
109,192,156706,1,0,0:0:0:0:
182,192,156789,1,0,0:0:0:0:
109,192,156873,1,0,0:0:0:0:
329,192,156873,1,0,0:0:0:0:
256,192,156956,1,0,0:0:0:0:
36,192,156956,1,0,0:0:0:0:
182,192,157039,1,0,0:0:0:0:
475,192,157039,1,0,0:0:0:0:
402,192,157039,1,0,0:0:0:0:
475,192,157206,1,0,0:0:0:0:
402,192,157206,1,0,0:0:0:0:
182,192,157206,1,0,0:0:0:0:
329,192,157206,1,0,0:0:0:0:
109,192,157206,1,0,0:0:0:0:
36,192,157373,1,0,0:0:0:0:
256,192,157373,1,0,0:0:0:0:
109,192,157456,1,0,0:0:0:0:
329,192,157456,1,0,0:0:0:0:
182,192,157539,1,0,0:0:0:0:
402,192,157539,1,0,0:0:0:0:
256,192,157623,1,0,0:0:0:0:
36,192,157623,1,0,0:0:0:0:
109,192,157623,1,0,0:0:0:0:
475,192,157706,1,0,0:0:0:0:
182,192,157706,1,0,0:0:0:0:
402,192,157706,1,0,0:0:0:0:
329,192,157789,1,0,0:0:0:0:
36,192,157789,1,0,0:0:0:0:
256,192,157789,1,0,0:0:0:0:
109,192,157873,1,0,0:0:0:0:
475,192,157873,1,0,0:0:0:0:
402,192,157873,1,0,0:0:0:0:
329,192,157956,1,0,0:0:0:0:
182,192,157956,1,0,0:0:0:0:
256,192,158039,128,0,158206:0:0:0:0:
36,192,158039,1,0,0:0:0:0:
109,192,158039,1,0,0:0:0:0:
182,192,158206,5,0,0:0:0:0:
329,192,158206,1,0,0:0:0:0:
475,192,158206,128,0,159539:0:0:0:0:
256,192,158456,1,0,0:0:0:0:
402,192,158539,1,0,0:0:0:0:
329,192,158706,1,0,0:0:0:0:
109,192,158789,1,0,0:0:0:0:
256,192,158873,1,0,0:0:0:0:
182,192,159039,1,0,0:0:0:0:
36,192,159206,1,0,0:0:0:0:
329,192,159373,1,0,0:0:0:0:
109,192,159539,128,0,160873:0:0:0:0:
256,192,159789,1,0,0:0:0:0:
402,192,159873,1,0,0:0:0:0:
329,192,160039,1,0,0:0:0:0:
475,192,160123,1,0,0:0:0:0:
182,192,160206,1,0,0:0:0:0:
402,192,160373,1,0,0:0:0:0:
256,192,160539,1,0,0:0:0:0:
329,192,160706,1,0,0:0:0:0:
256,192,160873,128,0,163539:0:0:0:0:
329,192,161123,1,0,0:0:0:0:
475,192,161206,1,0,0:0:0:0:
402,192,161373,1,0,0:0:0:0:
329,192,161539,1,0,0:0:0:0:
36,192,161706,1,0,0:0:0:0:
182,192,161873,1,0,0:0:0:0:
402,192,162039,1,0,0:0:0:0:
329,192,162206,1,0,0:0:0:0:
109,192,162373,1,0,0:0:0:0:
182,192,162456,1,0,0:0:0:0:
36,192,162539,1,0,0:0:0:0:
402,192,162706,1,0,0:0:0:0:
329,192,162789,1,0,0:0:0:0:
475,192,162873,1,0,0:0:0:0:
109,192,163039,1,0,0:0:0:0:
402,192,163206,128,0,163539:0:0:0:0:
182,192,163539,128,0,164873:0:0:0:0:
36,192,163539,128,0,164873:0:0:0:0:
329,192,163539,128,0,164039:0:0:0:0:
475,192,164039,128,0,164206:0:0:0:0:
402,192,164206,128,0,164373:0:0:0:0:
329,192,164373,128,0,164539:0:0:0:0:
256,192,164539,128,0,164706:0:0:0:0:
402,192,164706,128,0,164873:0:0:0:0:
329,192,164873,128,0,166206:0:0:0:0:
109,192,164873,128,0,166206:0:0:0:0:
475,192,165373,1,0,0:0:0:0:
256,192,165456,1,0,0:0:0:0:
402,192,165539,1,0,0:0:0:0:
182,192,165706,1,0,0:0:0:0:
36,192,165873,1,0,0:0:0:0:
256,192,166039,1,0,0:0:0:0:
475,192,166206,128,0,168873:0:0:0:0:
402,192,166206,128,0,168873:0:0:0:0:
182,192,166206,1,0,0:0:0:0:
36,192,166456,1,0,0:0:0:0:
256,192,166539,1,0,0:0:0:0:
182,192,166706,1,0,0:0:0:0:
109,192,166873,1,0,0:0:0:0:
36,192,167039,1,0,0:0:0:0:
182,192,167206,1,0,0:0:0:0:
256,192,167373,1,0,0:0:0:0:
182,192,167539,128,0,168873:0:0:0:0:
36,192,167539,1,0,0:0:0:0:
256,192,167706,1,0,0:0:0:0:
109,192,167789,1,0,0:0:0:0:
329,192,167873,1,0,0:0:0:0:
109,192,168039,1,0,0:0:0:0:
256,192,168123,1,0,0:0:0:0:
36,192,168206,1,0,0:0:0:0:
109,192,168373,1,0,0:0:0:0:
256,192,168539,128,0,168873:0:0:0:0:
329,192,168873,5,0,0:0:0:0:
36,192,168873,1,0,0:0:0:0:
109,192,168873,128,0,171206:0:0:0:0:
475,192,169539,128,0,171539:0:0:0:0:
402,192,170873,128,0,171539:0:0:0:0:
256,192,171095,128,0,171539:0:0:0:0:
109,192,171317,128,0,171539:0:0:0:0:
329,192,171539,128,0,174206:0:0:0:0:
36,192,172206,128,0,173373:0:0:0:0:
36,192,173539,128,0,174039:0:0:0:0:
36,192,174206,128,0,176539:0:0:0:0:
402,192,174873,128,0,176873:0:0:0:0:
329,192,176206,128,0,176873:0:0:0:0:
182,192,176428,128,0,176873:0:0:0:0:
36,192,176651,128,0,176873:0:0:0:0:
256,192,176873,128,0,179456:0:0:0:0:
475,192,177539,128,0,179456:0:0:0:0:
109,192,178539,128,0,179539:0:0:0:0:
329,192,178873,128,0,179456:0:0:0:0:
402,192,178873,128,0,179456:0:0:0:0:
182,192,179206,128,0,179539:0:0:0:0:
256,192,179539,1,0,0:0:0:0:
329,192,179539,1,0,0:0:0:0:
402,192,179539,1,0,0:0:0:0:
475,192,179539,1,0,0:0:0:0:
36,192,179539,128,0,183539:0:0:0:0:
329,192,180873,128,0,183539:0:0:0:0:
182,192,181539,128,0,183539:0:0:0:0:
402,192,182206,128,0,183539:0:0:0:0:
475,192,183539,128,0,184873:0:0:0:0:
256,192,183873,128,0,184873:0:0:0:0:
36,192,184206,128,0,184873:0:0:0:0:
182,192,184428,128,0,184873:0:0:0:0:
329,192,184651,128,0,184762:0:0:0:0:
329,192,184873,128,0,187539:0:0:0:0:
36,192,185539,128,0,187539:0:0:0:0:
109,192,186539,128,0,187539:0:0:0:0:
182,192,186873,128,0,187539:0:0:0:0:
256,192,187206,128,0,187456:0:0:0:0:
256,192,187539,128,0,190123:0:0:0:0:
182,192,188206,128,0,190123:0:0:0:0:
329,192,188873,128,0,190123:0:0:0:0:
402,192,189539,128,0,190123:0:0:0:0:
109,192,190206,128,0,195539:0:0:0:0:
475,192,190206,128,0,195539:0:0:0:0:
329,192,191206,128,0,191873:0:0:0:0:
182,192,191206,128,0,191873:0:0:0:0:
256,192,192206,128,0,195539:0:0:0:0:
36,192,195539,128,0,196539:0:0:0:0:
182,192,195539,128,0,198206:0:0:0:0:
402,192,195539,128,0,198206:0:0:0:0:
475,192,196539,128,0,197373:0:0:0:0:
329,192,197539,128,0,198206:0:0:0:0:
256,192,198206,128,0,200873:0:0:0:0:
36,192,198206,128,0,200873:0:0:0:0:
475,192,198206,128,0,199539:0:0:0:0:
402,192,199539,128,0,200873:0:0:0:0:
109,192,200873,128,0,206206:0:0:0:0:
329,192,200873,128,0,206206:0:0:0:0:
475,192,201873,128,0,202373:0:0:0:0:
256,192,202873,128,0,206206:0:0:0:0:
182,192,206206,128,0,206873:0:0:0:0:
475,192,206206,128,0,208873:0:0:0:0:
329,192,206873,128,0,207206:0:0:0:0:
256,192,207206,128,0,208873:0:0:0:0:
109,192,207206,128,0,208206:0:0:0:0:
36,192,208206,128,0,208873:0:0:0:0:
329,192,208206,1,0,0:0:0:0:
109,192,208873,128,0,211539:0:0:0:0:
402,192,208873,128,0,211539:0:0:0:0:
182,192,208873,128,0,211539:0:0:0:0:
256,192,211539,1,0,0:0:0:0:
256,192,212206,1,0,0:0:0:0:
475,192,212539,1,0,0:0:0:0:
402,192,212539,1,0,0:0:0:0:
329,192,212560,1,0,0:0:0:0:
256,192,212873,1,0,0:0:0:0:
109,192,212873,1,0,0:0:0:0:
36,192,212873,1,0,0:0:0:0:
182,192,212894,1,0,0:0:0:0:
256,192,213539,1,0,0:0:0:0:
329,192,213873,1,0,0:0:0:0:
109,192,214039,1,0,0:0:0:0:
256,192,214206,1,0,0:0:0:0:
475,192,214206,1,0,0:0:0:0:
182,192,214206,1,0,0:0:0:0:
329,192,214227,1,0,0:0:0:0:
256,192,214873,1,0,0:0:0:0:
329,192,215206,1,0,0:0:0:0:
475,192,215206,1,0,0:0:0:0:
182,192,215227,1,0,0:0:0:0:
256,192,215539,1,0,0:0:0:0:
182,192,215873,1,0,0:0:0:0:
36,192,215873,1,0,0:0:0:0:
329,192,215894,1,0,0:0:0:0:
256,192,216206,1,0,0:0:0:0:
475,192,216206,1,0,0:0:0:0:
402,192,216206,1,0,0:0:0:0:
109,192,216227,1,0,0:0:0:0:
329,192,216623,1,0,0:0:0:0:
256,192,216873,1,0,0:0:0:0:
36,192,216873,1,0,0:0:0:0:
402,192,216873,1,0,0:0:0:0:
182,192,216894,1,0,0:0:0:0:
256,192,217539,5,0,0:0:0:0:
329,192,217873,1,0,0:0:0:0:
475,192,217873,1,0,0:0:0:0:
182,192,217894,1,0,0:0:0:0:
402,192,218206,1,0,0:0:0:0:
256,192,218206,1,0,0:0:0:0:
36,192,218206,128,0,218706:0:0:0:0:
182,192,218706,128,0,219206:0:0:0:0:
329,192,219206,128,0,219539:0:0:0:0:
475,192,219539,128,0,219873:0:0:0:0:
109,192,219873,128,0,220206:0:0:0:0:
256,192,220206,128,0,220373:0:0:0:0:
402,192,220373,128,0,220539:0:0:0:0:
109,192,220706,128,0,222206:0:0:0:0:
475,192,222206,128,0,223539:0:0:0:0:
329,192,222206,128,0,222706:0:0:0:0:
256,192,222706,128,0,223206:0:0:0:0:
182,192,223206,128,0,223539:0:0:0:0:
36,192,223539,128,0,224873:0:0:0:0:
329,192,223539,128,0,224039:0:0:0:0:
475,192,224039,128,0,224539:0:0:0:0:
182,192,224539,128,0,224873:0:0:0:0:
329,192,224873,128,0,226206:0:0:0:0:
109,192,225206,128,0,225373:0:0:0:0:
182,192,225373,128,0,225539:0:0:0:0:
256,192,225539,128,0,225873:0:0:0:0:
475,192,225873,128,0,226206:0:0:0:0:
109,192,226206,128,0,227539:0:0:0:0:
36,192,226206,128,0,226706:0:0:0:0:
256,192,226706,128,0,227206:0:0:0:0:
329,192,227206,128,0,227539:0:0:0:0:
402,192,227539,128,0,228873:0:0:0:0:
475,192,227539,128,0,228039:0:0:0:0:
256,192,228039,128,0,228539:0:0:0:0:
109,192,228539,128,0,228873:0:0:0:0:
36,192,228873,128,0,230206:0:0:0:0:
329,192,228873,128,0,229373:0:0:0:0:
182,192,229373,128,0,229873:0:0:0:0:
402,192,229873,128,0,230206:0:0:0:0:
256,192,230206,128,0,231456:0:0:0:0:
475,192,230206,128,0,230539:0:0:0:0:
109,192,230539,128,0,230873:0:0:0:0:
402,192,230873,128,0,231039:0:0:0:0:
182,192,231039,128,0,231206:0:0:0:0:
475,192,231456,128,0,232873:0:0:0:0:
402,192,231456,128,0,232873:0:0:0:0:
36,192,232873,1,0,0:0:0:0:
109,192,232873,1,0,0:0:0:0:
182,192,232873,128,0,233373:0:0:0:0:
329,192,233373,128,0,233873:0:0:0:0:
109,192,233873,128,0,234206:0:0:0:0:
475,192,234206,128,0,234706:0:0:0:0:
182,192,234706,128,0,235206:0:0:0:0:
329,192,235206,128,0,235539:0:0:0:0:
109,192,235873,128,0,236039:0:0:0:0:
256,192,236039,128,0,236206:0:0:0:0:
402,192,236206,128,0,236539:0:0:0:0:
36,192,236539,128,0,236873:0:0:0:0:
475,192,236873,128,0,237373:0:0:0:0:
182,192,237373,128,0,237873:0:0:0:0:
402,192,237873,128,0,238206:0:0:0:0:
256,192,238206,128,0,238706:0:0:0:0:
36,192,238706,128,0,239206:0:0:0:0:
182,192,239206,128,0,239539:0:0:0:0:
402,192,239539,128,0,240039:0:0:0:0:
109,192,240039,128,0,240539:0:0:0:0:
329,192,240539,128,0,240873:0:0:0:0:
182,192,240873,128,0,241039:0:0:0:0:
402,192,241039,128,0,241206:0:0:0:0:
109,192,241373,128,0,241539:0:0:0:0:
256,192,241706,128,0,241873:0:0:0:0:
329,192,241873,128,0,242039:0:0:0:0:
402,192,242039,128,0,242206:0:0:0:0:
36,192,242206,128,0,242706:0:0:0:0:
402,192,242706,128,0,243539:0:0:0:0:
36,192,243539,5,0,0:0:0:0:
182,192,243539,1,0,0:0:0:0:
256,192,243539,1,0,0:0:0:0:
329,192,243539,1,0,0:0:0:0:
475,192,243539,1,0,0:0:0:0:
109,192,243706,1,0,0:0:0:0:
329,192,243706,1,0,0:0:0:0:
256,192,243873,1,0,0:0:0:0:
36,192,243873,1,0,0:0:0:0:
475,192,243873,1,0,0:0:0:0:
402,192,244039,1,0,0:0:0:0:
182,192,244039,1,0,0:0:0:0:
329,192,244123,1,0,0:0:0:0:
256,192,244206,1,0,0:0:0:0:
36,192,244206,1,0,0:0:0:0:
182,192,244289,1,0,0:0:0:0:
109,192,244373,1,0,0:0:0:0:
402,192,244373,1,0,0:0:0:0:
475,192,244373,1,0,0:0:0:0:
36,192,244373,1,0,0:0:0:0:
182,192,244539,1,0,0:0:0:0:
329,192,244539,1,0,0:0:0:0:
475,192,244539,1,0,0:0:0:0:
256,192,244706,1,0,0:0:0:0:
109,192,244706,1,0,0:0:0:0:
36,192,244873,1,0,0:0:0:0:
182,192,244873,1,0,0:0:0:0:
329,192,244873,1,0,0:0:0:0:
402,192,244873,1,0,0:0:0:0:
256,192,245039,1,0,0:0:0:0:
402,192,245039,1,0,0:0:0:0:
109,192,245206,1,0,0:0:0:0:
475,192,245206,1,0,0:0:0:0:
36,192,245206,1,0,0:0:0:0:
36,192,245373,1,0,0:0:0:0:
256,192,245373,1,0,0:0:0:0:
402,192,245373,1,0,0:0:0:0:
475,192,245373,1,0,0:0:0:0:
109,192,245456,1,0,0:0:0:0:
182,192,245539,1,0,0:0:0:0:
329,192,245539,1,0,0:0:0:0:
402,192,245623,1,0,0:0:0:0:
475,192,245706,1,0,0:0:0:0:
256,192,245706,1,0,0:0:0:0:
109,192,245706,1,0,0:0:0:0:
36,192,245706,1,0,0:0:0:0:
182,192,245873,1,0,0:0:0:0:
329,192,245873,1,0,0:0:0:0:
36,192,245873,1,0,0:0:0:0:
256,192,246039,1,0,0:0:0:0:
402,192,246039,1,0,0:0:0:0:
329,192,246206,1,0,0:0:0:0:
475,192,246206,1,0,0:0:0:0:
182,192,246206,1,0,0:0:0:0:
36,192,246206,1,0,0:0:0:0:
329,192,246373,1,0,0:0:0:0:
109,192,246373,1,0,0:0:0:0:
256,192,246539,1,0,0:0:0:0:
36,192,246539,1,0,0:0:0:0:
475,192,246539,1,0,0:0:0:0:
402,192,246706,1,0,0:0:0:0:
109,192,246706,1,0,0:0:0:0:
182,192,246789,1,0,0:0:0:0:
256,192,246873,1,0,0:0:0:0:
36,192,246873,1,0,0:0:0:0:
109,192,246956,1,0,0:0:0:0:
182,192,247039,1,0,0:0:0:0:
475,192,247039,1,0,0:0:0:0:
329,192,247039,1,0,0:0:0:0:
36,192,247039,1,0,0:0:0:0:
256,192,247206,1,0,0:0:0:0:
109,192,247206,1,0,0:0:0:0:
402,192,247206,1,0,0:0:0:0:
475,192,247373,1,0,0:0:0:0:
329,192,247373,1,0,0:0:0:0:
402,192,247539,1,0,0:0:0:0:
109,192,247539,1,0,0:0:0:0:
36,192,247539,1,0,0:0:0:0:
182,192,247539,1,0,0:0:0:0:
329,192,247706,1,0,0:0:0:0:
256,192,247706,1,0,0:0:0:0:
402,192,247789,1,0,0:0:0:0:
475,192,247873,1,0,0:0:0:0:
182,192,247873,1,0,0:0:0:0:
36,192,247873,1,0,0:0:0:0:
402,192,247956,1,0,0:0:0:0:
329,192,248039,1,0,0:0:0:0:
109,192,248039,1,0,0:0:0:0:
36,192,248039,1,0,0:0:0:0:
256,192,248039,1,0,0:0:0:0:
36,192,248206,1,0,0:0:0:0:
402,192,248206,1,0,0:0:0:0:
109,192,248289,1,0,0:0:0:0:
182,192,248373,1,0,0:0:0:0:
329,192,248373,1,0,0:0:0:0:
475,192,248373,1,0,0:0:0:0:
256,192,248373,1,0,0:0:0:0:
109,192,248456,1,0,0:0:0:0:
36,192,248539,1,0,0:0:0:0:
256,192,248539,1,0,0:0:0:0:
402,192,248539,1,0,0:0:0:0:
329,192,248706,1,0,0:0:0:0:
182,192,248706,1,0,0:0:0:0:
109,192,248873,1,0,0:0:0:0:
256,192,248873,1,0,0:0:0:0:
475,192,248873,1,0,0:0:0:0:
36,192,248873,1,0,0:0:0:0:
329,192,249039,1,0,0:0:0:0:
182,192,249039,1,0,0:0:0:0:
256,192,249206,1,0,0:0:0:0:
402,192,249206,1,0,0:0:0:0:
475,192,249206,1,0,0:0:0:0:
36,192,249206,1,0,0:0:0:0:
109,192,249206,1,0,0:0:0:0:
402,192,249373,1,0,0:0:0:0:
182,192,249373,1,0,0:0:0:0:
109,192,249456,1,0,0:0:0:0:
256,192,249539,1,0,0:0:0:0:
182,192,249539,1,0,0:0:0:0:
36,192,249539,1,0,0:0:0:0:
475,192,249539,1,0,0:0:0:0:
329,192,249623,1,0,0:0:0:0:
109,192,249706,1,0,0:0:0:0:
402,192,249706,1,0,0:0:0:0:
329,192,249873,1,0,0:0:0:0:
475,192,249873,1,0,0:0:0:0:
182,192,249873,1,0,0:0:0:0:
36,192,249873,1,0,0:0:0:0:
109,192,249873,1,0,0:0:0:0:
402,192,250039,1,0,0:0:0:0:
256,192,250039,1,0,0:0:0:0:
329,192,250206,1,0,0:0:0:0:
182,192,250206,1,0,0:0:0:0:
475,192,250206,1,0,0:0:0:0:
36,192,250206,1,0,0:0:0:0:
109,192,250373,1,0,0:0:0:0:
256,192,250373,1,0,0:0:0:0:
36,192,250539,1,0,0:0:0:0:
182,192,250539,1,0,0:0:0:0:
256,192,250539,1,0,0:0:0:0:
475,192,250539,1,0,0:0:0:0:
402,192,250539,1,0,0:0:0:0:
329,192,250706,1,0,0:0:0:0:
109,192,250706,1,0,0:0:0:0:
402,192,250789,1,0,0:0:0:0:
36,192,250873,1,0,0:0:0:0:
182,192,250873,1,0,0:0:0:0:
256,192,250873,1,0,0:0:0:0:
475,192,250873,1,0,0:0:0:0:
109,192,250956,1,0,0:0:0:0:
329,192,251039,1,0,0:0:0:0:
182,192,251039,1,0,0:0:0:0:
256,192,251206,1,0,0:0:0:0:
402,192,251206,1,0,0:0:0:0:
475,192,251206,1,0,0:0:0:0:
109,192,251206,1,0,0:0:0:0:
36,192,251206,1,0,0:0:0:0:
182,192,251373,1,0,0:0:0:0:
329,192,251373,1,0,0:0:0:0:
36,192,251539,1,0,0:0:0:0:
256,192,251539,1,0,0:0:0:0:
109,192,251539,1,0,0:0:0:0:
475,192,251539,1,0,0:0:0:0:
329,192,251706,1,0,0:0:0:0:
182,192,251706,1,0,0:0:0:0:
36,192,251706,1,0,0:0:0:0:
475,192,251706,1,0,0:0:0:0:
182,192,251873,1,0,0:0:0:0:
329,192,251873,1,0,0:0:0:0:
475,192,251873,1,0,0:0:0:0:
36,192,251873,1,0,0:0:0:0:
256,192,251873,1,0,0:0:0:0:
109,192,252039,1,0,0:0:0:0:
402,192,252039,1,0,0:0:0:0:
182,192,252039,1,0,0:0:0:0:
475,192,252039,1,0,0:0:0:0:
256,192,252123,1,0,0:0:0:0:
329,192,252206,1,0,0:0:0:0:
36,192,252206,1,0,0:0:0:0:
109,192,252206,1,0,0:0:0:0:
182,192,252289,1,0,0:0:0:0:
256,192,252289,1,0,0:0:0:0:
475,192,252289,1,0,0:0:0:0:
109,192,252373,1,0,0:0:0:0:
36,192,252373,1,0,0:0:0:0:
402,192,252373,1,0,0:0:0:0:
182,192,252456,1,0,0:0:0:0:
329,192,252456,1,0,0:0:0:0:
475,192,252539,1,0,0:0:0:0:
256,192,252539,1,0,0:0:0:0:
36,192,252539,1,0,0:0:0:0:
402,192,252539,1,0,0:0:0:0:
329,192,252623,1,0,0:0:0:0:
109,192,252623,1,0,0:0:0:0:
182,192,252623,1,0,0:0:0:0:
36,192,252706,1,0,0:0:0:0:
475,192,252706,1,0,0:0:0:0:
256,192,252706,1,0,0:0:0:0:
402,192,252789,1,0,0:0:0:0:
329,192,252873,128,0,253039:0:0:0:0:
256,192,252873,128,0,253039:0:0:0:0:
182,192,252873,128,0,253039:0:0:0:0:
109,192,252873,128,0,253039:0:0:0:0:
36,192,252873,128,0,253039:0:0:0:0:
402,192,253123,128,0,253289:0:0:0:0:
329,192,253123,128,0,253289:0:0:0:0:
256,192,253123,128,0,253289:0:0:0:0:
182,192,253123,128,0,253289:0:0:0:0:
475,192,253123,128,0,253289:0:0:0:0:
256,192,253373,128,0,253539:0:0:0:0:
109,192,253373,128,0,253539:0:0:0:0:
36,192,253373,128,0,253539:0:0:0:0:
402,192,253373,128,0,253539:0:0:0:0:
182,192,253373,128,0,253539:0:0:0:0:
402,192,253623,128,0,253789:0:0:0:0:
475,192,253623,128,0,253789:0:0:0:0:
329,192,253623,128,0,253789:0:0:0:0:
256,192,253623,128,0,253789:0:0:0:0:
109,192,253623,128,0,253789:0:0:0:0:
402,192,253873,128,0,253956:0:0:0:0:
329,192,253873,128,0,253956:0:0:0:0:
182,192,253873,128,0,253956:0:0:0:0:
109,192,253873,128,0,253956:0:0:0:0:
36,192,253873,128,0,253956:0:0:0:0:
475,192,254039,128,0,254123:0:0:0:0:
329,192,254039,128,0,254123:0:0:0:0:
182,192,254039,128,0,254123:0:0:0:0:
109,192,254039,128,0,254123:0:0:0:0:
402,192,254039,128,0,254123:0:0:0:0:
182,192,254206,1,0,0:0:0:0:
402,192,254206,128,0,254456:0:0:0:0:
475,192,254206,128,0,254456:0:0:0:0:
36,192,254206,128,0,254456:0:0:0:0:
109,192,254206,128,0,254456:0:0:0:0:
256,192,254289,1,0,0:0:0:0:
329,192,254373,1,0,0:0:0:0:
182,192,254456,1,0,0:0:0:0:
475,192,254539,1,0,0:0:0:0:
402,192,254539,1,0,0:0:0:0:
109,192,254539,1,0,0:0:0:0:
36,192,254539,1,0,0:0:0:0:
329,192,254623,1,0,0:0:0:0:
256,192,254623,1,0,0:0:0:0:
402,192,254706,1,0,0:0:0:0:
475,192,254706,1,0,0:0:0:0:
329,192,254789,1,0,0:0:0:0:
256,192,254789,1,0,0:0:0:0:
475,192,254873,128,0,255206:0:0:0:0:
402,192,254873,128,0,255206:0:0:0:0:
109,192,254873,1,0,0:0:0:0:
36,192,254873,1,0,0:0:0:0:
182,192,254873,1,0,0:0:0:0:
256,192,254956,1,0,0:0:0:0:
329,192,254956,1,0,0:0:0:0:
109,192,255039,1,0,0:0:0:0:
36,192,255039,1,0,0:0:0:0:
182,192,255123,1,0,0:0:0:0:
256,192,255123,1,0,0:0:0:0:
109,192,255206,1,0,0:0:0:0:
36,192,255206,1,0,0:0:0:0:
329,192,255206,1,0,0:0:0:0:
475,192,255289,1,0,0:0:0:0:
402,192,255289,1,0,0:0:0:0:
36,192,255373,1,0,0:0:0:0:
182,192,255373,1,0,0:0:0:0:
402,192,255456,1,0,0:0:0:0:
475,192,255456,1,0,0:0:0:0:
109,192,255539,128,0,255873:0:0:0:0:
36,192,255539,128,0,255873:0:0:0:0:
256,192,255539,1,0,0:0:0:0:
182,192,255539,1,0,0:0:0:0:
329,192,255539,1,0,0:0:0:0:
475,192,255623,1,0,0:0:0:0:
402,192,255623,1,0,0:0:0:0:
256,192,255706,1,0,0:0:0:0:
182,192,255706,1,0,0:0:0:0:
402,192,255789,1,0,0:0:0:0:
329,192,255789,1,0,0:0:0:0:
475,192,255873,1,0,0:0:0:0:
256,192,255873,1,0,0:0:0:0:
182,192,255873,1,0,0:0:0:0:
402,192,255956,1,0,0:0:0:0:
329,192,256039,1,0,0:0:0:0:
109,192,256039,1,0,0:0:0:0:
36,192,256039,1,0,0:0:0:0:
182,192,256123,1,0,0:0:0:0:
256,192,256206,1,0,0:0:0:0:
475,192,256206,1,0,0:0:0:0:
402,192,256206,1,0,0:0:0:0:
109,192,256289,1,0,0:0:0:0:
329,192,256373,1,0,0:0:0:0:
182,192,256373,1,0,0:0:0:0:
36,192,256373,1,0,0:0:0:0:
475,192,256456,1,0,0:0:0:0:
402,192,256539,1,0,0:0:0:0:
256,192,256539,1,0,0:0:0:0:
109,192,256539,1,0,0:0:0:0:
36,192,256623,1,0,0:0:0:0:
475,192,256706,1,0,0:0:0:0:
329,192,256706,1,0,0:0:0:0:
182,192,256706,1,0,0:0:0:0:
402,192,256789,1,0,0:0:0:0:
256,192,256873,1,0,0:0:0:0:
182,192,256873,1,0,0:0:0:0:
329,192,256873,1,0,0:0:0:0:
109,192,256873,128,0,257206:0:0:0:0:
36,192,256873,128,0,257206:0:0:0:0:
475,192,256956,1,0,0:0:0:0:
402,192,257039,1,0,0:0:0:0:
182,192,257123,1,0,0:0:0:0:
256,192,257206,1,0,0:0:0:0:
402,192,257206,1,0,0:0:0:0:
109,192,257289,1,0,0:0:0:0:
36,192,257289,1,0,0:0:0:0:
329,192,257373,1,0,0:0:0:0:
475,192,257373,1,0,0:0:0:0:
109,192,257456,1,0,0:0:0:0:
182,192,257456,1,0,0:0:0:0:
475,192,257539,128,0,257873:0:0:0:0:
402,192,257539,128,0,257873:0:0:0:0:
329,192,257539,1,0,0:0:0:0:
256,192,257539,1,0,0:0:0:0:
36,192,257539,1,0,0:0:0:0:
182,192,257623,1,0,0:0:0:0:
109,192,257623,1,0,0:0:0:0:
329,192,257706,1,0,0:0:0:0:
256,192,257706,1,0,0:0:0:0:
109,192,257789,1,0,0:0:0:0:
36,192,257789,1,0,0:0:0:0:
182,192,257873,1,0,0:0:0:0:
256,192,257873,1,0,0:0:0:0:
329,192,257873,1,0,0:0:0:0:
402,192,257956,1,0,0:0:0:0:
475,192,257956,1,0,0:0:0:0:
182,192,258039,1,0,0:0:0:0:
36,192,258039,1,0,0:0:0:0:
329,192,258123,1,0,0:0:0:0:
402,192,258123,1,0,0:0:0:0:
109,192,258206,128,0,258539:0:0:0:0:
36,192,258206,128,0,258539:0:0:0:0:
182,192,258206,1,0,0:0:0:0:
256,192,258206,1,0,0:0:0:0:
475,192,258206,1,0,0:0:0:0:
402,192,258289,1,0,0:0:0:0:
329,192,258289,1,0,0:0:0:0:
256,192,258373,1,0,0:0:0:0:
182,192,258373,1,0,0:0:0:0:
402,192,258456,1,0,0:0:0:0:
475,192,258539,1,0,0:0:0:0:
329,192,258539,1,0,0:0:0:0:
256,192,258539,1,0,0:0:0:0:
182,192,258623,1,0,0:0:0:0:
36,192,258706,1,0,0:0:0:0:
402,192,258706,1,0,0:0:0:0:
329,192,258706,1,0,0:0:0:0:
256,192,258789,1,0,0:0:0:0:
475,192,258873,1,0,0:0:0:0:
402,192,258873,1,0,0:0:0:0:
109,192,258873,1,0,0:0:0:0:
329,192,258956,1,0,0:0:0:0:
475,192,259039,1,0,0:0:0:0:
182,192,259039,1,0,0:0:0:0:
36,192,259039,1,0,0:0:0:0:
402,192,259123,1,0,0:0:0:0:
256,192,259206,1,0,0:0:0:0:
109,192,259206,1,0,0:0:0:0:
36,192,259206,1,0,0:0:0:0:
475,192,259289,1,0,0:0:0:0:
329,192,259373,1,0,0:0:0:0:
182,192,259373,1,0,0:0:0:0:
109,192,259373,1,0,0:0:0:0:
36,192,259456,1,0,0:0:0:0:
475,192,259539,128,0,259873:0:0:0:0:
402,192,259539,1,0,0:0:0:0:
329,192,259539,128,0,259873:0:0:0:0:
256,192,259539,1,0,0:0:0:0:
182,192,259539,1,0,0:0:0:0:
109,192,259623,1,0,0:0:0:0:
36,192,259623,1,0,0:0:0:0:
182,192,259706,1,0,0:0:0:0:
256,192,259706,1,0,0:0:0:0:
109,192,259789,1,0,0:0:0:0:
36,192,259789,1,0,0:0:0:0:
182,192,259873,1,0,0:0:0:0:
256,192,259873,1,0,0:0:0:0:
402,192,259873,1,0,0:0:0:0:
329,192,259956,1,0,0:0:0:0:
475,192,259956,1,0,0:0:0:0:
182,192,260039,1,0,0:0:0:0:
36,192,260039,1,0,0:0:0:0:
475,192,260123,1,0,0:0:0:0:
402,192,260123,1,0,0:0:0:0:
182,192,260206,128,0,260539:0:0:0:0:
36,192,260206,128,0,260539:0:0:0:0:
256,192,260206,1,0,0:0:0:0:
109,192,260206,1,0,0:0:0:0:
329,192,260206,1,0,0:0:0:0:
402,192,260289,1,0,0:0:0:0:
475,192,260289,1,0,0:0:0:0:
329,192,260373,1,0,0:0:0:0:
256,192,260373,1,0,0:0:0:0:
402,192,260456,1,0,0:0:0:0:
475,192,260456,1,0,0:0:0:0:
329,192,260539,1,0,0:0:0:0:
256,192,260539,1,0,0:0:0:0:
109,192,260539,1,0,0:0:0:0:
182,192,260623,1,0,0:0:0:0:
36,192,260623,1,0,0:0:0:0:
475,192,260706,1,0,0:0:0:0:
329,192,260706,1,0,0:0:0:0:
256,192,260789,1,0,0:0:0:0:
109,192,260789,1,0,0:0:0:0:
402,192,260873,128,0,261206:0:0:0:0:
475,192,260873,128,0,261206:0:0:0:0:
182,192,260873,1,0,0:0:0:0:
329,192,260873,1,0,0:0:0:0:
36,192,260956,1,0,0:0:0:0:
109,192,260956,1,0,0:0:0:0:
182,192,261039,1,0,0:0:0:0:
256,192,261039,1,0,0:0:0:0:
109,192,261123,1,0,0:0:0:0:
36,192,261123,1,0,0:0:0:0:
256,192,261206,1,0,0:0:0:0:
329,192,261206,1,0,0:0:0:0:
182,192,261206,1,0,0:0:0:0:
36,192,261289,1,0,0:0:0:0:
402,192,261373,1,0,0:0:0:0:
329,192,261373,1,0,0:0:0:0:
256,192,261373,1,0,0:0:0:0:
109,192,261456,1,0,0:0:0:0:
475,192,261539,1,0,0:0:0:0:
402,192,261539,1,0,0:0:0:0:
329,192,261539,1,0,0:0:0:0:
182,192,261623,1,0,0:0:0:0:
36,192,261706,1,0,0:0:0:0:
402,192,261706,1,0,0:0:0:0:
475,192,261706,1,0,0:0:0:0:
256,192,261789,1,0,0:0:0:0:
109,192,261873,1,0,0:0:0:0:
36,192,261873,1,0,0:0:0:0:
475,192,261873,1,0,0:0:0:0:
329,192,261956,1,0,0:0:0:0:
182,192,262039,1,0,0:0:0:0:
109,192,262039,1,0,0:0:0:0:
36,192,262039,1,0,0:0:0:0:
402,192,262123,1,0,0:0:0:0:
256,192,262206,128,0,262539:0:0:0:0:
475,192,262206,128,0,262539:0:0:0:0:
329,192,262206,1,0,0:0:0:0:
182,192,262206,1,0,0:0:0:0:
109,192,262289,1,0,0:0:0:0:
36,192,262289,1,0,0:0:0:0:
329,192,262373,1,0,0:0:0:0:
402,192,262373,1,0,0:0:0:0:
182,192,262456,1,0,0:0:0:0:
109,192,262456,1,0,0:0:0:0:
402,192,262539,1,0,0:0:0:0:
329,192,262539,1,0,0:0:0:0:
36,192,262539,1,0,0:0:0:0:
256,192,262623,1,0,0:0:0:0:
475,192,262623,1,0,0:0:0:0:
182,192,262706,1,0,0:0:0:0:
109,192,262706,1,0,0:0:0:0:
402,192,262789,1,0,0:0:0:0:
329,192,262789,1,0,0:0:0:0:
256,192,262873,128,0,263206:0:0:0:0:
36,192,262873,128,0,263206:0:0:0:0:
109,192,262873,1,0,0:0:0:0:
182,192,262873,1,0,0:0:0:0:
475,192,262873,1,0,0:0:0:0:
402,192,262956,1,0,0:0:0:0:
329,192,262956,1,0,0:0:0:0:
182,192,263039,1,0,0:0:0:0:
109,192,263039,1,0,0:0:0:0:
475,192,263123,1,0,0:0:0:0:
402,192,263123,1,0,0:0:0:0:
329,192,263206,1,0,0:0:0:0:
182,192,263206,1,0,0:0:0:0:
109,192,263206,1,0,0:0:0:0:
256,192,263289,1,0,0:0:0:0:
36,192,263289,1,0,0:0:0:0:
475,192,263373,1,0,0:0:0:0:
402,192,263373,1,0,0:0:0:0:
109,192,263456,1,0,0:0:0:0:
36,192,263456,1,0,0:0:0:0:
475,192,263539,128,0,263623:0:0:0:0:
402,192,263539,128,0,263623:0:0:0:0:
329,192,263539,128,0,263623:0:0:0:0:
256,192,263539,128,0,263623:0:0:0:0:
182,192,263539,128,0,263623:0:0:0:0:
256,192,263706,1,0,0:0:0:0:
182,192,263706,1,0,0:0:0:0:
329,192,263706,1,0,0:0:0:0:
402,192,263706,1,0,0:0:0:0:
475,192,263706,1,0,0:0:0:0:
256,192,263873,128,0,263956:0:0:0:0:
36,192,263873,128,0,263956:0:0:0:0:
109,192,263873,128,0,263956:0:0:0:0:
182,192,263873,128,0,263956:0:0:0:0:
329,192,263873,128,0,263956:0:0:0:0:
109,192,264039,1,0,0:0:0:0:
182,192,264039,1,0,0:0:0:0:
329,192,264039,1,0,0:0:0:0:
256,192,264039,1,0,0:0:0:0:
36,192,264039,1,0,0:0:0:0:
109,192,264206,128,0,264289:0:0:0:0:
329,192,264206,128,0,264289:0:0:0:0:
475,192,264206,128,0,264289:0:0:0:0:
402,192,264206,128,0,264289:0:0:0:0:
36,192,264206,128,0,264289:0:0:0:0:
109,192,264373,1,0,0:0:0:0:
402,192,264373,1,0,0:0:0:0:
475,192,264373,1,0,0:0:0:0:
329,192,264373,1,0,0:0:0:0:
36,192,264373,1,0,0:0:0:0:
36,192,264539,128,0,264623:0:0:0:0:
475,192,264539,128,0,264623:0:0:0:0:
402,192,264539,128,0,264623:0:0:0:0:
182,192,264539,128,0,264623:0:0:0:0:
109,192,264539,128,0,264623:0:0:0:0:
402,192,264706,1,0,0:0:0:0:
475,192,264706,1,0,0:0:0:0:
182,192,264706,1,0,0:0:0:0:
36,192,264706,1,0,0:0:0:0:
109,192,264706,1,0,0:0:0:0:
36,192,264873,1,0,0:0:0:0:
182,192,264873,1,0,0:0:0:0:
256,192,264873,1,0,0:0:0:0:
329,192,264873,1,0,0:0:0:0:
475,192,264873,1,0,0:0:0:0:
109,192,265039,1,0,0:0:0:0:
329,192,265039,1,0,0:0:0:0:
182,192,265206,128,0,265373:0:0:0:0:
256,192,265206,1,0,0:0:0:0:
475,192,265206,128,0,265539:0:0:0:0:
109,192,265373,128,0,265539:0:0:0:0:
329,192,265373,1,0,0:0:0:0:
36,192,265539,1,0,0:0:0:0:
256,192,265539,1,0,0:0:0:0:
402,192,265539,128,0,265706:0:0:0:0:
182,192,265706,128,0,265873:0:0:0:0:
329,192,265706,128,0,266039:0:0:0:0:
36,192,265873,1,0,0:0:0:0:
109,192,265873,1,0,0:0:0:0:
475,192,265873,1,0,0:0:0:0:
402,192,265873,1,0,0:0:0:0:
182,192,266039,128,0,266206:0:0:0:0:
256,192,266039,128,0,266373:0:0:0:0:
402,192,266206,128,0,266373:0:0:0:0:
109,192,266206,1,0,0:0:0:0:
475,192,266206,1,0,0:0:0:0:
329,192,266373,1,0,0:0:0:0:
182,192,266373,1,0,0:0:0:0:
402,192,266539,128,0,266706:0:0:0:0:
475,192,266539,1,0,0:0:0:0:
36,192,266539,128,0,266873:0:0:0:0:
109,192,266539,1,0,0:0:0:0:
182,192,266706,1,0,0:0:0:0:
329,192,266706,128,0,266873:0:0:0:0:
475,192,266873,1,0,0:0:0:0:
256,192,266873,1,0,0:0:0:0:
109,192,266873,128,0,267039:0:0:0:0:
402,192,267039,128,0,267206:0:0:0:0:
182,192,267039,128,0,267373:0:0:0:0:
475,192,267206,1,0,0:0:0:0:
36,192,267206,1,0,0:0:0:0:
329,192,267206,1,0,0:0:0:0:
109,192,267373,128,0,267539:0:0:0:0:
256,192,267373,128,0,267706:0:0:0:0:
36,192,267539,1,0,0:0:0:0:
475,192,267539,1,0,0:0:0:0:
402,192,267539,128,0,267706:0:0:0:0:
329,192,267706,1,0,0:0:0:0:
182,192,267706,1,0,0:0:0:0:
402,192,267873,1,0,0:0:0:0:
475,192,267873,128,0,268039:0:0:0:0:
36,192,267873,128,0,268206:0:0:0:0:
109,192,267873,1,0,0:0:0:0:
256,192,268039,128,0,268206:0:0:0:0:
182,192,268039,1,0,0:0:0:0:
475,192,268206,1,0,0:0:0:0:
402,192,268206,1,0,0:0:0:0:
329,192,268206,128,0,268373:0:0:0:0:
109,192,268206,1,0,0:0:0:0:
256,192,268373,128,0,268539:0:0:0:0:
182,192,268373,128,0,268539:0:0:0:0:
109,192,268539,1,0,0:0:0:0:
475,192,268539,1,0,0:0:0:0:
402,192,268539,1,0,0:0:0:0:
36,192,268539,1,0,0:0:0:0:
256,192,268706,128,0,268873:0:0:0:0:
329,192,268706,128,0,269039:0:0:0:0:
36,192,268873,1,0,0:0:0:0:
475,192,268873,1,0,0:0:0:0:
182,192,268873,128,0,269039:0:0:0:0:
402,192,269039,1,0,0:0:0:0:
109,192,269039,128,0,269373:0:0:0:0:
475,192,269206,128,0,269373:0:0:0:0:
256,192,269206,1,0,0:0:0:0:
36,192,269206,1,0,0:0:0:0:
182,192,269373,128,0,269539:0:0:0:0:
329,192,269373,128,0,269706:0:0:0:0:
475,192,269539,1,0,0:0:0:0:
36,192,269539,1,0,0:0:0:0:
256,192,269539,1,0,0:0:0:0:
109,192,269706,128,0,269873:0:0:0:0:
182,192,269706,1,0,0:0:0:0:
402,192,269706,128,0,269873:0:0:0:0:
329,192,269873,128,0,270039:0:0:0:0:
256,192,269873,1,0,0:0:0:0:
36,192,269873,128,0,270039:0:0:0:0:
475,192,270039,128,0,270206:0:0:0:0:
256,192,270039,1,0,0:0:0:0:
182,192,270039,128,0,270206:0:0:0:0:
256,192,270206,1,0,0:0:0:0:
109,192,270206,128,0,270373:0:0:0:0:
402,192,270206,1,0,0:0:0:0:
36,192,270206,1,0,0:0:0:0:
182,192,270373,1,0,0:0:0:0:
329,192,270373,1,0,0:0:0:0:
36,192,270539,1,0,0:0:0:0:
402,192,270539,1,0,0:0:0:0:
256,192,270539,128,0,270873:0:0:0:0:
182,192,270623,1,0,0:0:0:0:
109,192,270706,1,0,0:0:0:0:
475,192,270706,1,0,0:0:0:0:
36,192,270789,1,0,0:0:0:0:
182,192,270873,1,0,0:0:0:0:
402,192,270873,1,0,0:0:0:0:
329,192,270873,128,0,271039:0:0:0:0:
109,192,270956,1,0,0:0:0:0:
256,192,271039,1,0,0:0:0:0:
475,192,271039,128,0,271373:0:0:0:0:
182,192,271123,1,0,0:0:0:0:
109,192,271206,1,0,0:0:0:0:
329,192,271206,1,0,0:0:0:0:
402,192,271206,1,0,0:0:0:0:
256,192,271289,1,0,0:0:0:0:
182,192,271373,1,0,0:0:0:0:
36,192,271373,128,0,271706:0:0:0:0:
402,192,271456,1,0,0:0:0:0:
109,192,271539,1,0,0:0:0:0:
256,192,271539,1,0,0:0:0:0:
329,192,271539,1,0,0:0:0:0:
475,192,271623,1,0,0:0:0:0:
182,192,271706,1,0,0:0:0:0:
402,192,271706,1,0,0:0:0:0:
329,192,271789,1,0,0:0:0:0:
475,192,271873,1,0,0:0:0:0:
109,192,271873,1,0,0:0:0:0:
256,192,271873,128,0,272206:0:0:0:0:
329,192,271956,1,0,0:0:0:0:
402,192,272039,1,0,0:0:0:0:
36,192,272039,1,0,0:0:0:0:
475,192,272123,1,0,0:0:0:0:
329,192,272206,1,0,0:0:0:0:
109,192,272206,1,0,0:0:0:0:
182,192,272206,128,0,272373:0:0:0:0:
402,192,272289,1,0,0:0:0:0:
256,192,272373,1,0,0:0:0:0:
36,192,272373,128,0,272706:0:0:0:0:
329,192,272456,1,0,0:0:0:0:
402,192,272539,1,0,0:0:0:0:
182,192,272539,1,0,0:0:0:0:
109,192,272539,1,0,0:0:0:0:
256,192,272623,1,0,0:0:0:0:
329,192,272706,1,0,0:0:0:0:
475,192,272706,128,0,273539:0:0:0:0:
402,192,272789,1,0,0:0:0:0:
182,192,272873,1,0,0:0:0:0:
36,192,272873,1,0,0:0:0:0:
109,192,272873,1,0,0:0:0:0:
256,192,272873,1,0,0:0:0:0:
329,192,272956,1,0,0:0:0:0:
402,192,273039,1,0,0:0:0:0:
36,192,273039,1,0,0:0:0:0:
182,192,273123,1,0,0:0:0:0:
402,192,273206,1,0,0:0:0:0:
109,192,273206,1,0,0:0:0:0:
329,192,273206,1,0,0:0:0:0:
256,192,273289,1,0,0:0:0:0:
182,192,273373,1,0,0:0:0:0:
36,192,273373,1,0,0:0:0:0:
402,192,273456,1,0,0:0:0:0:
109,192,273539,1,0,0:0:0:0:
182,192,273539,1,0,0:0:0:0:
329,192,273539,1,0,0:0:0:0:
256,192,273539,1,0,0:0:0:0:
36,192,273623,1,0,0:0:0:0:
475,192,273706,1,0,0:0:0:0:
402,192,273706,1,0,0:0:0:0:
256,192,273789,1,0,0:0:0:0:
329,192,273873,1,0,0:0:0:0:
36,192,273873,1,0,0:0:0:0:
109,192,273873,1,0,0:0:0:0:
182,192,273956,1,0,0:0:0:0:
402,192,274039,128,0,274206:0:0:0:0:
256,192,274039,1,0,0:0:0:0:
329,192,274123,1,0,0:0:0:0:
182,192,274206,1,0,0:0:0:0:
256,192,274206,1,0,0:0:0:0:
475,192,274206,1,0,0:0:0:0:
36,192,274206,1,0,0:0:0:0:
329,192,274289,1,0,0:0:0:0:
402,192,274373,1,0,0:0:0:0:
109,192,274373,128,0,274539:0:0:0:0:
182,192,274456,1,0,0:0:0:0:
402,192,274539,1,0,0:0:0:0:
36,192,274539,1,0,0:0:0:0:
256,192,274539,1,0,0:0:0:0:
475,192,274539,1,0,0:0:0:0:
182,192,274623,1,0,0:0:0:0:
109,192,274706,1,0,0:0:0:0:
329,192,274706,128,0,274873:0:0:0:0:
256,192,274789,1,0,0:0:0:0:
36,192,274873,1,0,0:0:0:0:
109,192,274873,1,0,0:0:0:0:
475,192,274873,1,0,0:0:0:0:
402,192,274873,1,0,0:0:0:0:
182,192,274956,1,0,0:0:0:0:
256,192,274956,1,0,0:0:0:0:
402,192,275039,1,0,0:0:0:0:
329,192,275039,1,0,0:0:0:0:
36,192,275123,1,0,0:0:0:0:
475,192,275123,1,0,0:0:0:0:
109,192,275206,1,0,0:0:0:0:
182,192,275206,1,0,0:0:0:0:
329,192,275206,1,0,0:0:0:0:
256,192,275206,1,0,0:0:0:0:
475,192,275289,1,0,0:0:0:0:
402,192,275289,1,0,0:0:0:0:
109,192,275373,1,0,0:0:0:0:
36,192,275373,1,0,0:0:0:0:
256,192,275456,1,0,0:0:0:0:
182,192,275456,1,0,0:0:0:0:
402,192,275539,1,0,0:0:0:0:
109,192,275539,1,0,0:0:0:0:
475,192,275539,1,0,0:0:0:0:
329,192,275539,1,0,0:0:0:0:
36,192,275539,1,0,0:0:0:0:
182,192,275623,5,0,0:0:0:0:
256,192,275623,1,0,0:0:0:0:
402,192,275706,1,0,0:0:0:0:
36,192,275706,1,0,0:0:0:0:
329,192,275789,1,0,0:0:0:0:
182,192,275789,1,0,0:0:0:0:
36,192,275873,1,0,0:0:0:0:
402,192,275873,1,0,0:0:0:0:
109,192,275873,1,0,0:0:0:0:
256,192,275956,1,0,0:0:0:0:
475,192,275956,1,0,0:0:0:0:
109,192,276039,1,0,0:0:0:0:
329,192,276039,1,0,0:0:0:0:
36,192,276206,1,0,0:0:0:0:
256,192,276206,1,0,0:0:0:0:
402,192,276206,1,0,0:0:0:0:
475,192,276289,1,0,0:0:0:0:
182,192,276289,1,0,0:0:0:0:
402,192,276373,1,0,0:0:0:0:
109,192,276373,1,0,0:0:0:0:
329,192,276373,1,0,0:0:0:0:
256,192,276456,1,0,0:0:0:0:
36,192,276456,1,0,0:0:0:0:
109,192,276539,1,0,0:0:0:0:
182,192,276539,1,0,0:0:0:0:
475,192,276539,1,0,0:0:0:0:
256,192,276706,1,0,0:0:0:0:
402,192,276706,1,0,0:0:0:0:
36,192,276706,1,0,0:0:0:0:
109,192,276873,1,0,0:0:0:0:
329,192,276873,1,0,0:0:0:0:
475,192,276873,1,0,0:0:0:0:
402,192,276956,1,0,0:0:0:0:
182,192,276956,1,0,0:0:0:0:
109,192,277039,1,0,0:0:0:0:
329,192,277039,1,0,0:0:0:0:
402,192,277123,1,0,0:0:0:0:
182,192,277123,1,0,0:0:0:0:
329,192,277206,1,0,0:0:0:0:
109,192,277206,1,0,0:0:0:0:
256,192,277206,1,0,0:0:0:0:
36,192,277373,1,0,0:0:0:0:
182,192,277373,1,0,0:0:0:0:
256,192,277456,1,0,0:0:0:0:
475,192,277456,1,0,0:0:0:0:
329,192,277539,1,0,0:0:0:0:
109,192,277539,1,0,0:0:0:0:
182,192,277706,1,0,0:0:0:0:
402,192,277706,1,0,0:0:0:0:
36,192,277706,1,0,0:0:0:0:
109,192,277873,1,0,0:0:0:0:
256,192,277873,1,0,0:0:0:0:
475,192,277873,1,0,0:0:0:0:
402,192,277956,1,0,0:0:0:0:
182,192,277956,1,0,0:0:0:0:
36,192,278039,1,0,0:0:0:0:
256,192,278039,1,0,0:0:0:0:
109,192,278123,1,0,0:0:0:0:
329,192,278123,1,0,0:0:0:0:
182,192,278206,1,0,0:0:0:0:
475,192,278206,1,0,0:0:0:0:
402,192,278206,1,0,0:0:0:0:
36,192,278373,1,0,0:0:0:0:
256,192,278373,1,0,0:0:0:0:
329,192,278373,1,0,0:0:0:0:
109,192,278539,1,0,0:0:0:0:
182,192,278539,1,0,0:0:0:0:
402,192,278539,1,0,0:0:0:0:
475,192,278539,1,0,0:0:0:0:
329,192,278623,1,0,0:0:0:0:
36,192,278623,1,0,0:0:0:0:
109,192,278706,1,0,0:0:0:0:
256,192,278706,1,0,0:0:0:0:
182,192,278789,1,0,0:0:0:0:
475,192,278789,1,0,0:0:0:0:
402,192,278873,1,0,0:0:0:0:
36,192,278873,1,0,0:0:0:0:
329,192,278873,1,0,0:0:0:0:
109,192,279039,1,0,0:0:0:0:
256,192,279039,1,0,0:0:0:0:
475,192,279039,1,0,0:0:0:0:
182,192,279206,1,0,0:0:0:0:
36,192,279206,1,0,0:0:0:0:
329,192,279206,1,0,0:0:0:0:
402,192,279206,1,0,0:0:0:0:
109,192,279373,1,0,0:0:0:0:
475,192,279373,1,0,0:0:0:0:
182,192,279539,1,0,0:0:0:0:
256,192,279539,1,0,0:0:0:0:
329,192,279539,1,0,0:0:0:0:
36,192,279623,1,0,0:0:0:0:
475,192,279623,1,0,0:0:0:0:
182,192,279706,1,0,0:0:0:0:
329,192,279706,1,0,0:0:0:0:
36,192,279789,1,0,0:0:0:0:
475,192,279789,1,0,0:0:0:0:
182,192,279873,1,0,0:0:0:0:
329,192,279873,1,0,0:0:0:0:
256,192,279873,1,0,0:0:0:0:
36,192,280039,1,0,0:0:0:0:
475,192,280039,1,0,0:0:0:0:
256,192,280039,1,0,0:0:0:0:
109,192,280206,1,0,0:0:0:0:
182,192,280206,1,0,0:0:0:0:
329,192,280206,1,0,0:0:0:0:
182,192,280373,1,0,0:0:0:0:
329,192,280373,1,0,0:0:0:0:
402,192,280373,1,0,0:0:0:0:
256,192,280539,1,0,0:0:0:0:
36,192,280539,1,0,0:0:0:0:
109,192,280539,1,0,0:0:0:0:
475,192,280539,1,0,0:0:0:0:
182,192,280706,1,0,0:0:0:0:
329,192,280706,1,0,0:0:0:0:
402,192,280706,1,0,0:0:0:0:
36,192,280873,1,0,0:0:0:0:
256,192,280873,1,0,0:0:0:0:
475,192,280873,1,0,0:0:0:0:
109,192,280956,1,0,0:0:0:0:
329,192,280956,1,0,0:0:0:0:
182,192,281039,1,0,0:0:0:0:
402,192,281039,1,0,0:0:0:0:
36,192,281123,1,0,0:0:0:0:
256,192,281123,1,0,0:0:0:0:
109,192,281206,1,0,0:0:0:0:
475,192,281206,1,0,0:0:0:0:
402,192,281206,1,0,0:0:0:0:
182,192,281373,1,0,0:0:0:0:
329,192,281373,1,0,0:0:0:0:
36,192,281373,1,0,0:0:0:0:
256,192,281539,1,0,0:0:0:0:
402,192,281539,1,0,0:0:0:0:
475,192,281539,1,0,0:0:0:0:
109,192,281623,1,0,0:0:0:0:
329,192,281623,1,0,0:0:0:0:
36,192,281706,1,0,0:0:0:0:
256,192,281706,1,0,0:0:0:0:
182,192,281789,1,0,0:0:0:0:
475,192,281789,1,0,0:0:0:0:
402,192,281873,1,0,0:0:0:0:
329,192,281873,1,0,0:0:0:0:
109,192,281873,1,0,0:0:0:0:
256,192,282039,1,0,0:0:0:0:
36,192,282039,1,0,0:0:0:0:
475,192,282039,1,0,0:0:0:0:
109,192,282206,1,0,0:0:0:0:
182,192,282206,1,0,0:0:0:0:
329,192,282206,1,0,0:0:0:0:
256,192,282289,1,0,0:0:0:0:
402,192,282373,1,0,0:0:0:0:
36,192,282373,1,0,0:0:0:0:
475,192,282373,1,0,0:0:0:0:
256,192,282456,1,0,0:0:0:0:
329,192,282539,1,0,0:0:0:0:
109,192,282539,1,0,0:0:0:0:
182,192,282539,1,0,0:0:0:0:
256,192,282706,1,0,0:0:0:0:
36,192,282706,1,0,0:0:0:0:
109,192,282873,1,0,0:0:0:0:
402,192,282873,1,0,0:0:0:0:
475,192,282873,1,0,0:0:0:0:
36,192,283039,1,0,0:0:0:0:
109,192,283039,1,0,0:0:0:0:
402,192,283039,1,0,0:0:0:0:
182,192,283206,1,0,0:0:0:0:
256,192,283206,1,0,0:0:0:0:
329,192,283206,1,0,0:0:0:0:
109,192,283373,1,0,0:0:0:0:
402,192,283373,1,0,0:0:0:0:
36,192,283539,1,0,0:0:0:0:
182,192,283539,1,0,0:0:0:0:
329,192,283539,1,0,0:0:0:0:
475,192,283539,1,0,0:0:0:0:
109,192,283623,1,0,0:0:0:0:
256,192,283623,1,0,0:0:0:0:
182,192,283706,1,0,0:0:0:0:
402,192,283706,1,0,0:0:0:0:
329,192,283789,1,0,0:0:0:0:
36,192,283789,1,0,0:0:0:0:
256,192,283873,1,0,0:0:0:0:
475,192,283873,1,0,0:0:0:0:
109,192,283873,1,0,0:0:0:0:
182,192,284039,1,0,0:0:0:0:
402,192,284039,1,0,0:0:0:0:
256,192,284206,1,0,0:0:0:0:
329,192,284206,1,0,0:0:0:0:
36,192,284206,1,0,0:0:0:0:
475,192,284206,1,0,0:0:0:0:
109,192,284289,1,0,0:0:0:0:
402,192,284289,1,0,0:0:0:0:
182,192,284373,1,0,0:0:0:0:
256,192,284373,1,0,0:0:0:0:
329,192,284456,1,0,0:0:0:0:
36,192,284456,1,0,0:0:0:0:
109,192,284539,1,0,0:0:0:0:
402,192,284539,1,0,0:0:0:0:
475,192,284539,1,0,0:0:0:0:
182,192,284706,1,0,0:0:0:0:
329,192,284706,1,0,0:0:0:0:
256,192,284873,1,0,0:0:0:0:
36,192,284873,1,0,0:0:0:0:
475,192,284873,1,0,0:0:0:0:
402,192,284873,1,0,0:0:0:0:
109,192,284956,1,0,0:0:0:0:
329,192,284956,1,0,0:0:0:0:
182,192,285039,5,0,0:0:0:0:
475,192,285039,1,0,0:0:0:0:
256,192,285123,1,0,0:0:0:0:
402,192,285123,1,0,0:0:0:0:
329,192,285206,1,0,0:0:0:0:
109,192,285206,1,0,0:0:0:0:
182,192,285206,1,0,0:0:0:0:
36,192,285206,1,0,0:0:0:0:
256,192,285289,1,0,0:0:0:0:
475,192,285289,1,0,0:0:0:0:
36,192,285373,1,0,0:0:0:0:
402,192,285373,1,0,0:0:0:0:
109,192,285456,1,0,0:0:0:0:
329,192,285456,1,0,0:0:0:0:
182,192,285539,1,0,0:0:0:0:
256,192,285539,1,0,0:0:0:0:
402,192,285539,1,0,0:0:0:0:
475,192,285539,1,0,0:0:0:0:
36,192,285623,1,0,0:0:0:0:
329,192,285623,1,0,0:0:0:0:
109,192,285706,1,0,0:0:0:0:
475,192,285706,1,0,0:0:0:0:
182,192,285789,1,0,0:0:0:0:
402,192,285789,1,0,0:0:0:0:
36,192,285873,1,0,0:0:0:0:
109,192,285873,1,0,0:0:0:0:
256,192,285873,1,0,0:0:0:0:
329,192,285873,1,0,0:0:0:0:
182,192,285956,1,0,0:0:0:0:
475,192,285956,1,0,0:0:0:0:
402,192,286039,1,0,0:0:0:0:
36,192,286039,1,0,0:0:0:0:
329,192,286123,1,0,0:0:0:0:
109,192,286123,1,0,0:0:0:0:
182,192,286206,5,0,0:0:0:0:
402,192,286206,1,0,0:0:0:0:
475,192,286206,1,0,0:0:0:0:
256,192,286289,1,0,0:0:0:0:
36,192,286289,1,0,0:0:0:0:
109,192,286373,1,0,0:0:0:0:
329,192,286373,1,0,0:0:0:0:
182,192,286456,1,0,0:0:0:0:
402,192,286456,1,0,0:0:0:0:
256,192,286539,1,0,0:0:0:0:
475,192,286539,1,0,0:0:0:0:
36,192,286539,1,0,0:0:0:0:
182,192,286623,1,0,0:0:0:0:
402,192,286623,1,0,0:0:0:0:
109,192,286706,1,0,0:0:0:0:
329,192,286706,1,0,0:0:0:0:
36,192,286789,1,0,0:0:0:0:
256,192,286789,1,0,0:0:0:0:
182,192,286873,1,0,0:0:0:0:
475,192,286873,1,0,0:0:0:0:
109,192,286956,1,0,0:0:0:0:
402,192,286956,1,0,0:0:0:0:
36,192,287039,1,0,0:0:0:0:
329,192,287039,1,0,0:0:0:0:
402,192,287123,1,0,0:0:0:0:
256,192,287123,1,0,0:0:0:0:
475,192,287206,1,0,0:0:0:0:
109,192,287206,1,0,0:0:0:0:
36,192,287206,1,0,0:0:0:0:
182,192,287206,1,0,0:0:0:0:
256,192,287289,1,0,0:0:0:0:
329,192,287289,1,0,0:0:0:0:
402,192,287289,1,0,0:0:0:0:
182,192,287373,1,0,0:0:0:0:
109,192,287373,1,0,0:0:0:0:
36,192,287373,1,0,0:0:0:0:
256,192,287456,1,0,0:0:0:0:
329,192,287456,1,0,0:0:0:0:
402,192,287456,1,0,0:0:0:0:
36,192,287539,1,0,0:0:0:0:
109,192,287539,1,0,0:0:0:0:
475,192,287539,1,0,0:0:0:0:
402,192,287623,1,0,0:0:0:0:
182,192,287623,1,0,0:0:0:0:
329,192,287706,1,0,0:0:0:0:
109,192,287706,1,0,0:0:0:0:
256,192,287789,1,0,0:0:0:0:
36,192,287789,1,0,0:0:0:0:
182,192,287873,1,0,0:0:0:0:
402,192,287873,1,0,0:0:0:0:
475,192,287873,1,0,0:0:0:0:
256,192,287956,1,0,0:0:0:0:
36,192,287956,1,0,0:0:0:0:
329,192,288039,1,0,0:0:0:0:
109,192,288039,1,0,0:0:0:0:
402,192,288123,1,0,0:0:0:0:
182,192,288123,1,0,0:0:0:0:
475,192,288206,1,0,0:0:0:0:
256,192,288206,1,0,0:0:0:0:
402,192,288289,1,0,0:0:0:0:
36,192,288289,1,0,0:0:0:0:
329,192,288373,1,0,0:0:0:0:
109,192,288373,1,0,0:0:0:0:
256,192,288456,1,0,0:0:0:0:
182,192,288456,1,0,0:0:0:0:
109,192,288539,1,0,0:0:0:0:
475,192,288539,1,0,0:0:0:0:
36,192,288539,1,0,0:0:0:0:
402,192,288581,1,0,0:0:0:0:
329,192,288623,1,0,0:0:0:0:
256,192,288664,1,0,0:0:0:0:
182,192,288706,1,0,0:0:0:0:
36,192,288706,1,0,0:0:0:0:
329,192,288789,1,0,0:0:0:0:
402,192,288873,1,0,0:0:0:0:
475,192,288873,1,0,0:0:0:0:
182,192,288873,1,0,0:0:0:0:
109,192,288873,1,0,0:0:0:0:
329,192,288956,1,0,0:0:0:0:
36,192,288956,1,0,0:0:0:0:
256,192,289039,1,0,0:0:0:0:
475,192,289039,1,0,0:0:0:0:
182,192,289123,1,0,0:0:0:0:
402,192,289123,1,0,0:0:0:0:
109,192,289206,1,0,0:0:0:0:
329,192,289206,1,0,0:0:0:0:
36,192,289206,1,0,0:0:0:0:
182,192,289289,1,0,0:0:0:0:
402,192,289289,1,0,0:0:0:0:
256,192,289373,1,0,0:0:0:0:
475,192,289373,1,0,0:0:0:0:
329,192,289456,1,0,0:0:0:0:
36,192,289456,1,0,0:0:0:0:
402,192,289539,1,0,0:0:0:0:
109,192,289539,1,0,0:0:0:0:
329,192,289623,1,0,0:0:0:0:
182,192,289623,1,0,0:0:0:0:
256,192,289706,1,0,0:0:0:0:
475,192,289706,1,0,0:0:0:0:
182,192,289789,1,0,0:0:0:0:
402,192,289789,1,0,0:0:0:0:
109,192,289873,1,0,0:0:0:0:
36,192,289873,1,0,0:0:0:0:
329,192,289873,1,0,0:0:0:0:
475,192,289956,1,0,0:0:0:0:
402,192,289956,1,0,0:0:0:0:
109,192,290039,1,0,0:0:0:0:
36,192,290039,1,0,0:0:0:0:
256,192,290039,1,0,0:0:0:0:
402,192,290123,1,0,0:0:0:0:
475,192,290123,1,0,0:0:0:0:
182,192,290206,1,0,0:0:0:0:
329,192,290206,1,0,0:0:0:0:
256,192,290206,1,0,0:0:0:0:
109,192,290289,1,0,0:0:0:0:
256,192,290373,1,0,0:0:0:0:
329,192,290373,1,0,0:0:0:0:
36,192,290373,1,0,0:0:0:0:
475,192,290456,1,0,0:0:0:0:
182,192,290456,1,0,0:0:0:0:
402,192,290539,1,0,0:0:0:0:
36,192,290539,1,0,0:0:0:0:
109,192,290539,1,0,0:0:0:0:
329,192,290623,1,0,0:0:0:0:
256,192,290623,1,0,0:0:0:0:
402,192,290706,1,0,0:0:0:0:
36,192,290706,1,0,0:0:0:0:
109,192,290706,1,0,0:0:0:0:
475,192,290789,1,0,0:0:0:0:
256,192,290873,1,0,0:0:0:0:
329,192,290873,1,0,0:0:0:0:
182,192,290873,1,0,0:0:0:0:
36,192,290956,1,0,0:0:0:0:
475,192,290956,1,0,0:0:0:0:
109,192,291039,1,0,0:0:0:0:
402,192,291039,1,0,0:0:0:0:
182,192,291123,1,0,0:0:0:0:
329,192,291123,1,0,0:0:0:0:
256,192,291206,1,0,0:0:0:0:
475,192,291206,1,0,0:0:0:0:
36,192,291206,1,0,0:0:0:0:
402,192,291289,1,0,0:0:0:0:
329,192,291373,1,0,0:0:0:0:
109,192,291373,1,0,0:0:0:0:
256,192,291456,1,0,0:0:0:0:
182,192,291539,1,0,0:0:0:0:
402,192,291539,1,0,0:0:0:0:
475,192,291539,1,0,0:0:0:0:
36,192,291539,1,0,0:0:0:0:
329,192,291623,1,0,0:0:0:0:
256,192,291623,1,0,0:0:0:0:
182,192,291706,1,0,0:0:0:0:
109,192,291706,1,0,0:0:0:0:
256,192,291789,1,0,0:0:0:0:
329,192,291789,1,0,0:0:0:0:
475,192,291873,1,0,0:0:0:0:
402,192,291873,1,0,0:0:0:0:
36,192,291873,1,0,0:0:0:0:
109,192,291873,1,0,0:0:0:0:
329,192,291956,1,0,0:0:0:0:
182,192,291956,1,0,0:0:0:0:
256,192,292039,1,0,0:0:0:0:
109,192,292039,1,0,0:0:0:0:
182,192,292123,1,0,0:0:0:0:
36,192,292123,1,0,0:0:0:0:
329,192,292206,1,0,0:0:0:0:
402,192,292206,1,0,0:0:0:0:
475,192,292206,1,0,0:0:0:0:
182,192,292289,1,0,0:0:0:0:
256,192,292289,1,0,0:0:0:0:
109,192,292289,1,0,0:0:0:0:
329,192,292373,1,0,0:0:0:0:
402,192,292373,1,0,0:0:0:0:
475,192,292373,1,0,0:0:0:0:
256,192,292456,1,0,0:0:0:0:
36,192,292539,1,0,0:0:0:0:
109,192,292539,1,0,0:0:0:0:
182,192,292539,1,0,0:0:0:0:
256,192,292623,1,0,0:0:0:0:
329,192,292623,1,0,0:0:0:0:
402,192,292623,1,0,0:0:0:0:
182,192,292706,1,0,0:0:0:0:
109,192,292706,1,0,0:0:0:0:
36,192,292706,1,0,0:0:0:0:
475,192,292789,1,0,0:0:0:0:
182,192,292873,1,0,0:0:0:0:
256,192,292873,1,0,0:0:0:0:
329,192,292873,1,0,0:0:0:0:
36,192,292956,1,0,0:0:0:0:
402,192,292956,1,0,0:0:0:0:
109,192,293039,1,0,0:0:0:0:
475,192,293039,1,0,0:0:0:0:
182,192,293123,1,0,0:0:0:0:
402,192,293123,1,0,0:0:0:0:
256,192,293206,1,0,0:0:0:0:
329,192,293206,1,0,0:0:0:0:
36,192,293206,1,0,0:0:0:0:
182,192,293289,1,0,0:0:0:0:
475,192,293289,1,0,0:0:0:0:
109,192,293373,1,0,0:0:0:0:
402,192,293373,1,0,0:0:0:0:
36,192,293456,1,0,0:0:0:0:
329,192,293456,1,0,0:0:0:0:
475,192,293539,1,0,0:0:0:0:
256,192,293539,1,0,0:0:0:0:
402,192,293623,1,0,0:0:0:0:
36,192,293623,1,0,0:0:0:0:
329,192,293706,1,0,0:0:0:0:
109,192,293706,1,0,0:0:0:0:
475,192,293789,1,0,0:0:0:0:
182,192,293789,1,0,0:0:0:0:
36,192,293873,1,0,0:0:0:0:
329,192,293873,1,0,0:0:0:0:
402,192,293873,1,0,0:0:0:0:
109,192,293914,1,0,0:0:0:0:
182,192,293956,1,0,0:0:0:0:
256,192,293998,1,0,0:0:0:0:
475,192,294039,1,0,0:0:0:0:
402,192,294081,1,0,0:0:0:0:
329,192,294123,1,0,0:0:0:0:
256,192,294164,1,0,0:0:0:0:
182,192,294206,1,0,0:0:0:0:
109,192,294206,1,0,0:0:0:0:
475,192,294206,1,0,0:0:0:0:
36,192,294206,1,0,0:0:0:0:
402,192,294289,1,0,0:0:0:0:
256,192,294289,1,0,0:0:0:0:
329,192,294373,1,0,0:0:0:0:
182,192,294373,1,0,0:0:0:0:
256,192,294456,1,0,0:0:0:0:
109,192,294456,1,0,0:0:0:0:
182,192,294539,1,0,0:0:0:0:
402,192,294539,1,0,0:0:0:0:
475,192,294539,1,0,0:0:0:0:
36,192,294623,1,0,0:0:0:0:
256,192,294623,1,0,0:0:0:0:
109,192,294706,1,0,0:0:0:0:
329,192,294706,1,0,0:0:0:0:
402,192,294789,1,0,0:0:0:0:
182,192,294789,1,0,0:0:0:0:
109,192,294873,1,0,0:0:0:0:
36,192,294873,1,0,0:0:0:0:
475,192,294873,1,0,0:0:0:0:
256,192,294873,1,0,0:0:0:0:
182,192,294956,1,0,0:0:0:0:
402,192,294956,1,0,0:0:0:0:
256,192,295039,1,0,0:0:0:0:
329,192,295039,1,0,0:0:0:0:
36,192,295123,1,0,0:0:0:0:
475,192,295123,1,0,0:0:0:0:
109,192,295206,1,0,0:0:0:0:
329,192,295206,1,0,0:0:0:0:
402,192,295248,1,0,0:0:0:0:
182,192,295289,1,0,0:0:0:0:
475,192,295289,1,0,0:0:0:0:
109,192,295373,1,0,0:0:0:0:
256,192,295373,1,0,0:0:0:0:
36,192,295456,1,0,0:0:0:0:
329,192,295456,1,0,0:0:0:0:
402,192,295539,5,0,0:0:0:0:
475,192,295539,1,0,0:0:0:0:
182,192,295539,1,0,0:0:0:0:
256,192,295539,1,0,0:0:0:0:
109,192,295623,1,0,0:0:0:0:
36,192,295623,1,0,0:0:0:0:
182,192,295706,1,0,0:0:0:0:
256,192,295706,1,0,0:0:0:0:
329,192,295789,1,0,0:0:0:0:
402,192,295789,1,0,0:0:0:0:
475,192,295873,1,0,0:0:0:0:
36,192,295873,1,0,0:0:0:0:
109,192,295873,1,0,0:0:0:0:
182,192,295873,1,0,0:0:0:0:
256,192,295956,1,0,0:0:0:0:
329,192,295956,1,0,0:0:0:0:
402,192,296039,1,0,0:0:0:0:
475,192,296039,1,0,0:0:0:0:
256,192,296123,1,0,0:0:0:0:
182,192,296123,1,0,0:0:0:0:
109,192,296206,1,0,0:0:0:0:
36,192,296206,1,0,0:0:0:0:
402,192,296206,1,0,0:0:0:0:
475,192,296206,1,0,0:0:0:0:
329,192,296289,1,0,0:0:0:0:
256,192,296289,1,0,0:0:0:0:
36,192,296373,1,0,0:0:0:0:
109,192,296373,1,0,0:0:0:0:
182,192,296456,1,0,0:0:0:0:
256,192,296456,1,0,0:0:0:0:
329,192,296539,1,0,0:0:0:0:
402,192,296539,1,0,0:0:0:0:
475,192,296539,1,0,0:0:0:0:
36,192,296539,1,0,0:0:0:0:
182,192,296706,128,0,297039:0:0:0:0:
475,192,296873,128,0,297206:0:0:0:0:
36,192,296873,1,0,0:0:0:0:
109,192,296873,1,0,0:0:0:0:
402,192,296873,128,0,297206:0:0:0:0:
329,192,297039,128,0,297206:0:0:0:0:
182,192,297206,1,0,0:0:0:0:
36,192,297206,1,0,0:0:0:0:
329,192,297373,128,0,297706:0:0:0:0:
36,192,297539,128,0,297873:0:0:0:0:
182,192,297539,128,0,297873:0:0:0:0:
475,192,297539,1,0,0:0:0:0:
256,192,297706,128,0,297873:0:0:0:0:
109,192,297873,128,0,298206:0:0:0:0:
475,192,297873,128,0,298539:0:0:0:0:
329,192,297873,128,0,298206:0:0:0:0:
256,192,298039,1,0,0:0:0:0:
402,192,298206,128,0,298539:0:0:0:0:
36,192,298206,128,0,298539:0:0:0:0:
182,192,298206,128,0,298873:0:0:0:0:
329,192,298373,1,0,0:0:0:0:
256,192,298539,128,0,298873:0:0:0:0:
109,192,298539,128,0,299539:0:0:0:0:
402,192,298706,1,0,0:0:0:0:
475,192,298873,128,0,299539:0:0:0:0:
36,192,298873,128,0,299206:0:0:0:0:
329,192,298873,128,0,299206:0:0:0:0:
256,192,299039,1,0,0:0:0:0:
402,192,299206,128,0,299539:0:0:0:0:
182,192,299206,128,0,299539:0:0:0:0:
329,192,299373,128,0,299539:0:0:0:0:
36,192,299539,1,0,0:0:0:0:
256,192,299539,1,0,0:0:0:0:
182,192,299706,1,0,0:0:0:0:
475,192,299706,128,0,300539:0:0:0:0:
329,192,299873,128,0,300039:0:0:0:0:
36,192,299873,1,0,0:0:0:0:
109,192,299873,1,0,0:0:0:0:
182,192,300039,128,0,300539:0:0:0:0:
402,192,300039,1,0,0:0:0:0:
36,192,300206,128,0,300539:0:0:0:0:
109,192,300206,1,0,0:0:0:0:
256,192,300206,1,0,0:0:0:0:
329,192,300289,1,0,0:0:0:0:
402,192,300373,1,0,0:0:0:0:
329,192,300539,1,0,0:0:0:0:
256,192,300539,1,0,0:0:0:0:
109,192,300539,128,0,300873:0:0:0:0:
402,192,300706,128,0,300873:0:0:0:0:
256,192,300706,1,0,0:0:0:0:
475,192,300873,128,0,301206:0:0:0:0:
182,192,300873,128,0,301206:0:0:0:0:
329,192,301039,128,0,301206:0:0:0:0:
36,192,301039,128,0,301539:0:0:0:0:
256,192,301206,128,0,301539:0:0:0:0:
402,192,301206,128,0,301539:0:0:0:0:
109,192,301373,128,0,301539:0:0:0:0:
182,192,301539,128,0,301706:0:0:0:0:
475,192,301539,128,0,301873:0:0:0:0:
329,192,301539,128,0,301873:0:0:0:0:
256,192,301706,128,0,301873:0:0:0:0:
109,192,301706,128,0,301873:0:0:0:0:
36,192,301873,128,0,302206:0:0:0:0:
182,192,301873,128,0,302206:0:0:0:0:
402,192,301873,128,0,302206:0:0:0:0:
329,192,302039,128,0,302373:0:0:0:0:
256,192,302206,1,0,0:0:0:0:
109,192,302206,128,0,302539:0:0:0:0:
475,192,302206,128,0,302539:0:0:0:0:
256,192,302373,128,0,302539:0:0:0:0:
402,192,302539,1,0,0:0:0:0:
182,192,302539,128,0,302706:0:0:0:0:
36,192,302539,128,0,302706:0:0:0:0:
329,192,302706,128,0,303039:0:0:0:0:
109,192,302873,128,0,303206:0:0:0:0:
36,192,302873,128,0,303206:0:0:0:0:
475,192,302873,1,0,0:0:0:0:
182,192,303039,128,0,303206:0:0:0:0:
475,192,303206,128,0,303873:0:0:0:0:
329,192,303206,128,0,303539:0:0:0:0:
256,192,303206,128,0,303539:0:0:0:0:
109,192,303373,1,0,0:0:0:0:
36,192,303539,128,0,304206:0:0:0:0:
402,192,303539,128,0,303873:0:0:0:0:
182,192,303539,128,0,303873:0:0:0:0:
256,192,303706,1,0,0:0:0:0:
109,192,303873,128,0,304206:0:0:0:0:
329,192,303873,128,0,304539:0:0:0:0:
182,192,304039,1,0,0:0:0:0:
475,192,304206,128,0,304539:0:0:0:0:
402,192,304206,128,0,304539:0:0:0:0:
109,192,304373,1,0,0:0:0:0:
36,192,304539,128,0,304873:0:0:0:0:
182,192,304539,128,0,304873:0:0:0:0:
256,192,304539,128,0,304873:0:0:0:0:
402,192,304706,128,0,304873:0:0:0:0:
329,192,304873,1,0,0:0:0:0:
109,192,304873,1,0,0:0:0:0:
475,192,304873,1,0,0:0:0:0:
256,192,305039,5,0,0:0:0:0:
182,192,305206,1,0,0:0:0:0:
402,192,305206,1,0,0:0:0:0:
329,192,305373,1,0,0:0:0:0:
182,192,305539,128,0,305873:0:0:0:0:
256,192,305539,1,0,0:0:0:0:
36,192,305539,1,0,0:0:0:0:
402,192,305539,1,0,0:0:0:0:
475,192,305706,128,0,305873:0:0:0:0:
329,192,305706,1,0,0:0:0:0:
256,192,305873,128,0,306206:0:0:0:0:
36,192,305873,1,0,0:0:0:0:
109,192,305873,1,0,0:0:0:0:
402,192,306039,128,0,306206:0:0:0:0:
182,192,306039,1,0,0:0:0:0:
109,192,306206,1,0,0:0:0:0:
475,192,306206,1,0,0:0:0:0:
36,192,306206,1,0,0:0:0:0:
402,192,306289,1,0,0:0:0:0:
256,192,306289,1,0,0:0:0:0:
182,192,306373,1,0,0:0:0:0:
329,192,306373,1,0,0:0:0:0:
109,192,306456,1,0,0:0:0:0:
36,192,306456,1,0,0:0:0:0:
475,192,306539,1,0,0:0:0:0:
329,192,306539,1,0,0:0:0:0:
256,192,306539,1,0,0:0:0:0:
182,192,306623,1,0,0:0:0:0:
109,192,306623,1,0,0:0:0:0:
475,192,306706,1,0,0:0:0:0:
402,192,306706,1,0,0:0:0:0:
256,192,306789,1,0,0:0:0:0:
36,192,306789,1,0,0:0:0:0:
475,192,306873,1,0,0:0:0:0:
109,192,306873,1,0,0:0:0:0:
402,192,306873,1,0,0:0:0:0:
182,192,306956,1,0,0:0:0:0:
329,192,306956,1,0,0:0:0:0:
109,192,307039,1,0,0:0:0:0:
36,192,307039,1,0,0:0:0:0:
256,192,307123,1,0,0:0:0:0:
475,192,307123,1,0,0:0:0:0:
109,192,307206,1,0,0:0:0:0:
36,192,307206,1,0,0:0:0:0:
402,192,307206,1,0,0:0:0:0:
182,192,307289,1,0,0:0:0:0:
329,192,307289,1,0,0:0:0:0:
256,192,307373,1,0,0:0:0:0:
475,192,307373,1,0,0:0:0:0:
182,192,307456,1,0,0:0:0:0:
329,192,307456,1,0,0:0:0:0:
475,192,307539,1,0,0:0:0:0:
36,192,307539,128,0,307873:0:0:0:0:
109,192,307539,1,0,0:0:0:0:
402,192,307539,1,0,0:0:0:0:
182,192,307706,1,0,0:0:0:0:
329,192,307706,1,0,0:0:0:0:
256,192,307873,1,0,0:0:0:0:
402,192,307873,1,0,0:0:0:0:
475,192,307873,1,0,0:0:0:0:
182,192,308039,128,0,308206:0:0:0:0:
329,192,308039,1,0,0:0:0:0:
109,192,308039,1,0,0:0:0:0:
109,192,308206,128,0,308539:0:0:0:0:
256,192,308206,1,0,0:0:0:0:
402,192,308206,1,0,0:0:0:0:
36,192,308206,1,0,0:0:0:0:
329,192,308373,1,0,0:0:0:0:
475,192,308373,1,0,0:0:0:0:
36,192,308539,1,0,0:0:0:0:
182,192,308539,1,0,0:0:0:0:
402,192,308539,1,0,0:0:0:0:
256,192,308706,1,0,0:0:0:0:
475,192,308706,1,0,0:0:0:0:
329,192,308706,1,0,0:0:0:0:
329,192,308873,128,0,309206:0:0:0:0:
109,192,308873,1,0,0:0:0:0:
36,192,308873,1,0,0:0:0:0:
182,192,309039,1,0,0:0:0:0:
475,192,309039,1,0,0:0:0:0:
256,192,309206,1,0,0:0:0:0:
36,192,309206,1,0,0:0:0:0:
109,192,309206,1,0,0:0:0:0:
402,192,309206,1,0,0:0:0:0:
402,192,309373,128,0,309539:0:0:0:0:
182,192,309373,1,0,0:0:0:0:
329,192,309373,1,0,0:0:0:0:
475,192,309373,1,0,0:0:0:0:
475,192,309539,128,0,309873:0:0:0:0:
256,192,309539,1,0,0:0:0:0:
109,192,309539,1,0,0:0:0:0:
182,192,309706,1,0,0:0:0:0:
402,192,309706,1,0,0:0:0:0:
36,192,309873,1,0,0:0:0:0:
256,192,309873,1,0,0:0:0:0:
329,192,309873,1,0,0:0:0:0:
109,192,310039,1,0,0:0:0:0:
402,192,310039,1,0,0:0:0:0:
329,192,310206,1,0,0:0:0:0:
182,192,310206,1,0,0:0:0:0:
475,192,310206,128,0,310539:0:0:0:0:
256,192,310206,1,0,0:0:0:0:
256,192,310373,128,0,310539:0:0:0:0:
109,192,310373,1,0,0:0:0:0:
36,192,310373,1,0,0:0:0:0:
36,192,310539,128,0,310873:0:0:0:0:
182,192,310539,1,0,0:0:0:0:
402,192,310539,1,0,0:0:0:0:
402,192,310706,128,0,310873:0:0:0:0:
329,192,310706,1,0,0:0:0:0:
109,192,310706,1,0,0:0:0:0:
329,192,310873,128,0,311206:0:0:0:0:
256,192,310873,1,0,0:0:0:0:
182,192,310873,1,0,0:0:0:0:
256,192,311039,128,0,311206:0:0:0:0:
36,192,311039,1,0,0:0:0:0:
109,192,311039,1,0,0:0:0:0:
475,192,311039,1,0,0:0:0:0:
109,192,311206,128,0,311539:0:0:0:0:
182,192,311206,1,0,0:0:0:0:
402,192,311206,1,0,0:0:0:0:
402,192,311373,128,0,311539:0:0:0:0:
36,192,311373,1,0,0:0:0:0:
256,192,311373,1,0,0:0:0:0:
475,192,311373,1,0,0:0:0:0:
475,192,311539,128,0,312206:0:0:0:0:
329,192,311539,1,0,0:0:0:0:
182,192,311539,1,0,0:0:0:0:
329,192,311706,128,0,312206:0:0:0:0:
36,192,311706,1,0,0:0:0:0:
256,192,311706,1,0,0:0:0:0:
36,192,311873,128,0,312206:0:0:0:0:
182,192,311873,1,0,0:0:0:0:
402,192,311873,1,0,0:0:0:0:
182,192,312039,128,0,312206:0:0:0:0:
256,192,312039,1,0,0:0:0:0:
109,192,312206,128,0,312373:0:0:0:0:
402,192,312206,128,0,312373:0:0:0:0:
256,192,312206,1,0,0:0:0:0:
182,192,312373,128,0,312539:0:0:0:0:
329,192,312373,128,0,312539:0:0:0:0:
36,192,312373,1,0,0:0:0:0:
475,192,312373,1,0,0:0:0:0:
36,192,312539,1,0,0:0:0:0:
256,192,312539,1,0,0:0:0:0:
402,192,312623,1,0,0:0:0:0:
109,192,312623,1,0,0:0:0:0:
475,192,312706,1,0,0:0:0:0:
256,192,312706,1,0,0:0:0:0:
402,192,312789,1,0,0:0:0:0:
182,192,312789,1,0,0:0:0:0:
36,192,312873,1,0,0:0:0:0:
329,192,312873,1,0,0:0:0:0:
109,192,312873,1,0,0:0:0:0:
256,192,312873,128,0,314206:0:0:0:0:
475,192,313039,1,0,0:0:0:0:
109,192,313039,1,0,0:0:0:0:
329,192,313206,1,0,0:0:0:0:
182,192,313206,1,0,0:0:0:0:
475,192,313206,1,0,0:0:0:0:
36,192,313373,1,0,0:0:0:0:
402,192,313373,1,0,0:0:0:0:
182,192,313539,1,0,0:0:0:0:
36,192,313539,1,0,0:0:0:0:
329,192,313539,1,0,0:0:0:0:
109,192,313706,1,0,0:0:0:0:
329,192,313706,1,0,0:0:0:0:
402,192,313873,1,0,0:0:0:0:
475,192,313873,1,0,0:0:0:0:
182,192,313873,1,0,0:0:0:0:
36,192,314039,1,0,0:0:0:0:
109,192,314039,1,0,0:0:0:0:
475,192,314039,1,0,0:0:0:0:
36,192,314206,128,0,315206:0:0:0:0:
182,192,314206,1,0,0:0:0:0:
402,192,314206,1,0,0:0:0:0:
182,192,314373,128,0,315539:0:0:0:0:
475,192,314373,1,0,0:0:0:0:
256,192,314373,1,0,0:0:0:0:
402,192,314373,1,0,0:0:0:0:
475,192,314539,128,0,315206:0:0:0:0:
329,192,314539,1,0,0:0:0:0:
109,192,314539,1,0,0:0:0:0:
256,192,314539,1,0,0:0:0:0:
329,192,314706,128,0,315539:0:0:0:0:
402,192,314706,1,0,0:0:0:0:
109,192,314706,1,0,0:0:0:0:
256,192,314873,1,0,0:0:0:0:
109,192,315039,1,0,0:0:0:0:
402,192,315039,1,0,0:0:0:0:
109,192,315206,1,0,0:0:0:0:
402,192,315206,1,0,0:0:0:0:
36,192,315373,1,0,0:0:0:0:
475,192,315373,1,0,0:0:0:0:
36,192,315539,1,0,0:0:0:0:
109,192,315539,1,0,0:0:0:0:
402,192,315539,1,0,0:0:0:0:
475,192,315539,1,0,0:0:0:0:
182,192,315706,1,0,0:0:0:0:
329,192,315706,1,0,0:0:0:0:
256,192,315706,1,0,0:0:0:0:
36,192,315873,1,0,0:0:0:0:
109,192,315873,1,0,0:0:0:0:
402,192,315873,1,0,0:0:0:0:
475,192,315873,1,0,0:0:0:0:
256,192,316039,1,0,0:0:0:0:
36,192,316039,1,0,0:0:0:0:
182,192,316039,1,0,0:0:0:0:
109,192,316206,1,0,0:0:0:0:
329,192,316206,1,0,0:0:0:0:
402,192,316206,1,0,0:0:0:0:
475,192,316206,1,0,0:0:0:0:
36,192,316373,1,0,0:0:0:0:
329,192,316373,1,0,0:0:0:0:
256,192,316539,1,0,0:0:0:0:
109,192,316539,1,0,0:0:0:0:
182,192,316539,1,0,0:0:0:0:
402,192,316539,1,0,0:0:0:0:
36,192,316706,1,0,0:0:0:0:
109,192,316706,1,0,0:0:0:0:
475,192,316706,1,0,0:0:0:0:
182,192,316873,1,0,0:0:0:0:
256,192,316873,1,0,0:0:0:0:
329,192,316873,1,0,0:0:0:0:
402,192,316873,1,0,0:0:0:0:
36,192,317039,1,0,0:0:0:0:
109,192,317039,1,0,0:0:0:0:
402,192,317039,1,0,0:0:0:0:
109,192,317206,1,0,0:0:0:0:
329,192,317206,1,0,0:0:0:0:
475,192,317206,1,0,0:0:0:0:
182,192,317206,1,0,0:0:0:0:
256,192,317373,1,0,0:0:0:0:
36,192,317373,1,0,0:0:0:0:
402,192,317373,1,0,0:0:0:0:
182,192,317373,1,0,0:0:0:0:
109,192,317539,1,0,0:0:0:0:
329,192,317539,1,0,0:0:0:0:
475,192,317539,1,0,0:0:0:0:
182,192,317623,1,0,0:0:0:0:
402,192,317623,1,0,0:0:0:0:
36,192,317706,1,0,0:0:0:0:
329,192,317706,1,0,0:0:0:0:
109,192,317789,1,0,0:0:0:0:
475,192,317789,1,0,0:0:0:0:
182,192,317873,1,0,0:0:0:0:
256,192,317873,1,0,0:0:0:0:
402,192,317873,1,0,0:0:0:0:
36,192,317956,1,0,0:0:0:0:
329,192,317956,1,0,0:0:0:0:
109,192,318039,1,0,0:0:0:0:
475,192,318039,1,0,0:0:0:0:
182,192,318123,1,0,0:0:0:0:
402,192,318123,1,0,0:0:0:0:
256,192,318206,5,0,0:0:0:0:
329,192,318206,1,0,0:0:0:0:
475,192,318206,1,0,0:0:0:0:
109,192,318206,1,0,0:0:0:0:
182,192,318289,1,0,0:0:0:0:
256,192,318373,1,0,0:0:0:0:
475,192,318456,1,0,0:0:0:0:
402,192,318539,128,0,318873:0:0:0:0:
329,192,318539,1,0,0:0:0:0:
109,192,318539,1,0,0:0:0:0:
256,192,318623,1,0,0:0:0:0:
182,192,318706,128,0,318873:0:0:0:0:
109,192,318706,1,0,0:0:0:0:
329,192,318789,1,0,0:0:0:0:
256,192,318873,1,0,0:0:0:0:
36,192,318873,1,0,0:0:0:0:
475,192,318873,1,0,0:0:0:0:
109,192,318956,1,0,0:0:0:0:
182,192,319039,128,0,319289:0:0:0:0:
475,192,319039,1,0,0:0:0:0:
402,192,319123,1,0,0:0:0:0:
329,192,319206,128,0,319539:0:0:0:0:
36,192,319206,1,0,0:0:0:0:
109,192,319206,1,0,0:0:0:0:
256,192,319289,1,0,0:0:0:0:
182,192,319373,128,0,319539:0:0:0:0:
402,192,319373,1,0,0:0:0:0:
109,192,319456,1,0,0:0:0:0:
475,192,319539,128,0,319873:0:0:0:0:
36,192,319539,1,0,0:0:0:0:
256,192,319539,1,0,0:0:0:0:
109,192,319623,1,0,0:0:0:0:
402,192,319706,128,0,319873:0:0:0:0:
182,192,319706,1,0,0:0:0:0:
36,192,319789,1,0,0:0:0:0:
256,192,319873,128,0,320206:0:0:0:0:
109,192,319873,1,0,0:0:0:0:
329,192,319873,1,0,0:0:0:0:
182,192,319956,1,0,0:0:0:0:
109,192,320039,128,0,320206:0:0:0:0:
475,192,320039,1,0,0:0:0:0:
402,192,320123,1,0,0:0:0:0:
36,192,320206,128,0,320873:0:0:0:0:
329,192,320206,1,0,0:0:0:0:
475,192,320206,1,0,0:0:0:0:
182,192,320289,1,0,0:0:0:0:
256,192,320373,1,0,0:0:0:0:
329,192,320456,1,0,0:0:0:0:
402,192,320539,1,0,0:0:0:0:
109,192,320539,1,0,0:0:0:0:
475,192,320539,1,0,0:0:0:0:
182,192,320623,1,0,0:0:0:0:
256,192,320706,1,0,0:0:0:0:
329,192,320789,1,0,0:0:0:0:
402,192,320873,128,0,321206:0:0:0:0:
475,192,320873,1,0,0:0:0:0:
109,192,320873,1,0,0:0:0:0:
256,192,320956,1,0,0:0:0:0:
182,192,321039,128,0,321206:0:0:0:0:
329,192,321039,1,0,0:0:0:0:
109,192,321123,1,0,0:0:0:0:
329,192,321206,128,0,321539:0:0:0:0:
36,192,321206,1,0,0:0:0:0:
475,192,321206,1,0,0:0:0:0:
256,192,321289,1,0,0:0:0:0:
109,192,321373,128,0,321539:0:0:0:0:
182,192,321373,1,0,0:0:0:0:
402,192,321456,1,0,0:0:0:0:
256,192,321539,128,0,322206:0:0:0:0:
475,192,321539,1,0,0:0:0:0:
36,192,321539,1,0,0:0:0:0:
109,192,321623,1,0,0:0:0:0:
182,192,321706,1,0,0:0:0:0:
402,192,321789,1,0,0:0:0:0:
329,192,321873,1,0,0:0:0:0:
475,192,321873,1,0,0:0:0:0:
109,192,321873,1,0,0:0:0:0:
36,192,321956,1,0,0:0:0:0:
182,192,322039,1,0,0:0:0:0:
109,192,322123,1,0,0:0:0:0:
475,192,322206,1,0,0:0:0:0:
36,192,322206,1,0,0:0:0:0:
329,192,322206,128,0,322539:0:0:0:0:
182,192,322289,1,0,0:0:0:0:
109,192,322373,128,0,322539:0:0:0:0:
402,192,322373,1,0,0:0:0:0:
475,192,322456,1,0,0:0:0:0:
256,192,322539,128,0,322873:0:0:0:0:
36,192,322539,1,0,0:0:0:0:
182,192,322539,1,0,0:0:0:0:
402,192,322623,1,0,0:0:0:0:
36,192,322706,128,0,322873:0:0:0:0:
329,192,322706,1,0,0:0:0:0:
475,192,322789,1,0,0:0:0:0:
182,192,322873,128,0,323206:0:0:0:0:
402,192,322873,1,0,0:0:0:0:
109,192,322873,1,0,0:0:0:0:
329,192,322956,1,0,0:0:0:0:
256,192,323039,1,0,0:0:0:0:
329,192,323123,1,0,0:0:0:0:
402,192,323206,1,0,0:0:0:0:
475,192,323206,1,0,0:0:0:0:
36,192,323206,1,0,0:0:0:0:
109,192,323289,1,0,0:0:0:0:
256,192,323373,1,0,0:0:0:0:
182,192,323373,1,0,0:0:0:0:
475,192,323373,1,0,0:0:0:0:
329,192,323456,1,0,0:0:0:0:
36,192,323539,1,0,0:0:0:0:
475,192,323539,1,0,0:0:0:0:
256,192,323539,1,0,0:0:0:0:
402,192,323539,1,0,0:0:0:0:
109,192,323539,128,0,323873:0:0:0:0:
182,192,323623,1,0,0:0:0:0:
475,192,323706,1,0,0:0:0:0:
402,192,323789,1,0,0:0:0:0:
329,192,323873,128,0,324206:0:0:0:0:
256,192,323873,1,0,0:0:0:0:
36,192,323873,1,0,0:0:0:0:
109,192,323956,1,0,0:0:0:0:
182,192,324039,128,0,324206:0:0:0:0:
256,192,324039,1,0,0:0:0:0:
402,192,324123,1,0,0:0:0:0:
475,192,324206,1,0,0:0:0:0:
109,192,324206,1,0,0:0:0:0:
36,192,324206,1,0,0:0:0:0:
256,192,324289,1,0,0:0:0:0:
182,192,324373,128,0,324539:0:0:0:0:
402,192,324373,1,0,0:0:0:0:
329,192,324456,1,0,0:0:0:0:
402,192,324539,128,0,324873:0:0:0:0:
256,192,324539,1,0,0:0:0:0:
475,192,324539,1,0,0:0:0:0:
36,192,324623,1,0,0:0:0:0:
182,192,324706,128,0,324873:0:0:0:0:
109,192,324706,1,0,0:0:0:0:
329,192,324789,1,0,0:0:0:0:
256,192,324873,128,0,325206:0:0:0:0:
109,192,324873,1,0,0:0:0:0:
475,192,324873,1,0,0:0:0:0:
402,192,324956,1,0,0:0:0:0:
36,192,325039,128,0,325206:0:0:0:0:
329,192,325039,1,0,0:0:0:0:
402,192,325123,1,0,0:0:0:0:
109,192,325206,128,0,325539:0:0:0:0:
475,192,325206,1,0,0:0:0:0:
182,192,325206,1,0,0:0:0:0:
256,192,325289,1,0,0:0:0:0:
329,192,325373,128,0,325539:0:0:0:0:
36,192,325373,1,0,0:0:0:0:
182,192,325456,1,0,0:0:0:0:
402,192,325539,128,0,325873:0:0:0:0:
256,192,325539,1,0,0:0:0:0:
475,192,325539,1,0,0:0:0:0:
182,192,325623,1,0,0:0:0:0:
109,192,325706,1,0,0:0:0:0:
36,192,325789,1,0,0:0:0:0:
182,192,325873,1,0,0:0:0:0:
475,192,325873,1,0,0:0:0:0:
256,192,325873,1,0,0:0:0:0:
402,192,325956,1,0,0:0:0:0:
329,192,326039,1,0,0:0:0:0:
256,192,326123,1,0,0:0:0:0:
475,192,326206,128,0,326539:0:0:0:0:
402,192,326206,1,0,0:0:0:0:
109,192,326206,1,0,0:0:0:0:
36,192,326206,1,0,0:0:0:0:
182,192,326206,1,0,0:0:0:0:
329,192,326289,1,0,0:0:0:0:
256,192,326373,128,0,326539:0:0:0:0:
36,192,326373,1,0,0:0:0:0:
109,192,326456,1,0,0:0:0:0:
329,192,326539,128,0,326873:0:0:0:0:
182,192,326539,1,0,0:0:0:0:
402,192,326539,1,0,0:0:0:0:
475,192,326623,1,0,0:0:0:0:
109,192,326706,128,0,326873:0:0:0:0:
402,192,326706,1,0,0:0:0:0:
256,192,326789,1,0,0:0:0:0:
36,192,326873,128,0,327206:0:0:0:0:
182,192,326873,1,0,0:0:0:0:
475,192,326873,1,0,0:0:0:0:
402,192,326873,1,0,0:0:0:0:
329,192,326956,1,0,0:0:0:0:
256,192,327039,128,0,327206:0:0:0:0:
475,192,327039,1,0,0:0:0:0:
402,192,327123,1,0,0:0:0:0:
182,192,327206,128,0,327539:0:0:0:0:
329,192,327206,1,0,0:0:0:0:
109,192,327206,1,0,0:0:0:0:
256,192,327289,1,0,0:0:0:0:
402,192,327373,128,0,327539:0:0:0:0:
329,192,327373,1,0,0:0:0:0:
109,192,327456,1,0,0:0:0:0:
475,192,327539,128,0,328206:0:0:0:0:
256,192,327539,1,0,0:0:0:0:
36,192,327539,1,0,0:0:0:0:
329,192,327539,1,0,0:0:0:0:
109,192,327623,1,0,0:0:0:0:
182,192,327706,1,0,0:0:0:0:
256,192,327789,1,0,0:0:0:0:
329,192,327873,1,0,0:0:0:0:
402,192,327873,1,0,0:0:0:0:
182,192,327873,1,0,0:0:0:0:
109,192,327873,1,0,0:0:0:0:
36,192,327873,1,0,0:0:0:0:
256,192,327956,1,0,0:0:0:0:
36,192,328039,1,0,0:0:0:0:
109,192,328123,1,0,0:0:0:0:
36,192,328206,5,0,0:0:0:0:
182,192,328206,1,0,0:0:0:0:
402,192,328206,1,0,0:0:0:0:
256,192,328206,1,0,0:0:0:0:
109,192,328289,1,0,0:0:0:0:
329,192,328289,1,0,0:0:0:0:
182,192,328373,1,0,0:0:0:0:
402,192,328373,1,0,0:0:0:0:
256,192,328456,1,0,0:0:0:0:
475,192,328456,1,0,0:0:0:0:
36,192,328539,1,0,0:0:0:0:
182,192,328539,1,0,0:0:0:0:
109,192,328623,1,0,0:0:0:0:
256,192,328623,1,0,0:0:0:0:
182,192,328706,1,0,0:0:0:0:
329,192,328706,1,0,0:0:0:0:
256,192,328789,1,0,0:0:0:0:
402,192,328789,1,0,0:0:0:0:
329,192,328873,1,0,0:0:0:0:
475,192,328873,1,0,0:0:0:0:
182,192,328873,128,0,330039:0:0:0:0:
36,192,328873,128,0,329039:0:0:0:0:
109,192,329039,1,0,0:0:0:0:
402,192,329039,1,0,0:0:0:0:
256,192,329206,128,0,329373:0:0:0:0:
329,192,329206,1,0,0:0:0:0:
109,192,329373,1,0,0:0:0:0:
36,192,329373,1,0,0:0:0:0:
402,192,329539,128,0,330373:0:0:0:0:
256,192,329539,128,0,329706:0:0:0:0:
109,192,329539,1,0,0:0:0:0:
36,192,329539,1,0,0:0:0:0:
475,192,329706,1,0,0:0:0:0:
329,192,329873,128,0,330039:0:0:0:0:
256,192,329873,1,0,0:0:0:0:
109,192,330039,1,0,0:0:0:0:
36,192,330039,1,0,0:0:0:0:
329,192,330206,128,0,330373:0:0:0:0:
256,192,330206,128,0,330373:0:0:0:0:
36,192,330206,1,0,0:0:0:0:
109,192,330206,1,0,0:0:0:0:
475,192,330373,1,0,0:0:0:0:
182,192,330539,128,0,330706:0:0:0:0:
475,192,330539,128,0,330706:0:0:0:0:
36,192,330539,1,0,0:0:0:0:
402,192,330539,1,0,0:0:0:0:
256,192,330706,1,0,0:0:0:0:
329,192,330706,1,0,0:0:0:0:
36,192,330873,128,0,331373:0:0:0:0:
109,192,330873,1,0,0:0:0:0:
402,192,330873,128,0,331039:0:0:0:0:
475,192,330873,1,0,0:0:0:0:
256,192,331039,1,0,0:0:0:0:
182,192,331206,128,0,331373:0:0:0:0:
475,192,331206,1,0,0:0:0:0:
329,192,331206,1,0,0:0:0:0:
256,192,331373,128,0,331706:0:0:0:0:
109,192,331373,1,0,0:0:0:0:
402,192,331373,1,0,0:0:0:0:
182,192,331456,1,0,0:0:0:0:
329,192,331456,1,0,0:0:0:0:
36,192,331539,1,0,0:0:0:0:
475,192,331539,1,0,0:0:0:0:
402,192,331706,128,0,332039:0:0:0:0:
109,192,331706,1,0,0:0:0:0:
475,192,331873,1,0,0:0:0:0:
36,192,331873,1,0,0:0:0:0:
329,192,331873,128,0,332039:0:0:0:0:
109,192,332039,128,0,332373:0:0:0:0:
256,192,332039,1,0,0:0:0:0:
36,192,332206,1,0,0:0:0:0:
475,192,332206,1,0,0:0:0:0:
182,192,332206,128,0,332373:0:0:0:0:
329,192,332373,128,0,332706:0:0:0:0:
256,192,332373,1,0,0:0:0:0:
402,192,332539,128,0,332706:0:0:0:0:
475,192,332539,1,0,0:0:0:0:
182,192,332539,1,0,0:0:0:0:
36,192,332539,1,0,0:0:0:0:
109,192,332623,1,0,0:0:0:0:
256,192,332623,1,0,0:0:0:0:
36,192,332706,128,0,333373:0:0:0:0:
182,192,332706,1,0,0:0:0:0:
109,192,332873,128,0,333039:0:0:0:0:
256,192,332873,1,0,0:0:0:0:
475,192,332873,1,0,0:0:0:0:
402,192,333039,1,0,0:0:0:0:
182,192,333039,1,0,0:0:0:0:
329,192,333206,128,0,333373:0:0:0:0:
256,192,333206,1,0,0:0:0:0:
109,192,333206,1,0,0:0:0:0:
475,192,333373,128,0,333873:0:0:0:0:
402,192,333373,1,0,0:0:0:0:
182,192,333373,1,0,0:0:0:0:
256,192,333456,1,0,0:0:0:0:
109,192,333539,128,0,333706:0:0:0:0:
329,192,333539,1,0,0:0:0:0:
182,192,333706,128,0,333873:0:0:0:0:
36,192,333706,1,0,0:0:0:0:
329,192,333706,1,0,0:0:0:0:
256,192,333873,128,0,334206:0:0:0:0:
402,192,333873,128,0,334039:0:0:0:0:
109,192,333873,1,0,0:0:0:0:
329,192,334039,1,0,0:0:0:0:
182,192,334039,128,0,334206:0:0:0:0:
475,192,334206,128,0,335539:0:0:0:0:
36,192,334206,1,0,0:0:0:0:
109,192,334206,1,0,0:0:0:0:
402,192,334206,128,0,334373:0:0:0:0:
182,192,334373,1,0,0:0:0:0:
329,192,334373,1,0,0:0:0:0:
109,192,334539,128,0,334706:0:0:0:0:
256,192,334539,1,0,0:0:0:0:
36,192,334706,1,0,0:0:0:0:
182,192,334706,1,0,0:0:0:0:
329,192,334873,128,0,335539:0:0:0:0:
402,192,334873,128,0,335039:0:0:0:0:
36,192,334873,1,0,0:0:0:0:
182,192,334873,1,0,0:0:0:0:
256,192,335039,1,0,0:0:0:0:
109,192,335039,1,0,0:0:0:0:
36,192,335206,128,0,335373:0:0:0:0:
256,192,335206,1,0,0:0:0:0:
182,192,335206,1,0,0:0:0:0:
402,192,335373,1,0,0:0:0:0:
109,192,335373,1,0,0:0:0:0:
109,192,335539,128,0,335873:0:0:0:0:
402,192,335539,128,0,335706:0:0:0:0:
256,192,335539,1,0,0:0:0:0:
329,192,335706,1,0,0:0:0:0:
182,192,335706,1,0,0:0:0:0:
256,192,335873,128,0,336206:0:0:0:0:
36,192,335873,128,0,336039:0:0:0:0:
402,192,335873,1,0,0:0:0:0:
329,192,336039,1,0,0:0:0:0:
475,192,336039,1,0,0:0:0:0:
402,192,336206,128,0,336539:0:0:0:0:
182,192,336206,128,0,336373:0:0:0:0:
36,192,336206,1,0,0:0:0:0:
109,192,336373,1,0,0:0:0:0:
329,192,336373,1,0,0:0:0:0:
36,192,336539,128,0,336873:0:0:0:0:
256,192,336539,128,0,336706:0:0:0:0:
475,192,336539,1,0,0:0:0:0:
109,192,336706,1,0,0:0:0:0:
329,192,336706,1,0,0:0:0:0:
182,192,336789,1,0,0:0:0:0:
402,192,336789,1,0,0:0:0:0:
256,192,336873,1,0,0:0:0:0:
475,192,336873,1,0,0:0:0:0:
329,192,336873,128,0,337039:0:0:0:0:
182,192,337039,128,0,337206:0:0:0:0:
36,192,337039,1,0,0:0:0:0:
109,192,337039,1,0,0:0:0:0:
329,192,337206,128,0,337373:0:0:0:0:
256,192,337206,128,0,337373:0:0:0:0:
402,192,337206,1,0,0:0:0:0:
475,192,337373,128,0,337706:0:0:0:0:
36,192,337373,1,0,0:0:0:0:
182,192,337373,1,0,0:0:0:0:
402,192,337539,128,0,337706:0:0:0:0:
329,192,337539,1,0,0:0:0:0:
109,192,337539,1,0,0:0:0:0:
36,192,337706,128,0,337873:0:0:0:0:
182,192,337706,1,0,0:0:0:0:
182,192,337873,128,0,338039:0:0:0:0:
329,192,337873,1,0,0:0:0:0:
256,192,337873,1,0,0:0:0:0:
402,192,337956,1,0,0:0:0:0:
109,192,337956,1,0,0:0:0:0:
256,192,338039,128,0,338206:0:0:0:0:
475,192,338039,1,0,0:0:0:0:
36,192,338039,1,0,0:0:0:0:
36,192,338206,1,0,0:0:0:0:
402,192,338206,1,0,0:0:0:0:
475,192,338206,1,0,0:0:0:0:
182,192,338206,128,0,338873:0:0:0:0:
329,192,338373,128,0,338873:0:0:0:0:
256,192,338373,1,0,0:0:0:0:
109,192,338373,1,0,0:0:0:0:
36,192,338539,128,0,338873:0:0:0:0:
402,192,338539,1,0,0:0:0:0:
475,192,338539,1,0,0:0:0:0:
475,192,338706,128,0,338873:0:0:0:0:
109,192,338706,1,0,0:0:0:0:
256,192,338706,1,0,0:0:0:0:
402,192,338873,1,0,0:0:0:0:
256,192,338873,1,0,0:0:0:0:
36,192,339039,1,0,0:0:0:0:
329,192,339039,1,0,0:0:0:0:
109,192,339123,1,0,0:0:0:0:
256,192,339123,1,0,0:0:0:0:
182,192,339206,1,0,0:0:0:0:
475,192,339206,1,0,0:0:0:0:
402,192,339289,1,0,0:0:0:0:
109,192,339289,1,0,0:0:0:0:
329,192,339373,1,0,0:0:0:0:
36,192,339373,1,0,0:0:0:0:
256,192,339456,1,0,0:0:0:0:
182,192,339456,1,0,0:0:0:0:
36,192,339539,5,0,0:0:0:0:
475,192,339539,1,0,0:0:0:0:
256,192,339762,1,0,0:0:0:0:
36,192,339873,1,0,0:0:0:0:
329,192,339873,1,0,0:0:0:0:
475,192,340095,1,0,0:0:0:0:
36,192,340206,1,0,0:0:0:0:
402,192,340206,1,0,0:0:0:0:
256,192,340428,1,0,0:0:0:0:
36,192,340539,1,0,0:0:0:0:
182,192,340539,1,0,0:0:0:0:
329,192,340762,1,0,0:0:0:0:
36,192,340873,1,0,0:0:0:0:
402,192,340873,1,0,0:0:0:0:
475,192,341095,1,0,0:0:0:0:
36,192,341206,1,0,0:0:0:0:
329,192,341206,1,0,0:0:0:0:
402,192,341428,1,0,0:0:0:0:
36,192,341539,1,0,0:0:0:0:
329,192,341539,1,0,0:0:0:0:
256,192,341762,1,0,0:0:0:0:
36,192,341873,1,0,0:0:0:0:
182,192,341873,1,0,0:0:0:0:
329,192,342095,1,0,0:0:0:0:
36,192,342206,1,0,0:0:0:0:
475,192,342206,1,0,0:0:0:0:
256,192,342428,1,0,0:0:0:0:
36,192,342539,1,0,0:0:0:0:
329,192,342539,1,0,0:0:0:0:
475,192,342762,1,0,0:0:0:0:
36,192,342873,1,0,0:0:0:0:
402,192,342873,1,0,0:0:0:0:
256,192,343095,1,0,0:0:0:0:
36,192,343206,1,0,0:0:0:0:
182,192,343206,1,0,0:0:0:0:
329,192,343428,1,0,0:0:0:0:
36,192,343539,1,0,0:0:0:0:
402,192,343539,1,0,0:0:0:0:
475,192,343762,1,0,0:0:0:0:
36,192,343873,1,0,0:0:0:0:
329,192,343873,1,0,0:0:0:0:
402,192,344095,1,0,0:0:0:0:
36,192,344206,1,0,0:0:0:0:
329,192,344206,1,0,0:0:0:0:
256,192,344428,1,0,0:0:0:0:
36,192,344539,1,0,0:0:0:0:
182,192,344539,1,0,0:0:0:0:
329,192,344762,1,0,0:0:0:0:
475,192,344873,1,0,0:0:0:0:
36,192,344873,1,0,0:0:0:0:
256,192,345095,1,0,0:0:0:0:
475,192,345206,1,0,0:0:0:0:
182,192,345206,1,0,0:0:0:0:
36,192,345428,1,0,0:0:0:0:
475,192,345539,1,0,0:0:0:0:
109,192,345539,1,0,0:0:0:0:
256,192,345762,1,0,0:0:0:0:
475,192,345873,1,0,0:0:0:0:
329,192,345873,1,0,0:0:0:0:
182,192,346095,1,0,0:0:0:0:
475,192,346206,1,0,0:0:0:0:
109,192,346206,1,0,0:0:0:0:
36,192,346428,1,0,0:0:0:0:
475,192,346539,1,0,0:0:0:0:
182,192,346539,1,0,0:0:0:0:
109,192,346762,1,0,0:0:0:0:
475,192,346873,1,0,0:0:0:0:
182,192,346873,1,0,0:0:0:0:
256,192,347095,1,0,0:0:0:0:
475,192,347206,1,0,0:0:0:0:
329,192,347206,1,0,0:0:0:0:
182,192,347428,1,0,0:0:0:0:
475,192,347539,1,0,0:0:0:0:
36,192,347539,1,0,0:0:0:0:
256,192,347762,1,0,0:0:0:0:
475,192,347873,1,0,0:0:0:0:
182,192,347873,1,0,0:0:0:0:
36,192,348095,1,0,0:0:0:0:
475,192,348206,1,0,0:0:0:0:
109,192,348206,1,0,0:0:0:0:
256,192,348428,1,0,0:0:0:0:
475,192,348539,1,0,0:0:0:0:
329,192,348539,1,0,0:0:0:0:
182,192,348762,1,0,0:0:0:0:
475,192,348873,1,0,0:0:0:0:
109,192,348873,1,0,0:0:0:0:
36,192,349095,1,0,0:0:0:0:
475,192,349206,1,0,0:0:0:0:
182,192,349206,1,0,0:0:0:0:
109,192,349428,1,0,0:0:0:0:
475,192,349539,1,0,0:0:0:0:
182,192,349539,1,0,0:0:0:0:
256,192,349762,1,0,0:0:0:0:
475,192,349873,1,0,0:0:0:0:
109,192,349873,1,0,0:0:0:0:
36,192,350095,1,0,0:0:0:0:
182,192,350206,128,0,350539:0:0:0:0:
475,192,350206,1,0,0:0:0:0:
402,192,350206,1,0,0:0:0:0:
109,192,350428,128,0,350539:0:0:0:0:
329,192,350428,1,0,0:0:0:0:
256,192,350539,128,0,350873:0:0:0:0:
475,192,350539,1,0,0:0:0:0:
36,192,350539,1,0,0:0:0:0:
402,192,350539,1,0,0:0:0:0:
182,192,350762,128,0,350873:0:0:0:0:
109,192,350762,1,0,0:0:0:0:
402,192,350873,128,0,351206:0:0:0:0:
36,192,350873,1,0,0:0:0:0:
475,192,350873,1,0,0:0:0:0:
329,192,350873,1,0,0:0:0:0:
109,192,351095,1,0,0:0:0:0:
329,192,351095,128,0,351206:0:0:0:0:
182,192,351206,128,0,351539:0:0:0:0:
475,192,351206,1,0,0:0:0:0:
36,192,351206,1,0,0:0:0:0:
256,192,351206,1,0,0:0:0:0:
402,192,351428,1,0,0:0:0:0:
256,192,351428,128,0,351539:0:0:0:0:
36,192,351539,1,0,0:0:0:0:
475,192,351539,1,0,0:0:0:0:
329,192,351539,128,0,351873:0:0:0:0:
109,192,351539,1,0,0:0:0:0:
402,192,351762,1,0,0:0:0:0:
182,192,351762,128,0,351873:0:0:0:0:
256,192,351873,128,0,352206:0:0:0:0:
36,192,351873,1,0,0:0:0:0:
109,192,351873,1,0,0:0:0:0:
475,192,351873,1,0,0:0:0:0:
109,192,352095,128,0,352206:0:0:0:0:
329,192,352095,1,0,0:0:0:0:
182,192,352206,128,0,352539:0:0:0:0:
36,192,352206,1,0,0:0:0:0:
475,192,352206,1,0,0:0:0:0:
402,192,352206,1,0,0:0:0:0:
329,192,352317,1,0,0:0:0:0:
256,192,352428,128,0,352539:0:0:0:0:
475,192,352428,1,0,0:0:0:0:
36,192,352539,128,0,352873:0:0:0:0:
402,192,352539,1,0,0:0:0:0:
329,192,352539,1,0,0:0:0:0:
109,192,352539,1,0,0:0:0:0:
182,192,352762,128,0,352873:0:0:0:0:
475,192,352762,1,0,0:0:0:0:
402,192,352762,1,0,0:0:0:0:
329,192,352873,128,0,353206:0:0:0:0:
109,192,352873,1,0,0:0:0:0:
256,192,352873,1,0,0:0:0:0:
256,192,353095,128,0,353206:0:0:0:0:
109,192,353095,1,0,0:0:0:0:
182,192,353206,128,0,353539:0:0:0:0:
36,192,353206,1,0,0:0:0:0:
475,192,353206,1,0,0:0:0:0:
402,192,353206,1,0,0:0:0:0:
329,192,353428,128,0,353539:0:0:0:0:
109,192,353428,1,0,0:0:0:0:
256,192,353428,1,0,0:0:0:0:
402,192,353539,128,0,353873:0:0:0:0:
36,192,353539,1,0,0:0:0:0:
475,192,353539,1,0,0:0:0:0:
182,192,353762,128,0,353873:0:0:0:0:
329,192,353762,1,0,0:0:0:0:
109,192,353873,128,0,354206:0:0:0:0:
36,192,353873,1,0,0:0:0:0:
256,192,353873,1,0,0:0:0:0:
475,192,353873,1,0,0:0:0:0:
329,192,354095,128,0,354206:0:0:0:0:
182,192,354095,1,0,0:0:0:0:
475,192,354206,128,0,354539:0:0:0:0:
36,192,354206,1,0,0:0:0:0:
256,192,354206,1,0,0:0:0:0:
402,192,354206,1,0,0:0:0:0:
256,192,354428,128,0,354539:0:0:0:0:
109,192,354428,1,0,0:0:0:0:
182,192,354539,128,0,354873:0:0:0:0:
36,192,354539,1,0,0:0:0:0:
402,192,354539,1,0,0:0:0:0:
329,192,354539,1,0,0:0:0:0:
402,192,354762,128,0,354873:0:0:0:0:
109,192,354762,1,0,0:0:0:0:
329,192,354873,128,0,355206:0:0:0:0:
36,192,354873,1,0,0:0:0:0:
475,192,354873,1,0,0:0:0:0:
256,192,354873,1,0,0:0:0:0:
402,192,354984,1,0,0:0:0:0:
109,192,355095,128,0,355206:0:0:0:0:
256,192,355095,1,0,0:0:0:0:
36,192,355206,128,0,355539:0:0:0:0:
182,192,355206,1,0,0:0:0:0:
402,192,355206,1,0,0:0:0:0:
475,192,355206,1,0,0:0:0:0:
256,192,355428,128,0,355539:0:0:0:0:
182,192,355428,1,0,0:0:0:0:
329,192,355539,128,0,355873:0:0:0:0:
475,192,355539,1,0,0:0:0:0:
109,192,355539,1,0,0:0:0:0:
402,192,355539,1,0,0:0:0:0:
182,192,355762,128,0,355873:0:0:0:0:
109,192,355762,1,0,0:0:0:0:
402,192,355873,128,0,356206:0:0:0:0:
36,192,355873,1,0,0:0:0:0:
256,192,355873,1,0,0:0:0:0:
475,192,355873,1,0,0:0:0:0:
256,192,356095,128,0,356206:0:0:0:0:
36,192,356095,1,0,0:0:0:0:
109,192,356206,128,0,356539:0:0:0:0:
182,192,356206,1,0,0:0:0:0:
329,192,356206,1,0,0:0:0:0:
475,192,356206,1,0,0:0:0:0:
329,192,356428,128,0,356539:0:0:0:0:
36,192,356428,1,0,0:0:0:0:
182,192,356539,128,0,356873:0:0:0:0:
402,192,356539,1,0,0:0:0:0:
256,192,356539,1,0,0:0:0:0:
475,192,356539,1,0,0:0:0:0:
402,192,356762,128,0,356873:0:0:0:0:
109,192,356762,1,0,0:0:0:0:
329,192,356873,128,0,357206:0:0:0:0:
36,192,356873,1,0,0:0:0:0:
256,192,356873,1,0,0:0:0:0:
475,192,356873,1,0,0:0:0:0:
36,192,357095,128,0,357206:0:0:0:0:
256,192,357095,1,0,0:0:0:0:
475,192,357206,128,0,357539:0:0:0:0:
402,192,357206,1,0,0:0:0:0:
182,192,357206,1,0,0:0:0:0:
109,192,357206,1,0,0:0:0:0:
329,192,357428,128,0,357539:0:0:0:0:
36,192,357428,1,0,0:0:0:0:
182,192,357539,128,0,357873:0:0:0:0:
256,192,357539,128,0,358206:0:0:0:0:
109,192,357539,1,0,0:0:0:0:
402,192,357539,1,0,0:0:0:0:
475,192,357762,128,0,357873:0:0:0:0:
402,192,357762,1,0,0:0:0:0:
36,192,357873,128,0,358206:0:0:0:0:
329,192,357873,1,0,0:0:0:0:
109,192,357873,1,0,0:0:0:0:
109,192,358095,128,0,358206:0:0:0:0:
402,192,358095,1,0,0:0:0:0:
182,192,358206,128,0,359206:0:0:0:0:
329,192,358206,128,0,359206:0:0:0:0:
475,192,358206,1,0,0:0:0:0:
402,192,358873,128,0,359539:0:0:0:0:
109,192,358873,128,0,359539:0:0:0:0:
329,192,359539,128,0,362873:0:0:0:0:
36,192,359539,128,0,362873:0:0:0:0:
182,192,359539,128,0,362873:0:0:0:0:
475,192,359539,128,0,362873:0:0:0:0:
256,192,362873,1,0,0:0:0:0:
109,192,362873,1,0,0:0:0:0:
402,192,362873,1,0,0:0:0:0:
109,192,363206,1,0,0:0:0:0:
402,192,363206,1,0,0:0:0:0:
256,192,363206,1,0,0:0:0:0:
36,192,363550,5,0,0:0:0:0:
182,192,363550,1,0,0:0:0:0:
256,192,363550,1,0,0:0:0:0:
402,192,363550,1,0,0:0:0:0:
475,192,363550,1,0,0:0:0:0:
109,192,363675,1,0,0:0:0:0:
182,192,363800,1,0,0:0:0:0:
256,192,363800,1,0,0:0:0:0:
36,192,363800,1,0,0:0:0:0:
329,192,363800,1,0,0:0:0:0:
475,192,363925,1,0,0:0:0:0:
329,192,364050,1,0,0:0:0:0:
109,192,364050,1,0,0:0:0:0:
402,192,364175,1,0,0:0:0:0:
182,192,364175,1,0,0:0:0:0:
36,192,364300,1,0,0:0:0:0:
475,192,364300,1,0,0:0:0:0:
256,192,364300,1,0,0:0:0:0:
329,192,364300,1,0,0:0:0:0:
109,192,364425,1,0,0:0:0:0:
329,192,364550,1,0,0:0:0:0:
402,192,364550,1,0,0:0:0:0:
182,192,364675,1,0,0:0:0:0:
109,192,364675,1,0,0:0:0:0:
36,192,364800,1,0,0:0:0:0:
256,192,364800,1,0,0:0:0:0:
475,192,364800,1,0,0:0:0:0:
329,192,364800,1,0,0:0:0:0:
182,192,364925,1,0,0:0:0:0:
402,192,365050,1,0,0:0:0:0:
475,192,365050,1,0,0:0:0:0:
109,192,365175,1,0,0:0:0:0:
36,192,365175,1,0,0:0:0:0:
182,192,365300,1,0,0:0:0:0:
256,192,365300,1,0,0:0:0:0:
475,192,365300,1,0,0:0:0:0:
329,192,365300,1,0,0:0:0:0:
36,192,365425,1,0,0:0:0:0:
182,192,365550,1,0,0:0:0:0:
329,192,365550,1,0,0:0:0:0:
402,192,365675,1,0,0:0:0:0:
256,192,365675,1,0,0:0:0:0:
475,192,365800,1,0,0:0:0:0:
182,192,365800,1,0,0:0:0:0:
109,192,365800,1,0,0:0:0:0:
36,192,365800,1,0,0:0:0:0:
402,192,365925,1,0,0:0:0:0:
329,192,366050,1,0,0:0:0:0:
182,192,366050,1,0,0:0:0:0:
256,192,366175,1,0,0:0:0:0:
36,192,366175,1,0,0:0:0:0:
182,192,366300,1,0,0:0:0:0:
475,192,366300,1,0,0:0:0:0:
109,192,366300,1,0,0:0:0:0:
402,192,366300,1,0,0:0:0:0:
256,192,366425,1,0,0:0:0:0:
36,192,366550,1,0,0:0:0:0:
329,192,366550,1,0,0:0:0:0:
109,192,366675,1,0,0:0:0:0:
402,192,366675,1,0,0:0:0:0:
182,192,366800,1,0,0:0:0:0:
256,192,366800,1,0,0:0:0:0:
475,192,366800,1,0,0:0:0:0:
36,192,366800,1,0,0:0:0:0:
402,192,366925,1,0,0:0:0:0:
109,192,367050,1,0,0:0:0:0:
402,192,367175,1,0,0:0:0:0:
329,192,367175,1,0,0:0:0:0:
182,192,367175,1,0,0:0:0:0:
256,192,367175,1,0,0:0:0:0:
36,192,367300,1,0,0:0:0:0:
109,192,367300,1,0,0:0:0:0:
329,192,367300,1,0,0:0:0:0:
256,192,367300,1,0,0:0:0:0:
402,192,367425,1,0,0:0:0:0:
329,192,367425,1,0,0:0:0:0:
475,192,367425,1,0,0:0:0:0:
182,192,367425,1,0,0:0:0:0:
182,192,367550,1,0,0:0:0:0:
109,192,367550,1,0,0:0:0:0:
36,192,367550,1,0,0:0:0:0:
475,192,367550,1,0,0:0:0:0:
256,192,367550,1,0,0:0:0:0:
329,192,367675,1,0,0:0:0:0:
402,192,367675,1,0,0:0:0:0:
182,192,367800,1,0,0:0:0:0:
475,192,367800,1,0,0:0:0:0:
36,192,367800,1,0,0:0:0:0:
109,192,367800,1,0,0:0:0:0:
256,192,367925,1,0,0:0:0:0:
36,192,368050,1,0,0:0:0:0:
182,192,368050,1,0,0:0:0:0:
109,192,368175,1,0,0:0:0:0:
256,192,368175,1,0,0:0:0:0:
182,192,368300,1,0,0:0:0:0:
329,192,368300,1,0,0:0:0:0:
475,192,368300,1,0,0:0:0:0:
402,192,368300,1,0,0:0:0:0:
109,192,368425,1,0,0:0:0:0:
329,192,368550,1,0,0:0:0:0:
256,192,368550,1,0,0:0:0:0:
402,192,368675,1,0,0:0:0:0:
475,192,368675,1,0,0:0:0:0:
182,192,368800,1,0,0:0:0:0:
109,192,368800,1,0,0:0:0:0:
36,192,368800,1,0,0:0:0:0:
329,192,368800,1,0,0:0:0:0:
475,192,368925,1,0,0:0:0:0:
36,192,369050,1,0,0:0:0:0:
182,192,369050,1,0,0:0:0:0:
109,192,369050,1,0,0:0:0:0:
256,192,369050,1,0,0:0:0:0:
329,192,369175,1,0,0:0:0:0:
475,192,369175,1,0,0:0:0:0:
36,192,369300,1,0,0:0:0:0:
109,192,369300,1,0,0:0:0:0:
256,192,369300,1,0,0:0:0:0:
402,192,369300,1,0,0:0:0:0:
182,192,369425,1,0,0:0:0:0:
329,192,369550,1,0,0:0:0:0:
475,192,369550,1,0,0:0:0:0:
256,192,369675,1,0,0:0:0:0:
182,192,369675,1,0,0:0:0:0:
36,192,369800,1,0,0:0:0:0:
475,192,369800,1,0,0:0:0:0:
402,192,369800,1,0,0:0:0:0:
109,192,369800,1,0,0:0:0:0:
402,192,369925,1,0,0:0:0:0:
329,192,370050,1,0,0:0:0:0:
182,192,370050,1,0,0:0:0:0:
256,192,370175,1,0,0:0:0:0:
109,192,370175,1,0,0:0:0:0:
329,192,370300,1,0,0:0:0:0:
402,192,370300,1,0,0:0:0:0:
182,192,370300,1,0,0:0:0:0:
36,192,370300,1,0,0:0:0:0:
109,192,370425,1,0,0:0:0:0:
256,192,370550,1,0,0:0:0:0:
475,192,370550,1,0,0:0:0:0:
402,192,370675,1,0,0:0:0:0:
182,192,370675,1,0,0:0:0:0:
256,192,370800,1,0,0:0:0:0:
475,192,370800,1,0,0:0:0:0:
109,192,370800,1,0,0:0:0:0:
36,192,370800,1,0,0:0:0:0:
329,192,370925,1,0,0:0:0:0:
402,192,371050,1,0,0:0:0:0:
475,192,371050,1,0,0:0:0:0:
182,192,371050,1,0,0:0:0:0:
256,192,371050,1,0,0:0:0:0:
109,192,371175,1,0,0:0:0:0:
36,192,371175,1,0,0:0:0:0:
402,192,371300,1,0,0:0:0:0:
329,192,371300,1,0,0:0:0:0:
256,192,371300,1,0,0:0:0:0:
182,192,371300,1,0,0:0:0:0:
36,192,371425,1,0,0:0:0:0:
182,192,371550,1,0,0:0:0:0:
402,192,371550,1,0,0:0:0:0:
475,192,371550,1,0,0:0:0:0:
329,192,371675,1,0,0:0:0:0:
475,192,371800,1,0,0:0:0:0:
402,192,371800,1,0,0:0:0:0:
36,192,371800,1,0,0:0:0:0:
109,192,371800,1,0,0:0:0:0:
256,192,371925,1,0,0:0:0:0:
329,192,372050,1,0,0:0:0:0:
109,192,372050,1,0,0:0:0:0:
402,192,372050,1,0,0:0:0:0:
182,192,372175,1,0,0:0:0:0:
36,192,372300,1,0,0:0:0:0:
475,192,372300,1,0,0:0:0:0:
402,192,372300,1,0,0:0:0:0:
329,192,372300,1,0,0:0:0:0:
182,192,372425,1,0,0:0:0:0:
109,192,372550,1,0,0:0:0:0:
256,192,372550,1,0,0:0:0:0:
182,192,372675,1,0,0:0:0:0:
329,192,372675,1,0,0:0:0:0:
402,192,372800,1,0,0:0:0:0:
329,192,372800,1,0,0:0:0:0:
36,192,372800,1,0,0:0:0:0:
109,192,372800,1,0,0:0:0:0:
475,192,372925,1,0,0:0:0:0:
256,192,373050,1,0,0:0:0:0:
182,192,373050,1,0,0:0:0:0:
109,192,373175,1,0,0:0:0:0:
36,192,373175,1,0,0:0:0:0:
402,192,373300,1,0,0:0:0:0:
475,192,373300,1,0,0:0:0:0:
182,192,373300,1,0,0:0:0:0:
329,192,373300,1,0,0:0:0:0:
256,192,373425,1,0,0:0:0:0:
109,192,373550,1,0,0:0:0:0:
36,192,373550,1,0,0:0:0:0:
402,192,373675,1,0,0:0:0:0:
329,192,373675,1,0,0:0:0:0:
256,192,373800,1,0,0:0:0:0:
109,192,373800,1,0,0:0:0:0:
36,192,373800,1,0,0:0:0:0:
475,192,373800,1,0,0:0:0:0:
182,192,373925,1,0,0:0:0:0:
329,192,374050,1,0,0:0:0:0:
402,192,374050,1,0,0:0:0:0:
109,192,374175,1,0,0:0:0:0:
182,192,374175,1,0,0:0:0:0:
256,192,374300,1,0,0:0:0:0:
402,192,374300,1,0,0:0:0:0:
475,192,374300,1,0,0:0:0:0:
36,192,374300,1,0,0:0:0:0:
329,192,374425,1,0,0:0:0:0:
36,192,374550,1,0,0:0:0:0:
182,192,374550,1,0,0:0:0:0:
329,192,374675,1,0,0:0:0:0:
475,192,374675,1,0,0:0:0:0:
36,192,374800,1,0,0:0:0:0:
402,192,374800,1,0,0:0:0:0:
182,192,374800,1,0,0:0:0:0:
256,192,374800,1,0,0:0:0:0:
109,192,374925,1,0,0:0:0:0:
475,192,374925,1,0,0:0:0:0:
329,192,375050,1,0,0:0:0:0:
402,192,375050,1,0,0:0:0:0:
256,192,375175,1,0,0:0:0:0:
182,192,375175,1,0,0:0:0:0:
329,192,375300,1,0,0:0:0:0:
109,192,375300,1,0,0:0:0:0:
475,192,375300,1,0,0:0:0:0:
36,192,375300,1,0,0:0:0:0:
402,192,375425,1,0,0:0:0:0:
182,192,375425,1,0,0:0:0:0:
256,192,375550,1,0,0:0:0:0:
109,192,375550,1,0,0:0:0:0:
475,192,375675,1,0,0:0:0:0:
329,192,375675,1,0,0:0:0:0:
109,192,375800,1,0,0:0:0:0:
36,192,375800,1,0,0:0:0:0:
182,192,375800,1,0,0:0:0:0:
402,192,375800,1,0,0:0:0:0:
475,192,375925,1,0,0:0:0:0:
329,192,376050,1,0,0:0:0:0:
256,192,376050,1,0,0:0:0:0:
36,192,376175,1,0,0:0:0:0:
109,192,376175,1,0,0:0:0:0:
256,192,376300,1,0,0:0:0:0:
182,192,376300,1,0,0:0:0:0:
475,192,376300,1,0,0:0:0:0:
402,192,376300,1,0,0:0:0:0:
329,192,376425,1,0,0:0:0:0:
36,192,376550,1,0,0:0:0:0:
109,192,376550,1,0,0:0:0:0:
475,192,376675,1,0,0:0:0:0:
402,192,376675,1,0,0:0:0:0:
256,192,376800,1,0,0:0:0:0:
36,192,376800,1,0,0:0:0:0:
329,192,376800,1,0,0:0:0:0:
182,192,376800,1,0,0:0:0:0:
109,192,376925,1,0,0:0:0:0:
36,192,377050,1,0,0:0:0:0:
182,192,377050,1,0,0:0:0:0:
256,192,377175,1,0,0:0:0:0:
402,192,377175,1,0,0:0:0:0:
182,192,377300,1,0,0:0:0:0:
329,192,377300,1,0,0:0:0:0:
475,192,377300,1,0,0:0:0:0:
109,192,377300,1,0,0:0:0:0:
256,192,377425,1,0,0:0:0:0:
36,192,377550,1,0,0:0:0:0:
109,192,377550,1,0,0:0:0:0:
402,192,377550,1,0,0:0:0:0:
182,192,377550,1,0,0:0:0:0:
329,192,377550,1,0,0:0:0:0:
475,192,377675,1,0,0:0:0:0:
402,192,377737,1,0,0:0:0:0:
329,192,377800,1,0,0:0:0:0:
256,192,377862,1,0,0:0:0:0:
182,192,377925,1,0,0:0:0:0:
109,192,377987,1,0,0:0:0:0:
329,192,378050,1,0,0:0:0:0:
256,192,378050,1,0,0:0:0:0:
36,192,378050,1,0,0:0:0:0:
182,192,378050,1,0,0:0:0:0:
475,192,378112,1,0,0:0:0:0:
402,192,378175,1,0,0:0:0:0:
329,192,378237,1,0,0:0:0:0:
256,192,378300,1,0,0:0:0:0:
182,192,378362,5,0,0:0:0:0:
109,192,378425,1,0,0:0:0:0:
36,192,378487,1,0,0:0:0:0:
475,192,378550,5,0,0:0:0:0:
402,192,378550,1,0,0:0:0:0:
329,192,378550,1,0,0:0:0:0:
182,192,378550,1,0,0:0:0:0:
256,192,378550,1,0,0:0:0:0:
109,192,378675,1,0,0:0:0:0:
182,192,378737,1,0,0:0:0:0:
256,192,378800,1,0,0:0:0:0:
329,192,378862,1,0,0:0:0:0:
402,192,378925,1,0,0:0:0:0:
475,192,378987,1,0,0:0:0:0:
36,192,379050,1,0,0:0:0:0:
109,192,379112,1,0,0:0:0:0:
182,192,379175,1,0,0:0:0:0:
256,192,379237,1,0,0:0:0:0:
109,192,379300,5,0,0:0:0:0:
329,192,379300,1,0,0:0:0:0:
475,192,379300,1,0,0:0:0:0:
36,192,379300,1,0,0:0:0:0:
182,192,379425,1,0,0:0:0:0:
36,192,379550,5,0,0:0:0:0:
402,192,379550,1,0,0:0:0:0:
475,192,379550,1,0,0:0:0:0:
182,192,379550,1,0,0:0:0:0:
329,192,379550,1,0,0:0:0:0:
109,192,379675,1,0,0:0:0:0:
182,192,379800,1,0,0:0:0:0:
475,192,379800,1,0,0:0:0:0:
402,192,379800,1,0,0:0:0:0:
329,192,379800,1,0,0:0:0:0:
36,192,379925,1,0,0:0:0:0:
109,192,380050,1,0,0:0:0:0:
182,192,380050,1,0,0:0:0:0:
329,192,380050,1,0,0:0:0:0:
475,192,380050,1,0,0:0:0:0:
256,192,380175,1,0,0:0:0:0:
402,192,380175,1,0,0:0:0:0:
36,192,380300,1,0,0:0:0:0:
109,192,380300,1,0,0:0:0:0:
329,192,380300,1,0,0:0:0:0:
475,192,380300,1,0,0:0:0:0:
402,192,380425,1,0,0:0:0:0:
256,192,380425,1,0,0:0:0:0:
182,192,380487,1,0,0:0:0:0:
36,192,380550,1,0,0:0:0:0:
109,192,380550,1,0,0:0:0:0:
329,192,380550,1,0,0:0:0:0:
475,192,380550,1,0,0:0:0:0:
256,192,380675,1,0,0:0:0:0:
329,192,380800,1,0,0:0:0:0:
475,192,380800,1,0,0:0:0:0:
109,192,380800,1,0,0:0:0:0:
182,192,380800,1,0,0:0:0:0:
36,192,380925,1,0,0:0:0:0:
182,192,381050,1,0,0:0:0:0:
329,192,381050,1,0,0:0:0:0:
402,192,381050,1,0,0:0:0:0:
475,192,381050,1,0,0:0:0:0:
109,192,381175,1,0,0:0:0:0:
256,192,381175,1,0,0:0:0:0:
36,192,381237,1,0,0:0:0:0:
329,192,381300,1,0,0:0:0:0:
182,192,381300,1,0,0:0:0:0:
475,192,381300,1,0,0:0:0:0:
256,192,381425,1,0,0:0:0:0:
109,192,381425,1,0,0:0:0:0:
182,192,381550,1,0,0:0:0:0:
402,192,381550,1,0,0:0:0:0:
329,192,381550,1,0,0:0:0:0:
36,192,381550,1,0,0:0:0:0:
475,192,381550,1,0,0:0:0:0:
256,192,381675,1,0,0:0:0:0:
402,192,381800,1,0,0:0:0:0:
182,192,381800,1,0,0:0:0:0:
329,192,381800,1,0,0:0:0:0:
36,192,381800,1,0,0:0:0:0:
109,192,381925,1,0,0:0:0:0:
402,192,382050,1,0,0:0:0:0:
329,192,382050,1,0,0:0:0:0:
256,192,382050,1,0,0:0:0:0:
475,192,382050,1,0,0:0:0:0:
182,192,382175,1,0,0:0:0:0:
36,192,382175,1,0,0:0:0:0:
256,192,382237,1,0,0:0:0:0:
402,192,382300,1,0,0:0:0:0:
109,192,382300,1,0,0:0:0:0:
329,192,382300,1,0,0:0:0:0:
475,192,382300,1,0,0:0:0:0:
182,192,382425,1,0,0:0:0:0:
36,192,382425,1,0,0:0:0:0:
256,192,382550,1,0,0:0:0:0:
475,192,382550,1,0,0:0:0:0:
402,192,382550,1,0,0:0:0:0:
109,192,382550,1,0,0:0:0:0:
182,192,382675,1,0,0:0:0:0:
109,192,382737,1,0,0:0:0:0:
256,192,382800,1,0,0:0:0:0:
475,192,382800,1,0,0:0:0:0:
36,192,382800,1,0,0:0:0:0:
402,192,382800,1,0,0:0:0:0:
109,192,382925,1,0,0:0:0:0:
182,192,383050,1,0,0:0:0:0:
256,192,383050,1,0,0:0:0:0:
329,192,383050,1,0,0:0:0:0:
475,192,383050,1,0,0:0:0:0:
36,192,383175,1,0,0:0:0:0:
402,192,383175,1,0,0:0:0:0:
109,192,383237,1,0,0:0:0:0:
182,192,383300,1,0,0:0:0:0:
329,192,383300,1,0,0:0:0:0:
256,192,383300,1,0,0:0:0:0:
475,192,383300,1,0,0:0:0:0:
109,192,383425,1,0,0:0:0:0:
36,192,383550,1,0,0:0:0:0:
182,192,383550,1,0,0:0:0:0:
256,192,383550,1,0,0:0:0:0:
402,192,383550,1,0,0:0:0:0:
475,192,383550,1,0,0:0:0:0:
329,192,383675,1,0,0:0:0:0:
109,192,383800,1,0,0:0:0:0:
182,192,383800,1,0,0:0:0:0:
402,192,383800,1,0,0:0:0:0:
475,192,383800,1,0,0:0:0:0:
329,192,383925,1,0,0:0:0:0:
256,192,383987,1,0,0:0:0:0:
36,192,384050,1,0,0:0:0:0:
109,192,384050,1,0,0:0:0:0:
402,192,384050,1,0,0:0:0:0:
182,192,384050,1,0,0:0:0:0:
475,192,384175,1,0,0:0:0:0:
256,192,384175,1,0,0:0:0:0:
402,192,384300,1,0,0:0:0:0:
109,192,384300,1,0,0:0:0:0:
36,192,384300,1,0,0:0:0:0:
182,192,384300,1,0,0:0:0:0:
475,192,384425,1,0,0:0:0:0:
256,192,384425,1,0,0:0:0:0:
36,192,384550,1,0,0:0:0:0:
109,192,384550,1,0,0:0:0:0:
329,192,384550,1,0,0:0:0:0:
402,192,384550,1,0,0:0:0:0:
182,192,384675,1,0,0:0:0:0:
256,192,384800,1,0,0:0:0:0:
329,192,384800,1,0,0:0:0:0:
475,192,384800,1,0,0:0:0:0:
109,192,384800,1,0,0:0:0:0:
402,192,384925,1,0,0:0:0:0:
329,192,384987,1,0,0:0:0:0:
256,192,385050,1,0,0:0:0:0:
182,192,385050,1,0,0:0:0:0:
36,192,385050,1,0,0:0:0:0:
475,192,385050,1,0,0:0:0:0:
402,192,385175,1,0,0:0:0:0:
109,192,385175,1,0,0:0:0:0:
182,192,385300,1,0,0:0:0:0:
256,192,385300,1,0,0:0:0:0:
329,192,385300,1,0,0:0:0:0:
36,192,385300,1,0,0:0:0:0:
475,192,385425,1,0,0:0:0:0:
402,192,385425,1,0,0:0:0:0:
36,192,385550,1,0,0:0:0:0:
329,192,385550,1,0,0:0:0:0:
109,192,385550,1,0,0:0:0:0:
182,192,385550,1,0,0:0:0:0:
402,192,385612,1,0,0:0:0:0:
256,192,385675,1,0,0:0:0:0:
182,192,385737,1,0,0:0:0:0:
402,192,385800,1,0,0:0:0:0:
109,192,385800,1,0,0:0:0:0:
475,192,385800,1,0,0:0:0:0:
36,192,385800,1,0,0:0:0:0:
329,192,385862,1,0,0:0:0:0:
256,192,385925,1,0,0:0:0:0:
402,192,385987,1,0,0:0:0:0:
329,192,386050,1,0,0:0:0:0:
182,192,386050,1,0,0:0:0:0:
109,192,386050,1,0,0:0:0:0:
475,192,386112,1,0,0:0:0:0:
402,192,386175,1,0,0:0:0:0:
256,192,386175,1,0,0:0:0:0:
329,192,386237,1,0,0:0:0:0:
182,192,386300,1,0,0:0:0:0:
36,192,386300,1,0,0:0:0:0:
256,192,386362,5,0,0:0:0:0:
329,192,386425,1,0,0:0:0:0:
475,192,386425,1,0,0:0:0:0:
256,192,386487,1,0,0:0:0:0:
36,192,386550,1,0,0:0:0:0:
109,192,386550,1,0,0:0:0:0:
182,192,386550,1,0,0:0:0:0:
402,192,386612,1,0,0:0:0:0:
475,192,386612,1,0,0:0:0:0:
329,192,386675,1,0,0:0:0:0:
256,192,386675,1,0,0:0:0:0:
109,192,386737,1,0,0:0:0:0:
182,192,386737,1,0,0:0:0:0:
402,192,386800,1,0,0:0:0:0:
475,192,386800,1,0,0:0:0:0:
36,192,386862,1,0,0:0:0:0:
109,192,386862,1,0,0:0:0:0:
182,192,386925,1,0,0:0:0:0:
256,192,386925,1,0,0:0:0:0:
329,192,386987,1,0,0:0:0:0:
402,192,386987,1,0,0:0:0:0:
109,192,387050,1,0,0:0:0:0:
36,192,387050,1,0,0:0:0:0:
182,192,387050,1,0,0:0:0:0:
256,192,387050,1,0,0:0:0:0:
475,192,387112,1,0,0:0:0:0:
402,192,387112,1,0,0:0:0:0:
109,192,387175,1,0,0:0:0:0:
36,192,387175,1,0,0:0:0:0:
402,192,387237,1,0,0:0:0:0:
475,192,387237,1,0,0:0:0:0:
256,192,387300,1,0,0:0:0:0:
182,192,387300,1,0,0:0:0:0:
109,192,387300,1,0,0:0:0:0:
36,192,387300,1,0,0:0:0:0:
329,192,387300,1,0,0:0:0:0:
109,192,387550,5,0,0:0:0:0:
36,192,387550,128,0,387800:0:0:0:0:
402,192,387550,1,0,0:0:0:0:
329,192,387550,1,0,0:0:0:0:
182,192,387612,1,0,0:0:0:0:
256,192,387675,1,0,0:0:0:0:
329,192,387737,1,0,0:0:0:0:
109,192,387800,1,0,0:0:0:0:
475,192,387800,128,0,388050:0:0:0:0:
402,192,387800,1,0,0:0:0:0:
182,192,387800,1,0,0:0:0:0:
329,192,387862,1,0,0:0:0:0:
256,192,387925,1,0,0:0:0:0:
182,192,387987,1,0,0:0:0:0:
329,192,388050,1,0,0:0:0:0:
109,192,388050,1,0,0:0:0:0:
402,192,388050,1,0,0:0:0:0:
256,192,388112,1,0,0:0:0:0:
36,192,388175,1,0,0:0:0:0:
182,192,388175,1,0,0:0:0:0:
329,192,388237,1,0,0:0:0:0:
475,192,388300,1,0,0:0:0:0:
109,192,388300,1,0,0:0:0:0:
256,192,388300,1,0,0:0:0:0:
402,192,388300,1,0,0:0:0:0:
182,192,388362,1,0,0:0:0:0:
329,192,388425,1,0,0:0:0:0:
36,192,388425,1,0,0:0:0:0:
402,192,388487,1,0,0:0:0:0:
36,192,388550,128,0,388800:0:0:0:0:
109,192,388550,1,0,0:0:0:0:
475,192,388550,1,0,0:0:0:0:
182,192,388612,1,0,0:0:0:0:
256,192,388675,1,0,0:0:0:0:
329,192,388737,1,0,0:0:0:0:
182,192,388800,1,0,0:0:0:0:
475,192,388800,128,0,389050:0:0:0:0:
402,192,388800,1,0,0:0:0:0:
109,192,388800,1,0,0:0:0:0:
329,192,388862,1,0,0:0:0:0:
256,192,388925,1,0,0:0:0:0:
182,192,388987,1,0,0:0:0:0:
402,192,389050,1,0,0:0:0:0:
329,192,389050,1,0,0:0:0:0:
109,192,389050,1,0,0:0:0:0:
256,192,389112,1,0,0:0:0:0:
36,192,389175,1,0,0:0:0:0:
182,192,389175,1,0,0:0:0:0:
329,192,389237,1,0,0:0:0:0:
109,192,389300,1,0,0:0:0:0:
256,192,389300,1,0,0:0:0:0:
402,192,389300,1,0,0:0:0:0:
475,192,389300,1,0,0:0:0:0:
329,192,389362,1,0,0:0:0:0:
36,192,389425,1,0,0:0:0:0:
182,192,389425,1,0,0:0:0:0:
256,192,389487,1,0,0:0:0:0:
475,192,389550,128,0,389800:0:0:0:0:
109,192,389550,1,0,0:0:0:0:
329,192,389550,1,0,0:0:0:0:
182,192,389612,1,0,0:0:0:0:
256,192,389675,1,0,0:0:0:0:
329,192,389737,1,0,0:0:0:0:
109,192,389800,1,0,0:0:0:0:
402,192,389800,1,0,0:0:0:0:
36,192,389800,128,0,390050:0:0:0:0:
182,192,389800,1,0,0:0:0:0:
329,192,389862,1,0,0:0:0:0:
256,192,389925,1,0,0:0:0:0:
182,192,389987,1,0,0:0:0:0:
475,192,390050,1,0,0:0:0:0:
109,192,390050,1,0,0:0:0:0:
329,192,390112,1,0,0:0:0:0:
402,192,390175,1,0,0:0:0:0:
182,192,390175,1,0,0:0:0:0:
256,192,390237,1,0,0:0:0:0:
475,192,390300,1,0,0:0:0:0:
36,192,390300,1,0,0:0:0:0:
109,192,390300,1,0,0:0:0:0:
402,192,390300,1,0,0:0:0:0:
329,192,390362,1,0,0:0:0:0:
402,192,390425,1,0,0:0:0:0:
182,192,390425,1,0,0:0:0:0:
256,192,390487,1,0,0:0:0:0:
36,192,390550,128,0,390800:0:0:0:0:
109,192,390550,1,0,0:0:0:0:
475,192,390550,1,0,0:0:0:0:
182,192,390612,1,0,0:0:0:0:
329,192,390675,1,0,0:0:0:0:
256,192,390737,1,0,0:0:0:0:
109,192,390800,128,0,391050:0:0:0:0:
182,192,390800,1,0,0:0:0:0:
475,192,390800,1,0,0:0:0:0:
402,192,390800,1,0,0:0:0:0:
329,192,390862,1,0,0:0:0:0:
256,192,390925,1,0,0:0:0:0:
329,192,390987,1,0,0:0:0:0:
402,192,391050,1,0,0:0:0:0:
475,192,391050,1,0,0:0:0:0:
36,192,391050,1,0,0:0:0:0:
182,192,391112,1,0,0:0:0:0:
109,192,391175,1,0,0:0:0:0:
329,192,391175,1,0,0:0:0:0:
256,192,391237,1,0,0:0:0:0:
402,192,391300,1,0,0:0:0:0:
475,192,391300,1,0,0:0:0:0:
36,192,391300,1,0,0:0:0:0:
182,192,391300,1,0,0:0:0:0:
329,192,391362,1,0,0:0:0:0:
109,192,391425,1,0,0:0:0:0:
402,192,391425,1,0,0:0:0:0:
256,192,391487,1,0,0:0:0:0:
182,192,391550,1,0,0:0:0:0:
36,192,391550,1,0,0:0:0:0:
402,192,391550,1,0,0:0:0:0:
475,192,391550,128,0,391800:0:0:0:0:
329,192,391612,1,0,0:0:0:0:
256,192,391675,1,0,0:0:0:0:
182,192,391737,1,0,0:0:0:0:
36,192,391800,128,0,392050:0:0:0:0:
109,192,391800,1,0,0:0:0:0:
402,192,391800,1,0,0:0:0:0:
182,192,391862,1,0,0:0:0:0:
256,192,391925,1,0,0:0:0:0:
329,192,391987,1,0,0:0:0:0:
475,192,392050,1,0,0:0:0:0:
402,192,392050,1,0,0:0:0:0:
109,192,392050,1,0,0:0:0:0:
256,192,392112,1,0,0:0:0:0:
36,192,392175,1,0,0:0:0:0:
329,192,392175,1,0,0:0:0:0:
182,192,392237,1,0,0:0:0:0:
109,192,392300,1,0,0:0:0:0:
475,192,392300,1,0,0:0:0:0:
402,192,392300,1,0,0:0:0:0:
329,192,392300,1,0,0:0:0:0:
256,192,392362,1,0,0:0:0:0:
329,192,392425,1,0,0:0:0:0:
36,192,392425,1,0,0:0:0:0:
182,192,392487,1,0,0:0:0:0:
109,192,392550,1,0,0:0:0:0:
402,192,392550,1,0,0:0:0:0:
475,192,392550,128,0,392800:0:0:0:0:
329,192,392612,1,0,0:0:0:0:
256,192,392675,1,0,0:0:0:0:
182,192,392737,1,0,0:0:0:0:
36,192,392800,128,0,393050:0:0:0:0:
109,192,392800,1,0,0:0:0:0:
402,192,392800,1,0,0:0:0:0:
329,192,392800,1,0,0:0:0:0:
182,192,392862,1,0,0:0:0:0:
256,192,392925,1,0,0:0:0:0:
329,192,392987,1,0,0:0:0:0:
402,192,393050,1,0,0:0:0:0:
475,192,393050,1,0,0:0:0:0:
256,192,393112,1,0,0:0:0:0:
182,192,393175,1,0,0:0:0:0:
36,192,393175,1,0,0:0:0:0:
329,192,393237,1,0,0:0:0:0:
402,192,393300,1,0,0:0:0:0:
475,192,393300,1,0,0:0:0:0:
256,192,393300,1,0,0:0:0:0:
109,192,393300,1,0,0:0:0:0:
36,192,393362,1,0,0:0:0:0:
182,192,393425,1,0,0:0:0:0:
329,192,393425,1,0,0:0:0:0:
402,192,393487,1,0,0:0:0:0:
36,192,393550,128,0,393800:0:0:0:0:
109,192,393550,1,0,0:0:0:0:
475,192,393550,1,0,0:0:0:0:
182,192,393612,1,0,0:0:0:0:
256,192,393675,1,0,0:0:0:0:
329,192,393737,1,0,0:0:0:0:
475,192,393800,128,0,394050:0:0:0:0:
402,192,393800,1,0,0:0:0:0:
182,192,393800,1,0,0:0:0:0:
109,192,393800,1,0,0:0:0:0:
256,192,393862,1,0,0:0:0:0:
329,192,393862,1,0,0:0:0:0:
109,192,393925,1,0,0:0:0:0:
36,192,393925,1,0,0:0:0:0:
329,192,393987,1,0,0:0:0:0:
402,192,393987,1,0,0:0:0:0:
182,192,394050,1,0,0:0:0:0:
256,192,394050,1,0,0:0:0:0:
36,192,394050,1,0,0:0:0:0:
329,192,394112,1,0,0:0:0:0:
109,192,394112,1,0,0:0:0:0:
402,192,394175,1,0,0:0:0:0:
182,192,394175,1,0,0:0:0:0:
36,192,394237,1,0,0:0:0:0:
256,192,394237,1,0,0:0:0:0:
329,192,394300,1,0,0:0:0:0:
109,192,394300,1,0,0:0:0:0:
475,192,394362,1,0,0:0:0:0:
182,192,394362,1,0,0:0:0:0:
256,192,394425,1,0,0:0:0:0:
36,192,394425,1,0,0:0:0:0:
329,192,394487,1,0,0:0:0:0:
109,192,394487,1,0,0:0:0:0:
182,192,394550,1,0,0:0:0:0:
256,192,394550,1,0,0:0:0:0:
475,192,394550,128,0,395050:0:0:0:0:
402,192,394550,128,0,395050:0:0:0:0:
36,192,395050,128,0,395550:0:0:0:0:
109,192,395050,128,0,395550:0:0:0:0:
256,192,395050,1,0,0:0:0:0:
329,192,395050,1,0,0:0:0:0:
475,192,395550,1,0,0:0:0:0:
402,192,395550,1,0,0:0:0:0:
182,192,395550,1,0,0:0:0:0:
329,192,395550,1,0,0:0:0:0:
256,192,395675,1,0,0:0:0:0:
109,192,395675,1,0,0:0:0:0:
475,192,395800,1,0,0:0:0:0:
329,192,395800,1,0,0:0:0:0:
36,192,395800,1,0,0:0:0:0:
182,192,395925,1,0,0:0:0:0:
329,192,395925,1,0,0:0:0:0:
256,192,396050,1,0,0:0:0:0:
402,192,396050,1,0,0:0:0:0:
36,192,396050,1,0,0:0:0:0:
475,192,396050,1,0,0:0:0:0:
329,192,396175,1,0,0:0:0:0:
109,192,396175,1,0,0:0:0:0:
182,192,396300,1,0,0:0:0:0:
475,192,396300,1,0,0:0:0:0:
402,192,396300,1,0,0:0:0:0:
182,192,396425,1,0,0:0:0:0:
329,192,396425,1,0,0:0:0:0:
36,192,396550,1,0,0:0:0:0:
256,192,396550,1,0,0:0:0:0:
402,192,396550,1,0,0:0:0:0:
109,192,396675,1,0,0:0:0:0:
329,192,396675,1,0,0:0:0:0:
182,192,396800,1,0,0:0:0:0:
475,192,396800,1,0,0:0:0:0:
256,192,396800,1,0,0:0:0:0:
475,192,396925,1,0,0:0:0:0:
329,192,396925,1,0,0:0:0:0:
36,192,397050,1,0,0:0:0:0:
256,192,397050,1,0,0:0:0:0:
109,192,397050,1,0,0:0:0:0:
402,192,397050,1,0,0:0:0:0:
182,192,397175,1,0,0:0:0:0:
329,192,397175,1,0,0:0:0:0:
36,192,397300,1,0,0:0:0:0:
256,192,397300,1,0,0:0:0:0:
402,192,397300,1,0,0:0:0:0:
402,192,397425,1,0,0:0:0:0:
182,192,397550,5,0,0:0:0:0:
329,192,397550,1,0,0:0:0:0:
475,192,397550,1,0,0:0:0:0:
109,192,397675,1,0,0:0:0:0:
402,192,397675,1,0,0:0:0:0:
329,192,397800,1,0,0:0:0:0:
182,192,397800,1,0,0:0:0:0:
256,192,397925,1,0,0:0:0:0:
109,192,397925,1,0,0:0:0:0:
36,192,398050,128,0,398112:0:0:0:0:
329,192,398050,1,0,0:0:0:0:
475,192,398050,1,0,0:0:0:0:
182,192,398050,1,0,0:0:0:0:
182,192,398175,128,0,398237:0:0:0:0:
402,192,398175,1,0,0:0:0:0:
329,192,398300,128,0,398362:0:0:0:0:
475,192,398300,1,0,0:0:0:0:
256,192,398300,1,0,0:0:0:0:
182,192,398425,128,0,398487:0:0:0:0:
402,192,398425,1,0,0:0:0:0:
475,192,398550,128,0,398800:0:0:0:0:
36,192,398550,1,0,0:0:0:0:
329,192,398550,1,0,0:0:0:0:
256,192,398675,1,0,0:0:0:0:
109,192,398675,1,0,0:0:0:0:
329,192,398800,128,0,398862:0:0:0:0:
36,192,398800,1,0,0:0:0:0:
182,192,398925,128,0,398987:0:0:0:0:
402,192,398925,1,0,0:0:0:0:
36,192,399050,128,0,399300:0:0:0:0:
475,192,399050,1,0,0:0:0:0:
329,192,399050,1,0,0:0:0:0:
182,192,399050,1,0,0:0:0:0:
402,192,399175,1,0,0:0:0:0:
109,192,399175,1,0,0:0:0:0:
329,192,399300,128,0,399550:0:0:0:0:
182,192,399300,1,0,0:0:0:0:
256,192,399425,1,0,0:0:0:0:
109,192,399550,1,0,0:0:0:0:
36,192,399550,1,0,0:0:0:0:
475,192,399550,1,0,0:0:0:0:
182,192,399675,1,0,0:0:0:0:
402,192,399675,1,0,0:0:0:0:
256,192,399800,1,0,0:0:0:0:
36,192,399800,1,0,0:0:0:0:
329,192,399800,1,0,0:0:0:0:
475,192,399925,1,0,0:0:0:0:
329,192,399925,1,0,0:0:0:0:
109,192,400050,1,0,0:0:0:0:
36,192,400050,1,0,0:0:0:0:
256,192,400050,1,0,0:0:0:0:
402,192,400050,1,0,0:0:0:0:
182,192,400175,1,0,0:0:0:0:
329,192,400175,1,0,0:0:0:0:
36,192,400300,1,0,0:0:0:0:
256,192,400300,1,0,0:0:0:0:
475,192,400300,1,0,0:0:0:0:
36,192,400425,1,0,0:0:0:0:
182,192,400425,1,0,0:0:0:0:
475,192,400550,1,0,0:0:0:0:
402,192,400550,1,0,0:0:0:0:
329,192,400550,1,0,0:0:0:0:
256,192,400675,1,0,0:0:0:0:
109,192,400675,1,0,0:0:0:0:
36,192,400800,1,0,0:0:0:0:
182,192,400800,1,0,0:0:0:0:
402,192,400800,1,0,0:0:0:0:
402,192,400925,1,0,0:0:0:0:
256,192,400925,1,0,0:0:0:0:
329,192,401050,1,0,0:0:0:0:
475,192,401050,1,0,0:0:0:0:
36,192,401050,1,0,0:0:0:0:
109,192,401050,1,0,0:0:0:0:
182,192,401175,1,0,0:0:0:0:
256,192,401175,1,0,0:0:0:0:
109,192,401300,1,0,0:0:0:0:
402,192,401300,1,0,0:0:0:0:
475,192,401300,1,0,0:0:0:0:
402,192,401425,1,0,0:0:0:0:
256,192,401425,1,0,0:0:0:0:
36,192,401550,1,0,0:0:0:0:
182,192,401550,1,0,0:0:0:0:
329,192,401550,1,0,0:0:0:0:
402,192,401675,1,0,0:0:0:0:
109,192,401675,1,0,0:0:0:0:
36,192,401800,1,0,0:0:0:0:
182,192,401800,1,0,0:0:0:0:
256,192,401925,1,0,0:0:0:0:
402,192,401925,1,0,0:0:0:0:
182,192,402050,1,0,0:0:0:0:
329,192,402050,1,0,0:0:0:0:
475,192,402050,1,0,0:0:0:0:
36,192,402050,1,0,0:0:0:0:
109,192,402175,1,0,0:0:0:0:
256,192,402175,1,0,0:0:0:0:
329,192,402300,1,0,0:0:0:0:
475,192,402300,1,0,0:0:0:0:
256,192,402425,1,0,0:0:0:0:
402,192,402425,1,0,0:0:0:0:
36,192,402550,128,0,402800:0:0:0:0:
329,192,402550,1,0,0:0:0:0:
475,192,402550,1,0,0:0:0:0:
402,192,402675,1,0,0:0:0:0:
109,192,402675,1,0,0:0:0:0:
182,192,402800,128,0,402862:0:0:0:0:
475,192,402800,1,0,0:0:0:0:
329,192,402925,128,0,402987:0:0:0:0:
256,192,402925,1,0,0:0:0:0:
475,192,403050,128,0,403300:0:0:0:0:
182,192,403050,1,0,0:0:0:0:
36,192,403050,1,0,0:0:0:0:
329,192,403050,1,0,0:0:0:0:
256,192,403175,1,0,0:0:0:0:
109,192,403175,1,0,0:0:0:0:
182,192,403300,128,0,403550:0:0:0:0:
329,192,403300,1,0,0:0:0:0:
402,192,403425,1,0,0:0:0:0:
256,192,403550,1,0,0:0:0:0:
329,192,403550,1,0,0:0:0:0:
109,192,403550,1,0,0:0:0:0:
36,192,403550,1,0,0:0:0:0:
402,192,403675,1,0,0:0:0:0:
475,192,403675,1,0,0:0:0:0:
36,192,403800,1,0,0:0:0:0:
182,192,403800,1,0,0:0:0:0:
329,192,403800,1,0,0:0:0:0:
182,192,403925,1,0,0:0:0:0:
475,192,403925,1,0,0:0:0:0:
402,192,404050,1,0,0:0:0:0:
109,192,404050,1,0,0:0:0:0:
256,192,404050,1,0,0:0:0:0:
36,192,404050,1,0,0:0:0:0:
329,192,404175,1,0,0:0:0:0:
182,192,404175,1,0,0:0:0:0:
256,192,404300,1,0,0:0:0:0:
475,192,404300,1,0,0:0:0:0:
402,192,404300,1,0,0:0:0:0:
256,192,404425,1,0,0:0:0:0:
36,192,404550,1,0,0:0:0:0:
329,192,404550,1,0,0:0:0:0:
182,192,404550,1,0,0:0:0:0:
109,192,404675,1,0,0:0:0:0:
402,192,404675,1,0,0:0:0:0:
256,192,404800,1,0,0:0:0:0:
475,192,404800,1,0,0:0:0:0:
182,192,404800,1,0,0:0:0:0:
475,192,404925,1,0,0:0:0:0:
329,192,404925,1,0,0:0:0:0:
36,192,405050,1,0,0:0:0:0:
256,192,405050,1,0,0:0:0:0:
109,192,405050,1,0,0:0:0:0:
402,192,405050,1,0,0:0:0:0:
182,192,405175,1,0,0:0:0:0:
329,192,405175,1,0,0:0:0:0:
36,192,405300,1,0,0:0:0:0:
256,192,405300,1,0,0:0:0:0:
475,192,405300,1,0,0:0:0:0:
256,192,405425,1,0,0:0:0:0:
109,192,405425,1,0,0:0:0:0:
36,192,405550,1,0,0:0:0:0:
182,192,405550,1,0,0:0:0:0:
329,192,405550,1,0,0:0:0:0:
256,192,405675,1,0,0:0:0:0:
402,192,405675,1,0,0:0:0:0:
329,192,405800,1,0,0:0:0:0:
475,192,405800,1,0,0:0:0:0:
402,192,405925,1,0,0:0:0:0:
109,192,405925,1,0,0:0:0:0:
182,192,406050,128,0,406112:0:0:0:0:
36,192,406050,1,0,0:0:0:0:
475,192,406050,1,0,0:0:0:0:
329,192,406050,1,0,0:0:0:0:
329,192,406175,128,0,406237:0:0:0:0:
256,192,406175,1,0,0:0:0:0:
109,192,406175,1,0,0:0:0:0:
475,192,406300,128,0,406362:0:0:0:0:
36,192,406300,1,0,0:0:0:0:
182,192,406425,128,0,406487:0:0:0:0:
256,192,406425,1,0,0:0:0:0:
402,192,406425,1,0,0:0:0:0:
36,192,406550,128,0,406800:0:0:0:0:
329,192,406550,1,0,0:0:0:0:
475,192,406550,1,0,0:0:0:0:
109,192,406675,1,0,0:0:0:0:
402,192,406675,1,0,0:0:0:0:
475,192,406800,128,0,406862:0:0:0:0:
182,192,406800,1,0,0:0:0:0:
329,192,406925,128,0,406987:0:0:0:0:
256,192,406925,1,0,0:0:0:0:
109,192,406925,1,0,0:0:0:0:
182,192,407050,128,0,407300:0:0:0:0:
36,192,407050,1,0,0:0:0:0:
475,192,407050,1,0,0:0:0:0:
329,192,407050,1,0,0:0:0:0:
256,192,407175,1,0,0:0:0:0:
402,192,407175,1,0,0:0:0:0:
36,192,407300,128,0,407550:0:0:0:0:
329,192,407300,1,0,0:0:0:0:
402,192,407425,1,0,0:0:0:0:
182,192,407550,1,0,0:0:0:0:
256,192,407550,1,0,0:0:0:0:
475,192,407550,1,0,0:0:0:0:
329,192,407675,1,0,0:0:0:0:
109,192,407675,1,0,0:0:0:0:
36,192,407800,1,0,0:0:0:0:
256,192,407800,1,0,0:0:0:0:
402,192,407800,1,0,0:0:0:0:
402,192,407925,1,0,0:0:0:0:
182,192,407925,1,0,0:0:0:0:
329,192,408050,1,0,0:0:0:0:
36,192,408050,1,0,0:0:0:0:
475,192,408050,1,0,0:0:0:0:
109,192,408050,1,0,0:0:0:0:
182,192,408175,1,0,0:0:0:0:
256,192,408175,1,0,0:0:0:0:
402,192,408300,1,0,0:0:0:0:
36,192,408300,1,0,0:0:0:0:
329,192,408300,1,0,0:0:0:0:
36,192,408425,1,0,0:0:0:0:
256,192,408425,1,0,0:0:0:0:
475,192,408550,1,0,0:0:0:0:
402,192,408550,1,0,0:0:0:0:
182,192,408550,1,0,0:0:0:0:
329,192,408675,1,0,0:0:0:0:
109,192,408675,1,0,0:0:0:0:
36,192,408800,1,0,0:0:0:0:
256,192,408800,1,0,0:0:0:0:
182,192,408800,1,0,0:0:0:0:
475,192,408925,1,0,0:0:0:0:
182,192,408925,1,0,0:0:0:0:
109,192,409050,1,0,0:0:0:0:
402,192,409050,1,0,0:0:0:0:
256,192,409050,1,0,0:0:0:0:
36,192,409050,1,0,0:0:0:0:
182,192,409175,1,0,0:0:0:0:
329,192,409175,1,0,0:0:0:0:
36,192,409300,1,0,0:0:0:0:
256,192,409300,1,0,0:0:0:0:
475,192,409300,1,0,0:0:0:0:
475,192,409425,1,0,0:0:0:0:
109,192,409425,1,0,0:0:0:0:
36,192,409550,1,0,0:0:0:0:
182,192,409550,1,0,0:0:0:0:
329,192,409550,1,0,0:0:0:0:
109,192,409675,1,0,0:0:0:0:
402,192,409675,1,0,0:0:0:0:
329,192,409800,1,0,0:0:0:0:
475,192,409800,1,0,0:0:0:0:
256,192,409925,1,0,0:0:0:0:
109,192,409925,1,0,0:0:0:0:
475,192,410050,1,0,0:0:0:0:
182,192,410050,1,0,0:0:0:0:
329,192,410050,1,0,0:0:0:0:
36,192,410050,1,0,0:0:0:0:
402,192,410175,1,0,0:0:0:0:
256,192,410175,1,0,0:0:0:0:
182,192,410300,1,0,0:0:0:0:
36,192,410300,1,0,0:0:0:0:
256,192,410425,1,0,0:0:0:0:
402,192,410425,1,0,0:0:0:0:
475,192,410550,128,0,410800:0:0:0:0:
329,192,410550,1,0,0:0:0:0:
36,192,410550,1,0,0:0:0:0:
256,192,410675,1,0,0:0:0:0:
109,192,410675,1,0,0:0:0:0:
36,192,410800,128,0,410862:0:0:0:0:
182,192,410800,1,0,0:0:0:0:
475,192,410925,128,0,410987:0:0:0:0:
402,192,410925,1,0,0:0:0:0:
109,192,410925,1,0,0:0:0:0:
329,192,411050,128,0,411112:0:0:0:0:
36,192,411050,1,0,0:0:0:0:
256,192,411050,1,0,0:0:0:0:
182,192,411050,1,0,0:0:0:0:
475,192,411050,1,0,0:0:0:0:
182,192,411175,128,0,411237:0:0:0:0:
109,192,411175,1,0,0:0:0:0:
402,192,411300,128,0,411535:0:0:0:0:
256,192,411300,128,0,411535:0:0:0:0:
36,192,411535,5,0,0:0:0:0:
475,192,411535,1,0,0:0:0:0:
256,192,411660,1,0,0:0:0:0:
329,192,411722,1,0,0:0:0:0:
475,192,411785,1,0,0:0:0:0:
475,192,411910,1,0,0:0:0:0:
256,192,411910,1,0,0:0:0:0:
182,192,412035,1,0,0:0:0:0:
36,192,412160,1,0,0:0:0:0:
256,192,412222,1,0,0:0:0:0:
329,192,412285,1,0,0:0:0:0:
329,192,412410,1,0,0:0:0:0:
36,192,412410,1,0,0:0:0:0:
182,192,412535,1,0,0:0:0:0:
402,192,412660,1,0,0:0:0:0:
182,192,412722,1,0,0:0:0:0:
182,192,412910,1,0,0:0:0:0:
402,192,412910,1,0,0:0:0:0:
256,192,413035,1,0,0:0:0:0:
402,192,413097,1,0,0:0:0:0:
109,192,413160,1,0,0:0:0:0:
329,192,413222,1,0,0:0:0:0:
475,192,413285,1,0,0:0:0:0:
36,192,413347,1,0,0:0:0:0:
182,192,413410,1,0,0:0:0:0:
329,192,413472,1,0,0:0:0:0:
475,192,413535,1,0,0:0:0:0:
329,192,413660,1,0,0:0:0:0:
36,192,413722,1,0,0:0:0:0:
256,192,413785,1,0,0:0:0:0:
36,192,413910,1,0,0:0:0:0:
329,192,413910,1,0,0:0:0:0:
182,192,414035,1,0,0:0:0:0:
402,192,414097,1,0,0:0:0:0:
109,192,414160,1,0,0:0:0:0:
329,192,414253,1,0,0:0:0:0:
402,192,414410,1,0,0:0:0:0:
109,192,414410,1,0,0:0:0:0:
256,192,414535,1,0,0:0:0:0:
329,192,414660,1,0,0:0:0:0:
329,192,414785,1,0,0:0:0:0:
475,192,414910,1,0,0:0:0:0:
182,192,414910,1,0,0:0:0:0:
329,192,415035,1,0,0:0:0:0:
109,192,415035,1,0,0:0:0:0:
182,192,415160,1,0,0:0:0:0:
475,192,415160,1,0,0:0:0:0:
402,192,415285,1,0,0:0:0:0:
36,192,415285,1,0,0:0:0:0:
329,192,415410,1,0,0:0:0:0:
109,192,415410,1,0,0:0:0:0:
402,192,415535,1,0,0:0:0:0:
182,192,415660,1,0,0:0:0:0:
402,192,415722,1,0,0:0:0:0:
402,192,415910,1,0,0:0:0:0:
182,192,415910,1,0,0:0:0:0:
329,192,416035,1,0,0:0:0:0:
475,192,416097,1,0,0:0:0:0:
329,192,416160,1,0,0:0:0:0:
109,192,416160,1,0,0:0:0:0:
182,192,416285,1,0,0:0:0:0:
36,192,416347,1,0,0:0:0:0:
182,192,416410,1,0,0:0:0:0:
402,192,416410,1,0,0:0:0:0:
475,192,416535,1,0,0:0:0:0:
329,192,416597,1,0,0:0:0:0:
475,192,416660,1,0,0:0:0:0:
109,192,416660,1,0,0:0:0:0:
256,192,416722,1,0,0:0:0:0:
182,192,416785,1,0,0:0:0:0:
329,192,416847,1,0,0:0:0:0:
182,192,416910,1,0,0:0:0:0:
475,192,416910,1,0,0:0:0:0:
329,192,416972,1,0,0:0:0:0:
256,192,417035,1,0,0:0:0:0:
109,192,417097,1,0,0:0:0:0:
256,192,417160,1,0,0:0:0:0:
475,192,417160,1,0,0:0:0:0:
329,192,417222,1,0,0:0:0:0:
36,192,417285,1,0,0:0:0:0:
182,192,417347,1,0,0:0:0:0:
36,192,417410,1,0,0:0:0:0:
402,192,417410,1,0,0:0:0:0:
256,192,417472,1,0,0:0:0:0:
109,192,417535,1,0,0:0:0:0:
475,192,417535,1,0,0:0:0:0:
182,192,417597,1,0,0:0:0:0:
109,192,417660,1,0,0:0:0:0:
329,192,417660,1,0,0:0:0:0:
256,192,417722,1,0,0:0:0:0:
402,192,417785,1,0,0:0:0:0:
329,192,417847,1,0,0:0:0:0:
402,192,417910,1,0,0:0:0:0:
182,192,417910,1,0,0:0:0:0:
256,192,417972,1,0,0:0:0:0:
36,192,418035,1,0,0:0:0:0:
182,192,418097,1,0,0:0:0:0:
36,192,418160,1,0,0:0:0:0:
402,192,418160,1,0,0:0:0:0:
256,192,418222,1,0,0:0:0:0:
475,192,418285,1,0,0:0:0:0:
329,192,418347,1,0,0:0:0:0:
475,192,418410,1,0,0:0:0:0:
109,192,418410,1,0,0:0:0:0:
256,192,418472,1,0,0:0:0:0:
36,192,418535,128,0,419035:0:0:0:0:
182,192,418535,1,0,0:0:0:0:
402,192,418660,1,0,0:0:0:0:
329,192,418722,1,0,0:0:0:0:
182,192,418785,1,0,0:0:0:0:
182,192,418910,1,0,0:0:0:0:
402,192,418910,1,0,0:0:0:0:
475,192,419035,128,0,419535:0:0:0:0:
329,192,419035,1,0,0:0:0:0:
109,192,419097,1,0,0:0:0:0:
329,192,419160,1,0,0:0:0:0:
182,192,419160,1,0,0:0:0:0:
36,192,419285,1,0,0:0:0:0:
36,192,419410,1,0,0:0:0:0:
329,192,419410,1,0,0:0:0:0:
256,192,419472,1,0,0:0:0:0:
329,192,419535,1,0,0:0:0:0:
402,192,419535,1,0,0:0:0:0:
182,192,419535,1,0,0:0:0:0:
109,192,419535,1,0,0:0:0:0:
36,192,419660,1,0,0:0:0:0:
256,192,419785,1,0,0:0:0:0:
36,192,419910,1,0,0:0:0:0:
256,192,419910,1,0,0:0:0:0:
329,192,420035,1,0,0:0:0:0:
109,192,420160,1,0,0:0:0:0:
329,192,420160,1,0,0:0:0:0:
402,192,420285,1,0,0:0:0:0:
109,192,420410,1,0,0:0:0:0:
402,192,420410,1,0,0:0:0:0:
475,192,420535,1,0,0:0:0:0:
402,192,420597,1,0,0:0:0:0:
329,192,420660,1,0,0:0:0:0:
182,192,420660,1,0,0:0:0:0:
402,192,420722,1,0,0:0:0:0:
475,192,420785,1,0,0:0:0:0:
182,192,420910,1,0,0:0:0:0:
402,192,421035,1,0,0:0:0:0:
109,192,421160,1,0,0:0:0:0:
329,192,421285,1,0,0:0:0:0:
109,192,421410,1,0,0:0:0:0:
36,192,421535,1,0,0:0:0:0:
256,192,421535,1,0,0:0:0:0:
475,192,421535,1,0,0:0:0:0:
402,192,421535,1,0,0:0:0:0:
402,192,421660,1,0,0:0:0:0:
182,192,421660,1,0,0:0:0:0:
329,192,421785,1,0,0:0:0:0:
182,192,421910,1,0,0:0:0:0:
329,192,421910,1,0,0:0:0:0:
256,192,422035,1,0,0:0:0:0:
109,192,422160,1,0,0:0:0:0:
256,192,422160,1,0,0:0:0:0:
402,192,422285,1,0,0:0:0:0:
109,192,422410,1,0,0:0:0:0:
402,192,422410,1,0,0:0:0:0:
36,192,422535,1,0,0:0:0:0:
182,192,422597,1,0,0:0:0:0:
109,192,422660,1,0,0:0:0:0:
402,192,422660,1,0,0:0:0:0:
256,192,422722,1,0,0:0:0:0:
475,192,422785,1,0,0:0:0:0:
475,192,422910,1,0,0:0:0:0:
36,192,422910,1,0,0:0:0:0:
329,192,423035,1,0,0:0:0:0:
329,192,423160,1,0,0:0:0:0:
109,192,423160,1,0,0:0:0:0:
182,192,423285,1,0,0:0:0:0:
182,192,423410,1,0,0:0:0:0:
402,192,423410,1,0,0:0:0:0:
329,192,423535,1,0,0:0:0:0:
256,192,423535,1,0,0:0:0:0:
36,192,423535,1,0,0:0:0:0:
475,192,423535,1,0,0:0:0:0:
182,192,423597,1,0,0:0:0:0:
402,192,423660,1,0,0:0:0:0:
109,192,423660,1,0,0:0:0:0:
256,192,423722,1,0,0:0:0:0:
36,192,423785,1,0,0:0:0:0:
182,192,423847,1,0,0:0:0:0:
475,192,423910,1,0,0:0:0:0:
109,192,423910,1,0,0:0:0:0:
329,192,423972,1,0,0:0:0:0:
402,192,424035,1,0,0:0:0:0:
36,192,424097,1,0,0:0:0:0:
182,192,424160,1,0,0:0:0:0:
475,192,424160,1,0,0:0:0:0:
329,192,424222,1,0,0:0:0:0:
109,192,424285,1,0,0:0:0:0:
256,192,424347,1,0,0:0:0:0:
402,192,424410,1,0,0:0:0:0:
182,192,424410,1,0,0:0:0:0:
329,192,424472,1,0,0:0:0:0:
256,192,424535,1,0,0:0:0:0:
402,192,424535,1,0,0:0:0:0:
475,192,424535,1,0,0:0:0:0:
36,192,424535,128,0,424785:0:0:0:0:
329,192,424597,1,0,0:0:0:0:
109,192,424660,1,0,0:0:0:0:
182,192,424660,1,0,0:0:0:0:
256,192,424722,1,0,0:0:0:0:
475,192,424785,128,0,425035:0:0:0:0:
329,192,424785,128,0,425035:0:0:0:0:
109,192,424910,1,0,0:0:0:0:
36,192,425035,128,0,425160:0:0:0:0:
182,192,425035,128,0,425160:0:0:0:0:
256,192,425035,1,0,0:0:0:0:
402,192,425035,1,0,0:0:0:0:
329,192,425160,1,0,0:0:0:0:
256,192,425285,128,0,425410:0:0:0:0:
109,192,425285,128,0,425410:0:0:0:0:
402,192,425410,1,0,0:0:0:0:
329,192,425472,1,0,0:0:0:0:
182,192,425535,1,0,0:0:0:0:
36,192,425535,1,0,0:0:0:0:
256,192,425535,1,0,0:0:0:0:
475,192,425535,128,0,426035:0:0:0:0:
329,192,425597,1,0,0:0:0:0:
402,192,425660,1,0,0:0:0:0:
109,192,425660,1,0,0:0:0:0:
256,192,425722,1,0,0:0:0:0:
182,192,425785,1,0,0:0:0:0:
402,192,425847,1,0,0:0:0:0:
109,192,425910,1,0,0:0:0:0:
329,192,425910,1,0,0:0:0:0:
182,192,425972,1,0,0:0:0:0:
36,192,426035,128,0,426285:0:0:0:0:
256,192,426035,1,0,0:0:0:0:
109,192,426035,1,0,0:0:0:0:
402,192,426035,1,0,0:0:0:0:
329,192,426097,1,0,0:0:0:0:
402,192,426160,1,0,0:0:0:0:
182,192,426160,1,0,0:0:0:0:
256,192,426222,1,0,0:0:0:0:
475,192,426285,128,0,426535:0:0:0:0:
329,192,426285,1,0,0:0:0:0:
182,192,426285,1,0,0:0:0:0:
109,192,426285,1,0,0:0:0:0:
256,192,426347,1,0,0:0:0:0:
329,192,426410,1,0,0:0:0:0:
36,192,426410,1,0,0:0:0:0:
109,192,426472,1,0,0:0:0:0:
182,192,426535,1,0,0:0:0:0:
402,192,426535,1,0,0:0:0:0:
182,192,426660,1,0,0:0:0:0:
402,192,426660,1,0,0:0:0:0:
329,192,426785,1,0,0:0:0:0:
109,192,426785,1,0,0:0:0:0:
475,192,426785,1,0,0:0:0:0:
256,192,426785,1,0,0:0:0:0:
109,192,426910,1,0,0:0:0:0:
329,192,426910,1,0,0:0:0:0:
256,192,427035,1,0,0:0:0:0:
36,192,427035,1,0,0:0:0:0:
402,192,427035,1,0,0:0:0:0:
475,192,427035,1,0,0:0:0:0:
256,192,427160,1,0,0:0:0:0:
36,192,427160,1,0,0:0:0:0:
329,192,427285,1,0,0:0:0:0:
475,192,427285,1,0,0:0:0:0:
182,192,427285,1,0,0:0:0:0:
109,192,427285,1,0,0:0:0:0:
475,192,427410,1,0,0:0:0:0:
329,192,427410,1,0,0:0:0:0:
36,192,427535,5,0,0:0:0:0:
182,192,427535,1,0,0:0:0:0:
402,192,427535,1,0,0:0:0:0:
475,192,427535,1,0,0:0:0:0:
109,192,427535,1,0,0:0:0:0:
329,192,427597,1,0,0:0:0:0:
256,192,427660,1,0,0:0:0:0:
182,192,427722,1,0,0:0:0:0:
109,192,427785,1,0,0:0:0:0:
402,192,427785,1,0,0:0:0:0:
329,192,427785,1,0,0:0:0:0:
256,192,427847,1,0,0:0:0:0:
182,192,427910,1,0,0:0:0:0:
109,192,427972,1,0,0:0:0:0:
36,192,428035,1,0,0:0:0:0:
475,192,428035,1,0,0:0:0:0:
256,192,428035,1,0,0:0:0:0:
329,192,428097,1,0,0:0:0:0:
402,192,428097,1,0,0:0:0:0:
182,192,428160,1,0,0:0:0:0:
109,192,428222,1,0,0:0:0:0:
402,192,428285,1,0,0:0:0:0:
329,192,428285,1,0,0:0:0:0:
36,192,428285,1,0,0:0:0:0:
475,192,428347,1,0,0:0:0:0:
256,192,428410,1,0,0:0:0:0:
182,192,428410,1,0,0:0:0:0:
329,192,428472,1,0,0:0:0:0:
109,192,428535,1,0,0:0:0:0:
36,192,428535,1,0,0:0:0:0:
402,192,428535,1,0,0:0:0:0:
475,192,428535,1,0,0:0:0:0:
256,192,428597,1,0,0:0:0:0:
182,192,428660,1,0,0:0:0:0:
109,192,428722,1,0,0:0:0:0:
36,192,428722,1,0,0:0:0:0:
402,192,428785,1,0,0:0:0:0:
329,192,428785,1,0,0:0:0:0:
256,192,428847,1,0,0:0:0:0:
182,192,428910,1,0,0:0:0:0:
109,192,428910,1,0,0:0:0:0:
256,192,428972,1,0,0:0:0:0:
329,192,429035,1,0,0:0:0:0:
402,192,429035,1,0,0:0:0:0:
475,192,429035,1,0,0:0:0:0:
109,192,429097,1,0,0:0:0:0:
182,192,429097,1,0,0:0:0:0:
256,192,429160,1,0,0:0:0:0:
329,192,429222,1,0,0:0:0:0:
402,192,429285,1,0,0:0:0:0:
36,192,429285,1,0,0:0:0:0:
475,192,429285,1,0,0:0:0:0:
109,192,429347,1,0,0:0:0:0:
256,192,429410,1,0,0:0:0:0:
182,192,429410,1,0,0:0:0:0:
329,192,429472,1,0,0:0:0:0:
109,192,429535,1,0,0:0:0:0:
36,192,429535,1,0,0:0:0:0:
402,192,429535,1,0,0:0:0:0:
475,192,429535,1,0,0:0:0:0:
182,192,429597,1,0,0:0:0:0:
256,192,429660,1,0,0:0:0:0:
329,192,429722,1,0,0:0:0:0:
402,192,429722,1,0,0:0:0:0:
109,192,429785,1,0,0:0:0:0:
182,192,429785,1,0,0:0:0:0:
256,192,429847,1,0,0:0:0:0:
329,192,429910,1,0,0:0:0:0:
402,192,429910,1,0,0:0:0:0:
36,192,429972,1,0,0:0:0:0:
475,192,430035,1,0,0:0:0:0:
182,192,430035,1,0,0:0:0:0:
109,192,430035,1,0,0:0:0:0:
402,192,430097,1,0,0:0:0:0:
329,192,430097,1,0,0:0:0:0:
256,192,430160,1,0,0:0:0:0:
36,192,430222,1,0,0:0:0:0:
182,192,430285,1,0,0:0:0:0:
109,192,430285,1,0,0:0:0:0:
475,192,430285,1,0,0:0:0:0:
402,192,430347,1,0,0:0:0:0:
329,192,430410,1,0,0:0:0:0:
256,192,430410,1,0,0:0:0:0:
182,192,430472,1,0,0:0:0:0:
402,192,430535,1,0,0:0:0:0:
475,192,430535,1,0,0:0:0:0:
109,192,430535,1,0,0:0:0:0:
36,192,430535,1,0,0:0:0:0:
329,192,430597,1,0,0:0:0:0:
256,192,430660,1,0,0:0:0:0:
182,192,430722,1,0,0:0:0:0:
109,192,430722,1,0,0:0:0:0:
329,192,430785,1,0,0:0:0:0:
402,192,430785,1,0,0:0:0:0:
475,192,430785,1,0,0:0:0:0:
256,192,430847,1,0,0:0:0:0:
36,192,430910,1,0,0:0:0:0:
109,192,430910,1,0,0:0:0:0:
329,192,430972,1,0,0:0:0:0:
109,192,431035,1,0,0:0:0:0:
182,192,431035,1,0,0:0:0:0:
402,192,431035,1,0,0:0:0:0:
475,192,431097,1,0,0:0:0:0:
182,192,431160,1,0,0:0:0:0:
256,192,431160,1,0,0:0:0:0:
402,192,431222,1,0,0:0:0:0:
329,192,431285,1,0,0:0:0:0:
256,192,431285,1,0,0:0:0:0:
109,192,431285,1,0,0:0:0:0:
36,192,431347,1,0,0:0:0:0:
329,192,431410,1,0,0:0:0:0:
402,192,431410,1,0,0:0:0:0:
109,192,431472,1,0,0:0:0:0:
475,192,431535,1,0,0:0:0:0:
402,192,431535,1,0,0:0:0:0:
182,192,431535,1,0,0:0:0:0:
256,192,431535,1,0,0:0:0:0:
36,192,431597,1,0,0:0:0:0:
109,192,431660,1,0,0:0:0:0:
182,192,431722,1,0,0:0:0:0:
329,192,431785,1,0,0:0:0:0:
402,192,431785,1,0,0:0:0:0:
256,192,431847,1,0,0:0:0:0:
182,192,431910,1,0,0:0:0:0:
109,192,431972,1,0,0:0:0:0:
36,192,432035,1,0,0:0:0:0:
402,192,432035,1,0,0:0:0:0:
475,192,432035,1,0,0:0:0:0:
256,192,432097,1,0,0:0:0:0:
182,192,432160,1,0,0:0:0:0:
109,192,432222,1,0,0:0:0:0:
36,192,432285,1,0,0:0:0:0:
329,192,432285,1,0,0:0:0:0:
402,192,432285,1,0,0:0:0:0:
109,192,432347,1,0,0:0:0:0:
182,192,432410,1,0,0:0:0:0:
256,192,432472,1,0,0:0:0:0:
36,192,432535,1,0,0:0:0:0:
329,192,432535,1,0,0:0:0:0:
475,192,432535,1,0,0:0:0:0:
109,192,432597,1,0,0:0:0:0:
182,192,432660,1,0,0:0:0:0:
256,192,432722,1,0,0:0:0:0:
109,192,432785,1,0,0:0:0:0:
329,192,432785,1,0,0:0:0:0:
402,192,432785,1,0,0:0:0:0:
182,192,432847,1,0,0:0:0:0:
256,192,432910,1,0,0:0:0:0:
329,192,432972,1,0,0:0:0:0:
402,192,433035,1,0,0:0:0:0:
475,192,433035,1,0,0:0:0:0:
182,192,433035,1,0,0:0:0:0:
256,192,433097,1,0,0:0:0:0:
329,192,433160,1,0,0:0:0:0:
402,192,433222,1,0,0:0:0:0:
109,192,433285,1,0,0:0:0:0:
182,192,433285,1,0,0:0:0:0:
475,192,433285,1,0,0:0:0:0:
402,192,433347,1,0,0:0:0:0:
329,192,433410,1,0,0:0:0:0:
256,192,433472,1,0,0:0:0:0:
36,192,433535,1,0,0:0:0:0:
109,192,433535,1,0,0:0:0:0:
182,192,433597,1,0,0:0:0:0:
256,192,433660,1,0,0:0:0:0:
329,192,433722,1,0,0:0:0:0:
182,192,433785,1,0,0:0:0:0:
109,192,433785,1,0,0:0:0:0:
402,192,433785,1,0,0:0:0:0:
256,192,433847,1,0,0:0:0:0:
329,192,433910,1,0,0:0:0:0:
402,192,433972,1,0,0:0:0:0:
475,192,434035,1,0,0:0:0:0:
182,192,434035,1,0,0:0:0:0:
256,192,434035,1,0,0:0:0:0:
329,192,434097,1,0,0:0:0:0:
402,192,434160,1,0,0:0:0:0:
475,192,434222,1,0,0:0:0:0:
109,192,434285,1,0,0:0:0:0:
36,192,434285,1,0,0:0:0:0:
182,192,434285,1,0,0:0:0:0:
329,192,434347,1,0,0:0:0:0:
256,192,434410,1,0,0:0:0:0:
182,192,434472,1,0,0:0:0:0:
109,192,434535,1,0,0:0:0:0:
329,192,434535,1,0,0:0:0:0:
402,192,434535,1,0,0:0:0:0:
475,192,434535,1,0,0:0:0:0:
329,192,434785,1,0,0:0:0:0:
402,192,434785,1,0,0:0:0:0:
475,192,434785,1,0,0:0:0:0:
109,192,434785,1,0,0:0:0:0:
182,192,434785,1,0,0:0:0:0:
36,192,434785,1,0,0:0:0:0:
36,192,435035,1,0,0:0:0:0:
109,192,435035,1,0,0:0:0:0:
182,192,435035,1,0,0:0:0:0:
402,192,435035,1,0,0:0:0:0:
475,192,435035,1,0,0:0:0:0:
329,192,435035,1,0,0:0:0:0:
329,192,435285,1,0,0:0:0:0:
402,192,435285,1,0,0:0:0:0:
475,192,435285,1,0,0:0:0:0:
109,192,435285,1,0,0:0:0:0:
36,192,435285,1,0,0:0:0:0:
182,192,435285,1,0,0:0:0:0:
475,192,435535,1,0,0:0:0:0:
402,192,435535,1,0,0:0:0:0:
329,192,435535,1,0,0:0:0:0:
256,192,435535,1,0,0:0:0:0:
36,192,435535,1,0,0:0:0:0:
109,192,435597,1,0,0:0:0:0:
182,192,435660,1,0,0:0:0:0:
256,192,435722,1,0,0:0:0:0:
329,192,435785,1,0,0:0:0:0:
402,192,435785,1,0,0:0:0:0:
109,192,435785,1,0,0:0:0:0:
182,192,435847,1,0,0:0:0:0:
256,192,435910,1,0,0:0:0:0:
329,192,435972,1,0,0:0:0:0:
402,192,436035,1,0,0:0:0:0:
109,192,436035,1,0,0:0:0:0:
36,192,436035,1,0,0:0:0:0:
475,192,436097,1,0,0:0:0:0:
402,192,436160,1,0,0:0:0:0:
329,192,436222,1,0,0:0:0:0:
256,192,436285,1,0,0:0:0:0:
182,192,436285,1,0,0:0:0:0:
36,192,436285,1,0,0:0:0:0:
402,192,436347,1,0,0:0:0:0:
329,192,436410,1,0,0:0:0:0:
256,192,436472,1,0,0:0:0:0:
475,192,436535,1,0,0:0:0:0:
36,192,436535,1,0,0:0:0:0:
109,192,436535,1,0,0:0:0:0:
329,192,436618,1,0,0:0:0:0:
182,192,436618,1,0,0:0:0:0:
402,192,436701,1,0,0:0:0:0:
109,192,436701,1,0,0:0:0:0:
475,192,436785,1,0,0:0:0:0:
36,192,436785,1,0,0:0:0:0:
256,192,436785,1,0,0:0:0:0:
329,192,436847,1,0,0:0:0:0:
402,192,436910,1,0,0:0:0:0:
475,192,436972,1,0,0:0:0:0:
109,192,437035,1,0,0:0:0:0:
36,192,437035,1,0,0:0:0:0:
329,192,437035,1,0,0:0:0:0:
256,192,437097,1,0,0:0:0:0:
182,192,437160,1,0,0:0:0:0:
109,192,437222,1,0,0:0:0:0:
36,192,437285,1,0,0:0:0:0:
475,192,437285,1,0,0:0:0:0:
402,192,437410,1,0,0:0:0:0:
329,192,437410,1,0,0:0:0:0:
182,192,437535,1,0,0:0:0:0:
109,192,437535,1,0,0:0:0:0:
475,192,437535,1,0,0:0:0:0:
256,192,437597,1,0,0:0:0:0:
329,192,437660,1,0,0:0:0:0:
402,192,437722,1,0,0:0:0:0:
36,192,437785,1,0,0:0:0:0:
475,192,437785,1,0,0:0:0:0:
256,192,437785,1,0,0:0:0:0:
109,192,437847,1,0,0:0:0:0:
182,192,437910,1,0,0:0:0:0:
256,192,437972,1,0,0:0:0:0:
329,192,438035,1,0,0:0:0:0:
402,192,438035,1,0,0:0:0:0:
475,192,438035,1,0,0:0:0:0:
256,192,438097,1,0,0:0:0:0:
182,192,438160,1,0,0:0:0:0:
109,192,438222,1,0,0:0:0:0:
36,192,438285,1,0,0:0:0:0:
475,192,438285,1,0,0:0:0:0:
402,192,438285,1,0,0:0:0:0:
329,192,438347,1,0,0:0:0:0:
256,192,438410,1,0,0:0:0:0:
182,192,438472,1,0,0:0:0:0:
109,192,438535,1,0,0:0:0:0:
402,192,438535,1,0,0:0:0:0:
329,192,438535,1,0,0:0:0:0:
256,192,438660,1,0,0:0:0:0:
36,192,438722,1,0,0:0:0:0:
182,192,438785,1,0,0:0:0:0:
256,192,438785,1,0,0:0:0:0:
475,192,438785,1,0,0:0:0:0:
402,192,438847,1,0,0:0:0:0:
329,192,438910,1,0,0:0:0:0:
109,192,438972,1,0,0:0:0:0:
256,192,439035,1,0,0:0:0:0:
329,192,439035,1,0,0:0:0:0:
36,192,439035,1,0,0:0:0:0:
475,192,439097,1,0,0:0:0:0:
402,192,439160,1,0,0:0:0:0:
182,192,439222,1,0,0:0:0:0:
329,192,439285,1,0,0:0:0:0:
402,192,439285,1,0,0:0:0:0:
109,192,439285,1,0,0:0:0:0:
36,192,439347,1,0,0:0:0:0:
475,192,439410,1,0,0:0:0:0:
256,192,439472,1,0,0:0:0:0:
402,192,439535,1,0,0:0:0:0:
475,192,439535,1,0,0:0:0:0:
182,192,439535,1,0,0:0:0:0:
36,192,439597,1,0,0:0:0:0:
109,192,439660,1,0,0:0:0:0:
182,192,439722,1,0,0:0:0:0:
475,192,439722,1,0,0:0:0:0:
256,192,439785,1,0,0:0:0:0:
402,192,439785,1,0,0:0:0:0:
329,192,439847,1,0,0:0:0:0:
256,192,439910,1,0,0:0:0:0:
36,192,439910,1,0,0:0:0:0:
109,192,439972,1,0,0:0:0:0:
182,192,440035,1,0,0:0:0:0:
475,192,440035,1,0,0:0:0:0:
402,192,440035,1,0,0:0:0:0:
329,192,440097,1,0,0:0:0:0:
256,192,440160,1,0,0:0:0:0:
182,192,440222,1,0,0:0:0:0:
109,192,440285,1,0,0:0:0:0:
36,192,440285,1,0,0:0:0:0:
329,192,440410,1,0,0:0:0:0:
256,192,440410,1,0,0:0:0:0:
182,192,440472,1,0,0:0:0:0:
329,192,440535,1,0,0:0:0:0:
402,192,440535,1,0,0:0:0:0:
475,192,440535,1,0,0:0:0:0:
182,192,440597,1,0,0:0:0:0:
256,192,440660,1,0,0:0:0:0:
329,192,440722,1,0,0:0:0:0:
402,192,440785,1,0,0:0:0:0:
36,192,440785,1,0,0:0:0:0:
109,192,440785,1,0,0:0:0:0:
182,192,440847,1,0,0:0:0:0:
256,192,440910,1,0,0:0:0:0:
329,192,440972,1,0,0:0:0:0:
109,192,441035,1,0,0:0:0:0:
402,192,441035,1,0,0:0:0:0:
475,192,441035,1,0,0:0:0:0:
182,192,441097,1,0,0:0:0:0:
256,192,441160,1,0,0:0:0:0:
402,192,441222,1,0,0:0:0:0:
329,192,441222,1,0,0:0:0:0:
182,192,441285,1,0,0:0:0:0:
109,192,441285,1,0,0:0:0:0:
36,192,441347,1,0,0:0:0:0:
329,192,441410,1,0,0:0:0:0:
256,192,441410,1,0,0:0:0:0:
109,192,441472,1,0,0:0:0:0:
256,192,441535,1,0,0:0:0:0:
182,192,441535,1,0,0:0:0:0:
475,192,441535,1,0,0:0:0:0:
36,192,441535,1,0,0:0:0:0:
402,192,441597,1,0,0:0:0:0:
329,192,441660,1,0,0:0:0:0:
182,192,441722,1,0,0:0:0:0:
109,192,441722,1,0,0:0:0:0:
256,192,441785,1,0,0:0:0:0:
329,192,441785,1,0,0:0:0:0:
402,192,441847,1,0,0:0:0:0:
182,192,441910,1,0,0:0:0:0:
109,192,441910,1,0,0:0:0:0:
256,192,441972,1,0,0:0:0:0:
475,192,442035,1,0,0:0:0:0:
36,192,442035,1,0,0:0:0:0:
109,192,442035,1,0,0:0:0:0:
329,192,442097,1,0,0:0:0:0:
402,192,442097,1,0,0:0:0:0:
256,192,442160,1,0,0:0:0:0:
182,192,442222,1,0,0:0:0:0:
402,192,442285,1,0,0:0:0:0:
329,192,442285,1,0,0:0:0:0:
109,192,442347,5,0,0:0:0:0:
256,192,442410,1,0,0:0:0:0:
182,192,442410,1,0,0:0:0:0:
329,192,442472,1,0,0:0:0:0:
109,192,442535,1,0,0:0:0:0:
36,192,442535,1,0,0:0:0:0:
402,192,442535,1,0,0:0:0:0:
475,192,442535,1,0,0:0:0:0:
182,192,442785,1,0,0:0:0:0:
109,192,442785,1,0,0:0:0:0:
36,192,442785,1,0,0:0:0:0:
402,192,442785,1,0,0:0:0:0:
329,192,442785,1,0,0:0:0:0:
475,192,442785,1,0,0:0:0:0:
475,192,443035,1,0,0:0:0:0:
329,192,443035,1,0,0:0:0:0:
402,192,443035,1,0,0:0:0:0:
109,192,443035,1,0,0:0:0:0:
36,192,443035,1,0,0:0:0:0:
182,192,443035,1,0,0:0:0:0:
36,192,443285,1,0,0:0:0:0:
109,192,443285,1,0,0:0:0:0:
182,192,443285,1,0,0:0:0:0:
329,192,443285,1,0,0:0:0:0:
402,192,443285,1,0,0:0:0:0:
475,192,443285,1,0,0:0:0:0:
36,192,443535,5,0,0:0:0:0:
182,192,443535,1,0,0:0:0:0:
402,192,443535,1,0,0:0:0:0:
475,192,443535,1,0,0:0:0:0:
329,192,443597,1,0,0:0:0:0:
256,192,443660,1,0,0:0:0:0:
109,192,443660,1,0,0:0:0:0:
402,192,443722,1,0,0:0:0:0:
329,192,443785,1,0,0:0:0:0:
182,192,443785,1,0,0:0:0:0:
36,192,443785,1,0,0:0:0:0:
109,192,443910,1,0,0:0:0:0:
475,192,443910,1,0,0:0:0:0:
182,192,443972,1,0,0:0:0:0:
256,192,444035,1,0,0:0:0:0:
402,192,444035,1,0,0:0:0:0:
109,192,444097,1,0,0:0:0:0:
182,192,444160,1,0,0:0:0:0:
329,192,444160,1,0,0:0:0:0:
36,192,444285,1,0,0:0:0:0:
256,192,444285,1,0,0:0:0:0:
402,192,444285,1,0,0:0:0:0:
475,192,444410,1,0,0:0:0:0:
329,192,444410,1,0,0:0:0:0:
256,192,444535,1,0,0:0:0:0:
36,192,444535,1,0,0:0:0:0:
182,192,444597,1,0,0:0:0:0:
109,192,444660,1,0,0:0:0:0:
329,192,444660,1,0,0:0:0:0:
256,192,444722,1,0,0:0:0:0:
182,192,444785,1,0,0:0:0:0:
36,192,444785,1,0,0:0:0:0:
402,192,444785,1,0,0:0:0:0:
329,192,444910,1,0,0:0:0:0:
109,192,444910,1,0,0:0:0:0:
402,192,444972,1,0,0:0:0:0:
475,192,445035,1,0,0:0:0:0:
256,192,445035,1,0,0:0:0:0:
36,192,445035,1,0,0:0:0:0:
329,192,445097,1,0,0:0:0:0:
402,192,445160,1,0,0:0:0:0:
109,192,445160,1,0,0:0:0:0:
329,192,445222,1,0,0:0:0:0:
256,192,445285,1,0,0:0:0:0:
182,192,445285,1,0,0:0:0:0:
36,192,445285,1,0,0:0:0:0:
36,192,445410,1,0,0:0:0:0:
182,192,445410,1,0,0:0:0:0:
475,192,445535,1,0,0:0:0:0:
109,192,445535,1,0,0:0:0:0:
329,192,445597,1,0,0:0:0:0:
182,192,445660,1,0,0:0:0:0:
36,192,445660,1,0,0:0:0:0:
329,192,445722,1,0,0:0:0:0:
475,192,445785,1,0,0:0:0:0:
109,192,445785,1,0,0:0:0:0:
256,192,445785,1,0,0:0:0:0:
36,192,445910,1,0,0:0:0:0:
402,192,445910,1,0,0:0:0:0:
182,192,445972,1,0,0:0:0:0:
329,192,446035,1,0,0:0:0:0:
475,192,446035,1,0,0:0:0:0:
182,192,446097,1,0,0:0:0:0:
36,192,446160,1,0,0:0:0:0:
402,192,446160,1,0,0:0:0:0:
109,192,446285,1,0,0:0:0:0:
256,192,446285,1,0,0:0:0:0:
402,192,446285,1,0,0:0:0:0:
182,192,446410,1,0,0:0:0:0:
36,192,446410,1,0,0:0:0:0:
329,192,446535,1,0,0:0:0:0:
475,192,446535,1,0,0:0:0:0:
182,192,446597,1,0,0:0:0:0:
36,192,446660,1,0,0:0:0:0:
402,192,446660,1,0,0:0:0:0:
182,192,446722,1,0,0:0:0:0:
329,192,446785,1,0,0:0:0:0:
475,192,446785,1,0,0:0:0:0:
109,192,446785,1,0,0:0:0:0:
182,192,446910,1,0,0:0:0:0:
36,192,446910,1,0,0:0:0:0:
329,192,447035,1,0,0:0:0:0:
475,192,447035,1,0,0:0:0:0:
329,192,447160,1,0,0:0:0:0:
475,192,447160,1,0,0:0:0:0:
256,192,447285,1,0,0:0:0:0:
109,192,447285,1,0,0:0:0:0:
402,192,447285,1,0,0:0:0:0:
182,192,447410,1,0,0:0:0:0:
329,192,447410,1,0,0:0:0:0:
256,192,447535,1,0,0:0:0:0:
402,192,447535,1,0,0:0:0:0:
182,192,447597,1,0,0:0:0:0:
109,192,447660,1,0,0:0:0:0:
329,192,447660,1,0,0:0:0:0:
182,192,447722,1,0,0:0:0:0:
256,192,447785,1,0,0:0:0:0:
402,192,447785,1,0,0:0:0:0:
36,192,447785,1,0,0:0:0:0:
329,192,447910,1,0,0:0:0:0:
475,192,447910,1,0,0:0:0:0:
256,192,448035,1,0,0:0:0:0:
109,192,448035,1,0,0:0:0:0:
329,192,448097,1,0,0:0:0:0:
402,192,448160,1,0,0:0:0:0:
182,192,448160,1,0,0:0:0:0:
329,192,448222,1,0,0:0:0:0:
256,192,448285,1,0,0:0:0:0:
109,192,448285,1,0,0:0:0:0:
475,192,448285,1,0,0:0:0:0:
182,192,448410,1,0,0:0:0:0:
36,192,448410,1,0,0:0:0:0:
329,192,448535,1,0,0:0:0:0:
475,192,448535,1,0,0:0:0:0:
182,192,448597,1,0,0:0:0:0:
475,192,448660,1,0,0:0:0:0:
329,192,448660,1,0,0:0:0:0:
182,192,448722,1,0,0:0:0:0:
256,192,448785,1,0,0:0:0:0:
402,192,448785,1,0,0:0:0:0:
36,192,448785,1,0,0:0:0:0:
109,192,448847,1,0,0:0:0:0:
256,192,448910,1,0,0:0:0:0:
402,192,448910,1,0,0:0:0:0:
109,192,448972,1,0,0:0:0:0:
182,192,449035,1,0,0:0:0:0:
329,192,449035,1,0,0:0:0:0:
36,192,449097,1,0,0:0:0:0:
182,192,449160,1,0,0:0:0:0:
329,192,449160,1,0,0:0:0:0:
36,192,449222,1,0,0:0:0:0:
109,192,449285,1,0,0:0:0:0:
256,192,449285,1,0,0:0:0:0:
402,192,449285,1,0,0:0:0:0:
475,192,449347,1,0,0:0:0:0:
256,192,449410,1,0,0:0:0:0:
109,192,449410,1,0,0:0:0:0:
475,192,449472,1,0,0:0:0:0:
182,192,449535,1,0,0:0:0:0:
36,192,449535,1,0,0:0:0:0:
402,192,449597,1,0,0:0:0:0:
182,192,449660,1,0,0:0:0:0:
36,192,449660,1,0,0:0:0:0:
402,192,449722,1,0,0:0:0:0:
182,192,449785,1,0,0:0:0:0:
36,192,449785,1,0,0:0:0:0:
475,192,449785,1,0,0:0:0:0:
329,192,449847,1,0,0:0:0:0:
36,192,449910,1,0,0:0:0:0:
182,192,449910,1,0,0:0:0:0:
329,192,449972,1,0,0:0:0:0:
109,192,450035,1,0,0:0:0:0:
256,192,450035,1,0,0:0:0:0:
402,192,450097,1,0,0:0:0:0:
109,192,450160,1,0,0:0:0:0:
256,192,450160,1,0,0:0:0:0:
402,192,450222,1,0,0:0:0:0:
182,192,450285,1,0,0:0:0:0:
329,192,450285,1,0,0:0:0:0:
36,192,450285,1,0,0:0:0:0:
475,192,450347,1,0,0:0:0:0:
329,192,450410,1,0,0:0:0:0:
182,192,450410,1,0,0:0:0:0:
475,192,450472,1,0,0:0:0:0:
256,192,450535,1,0,0:0:0:0:
109,192,450535,128,0,451035:0:0:0:0:
329,192,450597,1,0,0:0:0:0:
402,192,450660,1,0,0:0:0:0:
329,192,450722,1,0,0:0:0:0:
36,192,450785,1,0,0:0:0:0:
182,192,450785,1,0,0:0:0:0:
475,192,450785,1,0,0:0:0:0:
402,192,450847,1,0,0:0:0:0:
329,192,450910,1,0,0:0:0:0:
402,192,450972,1,0,0:0:0:0:
475,192,451035,1,0,0:0:0:0:
182,192,451035,1,0,0:0:0:0:
36,192,451035,1,0,0:0:0:0:
256,192,451097,1,0,0:0:0:0:
402,192,451160,1,0,0:0:0:0:
329,192,451222,1,0,0:0:0:0:
36,192,451285,1,0,0:0:0:0:
182,192,451285,1,0,0:0:0:0:
475,192,451285,1,0,0:0:0:0:
256,192,451347,1,0,0:0:0:0:
329,192,451410,1,0,0:0:0:0:
182,192,451472,1,0,0:0:0:0:
256,192,451535,1,0,0:0:0:0:
402,192,451535,1,0,0:0:0:0:
475,192,451535,1,0,0:0:0:0:
36,192,451535,1,0,0:0:0:0:
182,192,451597,1,0,0:0:0:0:
109,192,451660,1,0,0:0:0:0:
329,192,451660,1,0,0:0:0:0:
256,192,451722,1,0,0:0:0:0:
182,192,451785,1,0,0:0:0:0:
36,192,451785,1,0,0:0:0:0:
402,192,451785,1,0,0:0:0:0:
329,192,451847,1,0,0:0:0:0:
475,192,451910,1,0,0:0:0:0:
109,192,451910,1,0,0:0:0:0:
329,192,451972,1,0,0:0:0:0:
182,192,452035,1,0,0:0:0:0:
36,192,452035,1,0,0:0:0:0:
256,192,452097,1,0,0:0:0:0:
329,192,452160,1,0,0:0:0:0:
475,192,452160,1,0,0:0:0:0:
182,192,452222,1,0,0:0:0:0:
256,192,452285,1,0,0:0:0:0:
402,192,452285,1,0,0:0:0:0:
109,192,452285,1,0,0:0:0:0:
329,192,452347,1,0,0:0:0:0:
182,192,452410,1,0,0:0:0:0:
329,192,452472,1,0,0:0:0:0:
109,192,452535,1,0,0:0:0:0:
256,192,452535,1,0,0:0:0:0:
475,192,452597,1,0,0:0:0:0:
109,192,452660,1,0,0:0:0:0:
256,192,452660,1,0,0:0:0:0:
475,192,452722,1,0,0:0:0:0:
182,192,452785,1,0,0:0:0:0:
36,192,452785,1,0,0:0:0:0:
329,192,452785,1,0,0:0:0:0:
402,192,452847,1,0,0:0:0:0:
36,192,452910,1,0,0:0:0:0:
182,192,452910,1,0,0:0:0:0:
402,192,452972,1,0,0:0:0:0:
36,192,453035,1,0,0:0:0:0:
182,192,453035,1,0,0:0:0:0:
329,192,453097,1,0,0:0:0:0:
36,192,453160,1,0,0:0:0:0:
182,192,453160,1,0,0:0:0:0:
329,192,453222,1,0,0:0:0:0:
109,192,453285,1,0,0:0:0:0:
256,192,453285,1,0,0:0:0:0:
402,192,453347,1,0,0:0:0:0:
329,192,453410,1,0,0:0:0:0:
182,192,453472,1,0,0:0:0:0:
256,192,453535,1,0,0:0:0:0:
402,192,453535,1,0,0:0:0:0:
36,192,453597,1,0,0:0:0:0:
256,192,453660,1,0,0:0:0:0:
402,192,453660,1,0,0:0:0:0:
36,192,453722,1,0,0:0:0:0:
329,192,453785,1,0,0:0:0:0:
475,192,453785,1,0,0:0:0:0:
182,192,453785,1,0,0:0:0:0:
109,192,453847,1,0,0:0:0:0:
475,192,453910,1,0,0:0:0:0:
329,192,453910,1,0,0:0:0:0:
109,192,453972,1,0,0:0:0:0:
329,192,454035,1,0,0:0:0:0:
475,192,454035,1,0,0:0:0:0:
182,192,454097,1,0,0:0:0:0:
329,192,454160,1,0,0:0:0:0:
475,192,454160,1,0,0:0:0:0:
182,192,454222,1,0,0:0:0:0:
256,192,454285,1,0,0:0:0:0:
402,192,454285,1,0,0:0:0:0:
109,192,454347,1,0,0:0:0:0:
256,192,454410,1,0,0:0:0:0:
402,192,454410,1,0,0:0:0:0:
109,192,454472,1,0,0:0:0:0:
329,192,454535,1,0,0:0:0:0:
475,192,454535,1,0,0:0:0:0:
182,192,454597,1,0,0:0:0:0:
329,192,454660,1,0,0:0:0:0:
475,192,454660,1,0,0:0:0:0:
182,192,454722,1,0,0:0:0:0:
256,192,454785,1,0,0:0:0:0:
402,192,454785,1,0,0:0:0:0:
109,192,454847,1,0,0:0:0:0:
256,192,454910,1,0,0:0:0:0:
402,192,454910,1,0,0:0:0:0:
109,192,454972,1,0,0:0:0:0:
182,192,455035,1,0,0:0:0:0:
329,192,455035,1,0,0:0:0:0:
36,192,455097,1,0,0:0:0:0:
182,192,455160,1,0,0:0:0:0:
329,192,455160,1,0,0:0:0:0:
36,192,455222,1,0,0:0:0:0:
256,192,455285,1,0,0:0:0:0:
402,192,455285,1,0,0:0:0:0:
109,192,455347,1,0,0:0:0:0:
256,192,455410,1,0,0:0:0:0:
402,192,455410,1,0,0:0:0:0:
109,192,455472,1,0,0:0:0:0:
329,192,455535,1,0,0:0:0:0:
475,192,455535,1,0,0:0:0:0:
182,192,455597,1,0,0:0:0:0:
36,192,455660,1,0,0:0:0:0:
402,192,455660,1,0,0:0:0:0:
182,192,455722,1,0,0:0:0:0:
329,192,455785,1,0,0:0:0:0:
475,192,455785,1,0,0:0:0:0:
109,192,455785,1,0,0:0:0:0:
182,192,455847,1,0,0:0:0:0:
36,192,455910,1,0,0:0:0:0:
402,192,455910,1,0,0:0:0:0:
182,192,455972,1,0,0:0:0:0:
329,192,456035,1,0,0:0:0:0:
475,192,456035,1,0,0:0:0:0:
182,192,456097,1,0,0:0:0:0:
36,192,456160,1,0,0:0:0:0:
402,192,456160,1,0,0:0:0:0:
182,192,456222,1,0,0:0:0:0:
329,192,456285,1,0,0:0:0:0:
475,192,456285,1,0,0:0:0:0:
109,192,456285,1,0,0:0:0:0:
182,192,456347,1,0,0:0:0:0:
256,192,456410,1,0,0:0:0:0:
402,192,456410,1,0,0:0:0:0:
182,192,456472,1,0,0:0:0:0:
475,192,456535,1,0,0:0:0:0:
109,192,456535,1,0,0:0:0:0:
329,192,456597,1,0,0:0:0:0:
182,192,456660,1,0,0:0:0:0:
36,192,456660,1,0,0:0:0:0:
329,192,456722,1,0,0:0:0:0:
475,192,456785,1,0,0:0:0:0:
109,192,456785,1,0,0:0:0:0:
256,192,456785,1,0,0:0:0:0:
329,192,456847,1,0,0:0:0:0:
182,192,456910,1,0,0:0:0:0:
36,192,456910,1,0,0:0:0:0:
256,192,456972,1,0,0:0:0:0:
475,192,457035,1,0,0:0:0:0:
109,192,457035,1,0,0:0:0:0:
256,192,457097,1,0,0:0:0:0:
182,192,457160,1,0,0:0:0:0:
36,192,457160,1,0,0:0:0:0:
329,192,457222,1,0,0:0:0:0:
475,192,457285,1,0,0:0:0:0:
109,192,457285,1,0,0:0:0:0:
256,192,457285,1,0,0:0:0:0:
329,192,457347,1,0,0:0:0:0:
36,192,457410,1,0,0:0:0:0:
182,192,457410,1,0,0:0:0:0:
329,192,457472,1,0,0:0:0:0:
402,192,457535,1,0,0:0:0:0:
109,192,457535,1,0,0:0:0:0:
182,192,457597,1,0,0:0:0:0:
256,192,457660,1,0,0:0:0:0:
329,192,457660,1,0,0:0:0:0:
182,192,457722,1,0,0:0:0:0:
109,192,457785,1,0,0:0:0:0:
475,192,457785,1,0,0:0:0:0:
36,192,457785,1,0,0:0:0:0:
256,192,457847,1,0,0:0:0:0:
402,192,457910,1,0,0:0:0:0:
109,192,457972,1,0,0:0:0:0:
256,192,458035,1,0,0:0:0:0:
402,192,458035,1,0,0:0:0:0:
182,192,458097,1,0,0:0:0:0:
109,192,458160,1,0,0:0:0:0:
256,192,458222,1,0,0:0:0:0:
182,192,458285,1,0,0:0:0:0:
36,192,458285,1,0,0:0:0:0:
402,192,458285,1,0,0:0:0:0:
329,192,458347,1,0,0:0:0:0:
256,192,458410,1,0,0:0:0:0:
109,192,458410,1,0,0:0:0:0:
329,192,458472,1,0,0:0:0:0:
475,192,458535,1,0,0:0:0:0:
402,192,458535,1,0,0:0:0:0:
182,192,458535,1,0,0:0:0:0:
36,192,458535,1,0,0:0:0:0:
329,192,458597,1,0,0:0:0:0:
182,192,458660,1,0,0:0:0:0:
329,192,458722,1,0,0:0:0:0:
36,192,458785,1,0,0:0:0:0:
402,192,458785,1,0,0:0:0:0:
475,192,458785,1,0,0:0:0:0:
109,192,458785,1,0,0:0:0:0:
256,192,458847,1,0,0:0:0:0:
36,192,458910,1,0,0:0:0:0:
256,192,458972,1,0,0:0:0:0:
109,192,459035,1,0,0:0:0:0:
329,192,459035,1,0,0:0:0:0:
402,192,459035,1,0,0:0:0:0:
475,192,459035,1,0,0:0:0:0:
182,192,459097,1,0,0:0:0:0:
109,192,459160,1,0,0:0:0:0:
182,192,459222,1,0,0:0:0:0:
36,192,459285,1,0,0:0:0:0:
256,192,459285,1,0,0:0:0:0:
402,192,459285,1,0,0:0:0:0:
475,192,459285,1,0,0:0:0:0:
182,192,459347,1,0,0:0:0:0:
36,192,459410,1,0,0:0:0:0:
182,192,459472,1,0,0:0:0:0:
329,192,459535,1,0,0:0:0:0:
475,192,459535,1,0,0:0:0:0:
109,192,459535,1,0,0:0:0:0:
36,192,459535,1,0,0:0:0:0:
256,192,459597,1,0,0:0:0:0:
182,192,459660,1,0,0:0:0:0:
402,192,459660,1,0,0:0:0:0:
329,192,459722,1,0,0:0:0:0:
256,192,459785,1,0,0:0:0:0:
109,192,459785,1,0,0:0:0:0:
475,192,459785,1,0,0:0:0:0:
329,192,459847,1,0,0:0:0:0:
182,192,459910,1,0,0:0:0:0:
36,192,459910,1,0,0:0:0:0:
256,192,459972,1,0,0:0:0:0:
329,192,460035,1,0,0:0:0:0:
475,192,460035,1,0,0:0:0:0:
109,192,460035,1,0,0:0:0:0:
182,192,460097,1,0,0:0:0:0:
256,192,460160,1,0,0:0:0:0:
402,192,460160,1,0,0:0:0:0:
182,192,460222,1,0,0:0:0:0:
109,192,460285,1,0,0:0:0:0:
329,192,460285,1,0,0:0:0:0:
475,192,460285,1,0,0:0:0:0:
256,192,460347,1,0,0:0:0:0:
182,192,460410,1,0,0:0:0:0:
36,192,460410,1,0,0:0:0:0:
329,192,460472,1,0,0:0:0:0:
256,192,460535,1,0,0:0:0:0:
109,192,460535,1,0,0:0:0:0:
402,192,460535,1,0,0:0:0:0:
475,192,460535,1,0,0:0:0:0:
182,192,460597,1,0,0:0:0:0:
329,192,460660,1,0,0:0:0:0:
36,192,460660,1,0,0:0:0:0:
182,192,460722,1,0,0:0:0:0:
109,192,460785,1,0,0:0:0:0:
402,192,460785,1,0,0:0:0:0:
475,192,460785,1,0,0:0:0:0:
182,192,460847,1,0,0:0:0:0:
329,192,460910,1,0,0:0:0:0:
36,192,460910,1,0,0:0:0:0:
182,192,460972,1,0,0:0:0:0:
109,192,461035,1,0,0:0:0:0:
402,192,461035,1,0,0:0:0:0:
475,192,461035,1,0,0:0:0:0:
329,192,461097,1,0,0:0:0:0:
182,192,461160,1,0,0:0:0:0:
36,192,461160,1,0,0:0:0:0:
256,192,461222,1,0,0:0:0:0:
402,192,461285,1,0,0:0:0:0:
109,192,461285,1,0,0:0:0:0:
475,192,461285,1,0,0:0:0:0:
329,192,461347,1,0,0:0:0:0:
182,192,461410,1,0,0:0:0:0:
36,192,461410,1,0,0:0:0:0:
329,192,461472,1,0,0:0:0:0:
402,192,461535,1,0,0:0:0:0:
475,192,461535,1,0,0:0:0:0:
109,192,461535,1,0,0:0:0:0:
36,192,461535,1,0,0:0:0:0:
182,192,461597,1,0,0:0:0:0:
256,192,461660,1,0,0:0:0:0:
329,192,461660,1,0,0:0:0:0:
182,192,461722,1,0,0:0:0:0:
109,192,461785,1,0,0:0:0:0:
402,192,461785,1,0,0:0:0:0:
475,192,461785,1,0,0:0:0:0:
329,192,461847,1,0,0:0:0:0:
256,192,461910,1,0,0:0:0:0:
182,192,461910,1,0,0:0:0:0:
329,192,461972,1,0,0:0:0:0:
402,192,462035,1,0,0:0:0:0:
109,192,462035,1,0,0:0:0:0:
36,192,462035,1,0,0:0:0:0:
475,192,462035,1,0,0:0:0:0:
182,192,462097,1,0,0:0:0:0:
256,192,462160,1,0,0:0:0:0:
329,192,462160,1,0,0:0:0:0:
182,192,462222,1,0,0:0:0:0:
109,192,462285,1,0,0:0:0:0:
402,192,462285,1,0,0:0:0:0:
475,192,462285,1,0,0:0:0:0:
329,192,462347,1,0,0:0:0:0:
256,192,462410,1,0,0:0:0:0:
182,192,462410,1,0,0:0:0:0:
329,192,462472,1,0,0:0:0:0:
402,192,462535,1,0,0:0:0:0:
109,192,462535,1,0,0:0:0:0:
36,192,462535,1,0,0:0:0:0:
182,192,462597,1,0,0:0:0:0:
402,192,462660,1,0,0:0:0:0:
256,192,462660,1,0,0:0:0:0:
182,192,462722,1,0,0:0:0:0:
329,192,462785,1,0,0:0:0:0:
36,192,462785,1,0,0:0:0:0:
475,192,462785,1,0,0:0:0:0:
109,192,462847,1,0,0:0:0:0:
329,192,462910,1,0,0:0:0:0:
256,192,462910,1,0,0:0:0:0:
109,192,462972,1,0,0:0:0:0:
402,192,463035,1,0,0:0:0:0:
36,192,463035,1,0,0:0:0:0:
475,192,463035,1,0,0:0:0:0:
182,192,463097,1,0,0:0:0:0:
402,192,463160,1,0,0:0:0:0:
256,192,463160,1,0,0:0:0:0:
182,192,463222,1,0,0:0:0:0:
475,192,463285,1,0,0:0:0:0:
109,192,463285,1,0,0:0:0:0:
329,192,463285,1,0,0:0:0:0:
256,192,463347,1,0,0:0:0:0:
475,192,463410,1,0,0:0:0:0:
182,192,463410,1,0,0:0:0:0:
329,192,463472,1,0,0:0:0:0:
109,192,463535,1,0,0:0:0:0:
36,192,463535,128,0,467535:0:0:0:0:
402,192,463535,128,0,467535:0:0:0:0:
256,192,463535,128,0,467535:0:0:0:0:
