osu file format v14

[General]
AudioFilename: audio.mp3
AudioLeadIn: 0
PreviewTime: 2146
Countdown: 0
SampleSet: Normal
StackLeniency: 0.7
Mode: 3
LetterboxInBreaks: 0
SpecialStyle: 0
WidescreenStoryboard: 0

[Editor]
Bookmarks: 2313,13479,29479,51479,67479,71813,83146,94146,104813,114813,125479,136813,146146,158146,168813,190146,219479,243479,252813,264813,275479,286146,296813,306146,318146,328146,339479,363479,379479,387479,395479,397479,399479,401479,403479,405479,407479,409479,411479,427479,443479,463479
DistanceSpacing: 0.8
BeatDivisor: 4
GridSize: 32
TimelineZoom: 2.3

[Metadata]
Title:osu!memories
TitleUnicode:osu!memories
Artist:Various Artists
ArtistUnicode:Various Artists
Creator:Raveille
Version:4K Reunion Recollections
Source:SakiZ
Tags:osumemories osu memories compilation marathon mashup aoir eir ignite toyosaki aki diamond reol no title maffalda pensamento tipico de esquerda Abraxos Aras25 Aste- Chronocide Critical_Star Dellvangel Eternalie Exe Ibrahim Julie Katio-kun Lenfried- Leonita Maxus MEGAtive Minseo2000 MrDorian noftrahtcehe Virtue- arcwinolivirus -BlueFire- JztCallMeRon SurfChu85 Syaro-sama
BeatmapID:1134985
BeatmapSetID:535878

[Difficulty]
HPDrainRate:7
CircleSize:4
OverallDifficulty:7.2
ApproachRate:5
SliderMultiplier:1.4
SliderTickRate:1

[Events]
//Background and Video events
0,0,"osu!memoriesbg.jpg",0,0
//Break Periods
//Storyboard Layer 0 (Background)
//Storyboard Layer 1 (Fail)
//Storyboard Layer 2 (Pass)
//Storyboard Layer 3 (Foreground)
//Storyboard Sound Samples

[TimingPoints]
3540,333.333333333333,4,1,0,30,1,0
3540,-100,4,1,0,30,0,0
263539,-66.6666666666667,4,1,0,30,0,0
263623,-200,4,1,0,30,0,0
263706,-64.5161290322581,4,1,0,30,0,0
263789,-222.222222222222,4,1,0,30,0,0
263873,-62.5,4,1,0,30,0,0
263956,-250,4,1,0,30,0,0
264039,-60.6060606060606,4,1,0,30,0,0
264123,-285.714285714286,4,1,0,30,0,0
264206,-58.8235294117647,4,1,0,30,0,0
264289,-333.333333333333,4,1,0,30,0,0
264373,-57.1428571428571,4,1,0,30,0,0
264456,-487.80487804878,4,1,0,30,0,0
264539,-55.5555555555556,4,1,0,30,0,0
264623,-500,4,1,0,30,0,0
264706,-100,4,1,0,30,0,0
363550,250,4,1,0,30,1,0
363550,-133.333333333333,4,1,0,30,0,0
411535,250,4,1,0,30,1,0
411535,-133.333333333333,4,1,0,30,0,0
443535,-133.333333333333,4,1,0,30,0,1
463535,-133.333333333333,4,1,0,30,0,0

[HitObjects]
448,192,2373,128,0,2540:0:0:0:0:
192,192,2540,128,0,2706:0:0:0:0:
320,192,2706,128,0,2873:0:0:0:0:
448,192,2873,128,0,3040:0:0:0:0:
320,192,3040,128,0,3206:0:0:0:0:
192,192,3206,128,0,3373:0:0:0:0:
448,192,3373,128,0,4706:0:0:0:0:
64,192,3539,1,0,0:0:0:0:
320,192,3539,1,0,0:0:0:0:
64,192,3873,1,0,0:0:0:0:
192,192,4206,1,0,0:0:0:0:
320,192,4206,1,0,0:0:0:0:
64,192,4539,1,0,0:0:0:0:
320,192,4873,1,0,0:0:0:0:
192,192,5039,128,0,5206:0:0:0:0:
64,192,5206,128,0,5539:0:0:0:0:
448,192,5206,1,0,0:0:0:0:
192,192,5539,128,0,5706:0:0:0:0:
320,192,5539,1,0,0:0:0:0:
448,192,5539,1,0,0:0:0:0:
320,192,5706,128,0,5873:0:0:0:0:
448,192,5873,128,0,6039:0:0:0:0:
64,192,5873,1,0,0:0:0:0:
320,192,6039,128,0,6706:0:0:0:0:
192,192,6206,1,0,0:0:0:0:
64,192,6539,1,0,0:0:0:0:
192,192,6873,128,0,7539:0:0:0:0:
320,192,6873,1,0,0:0:0:0:
448,192,6873,1,0,0:0:0:0:
64,192,7039,1,0,0:0:0:0:
448,192,7206,1,0,0:0:0:0:
64,192,7539,128,0,8206:0:0:0:0:
320,192,7539,1,0,0:0:0:0:
448,192,7873,1,0,0:0:0:0:
192,192,8206,128,0,8706:0:0:0:0:
320,192,8206,1,0,0:0:0:0:
448,192,8206,1,0,0:0:0:0:
448,192,8373,1,0,0:0:0:0:
64,192,8539,1,0,0:0:0:0:
320,192,8706,1,0,0:0:0:0:
64,192,8873,128,0,9539:0:0:0:0:
448,192,8873,1,0,0:0:0:0:
192,192,9206,1,0,0:0:0:0:
448,192,9539,128,0,10206:0:0:0:0:
320,192,9539,1,0,0:0:0:0:
192,192,9539,1,0,0:0:0:0:
64,192,9873,1,0,0:0:0:0:
64,192,10206,128,0,10873:0:0:0:0:
320,192,10206,1,0,0:0:0:0:
448,192,10539,1,0,0:0:0:0:
448,192,10873,128,0,11206:0:0:0:0:
192,192,10873,1,0,0:0:0:0:
320,192,10873,1,0,0:0:0:0:
64,192,11206,1,0,0:0:0:0:
448,192,11539,128,0,11706:0:0:0:0:
192,192,11539,1,0,0:0:0:0:
320,192,11706,128,0,12039:0:0:0:0:
64,192,11873,1,0,0:0:0:0:
192,192,12039,128,0,12373:0:0:0:0:
448,192,12206,1,0,0:0:0:0:
320,192,12206,1,0,0:0:0:0:
64,192,12373,128,0,12706:0:0:0:0:
320,192,12539,1,0,0:0:0:0:
192,192,12706,128,0,13456:0:0:0:0:
448,192,12873,1,0,0:0:0:0:
64,192,13039,1,0,0:0:0:0:
64,192,13206,1,0,0:0:0:0:
448,192,13206,1,0,0:0:0:0:
320,192,13373,1,0,0:0:0:0:
64,192,13456,1,0,0:0:0:0:
320,192,13539,5,0,0:0:0:0:
448,192,13539,5,0,0:0:0:0:
320,192,13706,1,0,0:0:0:0:
192,192,13706,1,0,0:0:0:0:
64,192,13873,1,0,0:0:0:0:
192,192,13873,1,0,0:0:0:0:
320,192,13956,1,0,0:0:0:0:
448,192,14039,1,0,0:0:0:0:
320,192,14123,1,0,0:0:0:0:
64,192,14206,128,0,15539:0:0:0:0:
448,192,14206,1,0,0:0:0:0:
192,192,14206,1,0,0:0:0:0:
320,192,14373,1,0,0:0:0:0:
192,192,14539,1,0,0:0:0:0:
448,192,14539,1,0,0:0:0:0:
448,192,14706,1,0,0:0:0:0:
320,192,14873,1,0,0:0:0:0:
192,192,14873,1,0,0:0:0:0:
320,192,15039,1,0,0:0:0:0:
192,192,15206,1,0,0:0:0:0:
448,192,15206,1,0,0:0:0:0:
320,192,15373,1,0,0:0:0:0:
448,192,15539,128,0,16039:0:0:0:0:
192,192,15539,1,0,0:0:0:0:
192,192,15706,1,0,0:0:0:0:
64,192,15873,1,0,0:0:0:0:
320,192,15873,1,0,0:0:0:0:
192,192,16039,128,0,16539:0:0:0:0:
448,192,16206,1,0,0:0:0:0:
320,192,16206,1,0,0:0:0:0:
64,192,16373,1,0,0:0:0:0:
320,192,16539,128,0,16873:0:0:0:0:
448,192,16539,1,0,0:0:0:0:
192,192,16706,1,0,0:0:0:0:
448,192,16873,128,0,17373:0:0:0:0:
64,192,16873,1,0,0:0:0:0:
320,192,17039,1,0,0:0:0:0:
192,192,17206,1,0,0:0:0:0:
64,192,17206,1,0,0:0:0:0:
192,192,17373,128,0,17456:0:0:0:0:
320,192,17373,1,0,0:0:0:0:
320,192,17539,1,0,0:0:0:0:
448,192,17539,1,0,0:0:0:0:
192,192,17706,1,0,0:0:0:0:
64,192,17873,128,0,19539:0:0:0:0:
448,192,17873,1,0,0:0:0:0:
320,192,18039,1,0,0:0:0:0:
192,192,18206,1,0,0:0:0:0:
448,192,18206,1,0,0:0:0:0:
192,192,18373,1,0,0:0:0:0:
320,192,18539,1,0,0:0:0:0:
448,192,18539,1,0,0:0:0:0:
320,192,18706,1,0,0:0:0:0:
448,192,18873,1,0,0:0:0:0:
192,192,18873,1,0,0:0:0:0:
320,192,18956,1,0,0:0:0:0:
192,192,19039,1,0,0:0:0:0:
448,192,19123,1,0,0:0:0:0:
320,192,19206,1,0,0:0:0:0:
192,192,19206,1,0,0:0:0:0:
448,192,19289,1,0,0:0:0:0:
320,192,19373,1,0,0:0:0:0:
192,192,19456,1,0,0:0:0:0:
448,192,19539,128,0,20873:0:0:0:0:
320,192,19539,1,0,0:0:0:0:
192,192,19706,1,0,0:0:0:0:
64,192,19873,1,0,0:0:0:0:
320,192,19873,1,0,0:0:0:0:
64,192,20039,1,0,0:0:0:0:
192,192,20206,1,0,0:0:0:0:
320,192,20206,1,0,0:0:0:0:
320,192,20373,1,0,0:0:0:0:
192,192,20539,1,0,0:0:0:0:
64,192,20539,1,0,0:0:0:0:
320,192,20706,1,0,0:0:0:0:
192,192,20873,128,0,21373:0:0:0:0:
320,192,20873,1,0,0:0:0:0:
64,192,21039,1,0,0:0:0:0:
448,192,21206,1,0,0:0:0:0:
320,192,21206,1,0,0:0:0:0:
64,192,21373,128,0,21873:0:0:0:0:
192,192,21539,1,0,0:0:0:0:
448,192,21539,1,0,0:0:0:0:
320,192,21706,1,0,0:0:0:0:
320,192,21873,128,0,22206:0:0:0:0:
448,192,21873,1,0,0:0:0:0:
64,192,22039,1,0,0:0:0:0:
192,192,22206,128,0,22706:0:0:0:0:
64,192,22206,1,0,0:0:0:0:
448,192,22373,1,0,0:0:0:0:
320,192,22539,1,0,0:0:0:0:
64,192,22539,1,0,0:0:0:0:
448,192,22706,128,0,22789:0:0:0:0:
320,192,22706,1,0,0:0:0:0:
192,192,22873,1,0,0:0:0:0:
64,192,22873,1,0,0:0:0:0:
320,192,23039,1,0,0:0:0:0:
64,192,23206,128,0,24206:0:0:0:0:
192,192,23206,1,0,0:0:0:0:
320,192,23373,1,0,0:0:0:0:
448,192,23539,1,0,0:0:0:0:
192,192,23539,1,0,0:0:0:0:
320,192,23706,1,0,0:0:0:0:
448,192,23873,1,0,0:0:0:0:
320,192,23873,1,0,0:0:0:0:
192,192,24039,1,0,0:0:0:0:
448,192,24206,128,0,24706:0:0:0:0:
320,192,24206,1,0,0:0:0:0:
320,192,24373,1,0,0:0:0:0:
192,192,24373,1,0,0:0:0:0:
192,192,24539,1,0,0:0:0:0:
64,192,24539,1,0,0:0:0:0:
64,192,24706,1,0,0:0:0:0:
320,192,24706,1,0,0:0:0:0:
192,192,24873,1,0,0:0:0:0:
320,192,24873,1,0,0:0:0:0:
448,192,24873,1,0,0:0:0:0:
192,192,25039,1,0,0:0:0:0:
64,192,25039,1,0,0:0:0:0:
64,192,25206,1,0,0:0:0:0:
320,192,25206,1,0,0:0:0:0:
320,192,25373,1,0,0:0:0:0:
192,192,25373,1,0,0:0:0:0:
448,192,25373,1,0,0:0:0:0:
192,192,25539,1,0,0:0:0:0:
64,192,25539,1,0,0:0:0:0:
64,192,25706,1,0,0:0:0:0:
320,192,25706,1,0,0:0:0:0:
320,192,25873,1,0,0:0:0:0:
192,192,25873,1,0,0:0:0:0:
448,192,25873,1,0,0:0:0:0:
64,192,26039,1,0,0:0:0:0:
192,192,26039,1,0,0:0:0:0:
64,192,26206,1,0,0:0:0:0:
448,192,26206,1,0,0:0:0:0:
448,192,26373,1,0,0:0:0:0:
320,192,26373,1,0,0:0:0:0:
64,192,26539,1,0,0:0:0:0:
320,192,26539,1,0,0:0:0:0:
192,192,26539,1,0,0:0:0:0:
64,192,26706,1,0,0:0:0:0:
448,192,26706,1,0,0:0:0:0:
192,192,26873,1,0,0:0:0:0:
320,192,26873,1,0,0:0:0:0:
448,192,26873,1,0,0:0:0:0:
64,192,27039,1,0,0:0:0:0:
448,192,27039,1,0,0:0:0:0:
320,192,27123,1,0,0:0:0:0:
192,192,27206,1,0,0:0:0:0:
64,192,27206,1,0,0:0:0:0:
448,192,27289,1,0,0:0:0:0:
320,192,27373,1,0,0:0:0:0:
192,192,27373,1,0,0:0:0:0:
64,192,27456,1,0,0:0:0:0:
192,192,27539,1,0,0:0:0:0:
320,192,27539,1,0,0:0:0:0:
448,192,27539,1,0,0:0:0:0:
64,192,27706,1,0,0:0:0:0:
320,192,27706,1,0,0:0:0:0:
320,192,27873,1,0,0:0:0:0:
448,192,27873,1,0,0:0:0:0:
448,192,28039,1,0,0:0:0:0:
192,192,28039,1,0,0:0:0:0:
64,192,28039,1,0,0:0:0:0:
64,192,28206,1,0,0:0:0:0:
320,192,28206,1,0,0:0:0:0:
320,192,28373,1,0,0:0:0:0:
448,192,28373,1,0,0:0:0:0:
448,192,28539,1,0,0:0:0:0:
64,192,28539,1,0,0:0:0:0:
192,192,28539,1,0,0:0:0:0:
320,192,28706,1,0,0:0:0:0:
64,192,28706,1,0,0:0:0:0:
448,192,28873,1,0,0:0:0:0:
192,192,28873,1,0,0:0:0:0:
320,192,29039,5,0,0:0:0:0:
448,192,29039,1,0,0:0:0:0:
320,192,29206,1,0,0:0:0:0:
448,192,29206,1,0,0:0:0:0:
320,192,29373,1,0,0:0:0:0:
448,192,29373,1,0,0:0:0:0:
320,192,29539,1,0,0:0:0:0:
448,192,29539,1,0,0:0:0:0:
64,192,29706,1,0,0:0:0:0:
192,192,29706,1,0,0:0:0:0:
64,192,29873,1,0,0:0:0:0:
192,192,29873,1,0,0:0:0:0:
64,192,30039,1,0,0:0:0:0:
192,192,30039,1,0,0:0:0:0:
64,192,30206,5,0,0:0:0:0:
320,192,30206,1,0,0:0:0:0:
448,192,30206,1,0,0:0:0:0:
192,192,30373,1,0,0:0:0:0:
320,192,30539,1,0,0:0:0:0:
64,192,30539,1,0,0:0:0:0:
192,192,30706,1,0,0:0:0:0:
448,192,30706,1,0,0:0:0:0:
320,192,30873,1,0,0:0:0:0:
448,192,30873,1,0,0:0:0:0:
64,192,31039,1,0,0:0:0:0:
192,192,31206,1,0,0:0:0:0:
320,192,31206,1,0,0:0:0:0:
64,192,31373,1,0,0:0:0:0:
320,192,31373,1,0,0:0:0:0:
64,192,31539,1,0,0:0:0:0:
448,192,31539,1,0,0:0:0:0:
320,192,31873,1,0,0:0:0:0:
448,192,31873,1,0,0:0:0:0:
64,192,32039,1,0,0:0:0:0:
192,192,32039,1,0,0:0:0:0:
320,192,32123,1,0,0:0:0:0:
448,192,32206,1,0,0:0:0:0:
64,192,32206,1,0,0:0:0:0:
192,192,32373,1,0,0:0:0:0:
320,192,32539,1,0,0:0:0:0:
448,192,32539,1,0,0:0:0:0:
64,192,32539,1,0,0:0:0:0:
192,192,32706,1,0,0:0:0:0:
64,192,32873,1,0,0:0:0:0:
448,192,32873,1,0,0:0:0:0:
320,192,33039,1,0,0:0:0:0:
192,192,33206,1,0,0:0:0:0:
448,192,33206,1,0,0:0:0:0:
192,192,33373,1,0,0:0:0:0:
64,192,33373,1,0,0:0:0:0:
320,192,33539,1,0,0:0:0:0:
448,192,33539,1,0,0:0:0:0:
192,192,33706,1,0,0:0:0:0:
64,192,33873,1,0,0:0:0:0:
448,192,33873,1,0,0:0:0:0:
192,192,34039,1,0,0:0:0:0:
448,192,34039,1,0,0:0:0:0:
320,192,34206,1,0,0:0:0:0:
448,192,34206,1,0,0:0:0:0:
192,192,34373,1,0,0:0:0:0:
320,192,34456,1,0,0:0:0:0:
448,192,34539,1,0,0:0:0:0:
64,192,34539,1,0,0:0:0:0:
64,192,34706,1,0,0:0:0:0:
192,192,34706,1,0,0:0:0:0:
320,192,34789,1,0,0:0:0:0:
448,192,34873,1,0,0:0:0:0:
64,192,34873,1,0,0:0:0:0:
320,192,35039,1,0,0:0:0:0:
64,192,35206,1,0,0:0:0:0:
192,192,35206,1,0,0:0:0:0:
448,192,35206,1,0,0:0:0:0:
320,192,35373,1,0,0:0:0:0:
192,192,35539,1,0,0:0:0:0:
448,192,35539,1,0,0:0:0:0:
64,192,35706,1,0,0:0:0:0:
192,192,35873,1,0,0:0:0:0:
320,192,35873,1,0,0:0:0:0:
320,192,36039,1,0,0:0:0:0:
448,192,36039,1,0,0:0:0:0:
192,192,36206,1,0,0:0:0:0:
64,192,36206,1,0,0:0:0:0:
320,192,36373,1,0,0:0:0:0:
64,192,36539,1,0,0:0:0:0:
448,192,36539,1,0,0:0:0:0:
192,192,36706,1,0,0:0:0:0:
448,192,36706,1,0,0:0:0:0:
320,192,36873,1,0,0:0:0:0:
192,192,36873,1,0,0:0:0:0:
64,192,37039,1,0,0:0:0:0:
320,192,37206,1,0,0:0:0:0:
448,192,37206,1,0,0:0:0:0:
192,192,37373,1,0,0:0:0:0:
320,192,37373,1,0,0:0:0:0:
64,192,37539,1,0,0:0:0:0:
192,192,37539,1,0,0:0:0:0:
64,192,37706,1,0,0:0:0:0:
448,192,37706,1,0,0:0:0:0:
192,192,37873,1,0,0:0:0:0:
320,192,37873,1,0,0:0:0:0:
448,192,37873,1,0,0:0:0:0:
192,192,38039,1,0,0:0:0:0:
64,192,38039,1,0,0:0:0:0:
320,192,38206,1,0,0:0:0:0:
448,192,38206,1,0,0:0:0:0:
192,192,38373,1,0,0:0:0:0:
64,192,38539,1,0,0:0:0:0:
448,192,38539,1,0,0:0:0:0:
192,192,38706,1,0,0:0:0:0:
64,192,38706,1,0,0:0:0:0:
320,192,38873,1,0,0:0:0:0:
448,192,38873,1,0,0:0:0:0:
64,192,39039,1,0,0:0:0:0:
192,192,39206,1,0,0:0:0:0:
320,192,39206,1,0,0:0:0:0:
320,192,39373,1,0,0:0:0:0:
448,192,39373,1,0,0:0:0:0:
64,192,39539,1,0,0:0:0:0:
448,192,39539,1,0,0:0:0:0:
192,192,39706,1,0,0:0:0:0:
320,192,39789,1,0,0:0:0:0:
64,192,39873,1,0,0:0:0:0:
192,192,39873,1,0,0:0:0:0:
192,192,40039,1,0,0:0:0:0:
320,192,40039,1,0,0:0:0:0:
320,192,40206,1,0,0:0:0:0:
448,192,40206,1,0,0:0:0:0:
64,192,40373,1,0,0:0:0:0:
192,192,40373,1,0,0:0:0:0:
64,192,40539,1,0,0:0:0:0:
320,192,40539,1,0,0:0:0:0:
448,192,40539,1,0,0:0:0:0:
192,192,40706,1,0,0:0:0:0:
320,192,40873,1,0,0:0:0:0:
448,192,40873,1,0,0:0:0:0:
64,192,41039,1,0,0:0:0:0:
192,192,41206,1,0,0:0:0:0:
320,192,41206,1,0,0:0:0:0:
320,192,41373,1,0,0:0:0:0:
448,192,41373,1,0,0:0:0:0:
192,192,41539,1,0,0:0:0:0:
64,192,41539,1,0,0:0:0:0:
320,192,41706,1,0,0:0:0:0:
448,192,41873,1,0,0:0:0:0:
64,192,41873,1,0,0:0:0:0:
192,192,42039,1,0,0:0:0:0:
320,192,42206,1,0,0:0:0:0:
448,192,42206,1,0,0:0:0:0:
192,192,42373,1,0,0:0:0:0:
64,192,42539,1,0,0:0:0:0:
448,192,42539,1,0,0:0:0:0:
320,192,42706,1,0,0:0:0:0:
64,192,42706,1,0,0:0:0:0:
192,192,42873,1,0,0:0:0:0:
320,192,42873,1,0,0:0:0:0:
448,192,43039,1,0,0:0:0:0:
64,192,43206,1,0,0:0:0:0:
192,192,43206,1,0,0:0:0:0:
320,192,43206,1,0,0:0:0:0:
448,192,43373,1,0,0:0:0:0:
192,192,43539,1,0,0:0:0:0:
64,192,43539,1,0,0:0:0:0:
320,192,43706,1,0,0:0:0:0:
448,192,43873,1,0,0:0:0:0:
192,192,43873,1,0,0:0:0:0:
64,192,44039,1,0,0:0:0:0:
320,192,44206,1,0,0:0:0:0:
448,192,44206,1,0,0:0:0:0:
192,192,44373,1,0,0:0:0:0:
64,192,44539,1,0,0:0:0:0:
320,192,44539,1,0,0:0:0:0:
192,192,44706,1,0,0:0:0:0:
320,192,44706,1,0,0:0:0:0:
192,192,44873,1,0,0:0:0:0:
448,192,44873,1,0,0:0:0:0:
320,192,45039,1,0,0:0:0:0:
192,192,45123,1,0,0:0:0:0:
64,192,45206,1,0,0:0:0:0:
448,192,45206,1,0,0:0:0:0:
320,192,45373,1,0,0:0:0:0:
192,192,45373,1,0,0:0:0:0:
320,192,45539,1,0,0:0:0:0:
448,192,45539,1,0,0:0:0:0:
192,192,45706,1,0,0:0:0:0:
64,192,45873,1,0,0:0:0:0:
320,192,45873,1,0,0:0:0:0:
448,192,45873,1,0,0:0:0:0:
192,192,46039,1,0,0:0:0:0:
64,192,46206,1,0,0:0:0:0:
448,192,46206,1,0,0:0:0:0:
320,192,46373,1,0,0:0:0:0:
192,192,46539,1,0,0:0:0:0:
448,192,46539,1,0,0:0:0:0:
320,192,46706,1,0,0:0:0:0:
64,192,46706,1,0,0:0:0:0:
192,192,46873,1,0,0:0:0:0:
320,192,46873,1,0,0:0:0:0:
448,192,47039,1,0,0:0:0:0:
64,192,47206,1,0,0:0:0:0:
192,192,47206,1,0,0:0:0:0:
192,192,47373,1,0,0:0:0:0:
320,192,47373,1,0,0:0:0:0:
320,192,47539,1,0,0:0:0:0:
448,192,47539,1,0,0:0:0:0:
192,192,47706,1,0,0:0:0:0:
64,192,47873,1,0,0:0:0:0:
448,192,47873,1,0,0:0:0:0:
320,192,48039,1,0,0:0:0:0:
192,192,48039,1,0,0:0:0:0:
320,192,48206,1,0,0:0:0:0:
64,192,48206,1,0,0:0:0:0:
192,192,48373,1,0,0:0:0:0:
64,192,48539,1,0,0:0:0:0:
320,192,48539,1,0,0:0:0:0:
448,192,48539,1,0,0:0:0:0:
192,192,48706,1,0,0:0:0:0:
448,192,48873,1,0,0:0:0:0:
64,192,48873,1,0,0:0:0:0:
192,192,48956,1,0,0:0:0:0:
320,192,49039,1,0,0:0:0:0:
64,192,49206,1,0,0:0:0:0:
192,192,49206,1,0,0:0:0:0:
192,192,49373,1,0,0:0:0:0:
320,192,49373,1,0,0:0:0:0:
320,192,49539,1,0,0:0:0:0:
448,192,49539,1,0,0:0:0:0:
192,192,49706,1,0,0:0:0:0:
64,192,49873,1,0,0:0:0:0:
320,192,49873,1,0,0:0:0:0:
448,192,49873,1,0,0:0:0:0:
192,192,50039,1,0,0:0:0:0:
320,192,50039,1,0,0:0:0:0:
64,192,50206,1,0,0:0:0:0:
448,192,50206,1,0,0:0:0:0:
320,192,50289,1,0,0:0:0:0:
192,192,50373,5,0,0:0:0:0:
64,192,50456,1,0,0:0:0:0:
320,192,50539,1,0,0:0:0:0:
448,192,50539,1,0,0:0:0:0:
320,192,50706,1,0,0:0:0:0:
192,192,50706,1,0,0:0:0:0:
64,192,50873,1,0,0:0:0:0:
192,192,50873,1,0,0:0:0:0:
64,192,51039,1,0,0:0:0:0:
448,192,51039,1,0,0:0:0:0:
320,192,51206,1,0,0:0:0:0:
192,192,51206,1,0,0:0:0:0:
448,192,51206,1,0,0:0:0:0:
192,192,51373,1,0,0:0:0:0:
64,192,51373,1,0,0:0:0:0:
64,192,51539,5,0,0:0:0:0:
448,192,51539,1,0,0:0:0:0:
192,192,51539,1,0,0:0:0:0:
64,192,51873,1,0,0:0:0:0:
320,192,51873,1,0,0:0:0:0:
192,192,52039,1,0,0:0:0:0:
448,192,52039,1,0,0:0:0:0:
320,192,52206,1,0,0:0:0:0:
64,192,52373,1,0,0:0:0:0:
448,192,52373,1,0,0:0:0:0:
192,192,52539,1,0,0:0:0:0:
320,192,52539,1,0,0:0:0:0:
448,192,52706,128,0,52956:0:0:0:0:
320,192,52706,128,0,52956:0:0:0:0:
64,192,52706,1,0,0:0:0:0:
192,192,52873,1,0,0:0:0:0:
64,192,52873,1,0,0:0:0:0:
448,192,53206,1,0,0:0:0:0:
192,192,53206,1,0,0:0:0:0:
64,192,53373,1,0,0:0:0:0:
320,192,53373,1,0,0:0:0:0:
448,192,53539,1,0,0:0:0:0:
320,192,53706,1,0,0:0:0:0:
192,192,53706,1,0,0:0:0:0:
320,192,53873,1,0,0:0:0:0:
448,192,53873,1,0,0:0:0:0:
64,192,53873,1,0,0:0:0:0:
320,192,54039,128,0,54289:0:0:0:0:
448,192,54039,128,0,54289:0:0:0:0:
192,192,54039,1,0,0:0:0:0:
192,192,54206,1,0,0:0:0:0:
64,192,54206,1,0,0:0:0:0:
64,192,54539,1,0,0:0:0:0:
192,192,54539,1,0,0:0:0:0:
320,192,54706,1,0,0:0:0:0:
448,192,54706,1,0,0:0:0:0:
64,192,54873,1,0,0:0:0:0:
448,192,55039,1,0,0:0:0:0:
320,192,55039,1,0,0:0:0:0:
192,192,55206,1,0,0:0:0:0:
448,192,55373,128,0,55623:0:0:0:0:
64,192,55373,128,0,55623:0:0:0:0:
320,192,55373,1,0,0:0:0:0:
320,192,55539,1,0,0:0:0:0:
192,192,55539,1,0,0:0:0:0:
320,192,55706,1,0,0:0:0:0:
192,192,55789,1,0,0:0:0:0:
320,192,55873,1,0,0:0:0:0:
448,192,55873,1,0,0:0:0:0:
64,192,56039,1,0,0:0:0:0:
448,192,56039,1,0,0:0:0:0:
192,192,56206,1,0,0:0:0:0:
448,192,56373,1,0,0:0:0:0:
320,192,56373,1,0,0:0:0:0:
192,192,56539,1,0,0:0:0:0:
320,192,56539,1,0,0:0:0:0:
64,192,56539,1,0,0:0:0:0:
320,192,56706,128,0,56956:0:0:0:0:
192,192,56706,128,0,56956:0:0:0:0:
448,192,56706,1,0,0:0:0:0:
64,192,56873,1,0,0:0:0:0:
448,192,56873,1,0,0:0:0:0:
64,192,57039,1,0,0:0:0:0:
448,192,57206,1,0,0:0:0:0:
320,192,57206,1,0,0:0:0:0:
192,192,57373,1,0,0:0:0:0:
64,192,57373,1,0,0:0:0:0:
320,192,57539,1,0,0:0:0:0:
448,192,57706,1,0,0:0:0:0:
64,192,57706,1,0,0:0:0:0:
192,192,57873,1,0,0:0:0:0:
320,192,57873,1,0,0:0:0:0:
448,192,58039,128,0,58289:0:0:0:0:
192,192,58039,128,0,58289:0:0:0:0:
64,192,58039,1,0,0:0:0:0:
64,192,58206,1,0,0:0:0:0:
320,192,58206,1,0,0:0:0:0:
320,192,58373,1,0,0:0:0:0:
64,192,58539,1,0,0:0:0:0:
192,192,58539,1,0,0:0:0:0:
320,192,58706,1,0,0:0:0:0:
448,192,58706,1,0,0:0:0:0:
192,192,58873,1,0,0:0:0:0:
64,192,59039,1,0,0:0:0:0:
320,192,59039,1,0,0:0:0:0:
448,192,59206,1,0,0:0:0:0:
192,192,59206,1,0,0:0:0:0:
320,192,59206,1,0,0:0:0:0:
64,192,59373,128,0,59623:0:0:0:0:
320,192,59373,128,0,59623:0:0:0:0:
448,192,59373,1,0,0:0:0:0:
192,192,59539,1,0,0:0:0:0:
448,192,59539,1,0,0:0:0:0:
192,192,59706,1,0,0:0:0:0:
448,192,59873,1,0,0:0:0:0:
64,192,59873,1,0,0:0:0:0:
192,192,60039,1,0,0:0:0:0:
320,192,60039,1,0,0:0:0:0:
448,192,60206,1,0,0:0:0:0:
64,192,60373,1,0,0:0:0:0:
320,192,60373,1,0,0:0:0:0:
192,192,60539,1,0,0:0:0:0:
320,192,60706,1,0,0:0:0:0:
448,192,60706,1,0,0:0:0:0:
64,192,60873,128,0,61206:0:0:0:0:
192,192,60873,128,0,61206:0:0:0:0:
320,192,61206,128,0,61873:0:0:0:0:
448,192,61206,128,0,61539:0:0:0:0:
64,192,61539,128,0,62206:0:0:0:0:
192,192,61873,1,0,0:0:0:0:
448,192,61873,128,0,62206:0:0:0:0:
320,192,62039,128,0,62289:0:0:0:0:
192,192,62039,128,0,62289:0:0:0:0:
448,192,62539,1,0,0:0:0:0:
64,192,62539,1,0,0:0:0:0:
192,192,62706,1,0,0:0:0:0:
320,192,62706,1,0,0:0:0:0:
448,192,62873,1,0,0:0:0:0:
64,192,63039,1,0,0:0:0:0:
192,192,63039,1,0,0:0:0:0:
320,192,63206,1,0,0:0:0:0:
448,192,63373,128,0,63623:0:0:0:0:
64,192,63373,128,0,63623:0:0:0:0:
192,192,63373,1,0,0:0:0:0:
320,192,63539,1,0,0:0:0:0:
192,192,63539,1,0,0:0:0:0:
320,192,63706,1,0,0:0:0:0:
64,192,63873,1,0,0:0:0:0:
192,192,63873,1,0,0:0:0:0:
320,192,64039,1,0,0:0:0:0:
448,192,64039,1,0,0:0:0:0:
192,192,64206,1,0,0:0:0:0:
64,192,64373,1,0,0:0:0:0:
448,192,64373,1,0,0:0:0:0:
64,192,64539,1,0,0:0:0:0:
192,192,64539,1,0,0:0:0:0:
320,192,64539,1,0,0:0:0:0:
448,192,64706,128,0,64956:0:0:0:0:
320,192,64706,128,0,64956:0:0:0:0:
192,192,64706,1,0,0:0:0:0:
192,192,64873,1,0,0:0:0:0:
64,192,64873,1,0,0:0:0:0:
64,192,65206,1,0,0:0:0:0:
320,192,65206,1,0,0:0:0:0:
192,192,65373,1,0,0:0:0:0:
448,192,65373,1,0,0:0:0:0:
320,192,65539,1,0,0:0:0:0:
64,192,65706,1,0,0:0:0:0:
192,192,65706,1,0,0:0:0:0:
320,192,65873,1,0,0:0:0:0:
448,192,65873,1,0,0:0:0:0:
192,192,66039,1,0,0:0:0:0:
64,192,66039,1,0,0:0:0:0:
320,192,66206,1,0,0:0:0:0:
448,192,66206,1,0,0:0:0:0:
192,192,66373,5,0,0:0:0:0:
320,192,66456,1,0,0:0:0:0:
192,192,66539,1,0,0:0:0:0:
64,192,66539,1,0,0:0:0:0:
320,192,66706,1,0,0:0:0:0:
448,192,66706,1,0,0:0:0:0:
192,192,66873,1,0,0:0:0:0:
64,192,67039,1,0,0:0:0:0:
448,192,67039,1,0,0:0:0:0:
192,192,67206,1,0,0:0:0:0:
320,192,67206,1,0,0:0:0:0:
448,192,67206,1,0,0:0:0:0:
64,192,67373,1,0,0:0:0:0:
192,192,67373,1,0,0:0:0:0:
64,192,67539,5,0,0:0:0:0:
192,192,67539,1,0,0:0:0:0:
320,192,67539,1,0,0:0:0:0:
192,192,67706,1,0,0:0:0:0:
448,192,67873,1,0,0:0:0:0:
320,192,67873,1,0,0:0:0:0:
192,192,68039,1,0,0:0:0:0:
320,192,68039,1,0,0:0:0:0:
64,192,68206,1,0,0:0:0:0:
448,192,68206,1,0,0:0:0:0:
192,192,68206,1,0,0:0:0:0:
64,192,68373,1,0,0:0:0:0:
320,192,68373,1,0,0:0:0:0:
64,192,68539,1,0,0:0:0:0:
192,192,68539,1,0,0:0:0:0:
320,192,68539,1,0,0:0:0:0:
192,192,68706,1,0,0:0:0:0:
448,192,68706,1,0,0:0:0:0:
64,192,68873,1,0,0:0:0:0:
448,192,68873,1,0,0:0:0:0:
320,192,68873,1,0,0:0:0:0:
448,192,69039,1,0,0:0:0:0:
320,192,69206,1,0,0:0:0:0:
64,192,69206,1,0,0:0:0:0:
192,192,69206,1,0,0:0:0:0:
192,192,69373,1,0,0:0:0:0:
448,192,69373,1,0,0:0:0:0:
64,192,69539,1,0,0:0:0:0:
320,192,69539,1,0,0:0:0:0:
448,192,69539,1,0,0:0:0:0:
192,192,69706,1,0,0:0:0:0:
64,192,69873,1,0,0:0:0:0:
320,192,69873,1,0,0:0:0:0:
192,192,69873,1,0,0:0:0:0:
448,192,70039,1,0,0:0:0:0:
320,192,70039,1,0,0:0:0:0:
192,192,70206,1,0,0:0:0:0:
64,192,70206,1,0,0:0:0:0:
448,192,70206,1,0,0:0:0:0:
64,192,70373,1,0,0:0:0:0:
192,192,70539,1,0,0:0:0:0:
320,192,70539,1,0,0:0:0:0:
448,192,70539,1,0,0:0:0:0:
320,192,70706,1,0,0:0:0:0:
64,192,70706,1,0,0:0:0:0:
192,192,70873,1,0,0:0:0:0:
64,192,70873,1,0,0:0:0:0:
448,192,70873,1,0,0:0:0:0:
192,192,71039,1,0,0:0:0:0:
320,192,71039,1,0,0:0:0:0:
64,192,71206,1,0,0:0:0:0:
320,192,71206,1,0,0:0:0:0:
448,192,71206,1,0,0:0:0:0:
192,192,71373,1,0,0:0:0:0:
64,192,71373,1,0,0:0:0:0:
448,192,71373,1,0,0:0:0:0:
64,192,71539,1,0,0:0:0:0:
192,192,71581,1,0,0:0:0:0:
320,192,71623,1,0,0:0:0:0:
448,192,71664,1,0,0:0:0:0:
64,192,71706,1,0,0:0:0:0:
192,192,71748,1,0,0:0:0:0:
320,192,71789,1,0,0:0:0:0:
448,192,71831,1,0,0:0:0:0:
192,192,71873,5,0,0:0:0:0:
64,192,71873,1,0,0:0:0:0:
320,192,72039,1,0,0:0:0:0:
64,192,72206,1,0,0:0:0:0:
448,192,72206,1,0,0:0:0:0:
192,192,72289,1,0,0:0:0:0:
320,192,72289,1,0,0:0:0:0:
64,192,72373,1,0,0:0:0:0:
448,192,72373,1,0,0:0:0:0:
192,192,72456,1,0,0:0:0:0:
320,192,72456,1,0,0:0:0:0:
64,192,72539,1,0,0:0:0:0:
320,192,72623,1,0,0:0:0:0:
448,192,72623,1,0,0:0:0:0:
192,192,72706,1,0,0:0:0:0:
64,192,72706,1,0,0:0:0:0:
320,192,72789,1,0,0:0:0:0:
448,192,72789,1,0,0:0:0:0:
192,192,72873,1,0,0:0:0:0:
64,192,72873,1,0,0:0:0:0:
448,192,72873,1,0,0:0:0:0:
320,192,73039,1,0,0:0:0:0:
64,192,73206,1,0,0:0:0:0:
448,192,73206,1,0,0:0:0:0:
192,192,73206,1,0,0:0:0:0:
64,192,73373,1,0,0:0:0:0:
320,192,73539,1,0,0:0:0:0:
448,192,73539,1,0,0:0:0:0:
192,192,73706,1,0,0:0:0:0:
64,192,73873,1,0,0:0:0:0:
320,192,73873,1,0,0:0:0:0:
448,192,73873,1,0,0:0:0:0:
320,192,74039,1,0,0:0:0:0:
192,192,74039,1,0,0:0:0:0:
64,192,74206,1,0,0:0:0:0:
448,192,74206,1,0,0:0:0:0:
192,192,74373,1,0,0:0:0:0:
320,192,74539,1,0,0:0:0:0:
448,192,74539,1,0,0:0:0:0:
64,192,74539,1,0,0:0:0:0:
192,192,74706,1,0,0:0:0:0:
64,192,74873,1,0,0:0:0:0:
320,192,74873,1,0,0:0:0:0:
448,192,75039,1,0,0:0:0:0:
320,192,75206,1,0,0:0:0:0:
192,192,75206,1,0,0:0:0:0:
64,192,75206,1,0,0:0:0:0:
192,192,75373,1,0,0:0:0:0:
448,192,75373,1,0,0:0:0:0:
320,192,75456,1,0,0:0:0:0:
64,192,75456,1,0,0:0:0:0:
192,192,75539,1,0,0:0:0:0:
448,192,75539,1,0,0:0:0:0:
64,192,75706,1,0,0:0:0:0:
192,192,75873,1,0,0:0:0:0:
320,192,75873,1,0,0:0:0:0:
448,192,75873,1,0,0:0:0:0:
320,192,76039,1,0,0:0:0:0:
192,192,76206,1,0,0:0:0:0:
64,192,76206,1,0,0:0:0:0:
448,192,76373,1,0,0:0:0:0:
320,192,76539,1,0,0:0:0:0:
192,192,76539,1,0,0:0:0:0:
64,192,76539,1,0,0:0:0:0:
448,192,76706,128,0,76873:0:0:0:0:
192,192,76873,128,0,77039:0:0:0:0:
64,192,76873,1,0,0:0:0:0:
320,192,77039,128,0,77206:0:0:0:0:
64,192,77206,128,0,77373:0:0:0:0:
448,192,77206,1,0,0:0:0:0:
192,192,77206,1,0,0:0:0:0:
448,192,77373,128,0,77539:0:0:0:0:
192,192,77539,128,0,77706:0:0:0:0:
320,192,77539,1,0,0:0:0:0:
64,192,77706,128,0,77873:0:0:0:0:
192,192,77873,1,0,0:0:0:0:
448,192,77873,1,0,0:0:0:0:
320,192,77873,128,0,78039:0:0:0:0:
448,192,78039,128,0,78206:0:0:0:0:
320,192,78206,1,0,0:0:0:0:
192,192,78206,1,0,0:0:0:0:
64,192,78206,1,0,0:0:0:0:
192,192,78373,1,0,0:0:0:0:
64,192,78539,1,0,0:0:0:0:
320,192,78539,1,0,0:0:0:0:
448,192,78539,1,0,0:0:0:0:
192,192,78706,1,0,0:0:0:0:
64,192,78873,1,0,0:0:0:0:
448,192,78873,1,0,0:0:0:0:
320,192,79039,1,0,0:0:0:0:
192,192,79206,1,0,0:0:0:0:
64,192,79206,1,0,0:0:0:0:
448,192,79206,1,0,0:0:0:0:
320,192,79373,1,0,0:0:0:0:
192,192,79539,1,0,0:0:0:0:
448,192,79539,1,0,0:0:0:0:
64,192,79706,1,0,0:0:0:0:
192,192,79873,1,0,0:0:0:0:
320,192,79873,1,0,0:0:0:0:
448,192,79873,1,0,0:0:0:0:
64,192,80039,1,0,0:0:0:0:
320,192,80206,1,0,0:0:0:0:
448,192,80206,1,0,0:0:0:0:
192,192,80289,1,0,0:0:0:0:
320,192,80373,1,0,0:0:0:0:
64,192,80373,1,0,0:0:0:0:
448,192,80456,1,0,0:0:0:0:
192,192,80539,1,0,0:0:0:0:
64,192,80539,1,0,0:0:0:0:
320,192,80623,1,0,0:0:0:0:
192,192,80706,1,0,0:0:0:0:
448,192,80706,1,0,0:0:0:0:
64,192,80789,1,0,0:0:0:0:
320,192,80873,1,0,0:0:0:0:
448,192,80873,1,0,0:0:0:0:
192,192,80873,1,0,0:0:0:0:
320,192,81039,1,0,0:0:0:0:
192,192,81206,128,0,81373:0:0:0:0:
64,192,81206,128,0,81373:0:0:0:0:
448,192,81206,1,0,0:0:0:0:
320,192,81373,1,0,0:0:0:0:
64,192,81539,128,0,81706:0:0:0:0:
192,192,81539,1,0,0:0:0:0:
448,192,81539,128,0,81706:0:0:0:0:
320,192,81539,1,0,0:0:0:0:
192,192,81706,1,0,0:0:0:0:
320,192,81873,128,0,82039:0:0:0:0:
448,192,81873,128,0,82039:0:0:0:0:
64,192,81873,1,0,0:0:0:0:
192,192,82039,1,0,0:0:0:0:
320,192,82206,1,0,0:0:0:0:
64,192,82206,128,0,82373:0:0:0:0:
448,192,82206,128,0,82373:0:0:0:0:
192,192,82206,1,0,0:0:0:0:
320,192,82373,1,0,0:0:0:0:
64,192,82539,128,0,82706:0:0:0:0:
192,192,82539,128,0,82706:0:0:0:0:
448,192,82539,1,0,0:0:0:0:
320,192,82706,1,0,0:0:0:0:
64,192,82873,1,0,0:0:0:0:
448,192,82873,1,0,0:0:0:0:
192,192,82956,1,0,0:0:0:0:
320,192,82956,1,0,0:0:0:0:
64,192,83039,1,0,0:0:0:0:
448,192,83039,1,0,0:0:0:0:
192,192,83123,1,0,0:0:0:0:
320,192,83123,1,0,0:0:0:0:
448,192,83206,5,0,0:0:0:0:
64,192,83206,128,0,83539:0:0:0:0:
320,192,83289,1,0,0:0:0:0:
192,192,83373,1,0,0:0:0:0:
320,192,83456,1,0,0:0:0:0:
192,192,83539,1,0,0:0:0:0:
448,192,83539,128,0,83706:0:0:0:0:
320,192,83873,1,0,0:0:0:0:
192,192,83873,1,0,0:0:0:0:
64,192,84039,128,0,84206:0:0:0:0:
448,192,84206,128,0,84373:0:0:0:0:
192,192,84206,1,0,0:0:0:0:
320,192,84206,1,0,0:0:0:0:
64,192,84539,1,0,0:0:0:0:
320,192,84539,1,0,0:0:0:0:
64,192,84706,128,0,84873:0:0:0:0:
448,192,84873,128,0,85206:0:0:0:0:
320,192,84873,1,0,0:0:0:0:
192,192,84873,1,0,0:0:0:0:
320,192,85206,128,0,85539:0:0:0:0:
64,192,85206,1,0,0:0:0:0:
192,192,85206,1,0,0:0:0:0:
192,192,85539,128,0,85706:0:0:0:0:
448,192,85539,1,0,0:0:0:0:
64,192,85539,1,0,0:0:0:0:
64,192,85873,128,0,86039:0:0:0:0:
448,192,85873,1,0,0:0:0:0:
320,192,85873,1,0,0:0:0:0:
448,192,86039,128,0,86206:0:0:0:0:
192,192,86206,128,0,86373:0:0:0:0:
64,192,86206,1,0,0:0:0:0:
320,192,86206,1,0,0:0:0:0:
448,192,86539,128,0,86706:0:0:0:0:
320,192,86539,1,0,0:0:0:0:
192,192,86539,1,0,0:0:0:0:
64,192,86873,128,0,87039:0:0:0:0:
448,192,86873,1,0,0:0:0:0:
320,192,86873,1,0,0:0:0:0:
192,192,87039,128,0,87206:0:0:0:0:
448,192,87206,128,0,87373:0:0:0:0:
64,192,87206,1,0,0:0:0:0:
320,192,87206,1,0,0:0:0:0:
320,192,87373,128,0,87539:0:0:0:0:
64,192,87539,128,0,87706:0:0:0:0:
448,192,87539,1,0,0:0:0:0:
192,192,87539,1,0,0:0:0:0:
192,192,87706,128,0,87873:0:0:0:0:
448,192,87873,128,0,88206:0:0:0:0:
320,192,87873,1,0,0:0:0:0:
64,192,87873,1,0,0:0:0:0:
320,192,88206,128,0,88373:0:0:0:0:
64,192,88206,1,0,0:0:0:0:
192,192,88206,1,0,0:0:0:0:
448,192,88539,128,0,88706:0:0:0:0:
192,192,88539,1,0,0:0:0:0:
320,192,88539,1,0,0:0:0:0:
64,192,88539,128,0,88706:0:0:0:0:
320,192,88706,128,0,88873:0:0:0:0:
192,192,88706,1,0,0:0:0:0:
192,192,88873,128,0,89206:0:0:0:0:
64,192,88873,1,0,0:0:0:0:
448,192,88873,1,0,0:0:0:0:
320,192,89206,1,0,0:0:0:0:
64,192,89206,1,0,0:0:0:0:
448,192,89206,128,0,89373:0:0:0:0:
64,192,89373,128,0,89539:0:0:0:0:
320,192,89539,128,0,89706:0:0:0:0:
448,192,89539,1,0,0:0:0:0:
192,192,89539,1,0,0:0:0:0:
448,192,89873,1,0,0:0:0:0:
64,192,89873,1,0,0:0:0:0:
320,192,89873,128,0,90039:0:0:0:0:
64,192,90039,128,0,90206:0:0:0:0:
448,192,90206,128,0,90539:0:0:0:0:
192,192,90206,1,0,0:0:0:0:
320,192,90206,1,0,0:0:0:0:
320,192,90539,128,0,90873:0:0:0:0:
192,192,90539,1,0,0:0:0:0:
64,192,90539,1,0,0:0:0:0:
192,192,90873,128,0,91039:0:0:0:0:
448,192,90873,1,0,0:0:0:0:
64,192,90873,1,0,0:0:0:0:
64,192,91206,128,0,91373:0:0:0:0:
448,192,91206,1,0,0:0:0:0:
320,192,91206,1,0,0:0:0:0:
192,192,91373,128,0,91539:0:0:0:0:
448,192,91539,128,0,91706:0:0:0:0:
320,192,91539,1,0,0:0:0:0:
64,192,91539,1,0,0:0:0:0:
448,192,91873,128,0,92039:0:0:0:0:
64,192,91873,1,0,0:0:0:0:
192,192,91873,1,0,0:0:0:0:
320,192,92039,128,0,92206:0:0:0:0:
64,192,92206,128,0,92539:0:0:0:0:
448,192,92206,1,0,0:0:0:0:
192,192,92206,1,0,0:0:0:0:
448,192,92539,128,0,92706:0:0:0:0:
320,192,92539,1,0,0:0:0:0:
192,192,92539,1,0,0:0:0:0:
192,192,92706,128,0,92873:0:0:0:0:
320,192,92873,128,0,93206:0:0:0:0:
448,192,92873,1,0,0:0:0:0:
64,192,92873,128,0,93123:0:0:0:0:
192,192,93123,128,0,93373:0:0:0:0:
448,192,93206,128,0,93539:0:0:0:0:
64,192,93206,1,0,0:0:0:0:
320,192,93373,128,0,93539:0:0:0:0:
64,192,93539,128,0,93873:0:0:0:0:
192,192,93539,1,0,0:0:0:0:
320,192,93623,1,0,0:0:0:0:
448,192,93706,1,0,0:0:0:0:
320,192,93789,1,0,0:0:0:0:
448,192,93873,1,0,0:0:0:0:
192,192,93873,1,0,0:0:0:0:
320,192,93956,1,0,0:0:0:0:
192,192,94039,1,0,0:0:0:0:
64,192,94123,1,0,0:0:0:0:
320,192,94206,5,0,0:0:0:0:
448,192,94206,1,0,0:0:0:0:
192,192,94206,1,0,0:0:0:0:
64,192,94289,1,0,0:0:0:0:
448,192,94373,1,0,0:0:0:0:
320,192,94373,1,0,0:0:0:0:
192,192,94456,1,0,0:0:0:0:
64,192,94539,1,0,0:0:0:0:
448,192,94539,1,0,0:0:0:0:
320,192,94539,1,0,0:0:0:0:
192,192,94623,1,0,0:0:0:0:
320,192,94706,1,0,0:0:0:0:
64,192,94706,1,0,0:0:0:0:
448,192,94789,1,0,0:0:0:0:
320,192,94873,1,0,0:0:0:0:
192,192,94873,1,0,0:0:0:0:
64,192,94956,1,0,0:0:0:0:
320,192,95039,1,0,0:0:0:0:
448,192,95123,1,0,0:0:0:0:
320,192,95206,1,0,0:0:0:0:
64,192,95206,1,0,0:0:0:0:
192,192,95206,1,0,0:0:0:0:
448,192,95289,1,0,0:0:0:0:
64,192,95373,1,0,0:0:0:0:
192,192,95373,1,0,0:0:0:0:
320,192,95456,1,0,0:0:0:0:
448,192,95539,1,0,0:0:0:0:
64,192,95539,1,0,0:0:0:0:
192,192,95623,1,0,0:0:0:0:
320,192,95706,1,0,0:0:0:0:
448,192,95706,1,0,0:0:0:0:
64,192,95789,1,0,0:0:0:0:
192,192,95873,1,0,0:0:0:0:
320,192,95873,1,0,0:0:0:0:
448,192,95873,1,0,0:0:0:0:
64,192,95956,1,0,0:0:0:0:
448,192,96039,1,0,0:0:0:0:
320,192,96039,1,0,0:0:0:0:
192,192,96123,1,0,0:0:0:0:
64,192,96206,1,0,0:0:0:0:
320,192,96206,1,0,0:0:0:0:
448,192,96289,1,0,0:0:0:0:
64,192,96373,1,0,0:0:0:0:
192,192,96373,1,0,0:0:0:0:
320,192,96456,1,0,0:0:0:0:
192,192,96539,1,0,0:0:0:0:
448,192,96539,1,0,0:0:0:0:
64,192,96539,1,0,0:0:0:0:
320,192,96623,1,0,0:0:0:0:
448,192,96706,1,0,0:0:0:0:
192,192,96706,1,0,0:0:0:0:
64,192,96789,1,0,0:0:0:0:
320,192,96873,1,0,0:0:0:0:
448,192,96873,1,0,0:0:0:0:
192,192,96956,1,0,0:0:0:0:
64,192,97039,1,0,0:0:0:0:
320,192,97039,1,0,0:0:0:0:
448,192,97123,1,0,0:0:0:0:
192,192,97206,1,0,0:0:0:0:
64,192,97206,128,0,97539:0:0:0:0:
320,192,97206,1,0,0:0:0:0:
448,192,97289,1,0,0:0:0:0:
320,192,97373,1,0,0:0:0:0:
192,192,97456,1,0,0:0:0:0:
448,192,97539,128,0,97873:0:0:0:0:
320,192,97539,1,0,0:0:0:0:
192,192,97623,1,0,0:0:0:0:
64,192,97706,1,0,0:0:0:0:
320,192,97789,1,0,0:0:0:0:
64,192,97873,1,0,0:0:0:0:
192,192,97873,128,0,98206:0:0:0:0:
448,192,97956,1,0,0:0:0:0:
320,192,98039,1,0,0:0:0:0:
64,192,98123,1,0,0:0:0:0:
448,192,98206,128,0,98706:0:0:0:0:
320,192,98206,1,0,0:0:0:0:
64,192,98289,1,0,0:0:0:0:
192,192,98373,1,0,0:0:0:0:
320,192,98456,1,0,0:0:0:0:
64,192,98539,1,0,0:0:0:0:
192,192,98539,1,0,0:0:0:0:
320,192,98623,1,0,0:0:0:0:
192,192,98706,128,0,99206:0:0:0:0:
64,192,98706,1,0,0:0:0:0:
320,192,98789,1,0,0:0:0:0:
64,192,98873,1,0,0:0:0:0:
448,192,98956,1,0,0:0:0:0:
320,192,99039,1,0,0:0:0:0:
64,192,99123,1,0,0:0:0:0:
448,192,99206,1,0,0:0:0:0:
320,192,99206,1,0,0:0:0:0:
64,192,99289,1,0,0:0:0:0:
320,192,99373,1,0,0:0:0:0:
192,192,99456,1,0,0:0:0:0:
64,192,99539,1,0,0:0:0:0:
320,192,99539,1,0,0:0:0:0:
448,192,99539,1,0,0:0:0:0:
192,192,99623,1,0,0:0:0:0:
448,192,99706,1,0,0:0:0:0:
320,192,99789,1,0,0:0:0:0:
192,192,99873,1,0,0:0:0:0:
64,192,99873,1,0,0:0:0:0:
448,192,99873,1,0,0:0:0:0:
320,192,99956,1,0,0:0:0:0:
64,192,100039,1,0,0:0:0:0:
448,192,100039,1,0,0:0:0:0:
192,192,100123,1,0,0:0:0:0:
64,192,100206,1,0,0:0:0:0:
320,192,100206,1,0,0:0:0:0:
192,192,100289,1,0,0:0:0:0:
64,192,100373,1,0,0:0:0:0:
448,192,100373,1,0,0:0:0:0:
320,192,100456,1,0,0:0:0:0:
448,192,100539,1,0,0:0:0:0:
192,192,100539,1,0,0:0:0:0:
64,192,100539,1,0,0:0:0:0:
320,192,100623,1,0,0:0:0:0:
192,192,100706,1,0,0:0:0:0:
64,192,100706,1,0,0:0:0:0:
448,192,100789,1,0,0:0:0:0:
64,192,100873,1,0,0:0:0:0:
320,192,100873,1,0,0:0:0:0:
192,192,100956,1,0,0:0:0:0:
320,192,101039,1,0,0:0:0:0:
448,192,101039,1,0,0:0:0:0:
64,192,101123,1,0,0:0:0:0:
448,192,101206,1,0,0:0:0:0:
192,192,101206,1,0,0:0:0:0:
320,192,101206,1,0,0:0:0:0:
64,192,101289,1,0,0:0:0:0:
320,192,101373,1,0,0:0:0:0:
192,192,101373,1,0,0:0:0:0:
448,192,101456,1,0,0:0:0:0:
320,192,101539,1,0,0:0:0:0:
64,192,101539,1,0,0:0:0:0:
192,192,101623,1,0,0:0:0:0:
448,192,101706,1,0,0:0:0:0:
320,192,101789,1,0,0:0:0:0:
448,192,101873,1,0,0:0:0:0:
192,192,101873,1,0,0:0:0:0:
64,192,101873,1,0,0:0:0:0:
320,192,101956,1,0,0:0:0:0:
64,192,102039,1,0,0:0:0:0:
192,192,102123,1,0,0:0:0:0:
320,192,102206,1,0,0:0:0:0:
448,192,102206,1,0,0:0:0:0:
192,192,102289,1,0,0:0:0:0:
448,192,102373,1,0,0:0:0:0:
64,192,102456,1,0,0:0:0:0:
320,192,102539,1,0,0:0:0:0:
448,192,102539,1,0,0:0:0:0:
192,192,102539,1,0,0:0:0:0:
64,192,102623,1,0,0:0:0:0:
448,192,102706,1,0,0:0:0:0:
192,192,102789,1,0,0:0:0:0:
320,192,102873,128,0,103206:0:0:0:0:
64,192,102873,1,0,0:0:0:0:
448,192,102956,1,0,0:0:0:0:
192,192,103039,1,0,0:0:0:0:
64,192,103123,1,0,0:0:0:0:
448,192,103206,1,0,0:0:0:0:
192,192,103206,128,0,103539:0:0:0:0:
320,192,103289,1,0,0:0:0:0:
448,192,103373,1,0,0:0:0:0:
64,192,103456,1,0,0:0:0:0:
448,192,103539,128,0,104039:0:0:0:0:
320,192,103539,1,0,0:0:0:0:
192,192,103623,1,0,0:0:0:0:
64,192,103706,5,0,0:0:0:0:
320,192,103789,1,0,0:0:0:0:
192,192,103873,5,0,0:0:0:0:
64,192,103873,1,0,0:0:0:0:
320,192,103956,1,0,0:0:0:0:
192,192,104039,1,0,0:0:0:0:
64,192,104039,1,0,0:0:0:0:
448,192,104123,1,0,0:0:0:0:
64,192,104206,128,0,104873:0:0:0:0:
192,192,104206,128,0,104373:0:0:0:0:
448,192,104373,128,0,104539:0:0:0:0:
192,192,104539,1,0,0:0:0:0:
320,192,104623,1,0,0:0:0:0:
192,192,104706,1,0,0:0:0:0:
448,192,104873,5,0,0:0:0:0:
192,192,104873,1,0,0:0:0:0:
320,192,104873,128,0,105123:0:0:0:0:
448,192,105123,1,0,0:0:0:0:
320,192,105206,1,0,0:0:0:0:
64,192,105206,1,0,0:0:0:0:
192,192,105289,1,0,0:0:0:0:
320,192,105373,1,0,0:0:0:0:
192,192,105456,1,0,0:0:0:0:
448,192,105539,1,0,0:0:0:0:
64,192,105539,1,0,0:0:0:0:
64,192,105706,1,0,0:0:0:0:
192,192,105789,1,0,0:0:0:0:
448,192,105873,128,0,106039:0:0:0:0:
320,192,105873,1,0,0:0:0:0:
320,192,106039,128,0,106206:0:0:0:0:
64,192,106206,1,0,0:0:0:0:
192,192,106206,1,0,0:0:0:0:
448,192,106289,1,0,0:0:0:0:
320,192,106373,1,0,0:0:0:0:
192,192,106456,1,0,0:0:0:0:
64,192,106539,1,0,0:0:0:0:
320,192,106539,1,0,0:0:0:0:
448,192,106623,1,0,0:0:0:0:
64,192,106706,1,0,0:0:0:0:
192,192,106789,1,0,0:0:0:0:
320,192,106873,1,0,0:0:0:0:
448,192,106873,1,0,0:0:0:0:
192,192,106956,1,0,0:0:0:0:
64,192,107039,1,0,0:0:0:0:
448,192,107123,1,0,0:0:0:0:
320,192,107206,128,0,107539:0:0:0:0:
192,192,107373,128,0,107539:0:0:0:0:
448,192,107539,1,0,0:0:0:0:
64,192,107623,1,0,0:0:0:0:
192,192,107706,1,0,0:0:0:0:
448,192,107873,1,0,0:0:0:0:
320,192,107873,1,0,0:0:0:0:
192,192,107956,1,0,0:0:0:0:
448,192,108039,1,0,0:0:0:0:
320,192,108123,1,0,0:0:0:0:
192,192,108206,1,0,0:0:0:0:
64,192,108206,1,0,0:0:0:0:
448,192,108289,1,0,0:0:0:0:
320,192,108373,1,0,0:0:0:0:
192,192,108456,1,0,0:0:0:0:
64,192,108539,1,0,0:0:0:0:
448,192,108539,1,0,0:0:0:0:
320,192,108623,1,0,0:0:0:0:
192,192,108706,1,0,0:0:0:0:
64,192,108789,1,0,0:0:0:0:
192,192,108873,128,0,109039:0:0:0:0:
320,192,108873,1,0,0:0:0:0:
448,192,109039,1,0,0:0:0:0:
320,192,109123,1,0,0:0:0:0:
192,192,109206,128,0,109539:0:0:0:0:
64,192,109206,1,0,0:0:0:0:
320,192,109373,128,0,109539:0:0:0:0:
448,192,109373,1,0,0:0:0:0:
448,192,109539,1,0,0:0:0:0:
64,192,109623,1,0,0:0:0:0:
192,192,109706,1,0,0:0:0:0:
448,192,109789,1,0,0:0:0:0:
320,192,109873,1,0,0:0:0:0:
192,192,109956,1,0,0:0:0:0:
64,192,110039,1,0,0:0:0:0:
320,192,110123,1,0,0:0:0:0:
192,192,110206,1,0,0:0:0:0:
448,192,110206,1,0,0:0:0:0:
64,192,110206,1,0,0:0:0:0:
320,192,110373,1,0,0:0:0:0:
448,192,110373,1,0,0:0:0:0:
320,192,110539,1,0,0:0:0:0:
448,192,110539,1,0,0:0:0:0:
64,192,110706,1,0,0:0:0:0:
192,192,110706,1,0,0:0:0:0:
448,192,110706,1,0,0:0:0:0:
192,192,110873,1,0,0:0:0:0:
64,192,110873,1,0,0:0:0:0:
192,192,111039,1,0,0:0:0:0:
64,192,111039,1,0,0:0:0:0:
448,192,111206,1,0,0:0:0:0:
320,192,111206,1,0,0:0:0:0:
320,192,111373,1,0,0:0:0:0:
64,192,111539,128,0,112206:0:0:0:0:
192,192,111539,1,0,0:0:0:0:
448,192,111539,1,0,0:0:0:0:
448,192,111873,1,0,0:0:0:0:
320,192,111956,1,0,0:0:0:0:
192,192,112039,1,0,0:0:0:0:
448,192,112123,1,0,0:0:0:0:
320,192,112206,128,0,112373:0:0:0:0:
192,192,112206,1,0,0:0:0:0:
448,192,112373,128,0,112539:0:0:0:0:
192,192,112539,1,0,0:0:0:0:
320,192,112539,1,0,0:0:0:0:
64,192,112623,1,0,0:0:0:0:
448,192,112706,1,0,0:0:0:0:
320,192,112789,1,0,0:0:0:0:
64,192,112873,1,0,0:0:0:0:
192,192,112873,1,0,0:0:0:0:
448,192,112873,1,0,0:0:0:0:
320,192,112956,1,0,0:0:0:0:
192,192,113039,1,0,0:0:0:0:
64,192,113123,1,0,0:0:0:0:
448,192,113206,1,0,0:0:0:0:
320,192,113206,1,0,0:0:0:0:
64,192,113289,1,0,0:0:0:0:
192,192,113373,1,0,0:0:0:0:
448,192,113456,1,0,0:0:0:0:
320,192,113539,1,0,0:0:0:0:
192,192,113539,1,0,0:0:0:0:
64,192,113539,1,0,0:0:0:0:
448,192,113623,1,0,0:0:0:0:
192,192,113706,5,0,0:0:0:0:
320,192,113789,1,0,0:0:0:0:
64,192,113873,1,0,0:0:0:0:
448,192,113873,1,0,0:0:0:0:
192,192,113956,1,0,0:0:0:0:
320,192,114039,1,0,0:0:0:0:
192,192,114123,1,0,0:0:0:0:
64,192,114206,1,0,0:0:0:0:
448,192,114206,1,0,0:0:0:0:
320,192,114206,128,0,114539:0:0:0:0:
64,192,114539,1,0,0:0:0:0:
448,192,114539,1,0,0:0:0:0:
192,192,114539,128,0,114873:0:0:0:0:
64,192,114873,5,0,0:0:0:0:
320,192,114873,128,0,115206:0:0:0:0:
448,192,114873,1,0,0:0:0:0:
64,192,115206,1,0,0:0:0:0:
192,192,115206,1,0,0:0:0:0:
448,192,115206,128,0,115539:0:0:0:0:
64,192,115539,1,0,0:0:0:0:
320,192,115539,1,0,0:0:0:0:
192,192,115623,1,0,0:0:0:0:
320,192,115706,1,0,0:0:0:0:
448,192,115789,1,0,0:0:0:0:
192,192,115873,1,0,0:0:0:0:
64,192,115873,1,0,0:0:0:0:
320,192,115873,1,0,0:0:0:0:
448,192,115956,1,0,0:0:0:0:
192,192,116039,1,0,0:0:0:0:
320,192,116123,1,0,0:0:0:0:
192,192,116206,1,0,0:0:0:0:
64,192,116206,1,0,0:0:0:0:
448,192,116206,1,0,0:0:0:0:
320,192,116289,1,0,0:0:0:0:
192,192,116373,1,0,0:0:0:0:
64,192,116456,1,0,0:0:0:0:
192,192,116539,1,0,0:0:0:0:
448,192,116539,1,0,0:0:0:0:
320,192,116539,1,0,0:0:0:0:
64,192,116623,1,0,0:0:0:0:
320,192,116706,1,0,0:0:0:0:
448,192,116789,1,0,0:0:0:0:
320,192,116873,1,0,0:0:0:0:
192,192,116873,1,0,0:0:0:0:
64,192,116873,1,0,0:0:0:0:
448,192,116956,1,0,0:0:0:0:
320,192,117039,1,0,0:0:0:0:
192,192,117123,1,0,0:0:0:0:
64,192,117206,1,0,0:0:0:0:
320,192,117206,1,0,0:0:0:0:
448,192,117206,1,0,0:0:0:0:
192,192,117289,1,0,0:0:0:0:
448,192,117373,1,0,0:0:0:0:
64,192,117456,1,0,0:0:0:0:
448,192,117539,128,0,117706:0:0:0:0:
192,192,117539,1,0,0:0:0:0:
320,192,117539,1,0,0:0:0:0:
320,192,117706,128,0,117873:0:0:0:0:
64,192,117706,1,0,0:0:0:0:
192,192,117706,1,0,0:0:0:0:
192,192,117873,128,0,118039:0:0:0:0:
64,192,117873,1,0,0:0:0:0:
448,192,117873,1,0,0:0:0:0:
320,192,118039,1,0,0:0:0:0:
448,192,118039,1,0,0:0:0:0:
64,192,118039,128,0,118206:0:0:0:0:
192,192,118206,1,0,0:0:0:0:
448,192,118206,128,0,118289:0:0:0:0:
320,192,118289,1,0,0:0:0:0:
192,192,118373,1,0,0:0:0:0:
64,192,118456,1,0,0:0:0:0:
192,192,118539,1,0,0:0:0:0:
448,192,118539,1,0,0:0:0:0:
320,192,118539,128,0,118623:0:0:0:0:
64,192,118623,1,0,0:0:0:0:
448,192,118706,1,0,0:0:0:0:
320,192,118789,1,0,0:0:0:0:
64,192,118873,1,0,0:0:0:0:
448,192,118873,1,0,0:0:0:0:
192,192,118873,128,0,118956:0:0:0:0:
320,192,118956,1,0,0:0:0:0:
448,192,119039,1,0,0:0:0:0:
64,192,119123,1,0,0:0:0:0:
192,192,119206,1,0,0:0:0:0:
320,192,119206,1,0,0:0:0:0:
448,192,119206,128,0,119289:0:0:0:0:
64,192,119289,1,0,0:0:0:0:
192,192,119373,1,0,0:0:0:0:
320,192,119456,1,0,0:0:0:0:
64,192,119539,128,0,119706:0:0:0:0:
192,192,119539,1,0,0:0:0:0:
448,192,119539,1,0,0:0:0:0:
192,192,119706,128,0,119873:0:0:0:0:
320,192,119706,1,0,0:0:0:0:
448,192,119706,1,0,0:0:0:0:
320,192,119873,128,0,120039:0:0:0:0:
64,192,119873,1,0,0:0:0:0:
448,192,119873,1,0,0:0:0:0:
64,192,120039,1,0,0:0:0:0:
192,192,120039,1,0,0:0:0:0:
448,192,120039,128,0,120373:0:0:0:0:
192,192,120206,1,0,0:0:0:0:
320,192,120206,1,0,0:0:0:0:
64,192,120373,1,0,0:0:0:0:
192,192,120539,1,0,0:0:0:0:
448,192,120539,1,0,0:0:0:0:
320,192,120539,1,0,0:0:0:0:
320,192,120706,1,0,0:0:0:0:
64,192,120873,1,0,0:0:0:0:
192,192,120873,1,0,0:0:0:0:
448,192,120873,1,0,0:0:0:0:
320,192,120956,1,0,0:0:0:0:
192,192,121039,1,0,0:0:0:0:
320,192,121123,1,0,0:0:0:0:
192,192,121206,1,0,0:0:0:0:
448,192,121206,1,0,0:0:0:0:
64,192,121206,1,0,0:0:0:0:
320,192,121289,1,0,0:0:0:0:
64,192,121373,1,0,0:0:0:0:
448,192,121456,1,0,0:0:0:0:
320,192,121539,1,0,0:0:0:0:
192,192,121539,1,0,0:0:0:0:
64,192,121539,1,0,0:0:0:0:
448,192,121623,1,0,0:0:0:0:
192,192,121706,1,0,0:0:0:0:
320,192,121789,1,0,0:0:0:0:
192,192,121873,1,0,0:0:0:0:
64,192,121873,1,0,0:0:0:0:
448,192,121873,1,0,0:0:0:0:
320,192,121956,1,0,0:0:0:0:
192,192,122039,1,0,0:0:0:0:
64,192,122123,1,0,0:0:0:0:
320,192,122206,1,0,0:0:0:0:
448,192,122206,1,0,0:0:0:0:
192,192,122206,1,0,0:0:0:0:
64,192,122289,1,0,0:0:0:0:
320,192,122373,1,0,0:0:0:0:
448,192,122456,1,0,0:0:0:0:
320,192,122539,1,0,0:0:0:0:
192,192,122539,1,0,0:0:0:0:
64,192,122539,1,0,0:0:0:0:
64,192,122706,1,0,0:0:0:0:
448,192,122706,1,0,0:0:0:0:
192,192,122873,1,0,0:0:0:0:
320,192,122873,1,0,0:0:0:0:
448,192,122873,1,0,0:0:0:0:
320,192,123039,1,0,0:0:0:0:
64,192,123039,1,0,0:0:0:0:
64,192,123206,1,0,0:0:0:0:
192,192,123206,1,0,0:0:0:0:
448,192,123206,1,0,0:0:0:0:
320,192,123373,1,0,0:0:0:0:
448,192,123373,1,0,0:0:0:0:
448,192,123539,1,0,0:0:0:0:
64,192,123539,1,0,0:0:0:0:
192,192,123539,1,0,0:0:0:0:
320,192,123623,1,0,0:0:0:0:
192,192,123706,1,0,0:0:0:0:
64,192,123789,1,0,0:0:0:0:
320,192,123873,1,0,0:0:0:0:
448,192,123873,1,0,0:0:0:0:
192,192,123873,1,0,0:0:0:0:
64,192,123956,1,0,0:0:0:0:
448,192,124039,1,0,0:0:0:0:
320,192,124123,1,0,0:0:0:0:
192,192,124206,1,0,0:0:0:0:
64,192,124206,1,0,0:0:0:0:
448,192,124206,1,0,0:0:0:0:
320,192,124289,1,0,0:0:0:0:
192,192,124373,1,0,0:0:0:0:
64,192,124456,1,0,0:0:0:0:
320,192,124539,1,0,0:0:0:0:
448,192,124539,1,0,0:0:0:0:
192,192,124539,1,0,0:0:0:0:
64,192,124623,1,0,0:0:0:0:
320,192,124706,1,0,0:0:0:0:
448,192,124789,1,0,0:0:0:0:
64,192,124873,128,0,125039:0:0:0:0:
192,192,124873,1,0,0:0:0:0:
320,192,124873,1,0,0:0:0:0:
192,192,125039,128,0,125206:0:0:0:0:
320,192,125039,1,0,0:0:0:0:
448,192,125039,1,0,0:0:0:0:
320,192,125206,128,0,125373:0:0:0:0:
64,192,125206,1,0,0:0:0:0:
448,192,125206,1,0,0:0:0:0:
448,192,125373,128,0,125706:0:0:0:0:
192,192,125373,1,0,0:0:0:0:
64,192,125539,1,0,0:0:0:0:
192,192,125623,1,0,0:0:0:0:
320,192,125706,1,0,0:0:0:0:
64,192,125789,1,0,0:0:0:0:
320,192,125873,1,0,0:0:0:0:
448,192,125873,128,0,126039:0:0:0:0:
192,192,125956,1,0,0:0:0:0:
64,192,126039,128,0,126206:0:0:0:0:
320,192,126039,1,0,0:0:0:0:
192,192,126123,1,0,0:0:0:0:
320,192,126206,1,0,0:0:0:0:
448,192,126206,1,0,0:0:0:0:
192,192,126373,1,0,0:0:0:0:
448,192,126373,128,0,126456:0:0:0:0:
64,192,126456,1,0,0:0:0:0:
320,192,126456,128,0,126539:0:0:0:0:
448,192,126539,1,0,0:0:0:0:
192,192,126539,128,0,126623:0:0:0:0:
64,192,126706,128,0,126789:0:0:0:0:
320,192,126706,1,0,0:0:0:0:
192,192,126789,128,0,126873:0:0:0:0:
448,192,126789,1,0,0:0:0:0:
320,192,126873,128,0,126956:0:0:0:0:
64,192,126873,1,0,0:0:0:0:
64,192,127039,128,0,127123:0:0:0:0:
192,192,127039,1,0,0:0:0:0:
448,192,127206,128,0,127289:0:0:0:0:
320,192,127206,1,0,0:0:0:0:
192,192,127373,128,0,127456:0:0:0:0:
320,192,127373,1,0,0:0:0:0:
320,192,127539,128,0,127623:0:0:0:0:
64,192,127539,1,0,0:0:0:0:
192,192,127706,128,0,127789:0:0:0:0:
448,192,127706,1,0,0:0:0:0:
320,192,127873,128,0,127956:0:0:0:0:
64,192,127873,1,0,0:0:0:0:
448,192,128039,128,0,128206:0:0:0:0:
192,192,128039,1,0,0:0:0:0:
64,192,128206,1,0,0:0:0:0:
320,192,128206,1,0,0:0:0:0:
64,192,128373,128,0,128456:0:0:0:0:
192,192,128373,1,0,0:0:0:0:
192,192,128539,128,0,128623:0:0:0:0:
320,192,128539,1,0,0:0:0:0:
448,192,128706,128,0,128789:0:0:0:0:
320,192,128706,1,0,0:0:0:0:
320,192,128873,128,0,128956:0:0:0:0:
192,192,128873,1,0,0:0:0:0:
192,192,129039,128,0,129123:0:0:0:0:
64,192,129039,1,0,0:0:0:0:
448,192,129206,128,0,129289:0:0:0:0:
320,192,129206,1,0,0:0:0:0:
64,192,129373,128,0,129456:0:0:0:0:
192,192,129373,1,0,0:0:0:0:
448,192,129456,1,0,0:0:0:0:
320,192,129539,128,0,129623:0:0:0:0:
192,192,129539,1,0,0:0:0:0:
192,192,129706,128,0,129789:0:0:0:0:
64,192,129706,1,0,0:0:0:0:
320,192,129873,128,0,129956:0:0:0:0:
192,192,129873,1,0,0:0:0:0:
448,192,130039,128,0,130123:0:0:0:0:
320,192,130039,1,0,0:0:0:0:
64,192,130206,1,0,0:0:0:0:
192,192,130206,1,0,0:0:0:0:
320,192,130289,1,0,0:0:0:0:
64,192,130373,1,0,0:0:0:0:
192,192,130456,1,0,0:0:0:0:
320,192,130539,1,0,0:0:0:0:
448,192,130539,1,0,0:0:0:0:
64,192,130623,1,0,0:0:0:0:
320,192,130706,1,0,0:0:0:0:
448,192,130789,1,0,0:0:0:0:
64,192,130873,1,0,0:0:0:0:
192,192,130873,1,0,0:0:0:0:
320,192,130956,1,0,0:0:0:0:
448,192,131039,128,0,131206:0:0:0:0:
320,192,131123,1,0,0:0:0:0:
192,192,131206,1,0,0:0:0:0:
64,192,131206,128,0,131373:0:0:0:0:
448,192,131289,1,0,0:0:0:0:
320,192,131373,128,0,131539:0:0:0:0:
192,192,131373,1,0,0:0:0:0:
448,192,131456,1,0,0:0:0:0:
192,192,131539,1,0,0:0:0:0:
64,192,131539,1,0,0:0:0:0:
192,192,131706,1,0,0:0:0:0:
448,192,131706,128,0,131789:0:0:0:0:
320,192,131789,128,0,131873:0:0:0:0:
64,192,131789,1,0,0:0:0:0:
192,192,131873,128,0,131956:0:0:0:0:
448,192,131873,1,0,0:0:0:0:
320,192,132039,1,0,0:0:0:0:
64,192,132039,128,0,132123:0:0:0:0:
192,192,132123,128,0,132206:0:0:0:0:
448,192,132123,1,0,0:0:0:0:
320,192,132206,128,0,132289:0:0:0:0:
64,192,132206,1,0,0:0:0:0:
448,192,132373,128,0,132456:0:0:0:0:
64,192,132373,1,0,0:0:0:0:
64,192,132539,128,0,132623:0:0:0:0:
192,192,132539,1,0,0:0:0:0:
320,192,132706,128,0,132789:0:0:0:0:
448,192,132706,1,0,0:0:0:0:
192,192,132873,128,0,132956:0:0:0:0:
64,192,132873,1,0,0:0:0:0:
320,192,133039,128,0,133123:0:0:0:0:
448,192,133039,1,0,0:0:0:0:
192,192,133206,128,0,133289:0:0:0:0:
320,192,133206,1,0,0:0:0:0:
64,192,133373,128,0,133539:0:0:0:0:
448,192,133373,1,0,0:0:0:0:
192,192,133539,1,0,0:0:0:0:
320,192,133539,1,0,0:0:0:0:
448,192,133706,128,0,133789:0:0:0:0:
64,192,133706,1,0,0:0:0:0:
320,192,133873,128,0,133956:0:0:0:0:
192,192,133873,1,0,0:0:0:0:
64,192,134039,128,0,134123:0:0:0:0:
448,192,134039,1,0,0:0:0:0:
192,192,134206,128,0,134289:0:0:0:0:
320,192,134206,1,0,0:0:0:0:
448,192,134206,1,0,0:0:0:0:
320,192,134373,128,0,134456:0:0:0:0:
64,192,134373,1,0,0:0:0:0:
64,192,134539,128,0,134623:0:0:0:0:
192,192,134539,1,0,0:0:0:0:
448,192,134706,128,0,134789:0:0:0:0:
320,192,134706,1,0,0:0:0:0:
192,192,134873,128,0,134956:0:0:0:0:
64,192,134873,1,0,0:0:0:0:
448,192,134873,1,0,0:0:0:0:
320,192,135039,128,0,135123:0:0:0:0:
448,192,135039,1,0,0:0:0:0:
192,192,135206,128,0,135289:0:0:0:0:
320,192,135206,1,0,0:0:0:0:
64,192,135373,128,0,135456:0:0:0:0:
192,192,135373,1,0,0:0:0:0:
448,192,135539,1,0,0:0:0:0:
320,192,135539,1,0,0:0:0:0:
192,192,135623,1,0,0:0:0:0:
64,192,135706,5,0,0:0:0:0:
448,192,135706,1,0,0:0:0:0:
320,192,135789,1,0,0:0:0:0:
64,192,135873,1,0,0:0:0:0:
192,192,135873,1,0,0:0:0:0:
448,192,135956,1,0,0:0:0:0:
192,192,136039,1,0,0:0:0:0:
320,192,136039,1,0,0:0:0:0:
64,192,136123,1,0,0:0:0:0:
320,192,136206,1,0,0:0:0:0:
448,192,136206,1,0,0:0:0:0:
64,192,136289,1,0,0:0:0:0:
192,192,136289,1,0,0:0:0:0:
320,192,136373,1,0,0:0:0:0:
448,192,136373,1,0,0:0:0:0:
64,192,136456,1,0,0:0:0:0:
192,192,136456,1,0,0:0:0:0:
320,192,136539,1,0,0:0:0:0:
448,192,136539,1,0,0:0:0:0:
64,192,136623,1,0,0:0:0:0:
192,192,136623,1,0,0:0:0:0:
320,192,136706,1,0,0:0:0:0:
448,192,136706,1,0,0:0:0:0:
192,192,136789,1,0,0:0:0:0:
64,192,136873,5,0,0:0:0:0:
448,192,136873,1,0,0:0:0:0:
192,192,136956,1,0,0:0:0:0:
320,192,137039,1,0,0:0:0:0:
448,192,137123,1,0,0:0:0:0:
320,192,137206,1,0,0:0:0:0:
192,192,137206,1,0,0:0:0:0:
64,192,137206,1,0,0:0:0:0:
448,192,137289,1,0,0:0:0:0:
192,192,137373,1,0,0:0:0:0:
320,192,137456,1,0,0:0:0:0:
64,192,137539,1,0,0:0:0:0:
192,192,137539,1,0,0:0:0:0:
448,192,137623,1,0,0:0:0:0:
320,192,137706,1,0,0:0:0:0:
192,192,137789,1,0,0:0:0:0:
64,192,137873,1,0,0:0:0:0:
320,192,137873,1,0,0:0:0:0:
448,192,137873,1,0,0:0:0:0:
192,192,137956,1,0,0:0:0:0:
320,192,138039,1,0,0:0:0:0:
448,192,138123,1,0,0:0:0:0:
64,192,138206,1,0,0:0:0:0:
192,192,138206,1,0,0:0:0:0:
320,192,138289,1,0,0:0:0:0:
64,192,138373,128,0,138539:0:0:0:0:
448,192,138373,128,0,138539:0:0:0:0:
192,192,138539,128,0,138706:0:0:0:0:
320,192,138539,128,0,138706:0:0:0:0:
448,192,138706,128,0,138873:0:0:0:0:
64,192,138873,128,0,139206:0:0:0:0:
192,192,138873,128,0,139039:0:0:0:0:
448,192,139039,128,0,139206:0:0:0:0:
192,192,139206,1,0,0:0:0:0:
320,192,139206,128,0,139373:0:0:0:0:
448,192,139373,128,0,139539:0:0:0:0:
64,192,139539,1,0,0:0:0:0:
192,192,139539,1,0,0:0:0:0:
320,192,139623,1,0,0:0:0:0:
192,192,139706,1,0,0:0:0:0:
64,192,139789,1,0,0:0:0:0:
192,192,139873,1,0,0:0:0:0:
320,192,139873,1,0,0:0:0:0:
448,192,139873,1,0,0:0:0:0:
64,192,139956,1,0,0:0:0:0:
192,192,140039,1,0,0:0:0:0:
448,192,140123,1,0,0:0:0:0:
64,192,140206,1,0,0:0:0:0:
320,192,140206,1,0,0:0:0:0:
192,192,140289,1,0,0:0:0:0:
320,192,140373,1,0,0:0:0:0:
448,192,140456,1,0,0:0:0:0:
320,192,140539,1,0,0:0:0:0:
192,192,140539,1,0,0:0:0:0:
64,192,140539,1,0,0:0:0:0:
448,192,140623,1,0,0:0:0:0:
192,192,140706,1,0,0:0:0:0:
320,192,140789,1,0,0:0:0:0:
64,192,140873,1,0,0:0:0:0:
192,192,140873,1,0,0:0:0:0:
320,192,141039,1,0,0:0:0:0:
448,192,141039,1,0,0:0:0:0:
192,192,141123,1,0,0:0:0:0:
64,192,141123,1,0,0:0:0:0:
320,192,141206,1,0,0:0:0:0:
448,192,141206,1,0,0:0:0:0:
64,192,141373,1,0,0:0:0:0:
448,192,141373,1,0,0:0:0:0:
320,192,141539,1,0,0:0:0:0:
192,192,141539,1,0,0:0:0:0:
448,192,141873,128,0,142206:0:0:0:0:
64,192,141873,1,0,0:0:0:0:
192,192,141873,1,0,0:0:0:0:
320,192,142206,1,0,0:0:0:0:
64,192,142206,1,0,0:0:0:0:
192,192,142289,1,0,0:0:0:0:
320,192,142373,1,0,0:0:0:0:
448,192,142456,1,0,0:0:0:0:
64,192,142539,1,0,0:0:0:0:
320,192,142539,1,0,0:0:0:0:
192,192,142623,1,0,0:0:0:0:
320,192,142706,1,0,0:0:0:0:
448,192,142706,1,0,0:0:0:0:
64,192,142789,1,0,0:0:0:0:
448,192,142873,1,0,0:0:0:0:
192,192,142873,1,0,0:0:0:0:
320,192,142956,1,0,0:0:0:0:
192,192,143039,1,0,0:0:0:0:
64,192,143039,1,0,0:0:0:0:
320,192,143123,1,0,0:0:0:0:
64,192,143206,1,0,0:0:0:0:
448,192,143206,1,0,0:0:0:0:
192,192,143289,1,0,0:0:0:0:
320,192,143373,1,0,0:0:0:0:
448,192,143373,1,0,0:0:0:0:
64,192,143706,1,0,0:0:0:0:
448,192,143706,1,0,0:0:0:0:
192,192,143873,1,0,0:0:0:0:
320,192,143873,1,0,0:0:0:0:
64,192,143956,1,0,0:0:0:0:
448,192,144039,1,0,0:0:0:0:
320,192,144123,1,0,0:0:0:0:
64,192,144206,1,0,0:0:0:0:
448,192,144206,1,0,0:0:0:0:
192,192,144289,1,0,0:0:0:0:
320,192,144373,1,0,0:0:0:0:
448,192,144373,1,0,0:0:0:0:
192,192,144456,1,0,0:0:0:0:
64,192,144456,1,0,0:0:0:0:
320,192,144539,1,0,0:0:0:0:
448,192,144539,1,0,0:0:0:0:
64,192,144623,1,0,0:0:0:0:
192,192,144706,1,0,0:0:0:0:
448,192,144873,1,0,0:0:0:0:
320,192,144873,1,0,0:0:0:0:
192,192,144914,1,0,0:0:0:0:
64,192,144956,1,0,0:0:0:0:
448,192,144998,1,0,0:0:0:0:
320,192,145039,5,0,0:0:0:0:
192,192,145081,1,0,0:0:0:0:
64,192,145123,1,0,0:0:0:0:
320,192,145164,1,0,0:0:0:0:
448,192,145206,1,0,0:0:0:0:
64,192,145248,1,0,0:0:0:0:
192,192,145289,1,0,0:0:0:0:
320,192,145331,1,0,0:0:0:0:
448,192,145373,1,0,0:0:0:0:
192,192,145414,1,0,0:0:0:0:
64,192,145456,1,0,0:0:0:0:
320,192,145539,1,0,0:0:0:0:
448,192,145539,1,0,0:0:0:0:
64,192,145581,1,0,0:0:0:0:
192,192,145623,1,0,0:0:0:0:
320,192,145664,1,0,0:0:0:0:
448,192,145706,1,0,0:0:0:0:
192,192,145748,1,0,0:0:0:0:
64,192,145789,1,0,0:0:0:0:
448,192,145831,1,0,0:0:0:0:
320,192,145873,1,0,0:0:0:0:
192,192,145914,1,0,0:0:0:0:
64,192,145956,1,0,0:0:0:0:
320,192,145998,1,0,0:0:0:0:
448,192,146039,1,0,0:0:0:0:
64,192,146081,1,0,0:0:0:0:
192,192,146123,1,0,0:0:0:0:
448,192,146206,5,0,0:0:0:0:
320,192,146206,1,0,0:0:0:0:
320,192,146289,1,0,0:0:0:0:
192,192,146289,1,0,0:0:0:0:
448,192,146373,1,0,0:0:0:0:
64,192,146373,1,0,0:0:0:0:
320,192,146539,1,0,0:0:0:0:
448,192,146539,1,0,0:0:0:0:
64,192,146623,1,0,0:0:0:0:
192,192,146623,1,0,0:0:0:0:
320,192,146706,1,0,0:0:0:0:
448,192,146706,1,0,0:0:0:0:
64,192,146873,1,0,0:0:0:0:
192,192,146873,1,0,0:0:0:0:
320,192,146956,1,0,0:0:0:0:
448,192,147039,1,0,0:0:0:0:
64,192,147039,1,0,0:0:0:0:
192,192,147123,1,0,0:0:0:0:
320,192,147206,1,0,0:0:0:0:
448,192,147206,1,0,0:0:0:0:
64,192,147289,1,0,0:0:0:0:
192,192,147373,1,0,0:0:0:0:
320,192,147373,128,0,147539:0:0:0:0:
448,192,147539,1,0,0:0:0:0:
64,192,147539,1,0,0:0:0:0:
192,192,147706,1,0,0:0:0:0:
448,192,147789,1,0,0:0:0:0:
320,192,147873,1,0,0:0:0:0:
64,192,147873,1,0,0:0:0:0:
192,192,148039,1,0,0:0:0:0:
448,192,148039,1,0,0:0:0:0:
320,192,148123,1,0,0:0:0:0:
192,192,148206,1,0,0:0:0:0:
64,192,148289,1,0,0:0:0:0:
320,192,148373,1,0,0:0:0:0:
192,192,148456,1,0,0:0:0:0:
64,192,148539,1,0,0:0:0:0:
448,192,148539,1,0,0:0:0:0:
320,192,148623,1,0,0:0:0:0:
192,192,148706,1,0,0:0:0:0:
64,192,148789,1,0,0:0:0:0:
448,192,148873,1,0,0:0:0:0:
320,192,148873,1,0,0:0:0:0:
64,192,149039,1,0,0:0:0:0:
320,192,149123,1,0,0:0:0:0:
192,192,149206,1,0,0:0:0:0:
448,192,149206,1,0,0:0:0:0:
64,192,149373,1,0,0:0:0:0:
320,192,149373,1,0,0:0:0:0:
192,192,149456,1,0,0:0:0:0:
320,192,149539,1,0,0:0:0:0:
448,192,149623,1,0,0:0:0:0:
192,192,149706,1,0,0:0:0:0:
64,192,149706,1,0,0:0:0:0:
320,192,149789,1,0,0:0:0:0:
448,192,149873,1,0,0:0:0:0:
192,192,149956,1,0,0:0:0:0:
64,192,150039,1,0,0:0:0:0:
448,192,150039,1,0,0:0:0:0:
320,192,150123,1,0,0:0:0:0:
192,192,150206,1,0,0:0:0:0:
64,192,150206,1,0,0:0:0:0:
448,192,150373,1,0,0:0:0:0:
320,192,150456,1,0,0:0:0:0:
64,192,150539,1,0,0:0:0:0:
448,192,150539,1,0,0:0:0:0:
192,192,150706,1,0,0:0:0:0:
320,192,150706,1,0,0:0:0:0:
448,192,150789,1,0,0:0:0:0:
64,192,150873,1,0,0:0:0:0:
192,192,150873,1,0,0:0:0:0:
320,192,150956,1,0,0:0:0:0:
448,192,151039,1,0,0:0:0:0:
192,192,151123,1,0,0:0:0:0:
320,192,151206,1,0,0:0:0:0:
64,192,151206,1,0,0:0:0:0:
448,192,151289,1,0,0:0:0:0:
192,192,151373,1,0,0:0:0:0:
64,192,151373,1,0,0:0:0:0:
320,192,151456,1,0,0:0:0:0:
448,192,151539,1,0,0:0:0:0:
64,192,151539,1,0,0:0:0:0:
320,192,151623,1,0,0:0:0:0:
64,192,151706,1,0,0:0:0:0:
192,192,151789,1,0,0:0:0:0:
320,192,151873,1,0,0:0:0:0:
448,192,151873,1,0,0:0:0:0:
192,192,151956,1,0,0:0:0:0:
64,192,152039,1,0,0:0:0:0:
320,192,152123,1,0,0:0:0:0:
448,192,152206,1,0,0:0:0:0:
64,192,152206,1,0,0:0:0:0:
192,192,152289,1,0,0:0:0:0:
448,192,152373,1,0,0:0:0:0:
320,192,152456,1,0,0:0:0:0:
192,192,152539,1,0,0:0:0:0:
64,192,152539,1,0,0:0:0:0:
448,192,152623,1,0,0:0:0:0:
320,192,152706,1,0,0:0:0:0:
192,192,152789,1,0,0:0:0:0:
64,192,152873,1,0,0:0:0:0:
448,192,152873,1,0,0:0:0:0:
320,192,153039,1,0,0:0:0:0:
64,192,153123,1,0,0:0:0:0:
192,192,153206,1,0,0:0:0:0:
448,192,153206,1,0,0:0:0:0:
320,192,153373,1,0,0:0:0:0:
64,192,153373,1,0,0:0:0:0:
192,192,153456,1,0,0:0:0:0:
320,192,153539,1,0,0:0:0:0:
448,192,153623,1,0,0:0:0:0:
192,192,153706,1,0,0:0:0:0:
320,192,153789,1,0,0:0:0:0:
448,192,153873,1,0,0:0:0:0:
64,192,153873,1,0,0:0:0:0:
192,192,153956,1,0,0:0:0:0:
320,192,154039,1,0,0:0:0:0:
448,192,154123,1,0,0:0:0:0:
64,192,154206,1,0,0:0:0:0:
192,192,154206,1,0,0:0:0:0:
448,192,154373,1,0,0:0:0:0:
192,192,154456,1,0,0:0:0:0:
320,192,154539,1,0,0:0:0:0:
64,192,154539,1,0,0:0:0:0:
448,192,154706,1,0,0:0:0:0:
192,192,154706,1,0,0:0:0:0:
320,192,154789,1,0,0:0:0:0:
192,192,154873,1,0,0:0:0:0:
64,192,154956,1,0,0:0:0:0:
320,192,155039,1,0,0:0:0:0:
448,192,155039,1,0,0:0:0:0:
192,192,155123,1,0,0:0:0:0:
64,192,155206,1,0,0:0:0:0:
320,192,155289,1,0,0:0:0:0:
448,192,155373,1,0,0:0:0:0:
64,192,155373,1,0,0:0:0:0:
192,192,155456,1,0,0:0:0:0:
320,192,155539,1,0,0:0:0:0:
448,192,155539,1,0,0:0:0:0:
64,192,155706,1,0,0:0:0:0:
192,192,155789,1,0,0:0:0:0:
448,192,155873,1,0,0:0:0:0:
64,192,155873,1,0,0:0:0:0:
320,192,156039,1,0,0:0:0:0:
192,192,156039,1,0,0:0:0:0:
64,192,156123,1,0,0:0:0:0:
448,192,156206,1,0,0:0:0:0:
320,192,156206,1,0,0:0:0:0:
192,192,156289,1,0,0:0:0:0:
64,192,156373,1,0,0:0:0:0:
320,192,156456,1,0,0:0:0:0:
192,192,156539,1,0,0:0:0:0:
448,192,156539,1,0,0:0:0:0:
64,192,156623,1,0,0:0:0:0:
448,192,156706,1,0,0:0:0:0:
320,192,156789,1,0,0:0:0:0:
192,192,156873,1,0,0:0:0:0:
64,192,156873,1,0,0:0:0:0:
192,192,156956,1,0,0:0:0:0:
64,192,156956,1,0,0:0:0:0:
320,192,157039,5,0,0:0:0:0:
448,192,157039,1,0,0:0:0:0:
192,192,157206,1,0,0:0:0:0:
64,192,157206,1,0,0:0:0:0:
448,192,157373,1,0,0:0:0:0:
320,192,157373,1,0,0:0:0:0:
320,192,157456,1,0,0:0:0:0:
192,192,157456,1,0,0:0:0:0:
64,192,157539,1,0,0:0:0:0:
192,192,157539,1,0,0:0:0:0:
448,192,157623,1,0,0:0:0:0:
320,192,157623,1,0,0:0:0:0:
64,192,157706,1,0,0:0:0:0:
192,192,157706,1,0,0:0:0:0:
448,192,157789,1,0,0:0:0:0:
320,192,157789,1,0,0:0:0:0:
64,192,157873,1,0,0:0:0:0:
192,192,157873,1,0,0:0:0:0:
448,192,157956,1,0,0:0:0:0:
320,192,157956,1,0,0:0:0:0:
192,192,158039,128,0,158206:0:0:0:0:
64,192,158206,128,0,159539:0:0:0:0:
448,192,158206,128,0,158289:0:0:0:0:
192,192,158289,128,0,158373:0:0:0:0:
448,192,158373,128,0,158456:0:0:0:0:
320,192,158456,128,0,158539:0:0:0:0:
192,192,158539,128,0,158706:0:0:0:0:
448,192,158706,128,0,158873:0:0:0:0:
320,192,158873,128,0,159039:0:0:0:0:
192,192,159039,128,0,159206:0:0:0:0:
448,192,159206,128,0,159373:0:0:0:0:
192,192,159373,128,0,159539:0:0:0:0:
320,192,159539,128,0,160873:0:0:0:0:
448,192,159539,128,0,159623:0:0:0:0:
64,192,159623,128,0,159706:0:0:0:0:
448,192,159706,128,0,159789:0:0:0:0:
192,192,159789,128,0,159956:0:0:0:0:
64,192,160039,128,0,160123:0:0:0:0:
448,192,160123,128,0,160206:0:0:0:0:
192,192,160206,128,0,160373:0:0:0:0:
64,192,160373,128,0,160539:0:0:0:0:
448,192,160539,128,0,160706:0:0:0:0:
192,192,160706,128,0,160873:0:0:0:0:
448,192,160873,128,0,163539:0:0:0:0:
64,192,160873,128,0,161039:0:0:0:0:
320,192,161039,128,0,161123:0:0:0:0:
192,192,161123,128,0,161289:0:0:0:0:
320,192,161289,128,0,161373:0:0:0:0:
64,192,161373,128,0,161539:0:0:0:0:
192,192,161539,128,0,161706:0:0:0:0:
320,192,161706,128,0,161873:0:0:0:0:
64,192,161873,128,0,162039:0:0:0:0:
192,192,162039,128,0,162206:0:0:0:0:
64,192,162206,128,0,162373:0:0:0:0:
320,192,162373,128,0,162456:0:0:0:0:
192,192,162456,128,0,162539:0:0:0:0:
64,192,162539,128,0,162706:0:0:0:0:
192,192,162706,128,0,162789:0:0:0:0:
320,192,162789,128,0,162873:0:0:0:0:
64,192,162873,128,0,163039:0:0:0:0:
320,192,163039,128,0,163206:0:0:0:0:
192,192,163206,128,0,163539:0:0:0:0:
64,192,163539,128,0,164873:0:0:0:0:
320,192,163539,128,0,164039:0:0:0:0:
448,192,164039,128,0,164206:0:0:0:0:
320,192,164206,128,0,164373:0:0:0:0:
192,192,164373,128,0,164539:0:0:0:0:
448,192,164539,128,0,164706:0:0:0:0:
192,192,164706,128,0,164789:0:0:0:0:
320,192,164873,128,0,166206:0:0:0:0:
192,192,164873,128,0,165039:0:0:0:0:
64,192,165039,128,0,165123:0:0:0:0:
448,192,165123,128,0,165206:0:0:0:0:
64,192,165206,128,0,165289:0:0:0:0:
192,192,165289,128,0,165373:0:0:0:0:
448,192,165373,128,0,165539:0:0:0:0:
192,192,165539,128,0,165706:0:0:0:0:
64,192,165706,128,0,165873:0:0:0:0:
448,192,165873,128,0,166039:0:0:0:0:
64,192,166039,128,0,166206:0:0:0:0:
192,192,166206,1,0,0:0:0:0:
448,192,166289,1,0,0:0:0:0:
64,192,166373,1,0,0:0:0:0:
320,192,166456,1,0,0:0:0:0:
192,192,166539,1,0,0:0:0:0:
448,192,166623,1,0,0:0:0:0:
64,192,166706,1,0,0:0:0:0:
320,192,166789,1,0,0:0:0:0:
192,192,166873,1,0,0:0:0:0:
448,192,166956,1,0,0:0:0:0:
64,192,167039,1,0,0:0:0:0:
320,192,167123,1,0,0:0:0:0:
192,192,167206,1,0,0:0:0:0:
448,192,167289,1,0,0:0:0:0:
64,192,167373,1,0,0:0:0:0:
320,192,167456,1,0,0:0:0:0:
64,192,167539,1,0,0:0:0:0:
192,192,167581,1,0,0:0:0:0:
320,192,167623,1,0,0:0:0:0:
448,192,167664,1,0,0:0:0:0:
64,192,167706,1,0,0:0:0:0:
192,192,167789,1,0,0:0:0:0:
448,192,167873,1,0,0:0:0:0:
320,192,167914,1,0,0:0:0:0:
192,192,167956,1,0,0:0:0:0:
64,192,167998,1,0,0:0:0:0:
448,192,168039,1,0,0:0:0:0:
320,192,168123,1,0,0:0:0:0:
64,192,168206,1,0,0:0:0:0:
192,192,168248,1,0,0:0:0:0:
320,192,168289,1,0,0:0:0:0:
448,192,168331,1,0,0:0:0:0:
192,192,168373,1,0,0:0:0:0:
64,192,168414,1,0,0:0:0:0:
448,192,168456,1,0,0:0:0:0:
320,192,168498,1,0,0:0:0:0:
192,192,168539,1,0,0:0:0:0:
64,192,168581,1,0,0:0:0:0:
320,192,168623,1,0,0:0:0:0:
448,192,168664,1,0,0:0:0:0:
64,192,168706,1,0,0:0:0:0:
192,192,168748,1,0,0:0:0:0:
448,192,168789,1,0,0:0:0:0:
320,192,168831,1,0,0:0:0:0:
64,192,168873,5,0,0:0:0:0:
192,192,168873,1,0,0:0:0:0:
320,192,169539,1,0,0:0:0:0:
448,192,170873,1,0,0:0:0:0:
320,192,171123,1,0,0:0:0:0:
192,192,171331,1,0,0:0:0:0:
320,192,171539,1,0,0:0:0:0:
64,192,172206,1,0,0:0:0:0:
192,192,173539,1,0,0:0:0:0:
192,192,174206,1,0,0:0:0:0:
320,192,174873,1,0,0:0:0:0:
448,192,176206,1,0,0:0:0:0:
320,192,176456,1,0,0:0:0:0:
192,192,176664,1,0,0:0:0:0:
320,192,176873,1,0,0:0:0:0:
448,192,177539,128,0,179539:0:0:0:0:
64,192,177539,1,0,0:0:0:0:
192,192,178539,1,0,0:0:0:0:
320,192,178873,1,0,0:0:0:0:
192,192,179206,1,0,0:0:0:0:
192,192,179539,1,0,0:0:0:0:
320,192,179539,1,0,0:0:0:0:
64,192,179539,128,0,180873:0:0:0:0:
448,192,180873,128,0,181539:0:0:0:0:
192,192,180873,1,0,0:0:0:0:
192,192,181539,128,0,182206:0:0:0:0:
320,192,181539,1,0,0:0:0:0:
320,192,182206,128,0,183539:0:0:0:0:
64,192,182206,1,0,0:0:0:0:
448,192,183539,1,0,0:0:0:0:
64,192,183539,128,0,184873:0:0:0:0:
320,192,183873,1,0,0:0:0:0:
192,192,184206,1,0,0:0:0:0:
320,192,184456,1,0,0:0:0:0:
320,192,184664,1,0,0:0:0:0:
448,192,184873,128,0,185539:0:0:0:0:
192,192,184873,1,0,0:0:0:0:
64,192,185539,1,0,0:0:0:0:
192,192,185539,128,0,186539:0:0:0:0:
64,192,186539,1,0,0:0:0:0:
320,192,186539,128,0,186873:0:0:0:0:
192,192,186873,1,0,0:0:0:0:
448,192,186873,128,0,187206:0:0:0:0:
320,192,187206,1,0,0:0:0:0:
64,192,187206,128,0,187539:0:0:0:0:
448,192,187539,128,0,188206:0:0:0:0:
192,192,187539,1,0,0:0:0:0:
192,192,188206,128,0,188873:0:0:0:0:
320,192,188206,1,0,0:0:0:0:
320,192,188873,128,0,189539:0:0:0:0:
64,192,188873,1,0,0:0:0:0:
448,192,189539,128,0,190206:0:0:0:0:
192,192,189539,1,0,0:0:0:0:
320,192,189873,1,0,0:0:0:0:
192,192,190039,1,0,0:0:0:0:
64,192,190206,5,0,0:0:0:0:
320,192,190206,128,0,191206:0:0:0:0:
192,192,191206,128,0,192206:0:0:0:0:
320,192,192206,128,0,195539:0:0:0:0:
64,192,192539,1,0,0:0:0:0:
448,192,192873,128,0,193539:0:0:0:0:
192,192,193539,128,0,193873:0:0:0:0:
64,192,193873,128,0,194873:0:0:0:0:
192,192,194873,128,0,195206:0:0:0:0:
64,192,195206,128,0,196373:0:0:0:0:
448,192,195539,128,0,196539:0:0:0:0:
192,192,196539,128,0,197539:0:0:0:0:
64,192,197539,128,0,198206:0:0:0:0:
192,192,197873,1,0,0:0:0:0:
448,192,198206,128,0,200873:0:0:0:0:
320,192,198206,128,0,198873:0:0:0:0:
64,192,198873,128,0,199206:0:0:0:0:
192,192,199206,128,0,200206:0:0:0:0:
320,192,200206,128,0,200539:0:0:0:0:
64,192,200539,128,0,202206:0:0:0:0:
192,192,200873,128,0,201873:0:0:0:0:
320,192,201873,128,0,202873:0:0:0:0:
448,192,202873,128,0,206206:0:0:0:0:
64,192,203206,1,0,0:0:0:0:
320,192,203539,128,0,204206:0:0:0:0:
192,192,204206,128,0,204539:0:0:0:0:
64,192,204539,128,0,205539:0:0:0:0:
192,192,205539,128,0,205873:0:0:0:0:
320,192,205873,128,0,207039:0:0:0:0:
64,192,206206,128,0,207206:0:0:0:0:
192,192,207206,128,0,208206:0:0:0:0:
320,192,208206,128,0,208873:0:0:0:0:
64,192,208539,1,0,0:0:0:0:
448,192,208873,128,0,211539:0:0:0:0:
192,192,208873,128,0,209539:0:0:0:0:
64,192,209539,128,0,209873:0:0:0:0:
192,192,209873,128,0,210873:0:0:0:0:
320,192,210873,128,0,211539:0:0:0:0:
64,192,211539,1,0,0:0:0:0:
192,192,211539,1,0,0:0:0:0:
64,192,212206,1,0,0:0:0:0:
192,192,212206,1,0,0:0:0:0:
448,192,212539,1,0,0:0:0:0:
64,192,212873,1,0,0:0:0:0:
192,192,212873,1,0,0:0:0:0:
64,192,213539,1,0,0:0:0:0:
192,192,213539,1,0,0:0:0:0:
448,192,213873,1,0,0:0:0:0:
64,192,214039,1,0,0:0:0:0:
320,192,214206,1,0,0:0:0:0:
448,192,214206,1,0,0:0:0:0:
320,192,214873,1,0,0:0:0:0:
448,192,214873,1,0,0:0:0:0:
64,192,215206,1,0,0:0:0:0:
320,192,215539,1,0,0:0:0:0:
448,192,215539,1,0,0:0:0:0:
64,192,215873,1,0,0:0:0:0:
320,192,216206,1,0,0:0:0:0:
448,192,216206,1,0,0:0:0:0:
64,192,216539,1,0,0:0:0:0:
64,192,216873,1,0,0:0:0:0:
192,192,216873,1,0,0:0:0:0:
64,192,217539,1,0,0:0:0:0:
192,192,217539,1,0,0:0:0:0:
64,192,218206,1,0,0:0:0:0:
192,192,218206,1,0,0:0:0:0:
64,192,218873,1,0,0:0:0:0:
192,192,218873,1,0,0:0:0:0:
448,192,219539,128,0,219873:0:0:0:0:
192,192,219873,128,0,220206:0:0:0:0:
448,192,220206,128,0,220373:0:0:0:0:
64,192,220373,128,0,220706:0:0:0:0:
320,192,220706,128,0,222206:0:0:0:0:
448,192,222206,128,0,223956:0:0:0:0:
64,192,222206,128,0,223456:0:0:0:0:
192,192,222706,128,0,224456:0:0:0:0:
320,192,223206,128,0,225456:0:0:0:0:
64,192,223539,128,0,225123:0:0:0:0:
448,192,224039,128,0,229289:0:0:0:0:
192,192,224539,128,0,225289:0:0:0:0:
64,192,225206,128,0,226123:0:0:0:0:
192,192,225373,128,0,225789:0:0:0:0:
320,192,225539,128,0,226706:0:0:0:0:
192,192,225873,128,0,227123:0:0:0:0:
64,192,226206,128,0,227456:0:0:0:0:
320,192,226789,128,0,228456:0:0:0:0:
192,192,227206,128,0,227956:0:0:0:0:
64,192,227539,128,0,228789:0:0:0:0:
192,192,228039,128,0,230123:0:0:0:0:
320,192,228539,128,0,229789:0:0:0:0:
64,192,228873,128,0,230789:0:0:0:0:
448,192,229373,128,0,230956:0:0:0:0:
320,192,229873,128,0,230456:0:0:0:0:
192,192,230206,128,0,232706:0:0:0:0:
320,192,230539,128,0,232873:0:0:0:0:
64,192,230873,128,0,231373:0:0:0:0:
448,192,231039,128,0,232873:0:0:0:0:
64,192,231456,128,0,232873:0:0:0:0:
192,192,232873,1,0,0:0:0:0:
320,192,233039,1,0,0:0:0:0:
64,192,233206,1,0,0:0:0:0:
448,192,233206,1,0,0:0:0:0:
320,192,233373,1,0,0:0:0:0:
192,192,233373,1,0,0:0:0:0:
64,192,233456,1,0,0:0:0:0:
448,192,233539,1,0,0:0:0:0:
192,192,233623,1,0,0:0:0:0:
320,192,233706,1,0,0:0:0:0:
192,192,233873,1,0,0:0:0:0:
448,192,233873,1,0,0:0:0:0:
64,192,234039,1,0,0:0:0:0:
320,192,234206,1,0,0:0:0:0:
192,192,234373,1,0,0:0:0:0:
64,192,234539,1,0,0:0:0:0:
320,192,234539,1,0,0:0:0:0:
448,192,234706,1,0,0:0:0:0:
192,192,234789,1,0,0:0:0:0:
320,192,234873,1,0,0:0:0:0:
64,192,234956,1,0,0:0:0:0:
448,192,235039,1,0,0:0:0:0:
320,192,235123,1,0,0:0:0:0:
64,192,235206,1,0,0:0:0:0:
192,192,235206,1,0,0:0:0:0:
320,192,235373,1,0,0:0:0:0:
192,192,235456,1,0,0:0:0:0:
448,192,235539,1,0,0:0:0:0:
64,192,235539,1,0,0:0:0:0:
320,192,235706,1,0,0:0:0:0:
192,192,235873,1,0,0:0:0:0:
448,192,235873,1,0,0:0:0:0:
64,192,236039,1,0,0:0:0:0:
448,192,236123,1,0,0:0:0:0:
192,192,236206,1,0,0:0:0:0:
320,192,236289,1,0,0:0:0:0:
64,192,236373,1,0,0:0:0:0:
192,192,236539,1,0,0:0:0:0:
448,192,236539,1,0,0:0:0:0:
64,192,236706,1,0,0:0:0:0:
448,192,236789,1,0,0:0:0:0:
320,192,236873,1,0,0:0:0:0:
192,192,236873,1,0,0:0:0:0:
64,192,237039,1,0,0:0:0:0:
448,192,237123,1,0,0:0:0:0:
192,192,237206,1,0,0:0:0:0:
320,192,237289,1,0,0:0:0:0:
64,192,237373,1,0,0:0:0:0:
448,192,237373,1,0,0:0:0:0:
192,192,237539,1,0,0:0:0:0:
448,192,237623,1,0,0:0:0:0:
320,192,237706,1,0,0:0:0:0:
64,192,237789,1,0,0:0:0:0:
448,192,237873,1,0,0:0:0:0:
192,192,237873,1,0,0:0:0:0:
320,192,238039,1,0,0:0:0:0:
64,192,238123,1,0,0:0:0:0:
192,192,238206,1,0,0:0:0:0:
320,192,238206,1,0,0:0:0:0:
448,192,238373,1,0,0:0:0:0:
64,192,238539,1,0,0:0:0:0:
320,192,238539,1,0,0:0:0:0:
192,192,238706,1,0,0:0:0:0:
448,192,238789,1,0,0:0:0:0:
64,192,238873,1,0,0:0:0:0:
320,192,238956,1,0,0:0:0:0:
192,192,239039,1,0,0:0:0:0:
448,192,239123,1,0,0:0:0:0:
320,192,239206,1,0,0:0:0:0:
64,192,239206,1,0,0:0:0:0:
192,192,239373,1,0,0:0:0:0:
448,192,239539,1,0,0:0:0:0:
320,192,239539,1,0,0:0:0:0:
64,192,239706,1,0,0:0:0:0:
192,192,239873,1,0,0:0:0:0:
448,192,239873,1,0,0:0:0:0:
320,192,240039,1,0,0:0:0:0:
64,192,240123,1,0,0:0:0:0:
448,192,240206,1,0,0:0:0:0:
192,192,240289,1,0,0:0:0:0:
320,192,240373,1,0,0:0:0:0:
64,192,240456,1,0,0:0:0:0:
448,192,240539,1,0,0:0:0:0:
192,192,240539,1,0,0:0:0:0:
320,192,240706,1,0,0:0:0:0:
192,192,240789,1,0,0:0:0:0:
64,192,240873,1,0,0:0:0:0:
448,192,240873,1,0,0:0:0:0:
320,192,241039,1,0,0:0:0:0:
192,192,241206,1,0,0:0:0:0:
64,192,241206,1,0,0:0:0:0:
448,192,241373,1,0,0:0:0:0:
320,192,241456,1,0,0:0:0:0:
192,192,241539,1,0,0:0:0:0:
448,192,241623,1,0,0:0:0:0:
64,192,241706,1,0,0:0:0:0:
192,192,241789,1,0,0:0:0:0:
320,192,241873,1,0,0:0:0:0:
448,192,241873,1,0,0:0:0:0:
64,192,242039,1,0,0:0:0:0:
192,192,242123,1,0,0:0:0:0:
320,192,242206,1,0,0:0:0:0:
448,192,242206,1,0,0:0:0:0:
64,192,242373,5,0,0:0:0:0:
192,192,242456,1,0,0:0:0:0:
448,192,242539,1,0,0:0:0:0:
320,192,242623,1,0,0:0:0:0:
64,192,242706,1,0,0:0:0:0:
448,192,242706,1,0,0:0:0:0:
192,192,242873,1,0,0:0:0:0:
320,192,242956,1,0,0:0:0:0:
64,192,243039,1,0,0:0:0:0:
192,192,243123,1,0,0:0:0:0:
448,192,243206,1,0,0:0:0:0:
320,192,243206,1,0,0:0:0:0:
320,192,243373,1,0,0:0:0:0:
192,192,243373,1,0,0:0:0:0:
192,192,243539,5,0,0:0:0:0:
64,192,243539,1,0,0:0:0:0:
448,192,243539,128,0,244039:0:0:0:0:
64,192,243706,1,0,0:0:0:0:
320,192,243873,1,0,0:0:0:0:
192,192,243873,1,0,0:0:0:0:
64,192,244039,128,0,244539:0:0:0:0:
320,192,244039,1,0,0:0:0:0:
192,192,244206,1,0,0:0:0:0:
320,192,244373,1,0,0:0:0:0:
448,192,244373,1,0,0:0:0:0:
448,192,244539,1,0,0:0:0:0:
192,192,244539,128,0,244873:0:0:0:0:
320,192,244706,1,0,0:0:0:0:
64,192,244873,1,0,0:0:0:0:
448,192,244873,128,0,245373:0:0:0:0:
64,192,245039,1,0,0:0:0:0:
192,192,245206,1,0,0:0:0:0:
320,192,245206,1,0,0:0:0:0:
320,192,245373,1,0,0:0:0:0:
64,192,245373,128,0,245873:0:0:0:0:
192,192,245539,1,0,0:0:0:0:
320,192,245706,1,0,0:0:0:0:
448,192,245706,1,0,0:0:0:0:
192,192,245873,1,0,0:0:0:0:
320,192,245873,128,0,246373:0:0:0:0:
448,192,246039,1,0,0:0:0:0:
64,192,246039,1,0,0:0:0:0:
192,192,246206,1,0,0:0:0:0:
64,192,246206,1,0,0:0:0:0:
448,192,246373,1,0,0:0:0:0:
64,192,246539,128,0,246706:0:0:0:0:
192,192,246539,1,0,0:0:0:0:
320,192,246706,128,0,246873:0:0:0:0:
448,192,246873,128,0,247206:0:0:0:0:
192,192,246873,1,0,0:0:0:0:
192,192,247039,1,0,0:0:0:0:
64,192,247039,1,0,0:0:0:0:
320,192,247206,1,0,0:0:0:0:
64,192,247206,128,0,247539:0:0:0:0:
192,192,247373,1,0,0:0:0:0:
448,192,247539,1,0,0:0:0:0:
320,192,247539,128,0,248039:0:0:0:0:
192,192,247706,1,0,0:0:0:0:
64,192,247873,1,0,0:0:0:0:
448,192,247873,1,0,0:0:0:0:
192,192,248039,128,0,248539:0:0:0:0:
64,192,248039,1,0,0:0:0:0:
448,192,248206,1,0,0:0:0:0:
320,192,248373,1,0,0:0:0:0:
64,192,248373,1,0,0:0:0:0:
320,192,248539,1,0,0:0:0:0:
448,192,248539,128,0,248873:0:0:0:0:
192,192,248706,1,0,0:0:0:0:
64,192,248706,1,0,0:0:0:0:
320,192,248873,1,0,0:0:0:0:
64,192,248873,1,0,0:0:0:0:
320,192,249039,1,0,0:0:0:0:
192,192,249206,1,0,0:0:0:0:
448,192,249206,1,0,0:0:0:0:
64,192,249206,1,0,0:0:0:0:
192,192,249373,1,0,0:0:0:0:
448,192,249539,1,0,0:0:0:0:
64,192,249539,1,0,0:0:0:0:
448,192,249706,1,0,0:0:0:0:
320,192,249873,1,0,0:0:0:0:
192,192,249873,1,0,0:0:0:0:
64,192,249873,1,0,0:0:0:0:
64,192,250039,1,0,0:0:0:0:
320,192,250206,1,0,0:0:0:0:
448,192,250206,1,0,0:0:0:0:
320,192,250373,1,0,0:0:0:0:
192,192,250539,1,0,0:0:0:0:
64,192,250539,1,0,0:0:0:0:
448,192,250539,1,0,0:0:0:0:
64,192,250706,1,0,0:0:0:0:
192,192,250873,1,0,0:0:0:0:
320,192,250873,1,0,0:0:0:0:
192,192,251039,1,0,0:0:0:0:
320,192,251206,1,0,0:0:0:0:
64,192,251206,1,0,0:0:0:0:
448,192,251206,1,0,0:0:0:0:
448,192,251373,1,0,0:0:0:0:
64,192,251539,1,0,0:0:0:0:
192,192,251539,1,0,0:0:0:0:
192,192,251706,1,0,0:0:0:0:
320,192,251706,1,0,0:0:0:0:
320,192,251873,1,0,0:0:0:0:
448,192,251873,1,0,0:0:0:0:
64,192,251873,1,0,0:0:0:0:
192,192,252039,1,0,0:0:0:0:
448,192,252039,1,0,0:0:0:0:
448,192,252206,1,0,0:0:0:0:
64,192,252206,1,0,0:0:0:0:
320,192,252289,1,0,0:0:0:0:
64,192,252373,1,0,0:0:0:0:
192,192,252373,1,0,0:0:0:0:
320,192,252456,1,0,0:0:0:0:
448,192,252539,1,0,0:0:0:0:
192,192,252539,1,0,0:0:0:0:
64,192,252623,1,0,0:0:0:0:
320,192,252706,1,0,0:0:0:0:
448,192,252706,1,0,0:0:0:0:
192,192,252789,1,0,0:0:0:0:
64,192,252789,1,0,0:0:0:0:
320,192,252873,1,0,0:0:0:0:
64,192,252873,1,0,0:0:0:0:
448,192,252873,128,0,253123:0:0:0:0:
192,192,253123,128,0,253373:0:0:0:0:
64,192,253123,1,0,0:0:0:0:
320,192,253123,1,0,0:0:0:0:
320,192,253373,128,0,253623:0:0:0:0:
64,192,253373,1,0,0:0:0:0:
448,192,253373,1,0,0:0:0:0:
64,192,253623,128,0,253873:0:0:0:0:
192,192,253623,1,0,0:0:0:0:
448,192,253623,1,0,0:0:0:0:
448,192,253873,128,0,254039:0:0:0:0:
192,192,253873,1,0,0:0:0:0:
320,192,253873,1,0,0:0:0:0:
320,192,254039,128,0,254206:0:0:0:0:
192,192,254039,1,0,0:0:0:0:
64,192,254206,128,0,254539:0:0:0:0:
192,192,254206,1,0,0:0:0:0:
448,192,254206,1,0,0:0:0:0:
192,192,254539,1,0,0:0:0:0:
448,192,254539,1,0,0:0:0:0:
64,192,254623,1,0,0:0:0:0:
192,192,254706,1,0,0:0:0:0:
64,192,254789,1,0,0:0:0:0:
192,192,254873,1,0,0:0:0:0:
320,192,254873,1,0,0:0:0:0:
448,192,254873,1,0,0:0:0:0:
64,192,254956,1,0,0:0:0:0:
192,192,255039,1,0,0:0:0:0:
320,192,255123,1,0,0:0:0:0:
192,192,255206,1,0,0:0:0:0:
448,192,255206,1,0,0:0:0:0:
64,192,255289,1,0,0:0:0:0:
320,192,255373,1,0,0:0:0:0:
64,192,255456,1,0,0:0:0:0:
192,192,255539,1,0,0:0:0:0:
448,192,255539,1,0,0:0:0:0:
320,192,255623,1,0,0:0:0:0:
448,192,255706,1,0,0:0:0:0:
320,192,255789,1,0,0:0:0:0:
448,192,255873,1,0,0:0:0:0:
64,192,255873,1,0,0:0:0:0:
192,192,256039,1,0,0:0:0:0:
64,192,256206,1,0,0:0:0:0:
320,192,256206,1,0,0:0:0:0:
448,192,256373,1,0,0:0:0:0:
192,192,256539,1,0,0:0:0:0:
320,192,256539,1,0,0:0:0:0:
64,192,256706,1,0,0:0:0:0:
192,192,256873,1,0,0:0:0:0:
448,192,256873,128,0,257206:0:0:0:0:
320,192,256873,1,0,0:0:0:0:
64,192,257206,1,0,0:0:0:0:
320,192,257206,1,0,0:0:0:0:
448,192,257289,1,0,0:0:0:0:
320,192,257373,1,0,0:0:0:0:
448,192,257456,1,0,0:0:0:0:
320,192,257539,1,0,0:0:0:0:
64,192,257539,1,0,0:0:0:0:
192,192,257539,1,0,0:0:0:0:
448,192,257623,1,0,0:0:0:0:
192,192,257706,1,0,0:0:0:0:
448,192,257789,1,0,0:0:0:0:
320,192,257873,1,0,0:0:0:0:
64,192,257873,1,0,0:0:0:0:
192,192,257956,1,0,0:0:0:0:
320,192,258039,1,0,0:0:0:0:
448,192,258123,1,0,0:0:0:0:
320,192,258206,1,0,0:0:0:0:
64,192,258206,1,0,0:0:0:0:
192,192,258206,1,0,0:0:0:0:
64,192,258289,1,0,0:0:0:0:
320,192,258373,128,0,258539:0:0:0:0:
192,192,258539,1,0,0:0:0:0:
64,192,258539,1,0,0:0:0:0:
448,192,258706,1,0,0:0:0:0:
320,192,258873,1,0,0:0:0:0:
64,192,258873,1,0,0:0:0:0:
192,192,259039,1,0,0:0:0:0:
320,192,259206,1,0,0:0:0:0:
448,192,259206,1,0,0:0:0:0:
192,192,259373,1,0,0:0:0:0:
64,192,259373,1,0,0:0:0:0:
64,192,259539,1,0,0:0:0:0:
448,192,259539,1,0,0:0:0:0:
320,192,259539,128,0,259873:0:0:0:0:
192,192,259873,1,0,0:0:0:0:
64,192,259873,1,0,0:0:0:0:
320,192,259956,1,0,0:0:0:0:
64,192,260039,1,0,0:0:0:0:
320,192,260123,1,0,0:0:0:0:
192,192,260206,1,0,0:0:0:0:
64,192,260206,1,0,0:0:0:0:
448,192,260206,1,0,0:0:0:0:
320,192,260289,1,0,0:0:0:0:
192,192,260373,1,0,0:0:0:0:
448,192,260456,1,0,0:0:0:0:
192,192,260539,1,0,0:0:0:0:
64,192,260539,1,0,0:0:0:0:
448,192,260623,1,0,0:0:0:0:
64,192,260706,1,0,0:0:0:0:
320,192,260789,1,0,0:0:0:0:
448,192,260873,1,0,0:0:0:0:
192,192,260873,1,0,0:0:0:0:
64,192,260873,1,0,0:0:0:0:
320,192,260956,1,0,0:0:0:0:
448,192,261039,1,0,0:0:0:0:
320,192,261123,1,0,0:0:0:0:
448,192,261206,1,0,0:0:0:0:
192,192,261206,1,0,0:0:0:0:
64,192,261373,1,0,0:0:0:0:
320,192,261539,1,0,0:0:0:0:
192,192,261539,1,0,0:0:0:0:
64,192,261706,1,0,0:0:0:0:
448,192,261873,1,0,0:0:0:0:
192,192,261873,1,0,0:0:0:0:
320,192,262039,1,0,0:0:0:0:
192,192,262206,1,0,0:0:0:0:
64,192,262206,1,0,0:0:0:0:
448,192,262206,128,0,262539:0:0:0:0:
320,192,262539,1,0,0:0:0:0:
64,192,262539,1,0,0:0:0:0:
448,192,262623,1,0,0:0:0:0:
320,192,262706,1,0,0:0:0:0:
192,192,262873,1,0,0:0:0:0:
64,192,262873,1,0,0:0:0:0:
448,192,262873,1,0,0:0:0:0:
448,192,262956,1,0,0:0:0:0:
192,192,263039,1,0,0:0:0:0:
192,192,263123,1,0,0:0:0:0:
448,192,263206,1,0,0:0:0:0:
320,192,263206,1,0,0:0:0:0:
448,192,263289,1,0,0:0:0:0:
192,192,263373,1,0,0:0:0:0:
192,192,263456,1,0,0:0:0:0:
64,192,263539,1,0,0:0:0:0:
448,192,263539,128,0,263706:0:0:0:0:
320,192,263539,128,0,263706:0:0:0:0:
192,192,263706,1,0,0:0:0:0:
64,192,263873,128,0,264039:0:0:0:0:
192,192,263873,128,0,264039:0:0:0:0:
320,192,264039,1,0,0:0:0:0:
320,192,264206,128,0,264373:0:0:0:0:
448,192,264206,128,0,264373:0:0:0:0:
64,192,264373,1,0,0:0:0:0:
64,192,264539,128,0,264706:0:0:0:0:
192,192,264539,128,0,264706:0:0:0:0:
448,192,264706,1,0,0:0:0:0:
320,192,264873,1,0,0:0:0:0:
192,192,264873,128,0,265206:0:0:0:0:
448,192,264873,128,0,265206:0:0:0:0:
64,192,264873,1,0,0:0:0:0:
64,192,265206,1,0,0:0:0:0:
320,192,265206,1,0,0:0:0:0:
320,192,265373,1,0,0:0:0:0:
192,192,265539,1,0,0:0:0:0:
64,192,265539,1,0,0:0:0:0:
320,192,265706,1,0,0:0:0:0:
448,192,265873,1,0,0:0:0:0:
192,192,265873,1,0,0:0:0:0:
64,192,266039,1,0,0:0:0:0:
320,192,266206,1,0,0:0:0:0:
448,192,266206,1,0,0:0:0:0:
192,192,266373,1,0,0:0:0:0:
64,192,266539,1,0,0:0:0:0:
320,192,266539,1,0,0:0:0:0:
448,192,266706,1,0,0:0:0:0:
192,192,266873,1,0,0:0:0:0:
320,192,266873,1,0,0:0:0:0:
64,192,267039,1,0,0:0:0:0:
192,192,267206,1,0,0:0:0:0:
448,192,267206,1,0,0:0:0:0:
320,192,267373,1,0,0:0:0:0:
192,192,267539,1,0,0:0:0:0:
64,192,267539,1,0,0:0:0:0:
448,192,267706,1,0,0:0:0:0:
320,192,267873,1,0,0:0:0:0:
64,192,267873,1,0,0:0:0:0:
192,192,268039,1,0,0:0:0:0:
448,192,268206,1,0,0:0:0:0:
320,192,268206,1,0,0:0:0:0:
64,192,268373,1,0,0:0:0:0:
192,192,268539,1,0,0:0:0:0:
448,192,268539,1,0,0:0:0:0:
320,192,268706,1,0,0:0:0:0:
448,192,268873,1,0,0:0:0:0:
64,192,268873,1,0,0:0:0:0:
192,192,269039,1,0,0:0:0:0:
320,192,269206,1,0,0:0:0:0:
448,192,269206,1,0,0:0:0:0:
64,192,269373,1,0,0:0:0:0:
192,192,269539,1,0,0:0:0:0:
320,192,269539,1,0,0:0:0:0:
448,192,269706,1,0,0:0:0:0:
192,192,269873,1,0,0:0:0:0:
448,192,269873,1,0,0:0:0:0:
320,192,270039,1,0,0:0:0:0:
64,192,270206,1,0,0:0:0:0:
192,192,270206,1,0,0:0:0:0:
448,192,270206,1,0,0:0:0:0:
320,192,270373,1,0,0:0:0:0:
64,192,270539,1,0,0:0:0:0:
192,192,270539,1,0,0:0:0:0:
448,192,270706,1,0,0:0:0:0:
64,192,270873,1,0,0:0:0:0:
320,192,270873,1,0,0:0:0:0:
192,192,271039,1,0,0:0:0:0:
320,192,271206,1,0,0:0:0:0:
448,192,271206,1,0,0:0:0:0:
64,192,271373,1,0,0:0:0:0:
192,192,271539,1,0,0:0:0:0:
448,192,271539,1,0,0:0:0:0:
320,192,271623,1,0,0:0:0:0:
192,192,271706,1,0,0:0:0:0:
64,192,271789,1,0,0:0:0:0:
320,192,271873,1,0,0:0:0:0:
448,192,271873,1,0,0:0:0:0:
192,192,271956,1,0,0:0:0:0:
320,192,272039,1,0,0:0:0:0:
64,192,272123,1,0,0:0:0:0:
192,192,272206,1,0,0:0:0:0:
448,192,272206,1,0,0:0:0:0:
320,192,272289,1,0,0:0:0:0:
64,192,272373,1,0,0:0:0:0:
192,192,272456,1,0,0:0:0:0:
320,192,272539,1,0,0:0:0:0:
448,192,272539,1,0,0:0:0:0:
192,192,272623,1,0,0:0:0:0:
448,192,272706,1,0,0:0:0:0:
320,192,272789,1,0,0:0:0:0:
192,192,272873,1,0,0:0:0:0:
64,192,272873,1,0,0:0:0:0:
448,192,272873,1,0,0:0:0:0:
320,192,272956,1,0,0:0:0:0:
192,192,273039,1,0,0:0:0:0:
64,192,273123,1,0,0:0:0:0:
320,192,273206,1,0,0:0:0:0:
448,192,273206,1,0,0:0:0:0:
192,192,273289,1,0,0:0:0:0:
320,192,273373,1,0,0:0:0:0:
448,192,273456,1,0,0:0:0:0:
320,192,273539,1,0,0:0:0:0:
192,192,273539,1,0,0:0:0:0:
64,192,273539,1,0,0:0:0:0:
448,192,273623,1,0,0:0:0:0:
64,192,273706,1,0,0:0:0:0:
192,192,273789,1,0,0:0:0:0:
320,192,273873,1,0,0:0:0:0:
448,192,273873,1,0,0:0:0:0:
192,192,273956,1,0,0:0:0:0:
320,192,274039,1,0,0:0:0:0:
64,192,274123,1,0,0:0:0:0:
320,192,274206,1,0,0:0:0:0:
448,192,274206,1,0,0:0:0:0:
192,192,274206,1,0,0:0:0:0:
448,192,274373,1,0,0:0:0:0:
320,192,274539,1,0,0:0:0:0:
64,192,274539,1,0,0:0:0:0:
192,192,274539,1,0,0:0:0:0:
192,192,274706,1,0,0:0:0:0:
64,192,274873,1,0,0:0:0:0:
320,192,274873,1,0,0:0:0:0:
448,192,274873,1,0,0:0:0:0:
192,192,274956,1,0,0:0:0:0:
320,192,275039,1,0,0:0:0:0:
448,192,275039,1,0,0:0:0:0:
192,192,275123,1,0,0:0:0:0:
64,192,275123,1,0,0:0:0:0:
320,192,275206,1,0,0:0:0:0:
448,192,275206,1,0,0:0:0:0:
192,192,275289,1,0,0:0:0:0:
64,192,275289,1,0,0:0:0:0:
320,192,275373,1,0,0:0:0:0:
448,192,275373,1,0,0:0:0:0:
192,192,275456,1,0,0:0:0:0:
64,192,275539,5,0,0:0:0:0:
448,192,275539,1,0,0:0:0:0:
320,192,275539,1,0,0:0:0:0:
192,192,275706,1,0,0:0:0:0:
448,192,275873,128,0,276039:0:0:0:0:
192,192,275873,1,0,0:0:0:0:
320,192,275873,1,0,0:0:0:0:
64,192,276039,1,0,0:0:0:0:
320,192,276206,128,0,276289:0:0:0:0:
192,192,276206,1,0,0:0:0:0:
192,192,276373,128,0,276456:0:0:0:0:
448,192,276373,1,0,0:0:0:0:
64,192,276539,128,0,276706:0:0:0:0:
320,192,276539,1,0,0:0:0:0:
448,192,276539,1,0,0:0:0:0:
192,192,276706,128,0,276873:0:0:0:0:
320,192,276873,1,0,0:0:0:0:
448,192,276873,1,0,0:0:0:0:
64,192,276956,1,0,0:0:0:0:
320,192,277039,1,0,0:0:0:0:
64,192,277123,1,0,0:0:0:0:
448,192,277206,128,0,277539:0:0:0:0:
192,192,277206,1,0,0:0:0:0:
320,192,277206,1,0,0:0:0:0:
64,192,277373,1,0,0:0:0:0:
192,192,277456,1,0,0:0:0:0:
320,192,277539,128,0,277873:0:0:0:0:
64,192,277539,1,0,0:0:0:0:
448,192,277706,1,0,0:0:0:0:
192,192,277706,1,0,0:0:0:0:
64,192,277873,128,0,278206:0:0:0:0:
448,192,277873,1,0,0:0:0:0:
192,192,277873,1,0,0:0:0:0:
448,192,278039,128,0,278206:0:0:0:0:
192,192,278206,1,0,0:0:0:0:
320,192,278206,1,0,0:0:0:0:
64,192,278373,1,0,0:0:0:0:
448,192,278373,1,0,0:0:0:0:
320,192,278539,128,0,278706:0:0:0:0:
64,192,278539,1,0,0:0:0:0:
192,192,278539,1,0,0:0:0:0:
448,192,278706,1,0,0:0:0:0:
192,192,278873,128,0,278956:0:0:0:0:
64,192,278873,1,0,0:0:0:0:
64,192,279039,128,0,279123:0:0:0:0:
320,192,279039,1,0,0:0:0:0:
448,192,279206,128,0,279373:0:0:0:0:
192,192,279206,1,0,0:0:0:0:
64,192,279206,1,0,0:0:0:0:
192,192,279373,128,0,279539:0:0:0:0:
320,192,279373,1,0,0:0:0:0:
64,192,279539,1,0,0:0:0:0:
448,192,279539,1,0,0:0:0:0:
320,192,279623,1,0,0:0:0:0:
448,192,279706,1,0,0:0:0:0:
320,192,279789,1,0,0:0:0:0:
192,192,279873,128,0,280206:0:0:0:0:
64,192,279873,1,0,0:0:0:0:
448,192,279873,1,0,0:0:0:0:
320,192,280039,1,0,0:0:0:0:
64,192,280123,1,0,0:0:0:0:
448,192,280206,128,0,280539:0:0:0:0:
320,192,280206,1,0,0:0:0:0:
64,192,280373,1,0,0:0:0:0:
192,192,280373,1,0,0:0:0:0:
64,192,280539,128,0,280873:0:0:0:0:
192,192,280539,1,0,0:0:0:0:
320,192,280539,1,0,0:0:0:0:
448,192,280706,1,0,0:0:0:0:
320,192,280706,128,0,280873:0:0:0:0:
192,192,280873,1,0,0:0:0:0:
448,192,280873,1,0,0:0:0:0:
64,192,281039,1,0,0:0:0:0:
64,192,281206,1,0,0:0:0:0:
448,192,281206,1,0,0:0:0:0:
192,192,281206,128,0,281373:0:0:0:0:
320,192,281373,1,0,0:0:0:0:
448,192,281539,128,0,281623:0:0:0:0:
192,192,281539,1,0,0:0:0:0:
64,192,281706,128,0,281789:0:0:0:0:
320,192,281706,1,0,0:0:0:0:
320,192,281873,128,0,282039:0:0:0:0:
448,192,281873,1,0,0:0:0:0:
64,192,281873,1,0,0:0:0:0:
192,192,282039,128,0,282206:0:0:0:0:
448,192,282206,1,0,0:0:0:0:
320,192,282206,1,0,0:0:0:0:
64,192,282289,1,0,0:0:0:0:
320,192,282373,1,0,0:0:0:0:
64,192,282456,1,0,0:0:0:0:
448,192,282539,128,0,282873:0:0:0:0:
192,192,282539,1,0,0:0:0:0:
320,192,282539,1,0,0:0:0:0:
64,192,282706,1,0,0:0:0:0:
192,192,282789,1,0,0:0:0:0:
64,192,282873,128,0,283206:0:0:0:0:
320,192,282873,1,0,0:0:0:0:
192,192,283039,1,0,0:0:0:0:
320,192,283039,1,0,0:0:0:0:
320,192,283206,128,0,283539:0:0:0:0:
192,192,283206,1,0,0:0:0:0:
448,192,283206,1,0,0:0:0:0:
192,192,283373,128,0,283539:0:0:0:0:
64,192,283539,1,0,0:0:0:0:
448,192,283539,1,0,0:0:0:0:
192,192,283706,5,0,0:0:0:0:
448,192,283873,128,0,284039:0:0:0:0:
320,192,283873,1,0,0:0:0:0:
192,192,283873,1,0,0:0:0:0:
64,192,284039,1,0,0:0:0:0:
64,192,284206,1,0,0:0:0:0:
192,192,284206,1,0,0:0:0:0:
448,192,284206,1,0,0:0:0:0:
320,192,284206,128,0,284289:0:0:0:0:
192,192,284373,128,0,284456:0:0:0:0:
448,192,284373,1,0,0:0:0:0:
320,192,284539,1,0,0:0:0:0:
448,192,284539,1,0,0:0:0:0:
64,192,284539,128,0,284706:0:0:0:0:
192,192,284706,128,0,284873:0:0:0:0:
64,192,284873,5,0,0:0:0:0:
320,192,284873,1,0,0:0:0:0:
448,192,284873,1,0,0:0:0:0:
192,192,285039,5,0,0:0:0:0:
64,192,285206,1,0,0:0:0:0:
192,192,285206,1,0,0:0:0:0:
320,192,285206,1,0,0:0:0:0:
448,192,285206,1,0,0:0:0:0:
320,192,285373,1,0,0:0:0:0:
64,192,285539,5,0,0:0:0:0:
448,192,285539,1,0,0:0:0:0:
192,192,285539,1,0,0:0:0:0:
320,192,285623,1,0,0:0:0:0:
64,192,285706,1,0,0:0:0:0:
448,192,285706,1,0,0:0:0:0:
192,192,285789,1,0,0:0:0:0:
320,192,285873,1,0,0:0:0:0:
448,192,285873,1,0,0:0:0:0:
64,192,285873,1,0,0:0:0:0:
192,192,285956,1,0,0:0:0:0:
64,192,286039,1,0,0:0:0:0:
448,192,286039,1,0,0:0:0:0:
192,192,286123,1,0,0:0:0:0:
320,192,286206,1,0,0:0:0:0:
448,192,286206,1,0,0:0:0:0:
192,192,286289,1,0,0:0:0:0:
64,192,286289,1,0,0:0:0:0:
448,192,286373,1,0,0:0:0:0:
320,192,286373,1,0,0:0:0:0:
64,192,286456,1,0,0:0:0:0:
320,192,286539,1,0,0:0:0:0:
192,192,286539,1,0,0:0:0:0:
448,192,286623,1,0,0:0:0:0:
192,192,286706,1,0,0:0:0:0:
64,192,286706,1,0,0:0:0:0:
448,192,286789,1,0,0:0:0:0:
64,192,286873,1,0,0:0:0:0:
192,192,286873,1,0,0:0:0:0:
320,192,286956,1,0,0:0:0:0:
448,192,287039,1,0,0:0:0:0:
64,192,287039,1,0,0:0:0:0:
192,192,287123,1,0,0:0:0:0:
320,192,287206,1,0,0:0:0:0:
448,192,287206,1,0,0:0:0:0:
192,192,287289,1,0,0:0:0:0:
64,192,287289,1,0,0:0:0:0:
320,192,287373,1,0,0:0:0:0:
448,192,287373,1,0,0:0:0:0:
192,192,287456,1,0,0:0:0:0:
64,192,287456,1,0,0:0:0:0:
320,192,287539,1,0,0:0:0:0:
448,192,287539,1,0,0:0:0:0:
64,192,287623,1,0,0:0:0:0:
192,192,287706,1,0,0:0:0:0:
320,192,287706,1,0,0:0:0:0:
448,192,287789,1,0,0:0:0:0:
64,192,287873,1,0,0:0:0:0:
192,192,287873,1,0,0:0:0:0:
320,192,287956,1,0,0:0:0:0:
448,192,288039,1,0,0:0:0:0:
64,192,288039,1,0,0:0:0:0:
320,192,288123,1,0,0:0:0:0:
192,192,288206,1,0,0:0:0:0:
448,192,288206,1,0,0:0:0:0:
64,192,288289,1,0,0:0:0:0:
448,192,288373,1,0,0:0:0:0:
192,192,288373,1,0,0:0:0:0:
320,192,288456,1,0,0:0:0:0:
192,192,288539,1,0,0:0:0:0:
64,192,288581,1,0,0:0:0:0:
448,192,288623,1,0,0:0:0:0:
320,192,288664,1,0,0:0:0:0:
192,192,288706,1,0,0:0:0:0:
448,192,288789,1,0,0:0:0:0:
192,192,288873,1,0,0:0:0:0:
64,192,288873,1,0,0:0:0:0:
320,192,288956,1,0,0:0:0:0:
448,192,288956,1,0,0:0:0:0:
64,192,289039,1,0,0:0:0:0:
192,192,289039,1,0,0:0:0:0:
448,192,289123,1,0,0:0:0:0:
320,192,289206,1,0,0:0:0:0:
64,192,289206,1,0,0:0:0:0:
192,192,289289,1,0,0:0:0:0:
448,192,289373,1,0,0:0:0:0:
320,192,289373,1,0,0:0:0:0:
64,192,289456,1,0,0:0:0:0:
320,192,289539,1,0,0:0:0:0:
448,192,289539,1,0,0:0:0:0:
192,192,289623,1,0,0:0:0:0:
64,192,289706,1,0,0:0:0:0:
448,192,289706,1,0,0:0:0:0:
320,192,289789,1,0,0:0:0:0:
192,192,289873,1,0,0:0:0:0:
64,192,289873,1,0,0:0:0:0:
448,192,289873,1,0,0:0:0:0:
320,192,289956,1,0,0:0:0:0:
64,192,290039,1,0,0:0:0:0:
192,192,290039,1,0,0:0:0:0:
448,192,290123,1,0,0:0:0:0:
64,192,290206,1,0,0:0:0:0:
320,192,290206,1,0,0:0:0:0:
192,192,290206,1,0,0:0:0:0:
448,192,290289,1,0,0:0:0:0:
192,192,290373,1,0,0:0:0:0:
64,192,290373,1,0,0:0:0:0:
320,192,290456,1,0,0:0:0:0:
448,192,290456,1,0,0:0:0:0:
192,192,290539,1,0,0:0:0:0:
64,192,290539,1,0,0:0:0:0:
320,192,290623,1,0,0:0:0:0:
448,192,290706,1,0,0:0:0:0:
64,192,290706,1,0,0:0:0:0:
320,192,290789,1,0,0:0:0:0:
192,192,290789,1,0,0:0:0:0:
448,192,290873,1,0,0:0:0:0:
64,192,290873,1,0,0:0:0:0:
192,192,290956,1,0,0:0:0:0:
320,192,291039,1,0,0:0:0:0:
448,192,291039,1,0,0:0:0:0:
192,192,291123,1,0,0:0:0:0:
64,192,291206,1,0,0:0:0:0:
448,192,291206,1,0,0:0:0:0:
320,192,291206,1,0,0:0:0:0:
320,192,291373,1,0,0:0:0:0:
192,192,291373,1,0,0:0:0:0:
64,192,291373,1,0,0:0:0:0:
192,192,291539,1,0,0:0:0:0:
448,192,291539,1,0,0:0:0:0:
64,192,291539,1,0,0:0:0:0:
320,192,291623,1,0,0:0:0:0:
192,192,291706,1,0,0:0:0:0:
64,192,291706,1,0,0:0:0:0:
448,192,291789,1,0,0:0:0:0:
192,192,291873,1,0,0:0:0:0:
64,192,291873,1,0,0:0:0:0:
320,192,291956,1,0,0:0:0:0:
448,192,292039,1,0,0:0:0:0:
64,192,292039,1,0,0:0:0:0:
192,192,292123,1,0,0:0:0:0:
320,192,292206,1,0,0:0:0:0:
448,192,292206,1,0,0:0:0:0:
320,192,292289,1,0,0:0:0:0:
448,192,292289,1,0,0:0:0:0:
192,192,292373,1,0,0:0:0:0:
64,192,292373,1,0,0:0:0:0:
320,192,292456,1,0,0:0:0:0:
192,192,292539,1,0,0:0:0:0:
64,192,292539,1,0,0:0:0:0:
64,192,292623,1,0,0:0:0:0:
192,192,292623,1,0,0:0:0:0:
448,192,292706,1,0,0:0:0:0:
320,192,292706,1,0,0:0:0:0:
192,192,292789,1,0,0:0:0:0:
448,192,292873,1,0,0:0:0:0:
64,192,292873,1,0,0:0:0:0:
320,192,292956,1,0,0:0:0:0:
192,192,293039,1,0,0:0:0:0:
64,192,293039,1,0,0:0:0:0:
448,192,293123,1,0,0:0:0:0:
192,192,293206,1,0,0:0:0:0:
320,192,293206,1,0,0:0:0:0:
64,192,293289,1,0,0:0:0:0:
320,192,293373,1,0,0:0:0:0:
448,192,293373,1,0,0:0:0:0:
192,192,293456,1,0,0:0:0:0:
64,192,293539,1,0,0:0:0:0:
320,192,293623,1,0,0:0:0:0:
448,192,293623,1,0,0:0:0:0:
64,192,293706,1,0,0:0:0:0:
192,192,293706,1,0,0:0:0:0:
320,192,293789,1,0,0:0:0:0:
448,192,293789,1,0,0:0:0:0:
64,192,293873,1,0,0:0:0:0:
192,192,293914,1,0,0:0:0:0:
320,192,293956,1,0,0:0:0:0:
448,192,293998,1,0,0:0:0:0:
64,192,294039,1,0,0:0:0:0:
192,192,294081,1,0,0:0:0:0:
320,192,294123,1,0,0:0:0:0:
448,192,294164,1,0,0:0:0:0:
64,192,294206,1,0,0:0:0:0:
192,192,294206,1,0,0:0:0:0:
320,192,294289,1,0,0:0:0:0:
448,192,294289,1,0,0:0:0:0:
192,192,294373,1,0,0:0:0:0:
64,192,294373,1,0,0:0:0:0:
448,192,294456,1,0,0:0:0:0:
192,192,294539,1,0,0:0:0:0:
320,192,294539,1,0,0:0:0:0:
64,192,294623,1,0,0:0:0:0:
448,192,294706,1,0,0:0:0:0:
320,192,294706,1,0,0:0:0:0:
192,192,294789,1,0,0:0:0:0:
320,192,294873,1,0,0:0:0:0:
448,192,294873,1,0,0:0:0:0:
64,192,294873,1,0,0:0:0:0:
192,192,294956,1,0,0:0:0:0:
320,192,295039,1,0,0:0:0:0:
448,192,295039,1,0,0:0:0:0:
64,192,295123,1,0,0:0:0:0:
448,192,295206,1,0,0:0:0:0:
192,192,295248,1,0,0:0:0:0:
320,192,295289,1,0,0:0:0:0:
64,192,295373,1,0,0:0:0:0:
192,192,295414,1,0,0:0:0:0:
320,192,295456,1,0,0:0:0:0:
448,192,295498,1,0,0:0:0:0:
192,192,295539,1,0,0:0:0:0:
64,192,295539,1,0,0:0:0:0:
448,192,295623,1,0,0:0:0:0:
320,192,295623,1,0,0:0:0:0:
64,192,295706,5,0,0:0:0:0:
192,192,295789,1,0,0:0:0:0:
320,192,295873,1,0,0:0:0:0:
448,192,295873,1,0,0:0:0:0:
64,192,295873,1,0,0:0:0:0:
192,192,295956,1,0,0:0:0:0:
320,192,296039,1,0,0:0:0:0:
448,192,296123,1,0,0:0:0:0:
64,192,296206,1,0,0:0:0:0:
192,192,296206,1,0,0:0:0:0:
320,192,296206,1,0,0:0:0:0:
448,192,296289,1,0,0:0:0:0:
320,192,296373,1,0,0:0:0:0:
192,192,296456,1,0,0:0:0:0:
448,192,296539,1,0,0:0:0:0:
64,192,296539,1,0,0:0:0:0:
320,192,296539,1,0,0:0:0:0:
192,192,296623,1,0,0:0:0:0:
64,192,296706,1,0,0:0:0:0:
64,192,296873,5,0,0:0:0:0:
192,192,296873,1,0,0:0:0:0:
448,192,296873,1,0,0:0:0:0:
320,192,296873,1,0,0:0:0:0:
64,192,297039,1,0,0:0:0:0:
448,192,297039,1,0,0:0:0:0:
192,192,297123,1,0,0:0:0:0:
64,192,297206,1,0,0:0:0:0:
448,192,297206,1,0,0:0:0:0:
192,192,297373,1,0,0:0:0:0:
320,192,297373,1,0,0:0:0:0:
64,192,297456,1,0,0:0:0:0:
192,192,297539,1,0,0:0:0:0:
320,192,297539,1,0,0:0:0:0:
64,192,297706,1,0,0:0:0:0:
192,192,297706,1,0,0:0:0:0:
320,192,297789,1,0,0:0:0:0:
64,192,297873,1,0,0:0:0:0:
192,192,297873,1,0,0:0:0:0:
64,192,298039,1,0,0:0:0:0:
320,192,298039,1,0,0:0:0:0:
448,192,298123,1,0,0:0:0:0:
320,192,298206,1,0,0:0:0:0:
192,192,298206,1,0,0:0:0:0:
64,192,298373,1,0,0:0:0:0:
448,192,298373,1,0,0:0:0:0:
448,192,298539,1,0,0:0:0:0:
320,192,298539,1,0,0:0:0:0:
64,192,298706,1,0,0:0:0:0:
192,192,298706,1,0,0:0:0:0:
192,192,298873,1,0,0:0:0:0:
448,192,298873,1,0,0:0:0:0:
64,192,299039,1,0,0:0:0:0:
320,192,299039,1,0,0:0:0:0:
448,192,299206,1,0,0:0:0:0:
64,192,299206,1,0,0:0:0:0:
192,192,299373,1,0,0:0:0:0:
64,192,299373,1,0,0:0:0:0:
192,192,299539,1,0,0:0:0:0:
320,192,299539,1,0,0:0:0:0:
192,192,299706,1,0,0:0:0:0:
320,192,299706,1,0,0:0:0:0:
64,192,299789,1,0,0:0:0:0:
320,192,299873,1,0,0:0:0:0:
448,192,299873,1,0,0:0:0:0:
64,192,300039,1,0,0:0:0:0:
192,192,300039,1,0,0:0:0:0:
448,192,300123,1,0,0:0:0:0:
192,192,300206,1,0,0:0:0:0:
320,192,300206,1,0,0:0:0:0:
64,192,300373,1,0,0:0:0:0:
192,192,300373,1,0,0:0:0:0:
320,192,300456,1,0,0:0:0:0:
64,192,300539,1,0,0:0:0:0:
448,192,300539,1,0,0:0:0:0:
320,192,300706,1,0,0:0:0:0:
448,192,300706,1,0,0:0:0:0:
192,192,300789,1,0,0:0:0:0:
320,192,300873,1,0,0:0:0:0:
64,192,300873,128,0,301039:0:0:0:0:
192,192,301039,128,0,301206:0:0:0:0:
448,192,301039,1,0,0:0:0:0:
64,192,301206,128,0,301373:0:0:0:0:
448,192,301206,1,0,0:0:0:0:
448,192,301373,128,0,301539:0:0:0:0:
320,192,301373,1,0,0:0:0:0:
192,192,301373,1,0,0:0:0:0:
192,192,301539,128,0,301706:0:0:0:0:
320,192,301539,1,0,0:0:0:0:
320,192,301706,128,0,301873:0:0:0:0:
448,192,301706,1,0,0:0:0:0:
192,192,301873,128,0,302039:0:0:0:0:
64,192,301873,1,0,0:0:0:0:
448,192,302039,128,0,302206:0:0:0:0:
320,192,302039,1,0,0:0:0:0:
64,192,302039,1,0,0:0:0:0:
64,192,302206,1,0,0:0:0:0:
320,192,302206,1,0,0:0:0:0:
192,192,302206,1,0,0:0:0:0:
448,192,302373,1,0,0:0:0:0:
64,192,302373,1,0,0:0:0:0:
320,192,302456,1,0,0:0:0:0:
192,192,302539,1,0,0:0:0:0:
448,192,302539,1,0,0:0:0:0:
192,192,302706,1,0,0:0:0:0:
320,192,302706,1,0,0:0:0:0:
64,192,302789,1,0,0:0:0:0:
192,192,302873,1,0,0:0:0:0:
320,192,302873,1,0,0:0:0:0:
320,192,303039,1,0,0:0:0:0:
448,192,303039,1,0,0:0:0:0:
192,192,303123,1,0,0:0:0:0:
64,192,303206,1,0,0:0:0:0:
448,192,303206,1,0,0:0:0:0:
192,192,303373,1,0,0:0:0:0:
320,192,303373,1,0,0:0:0:0:
448,192,303456,1,0,0:0:0:0:
320,192,303539,1,0,0:0:0:0:
64,192,303539,1,0,0:0:0:0:
64,192,303706,1,0,0:0:0:0:
192,192,303706,1,0,0:0:0:0:
192,192,303873,1,0,0:0:0:0:
448,192,303873,1,0,0:0:0:0:
320,192,304039,1,0,0:0:0:0:
448,192,304039,1,0,0:0:0:0:
192,192,304206,1,0,0:0:0:0:
320,192,304206,1,0,0:0:0:0:
64,192,304373,1,0,0:0:0:0:
320,192,304373,1,0,0:0:0:0:
64,192,304539,1,0,0:0:0:0:
448,192,304539,1,0,0:0:0:0:
192,192,304706,1,0,0:0:0:0:
64,192,304706,1,0,0:0:0:0:
448,192,304706,1,0,0:0:0:0:
448,192,304873,1,0,0:0:0:0:
192,192,304873,1,0,0:0:0:0:
64,192,304873,1,0,0:0:0:0:
320,192,304873,1,0,0:0:0:0:
192,192,305039,1,0,0:0:0:0:
320,192,305039,1,0,0:0:0:0:
448,192,305123,1,0,0:0:0:0:
320,192,305206,1,0,0:0:0:0:
64,192,305206,1,0,0:0:0:0:
448,192,305373,1,0,0:0:0:0:
192,192,305373,1,0,0:0:0:0:
64,192,305373,1,0,0:0:0:0:
64,192,305539,1,0,0:0:0:0:
192,192,305539,1,0,0:0:0:0:
320,192,305539,1,0,0:0:0:0:
448,192,305539,1,0,0:0:0:0:
192,192,305706,1,0,0:0:0:0:
320,192,305706,1,0,0:0:0:0:
64,192,305789,1,0,0:0:0:0:
192,192,305873,1,0,0:0:0:0:
448,192,305873,1,0,0:0:0:0:
64,192,306039,1,0,0:0:0:0:
320,192,306039,1,0,0:0:0:0:
64,192,306206,5,0,0:0:0:0:
192,192,306206,1,0,0:0:0:0:
320,192,306206,1,0,0:0:0:0:
448,192,306539,1,0,0:0:0:0:
192,192,306539,1,0,0:0:0:0:
320,192,306539,1,0,0:0:0:0:
64,192,306873,1,0,0:0:0:0:
192,192,306873,1,0,0:0:0:0:
448,192,306873,1,0,0:0:0:0:
320,192,306956,1,0,0:0:0:0:
64,192,307039,1,0,0:0:0:0:
192,192,307123,1,0,0:0:0:0:
64,192,307206,1,0,0:0:0:0:
448,192,307206,1,0,0:0:0:0:
320,192,307206,1,0,0:0:0:0:
192,192,307289,1,0,0:0:0:0:
320,192,307373,1,0,0:0:0:0:
448,192,307456,1,0,0:0:0:0:
192,192,307539,1,0,0:0:0:0:
320,192,307539,1,0,0:0:0:0:
64,192,307539,128,0,308039:0:0:0:0:
192,192,307873,1,0,0:0:0:0:
320,192,308039,128,0,308206:0:0:0:0:
192,192,308206,128,0,308539:0:0:0:0:
448,192,308206,1,0,0:0:0:0:
64,192,308539,1,0,0:0:0:0:
448,192,308539,1,0,0:0:0:0:
320,192,308706,128,0,308789:0:0:0:0:
320,192,308873,128,0,309373:0:0:0:0:
64,192,308873,1,0,0:0:0:0:
448,192,309206,1,0,0:0:0:0:
192,192,309373,128,0,309539:0:0:0:0:
448,192,309539,128,0,309873:0:0:0:0:
320,192,309873,1,0,0:0:0:0:
64,192,309873,1,0,0:0:0:0:
192,192,310039,1,0,0:0:0:0:
448,192,310206,1,0,0:0:0:0:
320,192,310206,1,0,0:0:0:0:
64,192,310373,1,0,0:0:0:0:
448,192,310539,1,0,0:0:0:0:
320,192,310539,1,0,0:0:0:0:
192,192,310539,1,0,0:0:0:0:
64,192,310706,1,0,0:0:0:0:
192,192,310873,1,0,0:0:0:0:
448,192,310873,1,0,0:0:0:0:
320,192,311039,1,0,0:0:0:0:
448,192,311206,1,0,0:0:0:0:
192,192,311206,1,0,0:0:0:0:
64,192,311206,1,0,0:0:0:0:
320,192,311373,1,0,0:0:0:0:
192,192,311539,1,0,0:0:0:0:
64,192,311539,1,0,0:0:0:0:
320,192,311706,128,0,311873:0:0:0:0:
192,192,311873,128,0,312039:0:0:0:0:
448,192,311873,1,0,0:0:0:0:
64,192,312039,128,0,312206:0:0:0:0:
320,192,312206,128,0,312373:0:0:0:0:
192,192,312206,1,0,0:0:0:0:
448,192,312373,128,0,312539:0:0:0:0:
320,192,312539,1,0,0:0:0:0:
192,192,312623,1,0,0:0:0:0:
64,192,312706,1,0,0:0:0:0:
192,192,312789,1,0,0:0:0:0:
64,192,312873,1,0,0:0:0:0:
320,192,312873,1,0,0:0:0:0:
448,192,312873,1,0,0:0:0:0:
192,192,313039,1,0,0:0:0:0:
64,192,313206,1,0,0:0:0:0:
448,192,313206,1,0,0:0:0:0:
320,192,313206,1,0,0:0:0:0:
192,192,313373,1,0,0:0:0:0:
320,192,313539,1,0,0:0:0:0:
448,192,313539,1,0,0:0:0:0:
64,192,313706,1,0,0:0:0:0:
448,192,313873,1,0,0:0:0:0:
192,192,313873,1,0,0:0:0:0:
320,192,313873,1,0,0:0:0:0:
64,192,314039,1,0,0:0:0:0:
192,192,314206,1,0,0:0:0:0:
448,192,314206,1,0,0:0:0:0:
320,192,314373,1,0,0:0:0:0:
64,192,314539,1,0,0:0:0:0:
448,192,314539,1,0,0:0:0:0:
192,192,314539,1,0,0:0:0:0:
320,192,314706,1,0,0:0:0:0:
64,192,314873,1,0,0:0:0:0:
192,192,314873,1,0,0:0:0:0:
448,192,315039,1,0,0:0:0:0:
192,192,315206,1,0,0:0:0:0:
64,192,315206,1,0,0:0:0:0:
320,192,315206,128,0,315539:0:0:0:0:
192,192,315539,1,0,0:0:0:0:
64,192,315539,1,0,0:0:0:0:
448,192,315539,1,0,0:0:0:0:
320,192,315706,1,0,0:0:0:0:
192,192,315873,1,0,0:0:0:0:
448,192,315873,1,0,0:0:0:0:
64,192,316039,1,0,0:0:0:0:
192,192,316206,1,0,0:0:0:0:
448,192,316206,1,0,0:0:0:0:
320,192,316206,1,0,0:0:0:0:
64,192,316373,1,0,0:0:0:0:
192,192,316539,1,0,0:0:0:0:
320,192,316539,1,0,0:0:0:0:
448,192,316706,1,0,0:0:0:0:
320,192,316873,1,0,0:0:0:0:
64,192,316873,1,0,0:0:0:0:
192,192,316873,1,0,0:0:0:0:
448,192,317206,5,0,0:0:0:0:
64,192,317206,1,0,0:0:0:0:
320,192,317206,1,0,0:0:0:0:
192,192,317373,1,0,0:0:0:0:
448,192,317539,1,0,0:0:0:0:
64,192,317539,1,0,0:0:0:0:
320,192,317539,1,0,0:0:0:0:
192,192,317623,1,0,0:0:0:0:
448,192,317706,1,0,0:0:0:0:
320,192,317789,1,0,0:0:0:0:
64,192,317873,1,0,0:0:0:0:
448,192,317873,1,0,0:0:0:0:
192,192,317873,1,0,0:0:0:0:
320,192,317956,1,0,0:0:0:0:
64,192,318039,1,0,0:0:0:0:
192,192,318123,1,0,0:0:0:0:
64,192,318206,5,0,0:0:0:0:
320,192,318206,1,0,0:0:0:0:
448,192,318206,1,0,0:0:0:0:
192,192,318289,1,0,0:0:0:0:
320,192,318373,1,0,0:0:0:0:
448,192,318456,1,0,0:0:0:0:
192,192,318539,1,0,0:0:0:0:
64,192,318539,1,0,0:0:0:0:
320,192,318623,1,0,0:0:0:0:
448,192,318706,1,0,0:0:0:0:
64,192,318789,1,0,0:0:0:0:
192,192,318873,1,0,0:0:0:0:
448,192,318873,1,0,0:0:0:0:
320,192,318956,1,0,0:0:0:0:
64,192,319039,1,0,0:0:0:0:
192,192,319123,1,0,0:0:0:0:
320,192,319206,1,0,0:0:0:0:
448,192,319206,1,0,0:0:0:0:
192,192,319289,1,0,0:0:0:0:
64,192,319373,1,0,0:0:0:0:
320,192,319456,1,0,0:0:0:0:
192,192,319539,1,0,0:0:0:0:
64,192,319539,1,0,0:0:0:0:
448,192,319623,1,0,0:0:0:0:
320,192,319706,1,0,0:0:0:0:
192,192,319789,1,0,0:0:0:0:
448,192,319873,1,0,0:0:0:0:
64,192,319873,1,0,0:0:0:0:
320,192,319956,1,0,0:0:0:0:
192,192,320039,1,0,0:0:0:0:
64,192,320123,1,0,0:0:0:0:
320,192,320206,1,0,0:0:0:0:
448,192,320206,1,0,0:0:0:0:
192,192,320289,1,0,0:0:0:0:
64,192,320373,1,0,0:0:0:0:
192,192,320456,1,0,0:0:0:0:
320,192,320539,1,0,0:0:0:0:
64,192,320539,1,0,0:0:0:0:
448,192,320623,1,0,0:0:0:0:
320,192,320706,1,0,0:0:0:0:
192,192,320789,1,0,0:0:0:0:
64,192,320873,1,0,0:0:0:0:
448,192,320873,1,0,0:0:0:0:
320,192,320956,1,0,0:0:0:0:
192,192,321039,1,0,0:0:0:0:
64,192,321123,1,0,0:0:0:0:
320,192,321206,1,0,0:0:0:0:
448,192,321206,1,0,0:0:0:0:
64,192,321289,1,0,0:0:0:0:
192,192,321373,1,0,0:0:0:0:
320,192,321456,1,0,0:0:0:0:
448,192,321539,1,0,0:0:0:0:
64,192,321539,1,0,0:0:0:0:
192,192,321623,1,0,0:0:0:0:
320,192,321706,1,0,0:0:0:0:
192,192,321789,1,0,0:0:0:0:
448,192,321873,1,0,0:0:0:0:
320,192,321873,1,0,0:0:0:0:
64,192,321956,1,0,0:0:0:0:
192,192,322039,1,0,0:0:0:0:
320,192,322123,1,0,0:0:0:0:
448,192,322206,1,0,0:0:0:0:
64,192,322206,1,0,0:0:0:0:
320,192,322289,1,0,0:0:0:0:
192,192,322373,1,0,0:0:0:0:
448,192,322456,1,0,0:0:0:0:
192,192,322539,1,0,0:0:0:0:
64,192,322539,1,0,0:0:0:0:
448,192,322623,1,0,0:0:0:0:
320,192,322706,1,0,0:0:0:0:
192,192,322789,1,0,0:0:0:0:
448,192,322873,1,0,0:0:0:0:
320,192,322873,1,0,0:0:0:0:
64,192,322956,1,0,0:0:0:0:
192,192,323039,1,0,0:0:0:0:
320,192,323123,1,0,0:0:0:0:
448,192,323206,1,0,0:0:0:0:
64,192,323206,1,0,0:0:0:0:
192,192,323289,1,0,0:0:0:0:
448,192,323373,1,0,0:0:0:0:
320,192,323456,1,0,0:0:0:0:
448,192,323539,1,0,0:0:0:0:
64,192,323539,1,0,0:0:0:0:
192,192,323539,1,0,0:0:0:0:
320,192,323623,1,0,0:0:0:0:
192,192,323706,1,0,0:0:0:0:
64,192,323789,1,0,0:0:0:0:
320,192,323873,1,0,0:0:0:0:
448,192,323873,1,0,0:0:0:0:
192,192,323956,1,0,0:0:0:0:
320,192,324039,1,0,0:0:0:0:
448,192,324123,1,0,0:0:0:0:
64,192,324206,1,0,0:0:0:0:
192,192,324206,1,0,0:0:0:0:
448,192,324289,1,0,0:0:0:0:
320,192,324373,1,0,0:0:0:0:
192,192,324456,1,0,0:0:0:0:
448,192,324539,1,0,0:0:0:0:
320,192,324539,1,0,0:0:0:0:
192,192,324623,1,0,0:0:0:0:
64,192,324706,1,0,0:0:0:0:
320,192,324789,1,0,0:0:0:0:
448,192,324873,1,0,0:0:0:0:
192,192,324873,1,0,0:0:0:0:
64,192,324956,1,0,0:0:0:0:
192,192,325039,1,0,0:0:0:0:
320,192,325123,1,0,0:0:0:0:
448,192,325206,1,0,0:0:0:0:
64,192,325206,1,0,0:0:0:0:
192,192,325289,1,0,0:0:0:0:
320,192,325373,1,0,0:0:0:0:
448,192,325456,1,0,0:0:0:0:
192,192,325539,1,0,0:0:0:0:
64,192,325539,1,0,0:0:0:0:
320,192,325623,1,0,0:0:0:0:
192,192,325706,1,0,0:0:0:0:
320,192,325789,1,0,0:0:0:0:
448,192,325873,1,0,0:0:0:0:
64,192,325873,1,0,0:0:0:0:
192,192,325956,1,0,0:0:0:0:
320,192,326039,1,0,0:0:0:0:
192,192,326123,1,0,0:0:0:0:
448,192,326206,1,0,0:0:0:0:
64,192,326206,1,0,0:0:0:0:
320,192,326206,1,0,0:0:0:0:
192,192,326289,1,0,0:0:0:0:
64,192,326373,1,0,0:0:0:0:
320,192,326456,1,0,0:0:0:0:
448,192,326539,1,0,0:0:0:0:
192,192,326539,1,0,0:0:0:0:
64,192,326623,1,0,0:0:0:0:
320,192,326706,1,0,0:0:0:0:
192,192,326789,1,0,0:0:0:0:
320,192,326873,1,0,0:0:0:0:
448,192,326873,1,0,0:0:0:0:
64,192,326873,1,0,0:0:0:0:
192,192,326956,1,0,0:0:0:0:
320,192,327039,5,0,0:0:0:0:
448,192,327123,1,0,0:0:0:0:
192,192,327206,1,0,0:0:0:0:
64,192,327206,1,0,0:0:0:0:
448,192,327289,1,0,0:0:0:0:
320,192,327373,1,0,0:0:0:0:
192,192,327456,1,0,0:0:0:0:
64,192,327539,1,0,0:0:0:0:
320,192,327539,1,0,0:0:0:0:
448,192,327539,1,0,0:0:0:0:
192,192,327623,1,0,0:0:0:0:
64,192,327706,1,0,0:0:0:0:
448,192,327789,1,0,0:0:0:0:
64,192,327873,1,0,0:0:0:0:
320,192,327873,1,0,0:0:0:0:
192,192,327873,1,0,0:0:0:0:
448,192,327956,1,0,0:0:0:0:
320,192,328039,1,0,0:0:0:0:
192,192,328123,1,0,0:0:0:0:
64,192,328206,5,0,0:0:0:0:
448,192,328206,1,0,0:0:0:0:
320,192,328206,1,0,0:0:0:0:
192,192,328289,1,0,0:0:0:0:
448,192,328373,1,0,0:0:0:0:
320,192,328456,1,0,0:0:0:0:
192,192,328539,1,0,0:0:0:0:
64,192,328539,1,0,0:0:0:0:
448,192,328539,1,0,0:0:0:0:
320,192,328623,1,0,0:0:0:0:
64,192,328706,1,0,0:0:0:0:
192,192,328789,1,0,0:0:0:0:
64,192,328873,1,0,0:0:0:0:
320,192,328873,1,0,0:0:0:0:
448,192,328873,1,0,0:0:0:0:
320,192,329039,1,0,0:0:0:0:
192,192,329206,1,0,0:0:0:0:
448,192,329206,1,0,0:0:0:0:
192,192,329373,1,0,0:0:0:0:
320,192,329373,1,0,0:0:0:0:
64,192,329539,1,0,0:0:0:0:
320,192,329539,1,0,0:0:0:0:
192,192,329706,1,0,0:0:0:0:
64,192,329873,1,0,0:0:0:0:
448,192,329873,1,0,0:0:0:0:
320,192,329914,1,0,0:0:0:0:
192,192,329956,1,0,0:0:0:0:
448,192,329998,1,0,0:0:0:0:
64,192,330039,1,0,0:0:0:0:
320,192,330206,1,0,0:0:0:0:
448,192,330206,1,0,0:0:0:0:
192,192,330373,1,0,0:0:0:0:
64,192,330539,1,0,0:0:0:0:
320,192,330539,1,0,0:0:0:0:
192,192,330706,1,0,0:0:0:0:
320,192,330706,1,0,0:0:0:0:
192,192,330873,1,0,0:0:0:0:
448,192,330873,1,0,0:0:0:0:
320,192,331039,1,0,0:0:0:0:
448,192,331206,1,0,0:0:0:0:
64,192,331206,1,0,0:0:0:0:
192,192,331373,1,0,0:0:0:0:
64,192,331373,1,0,0:0:0:0:
320,192,331456,1,0,0:0:0:0:
192,192,331498,1,0,0:0:0:0:
448,192,331539,1,0,0:0:0:0:
64,192,331706,1,0,0:0:0:0:
320,192,331873,1,0,0:0:0:0:
448,192,331873,1,0,0:0:0:0:
448,192,332039,1,0,0:0:0:0:
64,192,332039,1,0,0:0:0:0:
192,192,332206,1,0,0:0:0:0:
64,192,332206,1,0,0:0:0:0:
448,192,332373,1,0,0:0:0:0:
320,192,332539,1,0,0:0:0:0:
64,192,332539,1,0,0:0:0:0:
192,192,332623,1,0,0:0:0:0:
448,192,332664,1,0,0:0:0:0:
64,192,332706,1,0,0:0:0:0:
192,192,332873,1,0,0:0:0:0:
448,192,332873,1,0,0:0:0:0:
64,192,333039,1,0,0:0:0:0:
448,192,333206,1,0,0:0:0:0:
320,192,333206,1,0,0:0:0:0:
192,192,333373,1,0,0:0:0:0:
320,192,333373,1,0,0:0:0:0:
64,192,333539,1,0,0:0:0:0:
192,192,333539,1,0,0:0:0:0:
320,192,333706,1,0,0:0:0:0:
448,192,333873,1,0,0:0:0:0:
192,192,333873,1,0,0:0:0:0:
320,192,334039,128,0,334206:0:0:0:0:
192,192,334206,1,0,0:0:0:0:
64,192,334206,1,0,0:0:0:0:
448,192,334206,1,0,0:0:0:0:
320,192,334373,1,0,0:0:0:0:
192,192,334539,1,0,0:0:0:0:
64,192,334539,1,0,0:0:0:0:
448,192,334539,1,0,0:0:0:0:
320,192,334706,1,0,0:0:0:0:
64,192,334873,1,0,0:0:0:0:
192,192,334873,1,0,0:0:0:0:
448,192,335039,1,0,0:0:0:0:
320,192,335206,1,0,0:0:0:0:
192,192,335289,1,0,0:0:0:0:
64,192,335373,1,0,0:0:0:0:
192,192,335539,1,0,0:0:0:0:
448,192,335539,1,0,0:0:0:0:
64,192,335706,1,0,0:0:0:0:
448,192,335873,1,0,0:0:0:0:
192,192,335873,1,0,0:0:0:0:
320,192,335873,1,0,0:0:0:0:
64,192,336039,1,0,0:0:0:0:
320,192,336206,1,0,0:0:0:0:
448,192,336206,1,0,0:0:0:0:
192,192,336373,1,0,0:0:0:0:
64,192,336539,1,0,0:0:0:0:
448,192,336539,1,0,0:0:0:0:
320,192,336539,1,0,0:0:0:0:
192,192,336706,1,0,0:0:0:0:
320,192,336789,1,0,0:0:0:0:
64,192,336873,1,0,0:0:0:0:
448,192,336873,1,0,0:0:0:0:
320,192,337039,1,0,0:0:0:0:
64,192,337206,1,0,0:0:0:0:
192,192,337206,1,0,0:0:0:0:
448,192,337206,1,0,0:0:0:0:
320,192,337373,1,0,0:0:0:0:
192,192,337539,1,0,0:0:0:0:
448,192,337539,1,0,0:0:0:0:
64,192,337706,1,0,0:0:0:0:
448,192,337873,1,0,0:0:0:0:
192,192,337873,1,0,0:0:0:0:
320,192,337873,1,0,0:0:0:0:
64,192,337956,1,0,0:0:0:0:
320,192,338039,1,0,0:0:0:0:
448,192,338206,1,0,0:0:0:0:
192,192,338206,1,0,0:0:0:0:
64,192,338373,5,0,0:0:0:0:
320,192,338539,1,0,0:0:0:0:
192,192,338539,1,0,0:0:0:0:
448,192,338539,1,0,0:0:0:0:
320,192,338706,1,0,0:0:0:0:
192,192,338873,1,0,0:0:0:0:
64,192,338873,1,0,0:0:0:0:
64,192,339039,1,0,0:0:0:0:
192,192,339123,1,0,0:0:0:0:
320,192,339206,1,0,0:0:0:0:
448,192,339206,1,0,0:0:0:0:
192,192,339373,1,0,0:0:0:0:
320,192,339456,1,0,0:0:0:0:
448,192,339539,1,0,0:0:0:0:
192,192,339539,1,0,0:0:0:0:
64,192,339539,1,0,0:0:0:0:
64,192,339762,1,0,0:0:0:0:
448,192,339873,1,0,0:0:0:0:
320,192,339873,1,0,0:0:0:0:
448,192,340095,1,0,0:0:0:0:
320,192,340206,1,0,0:0:0:0:
64,192,340206,1,0,0:0:0:0:
192,192,340428,1,0,0:0:0:0:
320,192,340539,1,0,0:0:0:0:
448,192,340539,1,0,0:0:0:0:
448,192,340762,1,0,0:0:0:0:
320,192,340873,1,0,0:0:0:0:
64,192,340873,1,0,0:0:0:0:
192,192,341095,1,0,0:0:0:0:
320,192,341206,1,0,0:0:0:0:
448,192,341206,1,0,0:0:0:0:
64,192,341428,1,0,0:0:0:0:
192,192,341539,1,0,0:0:0:0:
448,192,341539,1,0,0:0:0:0:
64,192,341762,1,0,0:0:0:0:
192,192,341873,1,0,0:0:0:0:
448,192,341873,1,0,0:0:0:0:
320,192,342095,1,0,0:0:0:0:
192,192,342206,1,0,0:0:0:0:
64,192,342206,1,0,0:0:0:0:
320,192,342428,1,0,0:0:0:0:
192,192,342539,1,0,0:0:0:0:
64,192,342539,1,0,0:0:0:0:
64,192,342762,1,0,0:0:0:0:
192,192,342873,1,0,0:0:0:0:
448,192,342873,1,0,0:0:0:0:
320,192,343095,1,0,0:0:0:0:
192,192,343206,1,0,0:0:0:0:
64,192,343206,1,0,0:0:0:0:
64,192,343428,1,0,0:0:0:0:
192,192,343539,1,0,0:0:0:0:
448,192,343539,1,0,0:0:0:0:
320,192,343762,1,0,0:0:0:0:
64,192,343873,1,0,0:0:0:0:
192,192,343873,1,0,0:0:0:0:
448,192,344095,1,0,0:0:0:0:
320,192,344206,1,0,0:0:0:0:
64,192,344206,1,0,0:0:0:0:
192,192,344428,1,0,0:0:0:0:
320,192,344539,1,0,0:0:0:0:
448,192,344539,1,0,0:0:0:0:
64,192,344762,1,0,0:0:0:0:
192,192,344873,1,0,0:0:0:0:
448,192,344873,1,0,0:0:0:0:
64,192,345095,1,0,0:0:0:0:
192,192,345206,1,0,0:0:0:0:
448,192,345206,1,0,0:0:0:0:
448,192,345428,1,0,0:0:0:0:
64,192,345539,1,0,0:0:0:0:
320,192,345539,1,0,0:0:0:0:
192,192,345762,1,0,0:0:0:0:
320,192,345873,1,0,0:0:0:0:
448,192,345873,1,0,0:0:0:0:
64,192,346095,1,0,0:0:0:0:
192,192,346206,1,0,0:0:0:0:
448,192,346206,1,0,0:0:0:0:
448,192,346428,1,0,0:0:0:0:
320,192,346539,1,0,0:0:0:0:
64,192,346539,1,0,0:0:0:0:
448,192,346762,1,0,0:0:0:0:
192,192,346873,1,0,0:0:0:0:
64,192,346873,1,0,0:0:0:0:
64,192,347095,1,0,0:0:0:0:
320,192,347206,1,0,0:0:0:0:
448,192,347206,1,0,0:0:0:0:
448,192,347428,1,0,0:0:0:0:
192,192,347539,1,0,0:0:0:0:
64,192,347539,1,0,0:0:0:0:
320,192,347762,1,0,0:0:0:0:
192,192,347873,1,0,0:0:0:0:
64,192,347873,1,0,0:0:0:0:
64,192,348095,1,0,0:0:0:0:
192,192,348206,1,0,0:0:0:0:
448,192,348206,1,0,0:0:0:0:
320,192,348428,1,0,0:0:0:0:
192,192,348539,1,0,0:0:0:0:
64,192,348539,1,0,0:0:0:0:
448,192,348762,1,0,0:0:0:0:
320,192,348873,1,0,0:0:0:0:
64,192,348873,1,0,0:0:0:0:
64,192,349095,1,0,0:0:0:0:
448,192,349206,1,0,0:0:0:0:
320,192,349206,1,0,0:0:0:0:
448,192,349428,1,0,0:0:0:0:
320,192,349539,1,0,0:0:0:0:
64,192,349539,1,0,0:0:0:0:
192,192,349762,1,0,0:0:0:0:
320,192,349873,1,0,0:0:0:0:
448,192,349873,1,0,0:0:0:0:
64,192,350095,1,0,0:0:0:0:
320,192,350206,1,0,0:0:0:0:
448,192,350206,1,0,0:0:0:0:
192,192,350206,1,0,0:0:0:0:
64,192,350428,1,0,0:0:0:0:
320,192,350428,1,0,0:0:0:0:
192,192,350539,1,0,0:0:0:0:
320,192,350539,1,0,0:0:0:0:
448,192,350539,1,0,0:0:0:0:
320,192,350762,1,0,0:0:0:0:
448,192,350762,1,0,0:0:0:0:
320,192,350873,1,0,0:0:0:0:
192,192,350873,1,0,0:0:0:0:
64,192,350873,1,0,0:0:0:0:
64,192,351095,1,0,0:0:0:0:
192,192,351095,1,0,0:0:0:0:
192,192,351206,1,0,0:0:0:0:
320,192,351206,1,0,0:0:0:0:
448,192,351206,1,0,0:0:0:0:
192,192,351428,1,0,0:0:0:0:
448,192,351428,1,0,0:0:0:0:
320,192,351539,1,0,0:0:0:0:
64,192,351539,1,0,0:0:0:0:
448,192,351539,1,0,0:0:0:0:
64,192,351762,1,0,0:0:0:0:
192,192,351762,1,0,0:0:0:0:
64,192,351873,1,0,0:0:0:0:
320,192,351873,1,0,0:0:0:0:
448,192,351873,1,0,0:0:0:0:
64,192,352095,1,0,0:0:0:0:
320,192,352095,1,0,0:0:0:0:
192,192,352206,1,0,0:0:0:0:
64,192,352206,1,0,0:0:0:0:
448,192,352206,1,0,0:0:0:0:
320,192,352428,1,0,0:0:0:0:
448,192,352428,1,0,0:0:0:0:
320,192,352539,1,0,0:0:0:0:
64,192,352539,1,0,0:0:0:0:
192,192,352539,1,0,0:0:0:0:
192,192,352762,1,0,0:0:0:0:
448,192,352762,1,0,0:0:0:0:
320,192,352873,1,0,0:0:0:0:
192,192,352873,1,0,0:0:0:0:
64,192,352873,1,0,0:0:0:0:
192,192,353095,1,0,0:0:0:0:
448,192,353095,1,0,0:0:0:0:
64,192,353206,1,0,0:0:0:0:
320,192,353206,1,0,0:0:0:0:
192,192,353206,1,0,0:0:0:0:
192,192,353428,1,0,0:0:0:0:
448,192,353428,1,0,0:0:0:0:
320,192,353539,1,0,0:0:0:0:
64,192,353539,1,0,0:0:0:0:
448,192,353539,1,0,0:0:0:0:
64,192,353762,1,0,0:0:0:0:
320,192,353762,1,0,0:0:0:0:
192,192,353873,1,0,0:0:0:0:
320,192,353873,1,0,0:0:0:0:
448,192,353873,1,0,0:0:0:0:
64,192,354095,1,0,0:0:0:0:
448,192,354095,1,0,0:0:0:0:
192,192,354206,1,0,0:0:0:0:
64,192,354206,1,0,0:0:0:0:
320,192,354206,1,0,0:0:0:0:
320,192,354428,1,0,0:0:0:0:
448,192,354428,1,0,0:0:0:0:
320,192,354539,1,0,0:0:0:0:
192,192,354539,1,0,0:0:0:0:
64,192,354539,1,0,0:0:0:0:
64,192,354762,1,0,0:0:0:0:
192,192,354762,1,0,0:0:0:0:
192,192,354873,1,0,0:0:0:0:
320,192,354873,1,0,0:0:0:0:
448,192,354873,1,0,0:0:0:0:
192,192,355095,1,0,0:0:0:0:
448,192,355095,1,0,0:0:0:0:
320,192,355206,1,0,0:0:0:0:
64,192,355206,1,0,0:0:0:0:
448,192,355206,1,0,0:0:0:0:
320,192,355428,1,0,0:0:0:0:
448,192,355428,1,0,0:0:0:0:
320,192,355539,1,0,0:0:0:0:
192,192,355539,1,0,0:0:0:0:
64,192,355539,1,0,0:0:0:0:
192,192,355762,1,0,0:0:0:0:
64,192,355762,1,0,0:0:0:0:
192,192,355873,1,0,0:0:0:0:
320,192,355873,1,0,0:0:0:0:
448,192,355873,1,0,0:0:0:0:
320,192,356095,1,0,0:0:0:0:
448,192,356095,1,0,0:0:0:0:
320,192,356206,1,0,0:0:0:0:
192,192,356206,1,0,0:0:0:0:
64,192,356206,1,0,0:0:0:0:
64,192,356428,1,0,0:0:0:0:
448,192,356428,1,0,0:0:0:0:
320,192,356539,1,0,0:0:0:0:
64,192,356539,1,0,0:0:0:0:
192,192,356539,1,0,0:0:0:0:
64,192,356762,1,0,0:0:0:0:
320,192,356762,1,0,0:0:0:0:
192,192,356873,1,0,0:0:0:0:
320,192,356873,1,0,0:0:0:0:
448,192,356873,1,0,0:0:0:0:
320,192,357095,1,0,0:0:0:0:
448,192,357095,1,0,0:0:0:0:
320,192,357206,1,0,0:0:0:0:
192,192,357206,1,0,0:0:0:0:
64,192,357206,1,0,0:0:0:0:
64,192,357428,1,0,0:0:0:0:
192,192,357428,1,0,0:0:0:0:
192,192,357539,1,0,0:0:0:0:
320,192,357539,1,0,0:0:0:0:
448,192,357539,1,0,0:0:0:0:
64,192,357762,1,0,0:0:0:0:
320,192,357762,1,0,0:0:0:0:
192,192,357873,1,0,0:0:0:0:
448,192,357873,1,0,0:0:0:0:
64,192,357873,1,0,0:0:0:0:
192,192,358095,1,0,0:0:0:0:
448,192,358095,1,0,0:0:0:0:
448,192,358206,1,0,0:0:0:0:
320,192,358206,1,0,0:0:0:0:
64,192,358206,1,0,0:0:0:0:
192,192,358206,1,0,0:0:0:0:
448,192,358373,1,0,0:0:0:0:
64,192,358539,1,0,0:0:0:0:
320,192,358706,1,0,0:0:0:0:
192,192,358873,1,0,0:0:0:0:
448,192,359039,1,0,0:0:0:0:
64,192,359206,1,0,0:0:0:0:
192,192,359373,1,0,0:0:0:0:
320,192,359373,1,0,0:0:0:0:
448,192,359373,1,0,0:0:0:0:
64,192,359539,128,0,363039:0:0:0:0:
448,192,362873,128,0,363456:0:0:0:0:
192,192,362873,128,0,363456:0:0:0:0:
320,192,363206,128,0,363456:0:0:0:0:
64,192,363456,5,0,0:0:0:0:
448,192,363550,5,0,0:0:0:0:
320,192,363550,5,0,0:0:0:0:
192,192,363550,5,0,0:0:0:0:
64,192,363550,128,0,364800:0:0:0:0:
448,192,363800,1,0,0:0:0:0:
320,192,363800,1,0,0:0:0:0:
448,192,364050,1,0,0:0:0:0:
192,192,364050,1,0,0:0:0:0:
448,192,364175,1,0,0:0:0:0:
192,192,364175,1,0,0:0:0:0:
320,192,364300,1,0,0:0:0:0:
192,192,364300,1,0,0:0:0:0:
448,192,364550,1,0,0:0:0:0:
320,192,364550,1,0,0:0:0:0:
320,192,364800,128,0,365050:0:0:0:0:
448,192,364800,1,0,0:0:0:0:
192,192,364800,1,0,0:0:0:0:
448,192,365050,1,0,0:0:0:0:
192,192,365050,1,0,0:0:0:0:
64,192,365050,128,0,365300:0:0:0:0:
320,192,365175,1,0,0:0:0:0:
448,192,365300,128,0,365550:0:0:0:0:
320,192,365300,1,0,0:0:0:0:
192,192,365300,1,0,0:0:0:0:
64,192,365550,1,0,0:0:0:0:
192,192,365550,128,0,365800:0:0:0:0:
320,192,365550,1,0,0:0:0:0:
448,192,365800,128,0,365925:0:0:0:0:
320,192,365800,1,0,0:0:0:0:
64,192,365800,1,0,0:0:0:0:
192,192,365925,1,0,0:0:0:0:
64,192,365925,128,0,366175:0:0:0:0:
448,192,366175,128,0,366300:0:0:0:0:
320,192,366175,1,0,0:0:0:0:
320,192,366300,1,0,0:0:0:0:
192,192,366300,128,0,366550:0:0:0:0:
64,192,366300,1,0,0:0:0:0:
64,192,366425,1,0,0:0:0:0:
448,192,366550,128,0,367550:0:0:0:0:
320,192,366550,1,0,0:0:0:0:
64,192,366675,1,0,0:0:0:0:
64,192,366800,1,0,0:0:0:0:
320,192,366800,1,0,0:0:0:0:
192,192,366925,1,0,0:0:0:0:
320,192,367050,1,0,0:0:0:0:
64,192,367175,1,0,0:0:0:0:
192,192,367175,1,0,0:0:0:0:
64,192,367300,1,0,0:0:0:0:
192,192,367300,1,0,0:0:0:0:
64,192,367425,1,0,0:0:0:0:
192,192,367425,1,0,0:0:0:0:
320,192,367550,1,0,0:0:0:0:
192,192,367550,1,0,0:0:0:0:
64,192,367550,128,0,368675:0:0:0:0:
192,192,367675,1,0,0:0:0:0:
320,192,367800,1,0,0:0:0:0:
448,192,367800,1,0,0:0:0:0:
448,192,367925,1,0,0:0:0:0:
320,192,368050,1,0,0:0:0:0:
192,192,368175,1,0,0:0:0:0:
320,192,368300,1,0,0:0:0:0:
448,192,368300,1,0,0:0:0:0:
192,192,368425,1,0,0:0:0:0:
448,192,368550,1,0,0:0:0:0:
320,192,368675,1,0,0:0:0:0:
64,192,368800,128,0,369050:0:0:0:0:
192,192,368800,1,0,0:0:0:0:
448,192,368800,1,0,0:0:0:0:
448,192,368925,1,0,0:0:0:0:
320,192,369050,128,0,369300:0:0:0:0:
192,192,369050,1,0,0:0:0:0:
448,192,369175,1,0,0:0:0:0:
192,192,369300,1,0,0:0:0:0:
64,192,369300,128,0,369550:0:0:0:0:
320,192,369425,1,0,0:0:0:0:
448,192,369550,128,0,370050:0:0:0:0:
320,192,369550,1,0,0:0:0:0:
192,192,369675,1,0,0:0:0:0:
320,192,369800,1,0,0:0:0:0:
64,192,369800,1,0,0:0:0:0:
64,192,369925,1,0,0:0:0:0:
320,192,370050,1,0,0:0:0:0:
192,192,370050,128,0,370550:0:0:0:0:
64,192,370175,1,0,0:0:0:0:
448,192,370300,1,0,0:0:0:0:
320,192,370300,1,0,0:0:0:0:
64,192,370425,1,0,0:0:0:0:
448,192,370550,128,0,370800:0:0:0:0:
320,192,370550,1,0,0:0:0:0:
192,192,370675,1,0,0:0:0:0:
64,192,370800,128,0,371050:0:0:0:0:
320,192,370800,1,0,0:0:0:0:
448,192,370925,1,0,0:0:0:0:
320,192,371050,128,0,371300:0:0:0:0:
192,192,371050,1,0,0:0:0:0:
448,192,371175,1,0,0:0:0:0:
64,192,371300,128,0,371550:0:0:0:0:
192,192,371300,1,0,0:0:0:0:
448,192,371425,1,0,0:0:0:0:
448,192,371550,128,0,372050:0:0:0:0:
320,192,371550,1,0,0:0:0:0:
192,192,371675,1,0,0:0:0:0:
64,192,371800,1,0,0:0:0:0:
320,192,371800,1,0,0:0:0:0:
64,192,371925,1,0,0:0:0:0:
192,192,372050,128,0,372800:0:0:0:0:
320,192,372050,1,0,0:0:0:0:
448,192,372175,1,0,0:0:0:0:
64,192,372300,1,0,0:0:0:0:
320,192,372300,1,0,0:0:0:0:
64,192,372425,1,0,0:0:0:0:
320,192,372550,1,0,0:0:0:0:
448,192,372550,1,0,0:0:0:0:
320,192,372675,1,0,0:0:0:0:
448,192,372800,128,0,373050:0:0:0:0:
64,192,372800,1,0,0:0:0:0:
192,192,372925,1,0,0:0:0:0:
64,192,373050,128,0,373175:0:0:0:0:
320,192,373050,1,0,0:0:0:0:
192,192,373175,128,0,373300:0:0:0:0:
448,192,373175,1,0,0:0:0:0:
320,192,373300,128,0,373425:0:0:0:0:
64,192,373300,1,0,0:0:0:0:
448,192,373425,128,0,373550:0:0:0:0:
192,192,373425,1,0,0:0:0:0:
64,192,373550,128,0,374050:0:0:0:0:
320,192,373550,1,0,0:0:0:0:
448,192,373675,1,0,0:0:0:0:
192,192,373800,1,0,0:0:0:0:
320,192,373800,1,0,0:0:0:0:
448,192,373925,1,0,0:0:0:0:
192,192,374050,1,0,0:0:0:0:
320,192,374050,1,0,0:0:0:0:
448,192,374050,128,0,374300:0:0:0:0:
64,192,374175,1,0,0:0:0:0:
64,192,374300,1,0,0:0:0:0:
320,192,374300,128,0,374800:0:0:0:0:
192,192,374300,1,0,0:0:0:0:
192,192,374425,1,0,0:0:0:0:
64,192,374550,1,0,0:0:0:0:
448,192,374550,1,0,0:0:0:0:
448,192,374675,1,0,0:0:0:0:
64,192,374800,1,0,0:0:0:0:
192,192,374800,1,0,0:0:0:0:
320,192,374925,1,0,0:0:0:0:
448,192,375050,128,0,375175:0:0:0:0:
192,192,375050,1,0,0:0:0:0:
320,192,375175,128,0,375300:0:0:0:0:
64,192,375175,1,0,0:0:0:0:
192,192,375300,128,0,375425:0:0:0:0:
448,192,375300,1,0,0:0:0:0:
64,192,375425,128,0,375550:0:0:0:0:
320,192,375425,1,0,0:0:0:0:
192,192,375550,1,0,0:0:0:0:
448,192,375550,128,0,376050:0:0:0:0:
320,192,375675,1,0,0:0:0:0:
64,192,375800,1,0,0:0:0:0:
192,192,375800,1,0,0:0:0:0:
64,192,375925,1,0,0:0:0:0:
320,192,376050,1,0,0:0:0:0:
192,192,376050,128,0,376550:0:0:0:0:
448,192,376175,1,0,0:0:0:0:
64,192,376300,1,0,0:0:0:0:
320,192,376300,1,0,0:0:0:0:
64,192,376425,1,0,0:0:0:0:
448,192,376550,128,0,377050:0:0:0:0:
320,192,376550,1,0,0:0:0:0:
192,192,376675,1,0,0:0:0:0:
64,192,376800,1,0,0:0:0:0:
320,192,376800,1,0,0:0:0:0:
320,192,376925,1,0,0:0:0:0:
64,192,377050,128,0,377550:0:0:0:0:
192,192,377050,1,0,0:0:0:0:
320,192,377175,1,0,0:0:0:0:
448,192,377300,1,0,0:0:0:0:
192,192,377300,1,0,0:0:0:0:
448,192,377425,1,0,0:0:0:0:
320,192,377550,1,0,0:0:0:0:
192,192,377550,1,0,0:0:0:0:
448,192,377550,1,0,0:0:0:0:
64,192,377675,1,0,0:0:0:0:
192,192,377800,1,0,0:0:0:0:
448,192,377800,1,0,0:0:0:0:
64,192,378050,1,0,0:0:0:0:
320,192,378050,1,0,0:0:0:0:
192,192,378175,1,0,0:0:0:0:
448,192,378175,1,0,0:0:0:0:
320,192,378300,1,0,0:0:0:0:
448,192,378300,1,0,0:0:0:0:
64,192,378425,1,0,0:0:0:0:
192,192,378425,1,0,0:0:0:0:
64,192,378550,1,0,0:0:0:0:
192,192,378550,1,0,0:0:0:0:
448,192,378550,1,0,0:0:0:0:
320,192,378550,1,0,0:0:0:0:
320,192,378675,1,0,0:0:0:0:
448,192,378675,1,0,0:0:0:0:
192,192,378800,1,0,0:0:0:0:
64,192,378800,1,0,0:0:0:0:
320,192,378925,1,0,0:0:0:0:
448,192,378925,1,0,0:0:0:0:
64,192,379050,1,0,0:0:0:0:
192,192,379050,1,0,0:0:0:0:
320,192,379112,1,0,0:0:0:0:
448,192,379175,1,0,0:0:0:0:
64,192,379175,1,0,0:0:0:0:
192,192,379237,1,0,0:0:0:0:
320,192,379300,1,0,0:0:0:0:
448,192,379300,1,0,0:0:0:0:
64,192,379346,1,0,0:0:0:0:
192,192,379425,1,0,0:0:0:0:
320,192,379425,1,0,0:0:0:0:
448,192,379487,1,0,0:0:0:0:
320,192,379550,5,0,0:0:0:0:
64,192,379550,1,0,0:0:0:0:
192,192,379550,1,0,0:0:0:0:
192,192,379675,1,0,0:0:0:0:
448,192,379800,1,0,0:0:0:0:
320,192,379800,1,0,0:0:0:0:
64,192,379800,1,0,0:0:0:0:
192,192,379925,1,0,0:0:0:0:
192,192,380050,1,0,0:0:0:0:
320,192,380050,1,0,0:0:0:0:
448,192,380050,1,0,0:0:0:0:
64,192,380175,1,0,0:0:0:0:
320,192,380175,1,0,0:0:0:0:
64,192,380300,1,0,0:0:0:0:
192,192,380300,1,0,0:0:0:0:
448,192,380300,1,0,0:0:0:0:
192,192,380425,1,0,0:0:0:0:
320,192,380425,1,0,0:0:0:0:
448,192,380487,1,0,0:0:0:0:
64,192,380550,1,0,0:0:0:0:
192,192,380550,1,0,0:0:0:0:
320,192,380550,1,0,0:0:0:0:
64,192,380675,1,0,0:0:0:0:
192,192,380800,1,0,0:0:0:0:
320,192,380800,1,0,0:0:0:0:
448,192,380800,1,0,0:0:0:0:
448,192,380925,1,0,0:0:0:0:
64,192,381050,1,0,0:0:0:0:
192,192,381050,1,0,0:0:0:0:
320,192,381050,1,0,0:0:0:0:
320,192,381175,1,0,0:0:0:0:
448,192,381175,1,0,0:0:0:0:
192,192,381237,1,0,0:0:0:0:
64,192,381300,1,0,0:0:0:0:
320,192,381300,1,0,0:0:0:0:
448,192,381300,1,0,0:0:0:0:
64,192,381425,1,0,0:0:0:0:
192,192,381425,1,0,0:0:0:0:
64,192,381550,1,0,0:0:0:0:
192,192,381550,1,0,0:0:0:0:
448,192,381550,1,0,0:0:0:0:
320,192,381550,1,0,0:0:0:0:
320,192,381675,1,0,0:0:0:0:
320,192,381800,1,0,0:0:0:0:
448,192,381800,1,0,0:0:0:0:
64,192,381800,1,0,0:0:0:0:
64,192,381925,1,0,0:0:0:0:
320,192,382050,1,0,0:0:0:0:
448,192,382050,1,0,0:0:0:0:
192,192,382050,1,0,0:0:0:0:
192,192,382175,1,0,0:0:0:0:
64,192,382175,1,0,0:0:0:0:
320,192,382237,1,0,0:0:0:0:
448,192,382300,1,0,0:0:0:0:
64,192,382300,1,0,0:0:0:0:
192,192,382300,1,0,0:0:0:0:
320,192,382425,1,0,0:0:0:0:
64,192,382425,1,0,0:0:0:0:
320,192,382550,1,0,0:0:0:0:
448,192,382550,1,0,0:0:0:0:
192,192,382550,1,0,0:0:0:0:
64,192,382675,1,0,0:0:0:0:
192,192,382737,1,0,0:0:0:0:
64,192,382800,1,0,0:0:0:0:
448,192,382800,1,0,0:0:0:0:
320,192,382800,1,0,0:0:0:0:
192,192,382925,1,0,0:0:0:0:
320,192,382925,1,0,0:0:0:0:
64,192,383050,1,0,0:0:0:0:
192,192,383050,1,0,0:0:0:0:
448,192,383050,1,0,0:0:0:0:
448,192,383175,1,0,0:0:0:0:
320,192,383175,1,0,0:0:0:0:
192,192,383237,1,0,0:0:0:0:
320,192,383300,1,0,0:0:0:0:
448,192,383300,1,0,0:0:0:0:
64,192,383300,1,0,0:0:0:0:
192,192,383425,1,0,0:0:0:0:
64,192,383550,1,0,0:0:0:0:
192,192,383550,1,0,0:0:0:0:
320,192,383550,1,0,0:0:0:0:
448,192,383550,1,0,0:0:0:0:
320,192,383675,1,0,0:0:0:0:
192,192,383800,1,0,0:0:0:0:
448,192,383800,1,0,0:0:0:0:
64,192,383800,1,0,0:0:0:0:
192,192,383925,1,0,0:0:0:0:
320,192,383987,1,0,0:0:0:0:
448,192,384050,1,0,0:0:0:0:
64,192,384050,1,0,0:0:0:0:
192,192,384050,1,0,0:0:0:0:
448,192,384175,1,0,0:0:0:0:
320,192,384175,1,0,0:0:0:0:
320,192,384300,1,0,0:0:0:0:
192,192,384300,1,0,0:0:0:0:
64,192,384300,1,0,0:0:0:0:
192,192,384425,1,0,0:0:0:0:
448,192,384425,1,0,0:0:0:0:
320,192,384550,1,0,0:0:0:0:
448,192,384550,1,0,0:0:0:0:
64,192,384550,1,0,0:0:0:0:
320,192,384675,1,0,0:0:0:0:
192,192,384800,1,0,0:0:0:0:
64,192,384800,1,0,0:0:0:0:
448,192,384800,1,0,0:0:0:0:
192,192,384925,1,0,0:0:0:0:
320,192,384987,1,0,0:0:0:0:
64,192,385050,1,0,0:0:0:0:
192,192,385050,1,0,0:0:0:0:
448,192,385050,1,0,0:0:0:0:
320,192,385175,1,0,0:0:0:0:
448,192,385175,1,0,0:0:0:0:
192,192,385300,1,0,0:0:0:0:
320,192,385300,1,0,0:0:0:0:
64,192,385425,1,0,0:0:0:0:
192,192,385425,1,0,0:0:0:0:
448,192,385487,1,0,0:0:0:0:
192,192,385550,1,0,0:0:0:0:
64,192,385550,1,0,0:0:0:0:
320,192,385550,1,0,0:0:0:0:
448,192,385612,1,0,0:0:0:0:
64,192,385675,1,0,0:0:0:0:
192,192,385737,1,0,0:0:0:0:
320,192,385800,1,0,0:0:0:0:
448,192,385800,1,0,0:0:0:0:
64,192,385846,1,0,0:0:0:0:
320,192,385925,1,0,0:0:0:0:
448,192,385925,1,0,0:0:0:0:
192,192,385987,1,0,0:0:0:0:
448,192,386050,1,0,0:0:0:0:
320,192,386050,1,0,0:0:0:0:
64,192,386050,1,0,0:0:0:0:
192,192,386112,1,0,0:0:0:0:
320,192,386175,1,0,0:0:0:0:
448,192,386175,1,0,0:0:0:0:
192,192,386300,1,0,0:0:0:0:
64,192,386300,1,0,0:0:0:0:
320,192,386346,1,0,0:0:0:0:
448,192,386346,1,0,0:0:0:0:
192,192,386425,1,0,0:0:0:0:
64,192,386425,1,0,0:0:0:0:
448,192,386471,5,0,0:0:0:0:
320,192,386471,1,0,0:0:0:0:
192,192,386550,1,0,0:0:0:0:
64,192,386550,1,0,0:0:0:0:
320,192,386612,1,0,0:0:0:0:
64,192,386675,1,0,0:0:0:0:
448,192,386675,1,0,0:0:0:0:
192,192,386737,1,0,0:0:0:0:
320,192,386800,1,0,0:0:0:0:
448,192,386800,1,0,0:0:0:0:
192,192,386862,1,0,0:0:0:0:
64,192,386925,1,0,0:0:0:0:
320,192,386925,1,0,0:0:0:0:
448,192,386987,1,0,0:0:0:0:
64,192,387050,1,0,0:0:0:0:
320,192,387050,1,0,0:0:0:0:
192,192,387050,1,0,0:0:0:0:
448,192,387112,1,0,0:0:0:0:
192,192,387175,1,0,0:0:0:0:
320,192,387175,1,0,0:0:0:0:
64,192,387237,1,0,0:0:0:0:
192,192,387300,1,0,0:0:0:0:
320,192,387300,1,0,0:0:0:0:
448,192,387300,1,0,0:0:0:0:
64,192,387550,1,0,0:0:0:0:
448,192,387550,1,0,0:0:0:0:
192,192,387612,1,0,0:0:0:0:
320,192,387675,1,0,0:0:0:0:
64,192,387721,1,0,0:0:0:0:
448,192,387800,1,0,0:0:0:0:
192,192,387800,1,0,0:0:0:0:
320,192,387862,1,0,0:0:0:0:
64,192,387925,1,0,0:0:0:0:
448,192,387971,1,0,0:0:0:0:
64,192,388050,1,0,0:0:0:0:
192,192,388050,1,0,0:0:0:0:
320,192,388112,1,0,0:0:0:0:
448,192,388175,1,0,0:0:0:0:
64,192,388175,1,0,0:0:0:0:
192,192,388237,1,0,0:0:0:0:
320,192,388300,1,0,0:0:0:0:
448,192,388300,1,0,0:0:0:0:
64,192,388362,1,0,0:0:0:0:
192,192,388425,1,0,0:0:0:0:
448,192,388425,1,0,0:0:0:0:
320,192,388487,1,0,0:0:0:0:
64,192,388550,1,0,0:0:0:0:
192,192,388550,1,0,0:0:0:0:
448,192,388612,1,0,0:0:0:0:
64,192,388675,1,0,0:0:0:0:
192,192,388737,1,0,0:0:0:0:
448,192,388800,1,0,0:0:0:0:
320,192,388800,1,0,0:0:0:0:
64,192,388862,1,0,0:0:0:0:
192,192,388925,1,0,0:0:0:0:
320,192,388987,1,0,0:0:0:0:
64,192,389050,1,0,0:0:0:0:
448,192,389050,1,0,0:0:0:0:
192,192,389112,1,0,0:0:0:0:
320,192,389175,1,0,0:0:0:0:
448,192,389175,1,0,0:0:0:0:
64,192,389221,1,0,0:0:0:0:
192,192,389300,1,0,0:0:0:0:
320,192,389300,1,0,0:0:0:0:
448,192,389362,1,0,0:0:0:0:
192,192,389425,1,0,0:0:0:0:
64,192,389425,1,0,0:0:0:0:
320,192,389487,1,0,0:0:0:0:
448,192,389550,1,0,0:0:0:0:
64,192,389550,1,0,0:0:0:0:
192,192,389612,1,0,0:0:0:0:
320,192,389675,1,0,0:0:0:0:
64,192,389737,1,0,0:0:0:0:
192,192,389800,1,0,0:0:0:0:
448,192,389800,1,0,0:0:0:0:
320,192,389862,1,0,0:0:0:0:
64,192,389925,1,0,0:0:0:0:
448,192,389987,1,0,0:0:0:0:
320,192,390050,1,0,0:0:0:0:
64,192,390050,1,0,0:0:0:0:
192,192,390112,1,0,0:0:0:0:
448,192,390175,1,0,0:0:0:0:
320,192,390175,1,0,0:0:0:0:
64,192,390237,1,0,0:0:0:0:
192,192,390300,1,0,0:0:0:0:
448,192,390300,1,0,0:0:0:0:
320,192,390362,1,0,0:0:0:0:
64,192,390425,1,0,0:0:0:0:
192,192,390425,1,0,0:0:0:0:
448,192,390487,1,0,0:0:0:0:
320,192,390550,1,0,0:0:0:0:
64,192,390550,1,0,0:0:0:0:
192,192,390612,1,0,0:0:0:0:
448,192,390675,1,0,0:0:0:0:
64,192,390737,1,0,0:0:0:0:
192,192,390800,1,0,0:0:0:0:
320,192,390800,1,0,0:0:0:0:
448,192,390862,1,0,0:0:0:0:
64,192,390925,1,0,0:0:0:0:
320,192,390987,1,0,0:0:0:0:
192,192,391050,1,0,0:0:0:0:
64,192,391050,1,0,0:0:0:0:
448,192,391112,1,0,0:0:0:0:
320,192,391175,1,0,0:0:0:0:
64,192,391237,1,0,0:0:0:0:
192,192,391300,1,0,0:0:0:0:
448,192,391362,1,0,0:0:0:0:
320,192,391425,1,0,0:0:0:0:
192,192,391487,1,0,0:0:0:0:
64,192,391550,1,0,0:0:0:0:
320,192,391550,1,0,0:0:0:0:
448,192,391550,1,0,0:0:0:0:
192,192,391612,1,0,0:0:0:0:
64,192,391675,1,0,0:0:0:0:
320,192,391737,1,0,0:0:0:0:
192,192,391800,1,0,0:0:0:0:
448,192,391800,1,0,0:0:0:0:
64,192,391862,1,0,0:0:0:0:
320,192,391925,1,0,0:0:0:0:
192,192,391987,1,0,0:0:0:0:
64,192,392050,1,0,0:0:0:0:
448,192,392050,1,0,0:0:0:0:
320,192,392112,1,0,0:0:0:0:
64,192,392175,1,0,0:0:0:0:
192,192,392175,1,0,0:0:0:0:
448,192,392237,1,0,0:0:0:0:
320,192,392300,1,0,0:0:0:0:
192,192,392300,1,0,0:0:0:0:
64,192,392362,1,0,0:0:0:0:
448,192,392425,1,0,0:0:0:0:
320,192,392425,1,0,0:0:0:0:
192,192,392487,1,0,0:0:0:0:
64,192,392550,1,0,0:0:0:0:
448,192,392550,1,0,0:0:0:0:
320,192,392612,1,0,0:0:0:0:
192,192,392675,1,0,0:0:0:0:
448,192,392737,1,0,0:0:0:0:
320,192,392800,1,0,0:0:0:0:
64,192,392800,1,0,0:0:0:0:
192,192,392862,1,0,0:0:0:0:
448,192,392925,1,0,0:0:0:0:
320,192,392987,1,0,0:0:0:0:
192,192,393050,1,0,0:0:0:0:
64,192,393050,1,0,0:0:0:0:
448,192,393112,1,0,0:0:0:0:
320,192,393175,1,0,0:0:0:0:
64,192,393175,1,0,0:0:0:0:
192,192,393237,1,0,0:0:0:0:
448,192,393300,1,0,0:0:0:0:
320,192,393300,1,0,0:0:0:0:
192,192,393362,1,0,0:0:0:0:
64,192,393425,1,0,0:0:0:0:
448,192,393425,1,0,0:0:0:0:
320,192,393487,1,0,0:0:0:0:
192,192,393550,1,0,0:0:0:0:
64,192,393550,1,0,0:0:0:0:
448,192,393612,1,0,0:0:0:0:
320,192,393675,1,0,0:0:0:0:
192,192,393737,1,0,0:0:0:0:
64,192,393800,1,0,0:0:0:0:
448,192,393800,1,0,0:0:0:0:
320,192,393862,1,0,0:0:0:0:
192,192,393925,1,0,0:0:0:0:
64,192,393987,1,0,0:0:0:0:
320,192,394050,1,0,0:0:0:0:
448,192,394050,1,0,0:0:0:0:
192,192,394112,1,0,0:0:0:0:
64,192,394175,1,0,0:0:0:0:
448,192,394175,1,0,0:0:0:0:
320,192,394237,1,0,0:0:0:0:
192,192,394237,1,0,0:0:0:0:
64,192,394300,1,0,0:0:0:0:
448,192,394362,5,0,0:0:0:0:
320,192,394425,1,0,0:0:0:0:
192,192,394425,1,0,0:0:0:0:
64,192,394487,1,0,0:0:0:0:
320,192,394550,1,0,0:0:0:0:
192,192,394550,1,0,0:0:0:0:
448,192,394550,128,0,395050:0:0:0:0:
64,192,395050,1,0,0:0:0:0:
192,192,395050,128,0,395550:0:0:0:0:
320,192,395050,1,0,0:0:0:0:
64,192,395550,5,0,0:0:0:0:
448,192,395550,1,0,0:0:0:0:
320,192,395550,128,0,395675:0:0:0:0:
192,192,395675,128,0,395800:0:0:0:0:
448,192,395675,1,0,0:0:0:0:
320,192,395800,128,0,395925:0:0:0:0:
64,192,395800,1,0,0:0:0:0:
448,192,395925,128,0,396300:0:0:0:0:
192,192,395925,1,0,0:0:0:0:
320,192,396050,1,0,0:0:0:0:
64,192,396050,1,0,0:0:0:0:
192,192,396175,1,0,0:0:0:0:
192,192,396300,128,0,396550:0:0:0:0:
320,192,396300,1,0,0:0:0:0:
448,192,396425,1,0,0:0:0:0:
64,192,396550,128,0,396675:0:0:0:0:
320,192,396550,1,0,0:0:0:0:
448,192,396675,128,0,396800:0:0:0:0:
320,192,396675,1,0,0:0:0:0:
192,192,396800,128,0,396925:0:0:0:0:
64,192,396800,1,0,0:0:0:0:
320,192,396925,128,0,397050:0:0:0:0:
448,192,396925,1,0,0:0:0:0:
64,192,397050,128,0,397175:0:0:0:0:
192,192,397050,1,0,0:0:0:0:
448,192,397050,1,0,0:0:0:0:
320,192,397175,1,0,0:0:0:0:
192,192,397300,128,0,397425:0:0:0:0:
320,192,397300,1,0,0:0:0:0:
448,192,397425,128,0,397550:0:0:0:0:
64,192,397425,1,0,0:0:0:0:
192,192,397550,1,0,0:0:0:0:
64,192,397550,1,0,0:0:0:0:
192,192,397675,1,0,0:0:0:0:
320,192,397675,1,0,0:0:0:0:
64,192,397800,1,0,0:0:0:0:
448,192,397800,1,0,0:0:0:0:
192,192,397925,1,0,0:0:0:0:
320,192,397925,1,0,0:0:0:0:
448,192,398050,1,0,0:0:0:0:
320,192,398050,1,0,0:0:0:0:
64,192,398050,1,0,0:0:0:0:
192,192,398175,1,0,0:0:0:0:
320,192,398175,1,0,0:0:0:0:
192,192,398300,1,0,0:0:0:0:
64,192,398300,1,0,0:0:0:0:
320,192,398425,1,0,0:0:0:0:
448,192,398425,1,0,0:0:0:0:
64,192,398550,1,0,0:0:0:0:
192,192,398550,1,0,0:0:0:0:
448,192,398550,128,0,398737:0:0:0:0:
320,192,398800,128,0,398862:0:0:0:0:
64,192,398800,1,0,0:0:0:0:
192,192,398925,128,0,398987:0:0:0:0:
448,192,398925,1,0,0:0:0:0:
64,192,399050,128,0,399300:0:0:0:0:
320,192,399050,1,0,0:0:0:0:
448,192,399050,1,0,0:0:0:0:
320,192,399300,128,0,399550:0:0:0:0:
192,192,399300,1,0,0:0:0:0:
448,192,399550,1,0,0:0:0:0:
64,192,399550,1,0,0:0:0:0:
192,192,399550,128,0,399675:0:0:0:0:
320,192,399675,128,0,399800:0:0:0:0:
448,192,399675,1,0,0:0:0:0:
192,192,399800,128,0,399925:0:0:0:0:
64,192,399800,1,0,0:0:0:0:
64,192,399925,128,0,400300:0:0:0:0:
448,192,399925,1,0,0:0:0:0:
320,192,400050,1,0,0:0:0:0:
192,192,400050,1,0,0:0:0:0:
448,192,400175,1,0,0:0:0:0:
320,192,400300,128,0,400550:0:0:0:0:
192,192,400300,1,0,0:0:0:0:
64,192,400425,1,0,0:0:0:0:
448,192,400550,128,0,400675:0:0:0:0:
192,192,400550,1,0,0:0:0:0:
64,192,400675,128,0,400800:0:0:0:0:
320,192,400675,1,0,0:0:0:0:
320,192,400800,128,0,400925:0:0:0:0:
448,192,400800,1,0,0:0:0:0:
192,192,400925,128,0,401050:0:0:0:0:
64,192,400925,1,0,0:0:0:0:
448,192,401050,128,0,401175:0:0:0:0:
320,192,401050,1,0,0:0:0:0:
64,192,401050,1,0,0:0:0:0:
192,192,401175,1,0,0:0:0:0:
320,192,401300,128,0,401425:0:0:0:0:
64,192,401300,1,0,0:0:0:0:
64,192,401425,128,0,401550:0:0:0:0:
448,192,401425,1,0,0:0:0:0:
448,192,401550,128,0,401675:0:0:0:0:
192,192,401550,1,0,0:0:0:0:
320,192,401675,128,0,401800:0:0:0:0:
64,192,401675,1,0,0:0:0:0:
192,192,401800,128,0,401925:0:0:0:0:
64,192,401925,128,0,402050:0:0:0:0:
320,192,402050,128,0,402175:0:0:0:0:
448,192,402050,1,0,0:0:0:0:
192,192,402175,128,0,402300:0:0:0:0:
448,192,402175,1,0,0:0:0:0:
64,192,402300,128,0,402425:0:0:0:0:
320,192,402300,1,0,0:0:0:0:
192,192,402425,1,0,0:0:0:0:
448,192,402550,1,0,0:0:0:0:
320,192,402612,1,0,0:0:0:0:
192,192,402675,1,0,0:0:0:0:
64,192,402675,1,0,0:0:0:0:
448,192,402737,1,0,0:0:0:0:
192,192,402800,1,0,0:0:0:0:
320,192,402800,1,0,0:0:0:0:
64,192,402862,1,0,0:0:0:0:
448,192,402925,1,0,0:0:0:0:
320,192,402925,1,0,0:0:0:0:
192,192,402987,1,0,0:0:0:0:
64,192,403050,1,0,0:0:0:0:
448,192,403050,1,0,0:0:0:0:
320,192,403112,1,0,0:0:0:0:
64,192,403175,1,0,0:0:0:0:
192,192,403175,1,0,0:0:0:0:
448,192,403237,1,0,0:0:0:0:
320,192,403300,1,0,0:0:0:0:
192,192,403300,1,0,0:0:0:0:
64,192,403362,1,0,0:0:0:0:
448,192,403425,1,0,0:0:0:0:
320,192,403425,1,0,0:0:0:0:
192,192,403487,1,0,0:0:0:0:
64,192,403550,128,0,403675:0:0:0:0:
320,192,403550,1,0,0:0:0:0:
448,192,403550,1,0,0:0:0:0:
192,192,403675,128,0,403800:0:0:0:0:
448,192,403675,1,0,0:0:0:0:
320,192,403800,128,0,403925:0:0:0:0:
64,192,403800,1,0,0:0:0:0:
448,192,403925,128,0,404300:0:0:0:0:
192,192,403925,1,0,0:0:0:0:
64,192,404050,1,0,0:0:0:0:
320,192,404050,1,0,0:0:0:0:
192,192,404175,1,0,0:0:0:0:
320,192,404300,128,0,404550:0:0:0:0:
64,192,404300,1,0,0:0:0:0:
192,192,404425,1,0,0:0:0:0:
64,192,404550,128,0,404675:0:0:0:0:
448,192,404550,1,0,0:0:0:0:
192,192,404675,128,0,404800:0:0:0:0:
448,192,404675,1,0,0:0:0:0:
320,192,404800,128,0,404925:0:0:0:0:
64,192,404800,1,0,0:0:0:0:
448,192,404925,128,0,405050:0:0:0:0:
192,192,404925,1,0,0:0:0:0:
64,192,405050,128,0,405175:0:0:0:0:
192,192,405050,1,0,0:0:0:0:
320,192,405050,1,0,0:0:0:0:
448,192,405175,1,0,0:0:0:0:
64,192,405300,1,0,0:0:0:0:
192,192,405300,128,0,405425:0:0:0:0:
448,192,405425,128,0,405550:0:0:0:0:
320,192,405425,1,0,0:0:0:0:
64,192,405550,1,0,0:0:0:0:
192,192,405550,1,0,0:0:0:0:
320,192,405675,1,0,0:0:0:0:
192,192,405675,1,0,0:0:0:0:
448,192,405800,1,0,0:0:0:0:
64,192,405800,1,0,0:0:0:0:
448,192,405925,1,0,0:0:0:0:
192,192,405925,1,0,0:0:0:0:
320,192,406050,1,0,0:0:0:0:
448,192,406050,1,0,0:0:0:0:
64,192,406050,1,0,0:0:0:0:
320,192,406175,1,0,0:0:0:0:
64,192,406175,1,0,0:0:0:0:
448,192,406300,1,0,0:0:0:0:
192,192,406300,1,0,0:0:0:0:
320,192,406425,1,0,0:0:0:0:
64,192,406425,1,0,0:0:0:0:
64,192,406550,128,0,406800:0:0:0:0:
192,192,406550,1,0,0:0:0:0:
448,192,406550,1,0,0:0:0:0:
192,192,406800,1,0,0:0:0:0:
448,192,406800,128,0,406862:0:0:0:0:
320,192,406925,128,0,406987:0:0:0:0:
64,192,406925,1,0,0:0:0:0:
192,192,407050,128,0,407300:0:0:0:0:
448,192,407050,1,0,0:0:0:0:
64,192,407050,1,0,0:0:0:0:
64,192,407300,128,0,407550:0:0:0:0:
320,192,407300,1,0,0:0:0:0:
448,192,407550,128,0,407675:0:0:0:0:
192,192,407550,1,0,0:0:0:0:
320,192,407550,1,0,0:0:0:0:
320,192,407675,128,0,407800:0:0:0:0:
64,192,407675,1,0,0:0:0:0:
192,192,407800,128,0,407925:0:0:0:0:
448,192,407800,1,0,0:0:0:0:
64,192,407925,128,0,408300:0:0:0:0:
448,192,407925,1,0,0:0:0:0:
320,192,408050,1,0,0:0:0:0:
192,192,408050,1,0,0:0:0:0:
320,192,408175,1,0,0:0:0:0:
192,192,408300,128,0,408550:0:0:0:0:
448,192,408300,1,0,0:0:0:0:
320,192,408425,1,0,0:0:0:0:
448,192,408550,128,0,408675:0:0:0:0:
64,192,408550,1,0,0:0:0:0:
320,192,408675,128,0,408800:0:0:0:0:
64,192,408675,1,0,0:0:0:0:
192,192,408800,128,0,408925:0:0:0:0:
448,192,408800,1,0,0:0:0:0:
64,192,408925,128,0,409050:0:0:0:0:
320,192,408925,1,0,0:0:0:0:
448,192,409050,128,0,409175:0:0:0:0:
320,192,409050,1,0,0:0:0:0:
192,192,409050,1,0,0:0:0:0:
64,192,409175,1,0,0:0:0:0:
448,192,409300,1,0,0:0:0:0:
320,192,409300,128,0,409425:0:0:0:0:
192,192,409425,1,0,0:0:0:0:
64,192,409425,128,0,409550:0:0:0:0:
448,192,409550,128,0,409675:0:0:0:0:
320,192,409675,128,0,409800:0:0:0:0:
192,192,409800,128,0,409925:0:0:0:0:
448,192,409925,128,0,410050:0:0:0:0:
64,192,409925,1,0,0:0:0:0:
192,192,410050,128,0,410175:0:0:0:0:
64,192,410050,1,0,0:0:0:0:
320,192,410175,128,0,410300:0:0:0:0:
64,192,410300,128,0,410425:0:0:0:0:
448,192,410300,1,0,0:0:0:0:
448,192,410425,1,0,0:0:0:0:
192,192,410425,128,0,410550:0:0:0:0:
320,192,410550,1,0,0:0:0:0:
448,192,410550,128,0,410800:0:0:0:0:
64,192,410800,128,0,410862:0:0:0:0:
320,192,410800,1,0,0:0:0:0:
448,192,410925,128,0,410987:0:0:0:0:
192,192,410925,1,0,0:0:0:0:
64,192,411050,1,0,0:0:0:0:
320,192,411050,128,0,411112:0:0:0:0:
192,192,411175,128,0,411237:0:0:0:0:
448,192,411175,1,0,0:0:0:0:
320,192,411300,1,0,0:0:0:0:
64,192,411300,128,0,411535:0:0:0:0:
192,192,411534,5,0,0:0:0:0:
448,192,411534,1,0,0:0:0:0:
320,192,411534,1,0,0:0:0:0:
320,192,411722,1,0,0:0:0:0:
192,192,411722,1,0,0:0:0:0:
192,192,411910,1,0,0:0:0:0:
448,192,411910,1,0,0:0:0:0:
64,192,412035,1,0,0:0:0:0:
448,192,412035,1,0,0:0:0:0:
448,192,412222,1,0,0:0:0:0:
64,192,412222,1,0,0:0:0:0:
64,192,412410,1,0,0:0:0:0:
192,192,412410,1,0,0:0:0:0:
320,192,412535,1,0,0:0:0:0:
192,192,412535,1,0,0:0:0:0:
448,192,412722,1,0,0:0:0:0:
320,192,412722,1,0,0:0:0:0:
192,192,412910,1,0,0:0:0:0:
64,192,412910,1,0,0:0:0:0:
448,192,413097,1,0,0:0:0:0:
320,192,413097,1,0,0:0:0:0:
320,192,413285,1,0,0:0:0:0:
192,192,413285,1,0,0:0:0:0:
448,192,413410,1,0,0:0:0:0:
64,192,413410,1,0,0:0:0:0:
192,192,413535,1,0,0:0:0:0:
64,192,413535,1,0,0:0:0:0:
320,192,413722,1,0,0:0:0:0:
192,192,413722,1,0,0:0:0:0:
320,192,413910,1,0,0:0:0:0:
64,192,413910,1,0,0:0:0:0:
64,192,414035,1,0,0:0:0:0:
448,192,414035,1,0,0:0:0:0:
192,192,414253,1,0,0:0:0:0:
320,192,414253,1,0,0:0:0:0:
448,192,414410,1,0,0:0:0:0:
320,192,414410,1,0,0:0:0:0:
64,192,414535,1,0,0:0:0:0:
192,192,414535,1,0,0:0:0:0:
320,192,414722,1,0,0:0:0:0:
192,192,414722,1,0,0:0:0:0:
64,192,414910,1,0,0:0:0:0:
192,192,414910,1,0,0:0:0:0:
448,192,415035,1,0,0:0:0:0:
64,192,415035,1,0,0:0:0:0:
320,192,415160,1,0,0:0:0:0:
448,192,415160,1,0,0:0:0:0:
320,192,415285,1,0,0:0:0:0:
192,192,415285,1,0,0:0:0:0:
192,192,415410,1,0,0:0:0:0:
64,192,415410,1,0,0:0:0:0:
64,192,415535,1,0,0:0:0:0:
448,192,415535,1,0,0:0:0:0:
320,192,415597,1,0,0:0:0:0:
192,192,415660,1,0,0:0:0:0:
64,192,415722,1,0,0:0:0:0:
448,192,415785,1,0,0:0:0:0:
320,192,415847,1,0,0:0:0:0:
192,192,415910,1,0,0:0:0:0:
320,192,415972,1,0,0:0:0:0:
448,192,416035,1,0,0:0:0:0:
64,192,416035,1,0,0:0:0:0:
320,192,416097,1,0,0:0:0:0:
192,192,416160,1,0,0:0:0:0:
64,192,416222,1,0,0:0:0:0:
448,192,416285,1,0,0:0:0:0:
320,192,416285,1,0,0:0:0:0:
192,192,416347,1,0,0:0:0:0:
64,192,416410,1,0,0:0:0:0:
448,192,416472,1,0,0:0:0:0:
320,192,416535,1,0,0:0:0:0:
192,192,416535,1,0,0:0:0:0:
448,192,416660,1,0,0:0:0:0:
320,192,416660,1,0,0:0:0:0:
64,192,416785,1,0,0:0:0:0:
192,192,416785,1,0,0:0:0:0:
448,192,416910,1,0,0:0:0:0:
320,192,416910,1,0,0:0:0:0:
192,192,417035,1,0,0:0:0:0:
320,192,417035,1,0,0:0:0:0:
64,192,417160,1,0,0:0:0:0:
192,192,417160,1,0,0:0:0:0:
320,192,417285,1,0,0:0:0:0:
448,192,417285,1,0,0:0:0:0:
320,192,417410,1,0,0:0:0:0:
192,192,417410,1,0,0:0:0:0:
64,192,417535,1,0,0:0:0:0:
448,192,417535,1,0,0:0:0:0:
64,192,417660,1,0,0:0:0:0:
192,192,417660,1,0,0:0:0:0:
320,192,417785,1,0,0:0:0:0:
448,192,417785,1,0,0:0:0:0:
192,192,417910,1,0,0:0:0:0:
64,192,417910,1,0,0:0:0:0:
320,192,418035,1,0,0:0:0:0:
64,192,418035,1,0,0:0:0:0:
192,192,418160,1,0,0:0:0:0:
320,192,418160,1,0,0:0:0:0:
64,192,418285,1,0,0:0:0:0:
192,192,418285,1,0,0:0:0:0:
320,192,418410,1,0,0:0:0:0:
448,192,418410,1,0,0:0:0:0:
64,192,418535,1,0,0:0:0:0:
448,192,418535,1,0,0:0:0:0:
192,192,418597,1,0,0:0:0:0:
320,192,418660,1,0,0:0:0:0:
448,192,418722,1,0,0:0:0:0:
64,192,418785,1,0,0:0:0:0:
192,192,418847,1,0,0:0:0:0:
320,192,418910,1,0,0:0:0:0:
448,192,418972,1,0,0:0:0:0:
64,192,419035,1,0,0:0:0:0:
192,192,419097,1,0,0:0:0:0:
320,192,419160,1,0,0:0:0:0:
448,192,419222,1,0,0:0:0:0:
64,192,419285,1,0,0:0:0:0:
192,192,419347,1,0,0:0:0:0:
448,192,419410,1,0,0:0:0:0:
320,192,419472,1,0,0:0:0:0:
192,192,419535,1,0,0:0:0:0:
64,192,419535,1,0,0:0:0:0:
448,192,419535,1,0,0:0:0:0:
64,192,419660,1,0,0:0:0:0:
192,192,419660,1,0,0:0:0:0:
448,192,419785,1,0,0:0:0:0:
320,192,419785,1,0,0:0:0:0:
64,192,419910,1,0,0:0:0:0:
192,192,419910,1,0,0:0:0:0:
320,192,420035,1,0,0:0:0:0:
64,192,420035,1,0,0:0:0:0:
192,192,420160,1,0,0:0:0:0:
448,192,420160,1,0,0:0:0:0:
192,192,420285,1,0,0:0:0:0:
64,192,420285,1,0,0:0:0:0:
448,192,420410,1,0,0:0:0:0:
320,192,420410,1,0,0:0:0:0:
448,192,420535,128,0,420628:0:0:0:0:
320,192,420535,1,0,0:0:0:0:
64,192,420618,1,0,0:0:0:0:
192,192,420618,128,0,420701:0:0:0:0:
320,192,420701,128,0,420785:0:0:0:0:
448,192,420701,1,0,0:0:0:0:
64,192,420785,1,0,0:0:0:0:
192,192,420785,128,0,420868:0:0:0:0:
64,192,420910,1,0,0:0:0:0:
448,192,420972,1,0,0:0:0:0:
320,192,421035,1,0,0:0:0:0:
192,192,421035,1,0,0:0:0:0:
192,192,421222,1,0,0:0:0:0:
448,192,421285,1,0,0:0:0:0:
64,192,421347,1,0,0:0:0:0:
320,192,421410,1,0,0:0:0:0:
192,192,421472,1,0,0:0:0:0:
64,192,421535,1,0,0:0:0:0:
320,192,421535,1,0,0:0:0:0:
448,192,421535,1,0,0:0:0:0:
192,192,421597,1,0,0:0:0:0:
320,192,421660,1,0,0:0:0:0:
448,192,421722,1,0,0:0:0:0:
64,192,421785,1,0,0:0:0:0:
192,192,421785,1,0,0:0:0:0:
320,192,421847,1,0,0:0:0:0:
448,192,421910,1,0,0:0:0:0:
64,192,421972,1,0,0:0:0:0:
320,192,422035,1,0,0:0:0:0:
192,192,422035,1,0,0:0:0:0:
448,192,422097,1,0,0:0:0:0:
64,192,422160,1,0,0:0:0:0:
192,192,422222,1,0,0:0:0:0:
320,192,422285,1,0,0:0:0:0:
448,192,422285,1,0,0:0:0:0:
192,192,422347,1,0,0:0:0:0:
64,192,422410,1,0,0:0:0:0:
448,192,422472,1,0,0:0:0:0:
320,192,422535,1,0,0:0:0:0:
192,192,422535,1,0,0:0:0:0:
64,192,422597,1,0,0:0:0:0:
448,192,422660,1,0,0:0:0:0:
320,192,422722,1,0,0:0:0:0:
192,192,422785,1,0,0:0:0:0:
64,192,422785,1,0,0:0:0:0:
448,192,422847,1,0,0:0:0:0:
320,192,422910,1,0,0:0:0:0:
64,192,422972,1,0,0:0:0:0:
192,192,423035,1,0,0:0:0:0:
448,192,423035,1,0,0:0:0:0:
320,192,423097,1,0,0:0:0:0:
64,192,423160,1,0,0:0:0:0:
192,192,423222,1,0,0:0:0:0:
320,192,423285,1,0,0:0:0:0:
448,192,423285,1,0,0:0:0:0:
64,192,423347,1,0,0:0:0:0:
192,192,423410,1,0,0:0:0:0:
320,192,423472,1,0,0:0:0:0:
448,192,423535,1,0,0:0:0:0:
64,192,423535,1,0,0:0:0:0:
192,192,423535,1,0,0:0:0:0:
320,192,423597,1,0,0:0:0:0:
448,192,423660,1,0,0:0:0:0:
64,192,423722,1,0,0:0:0:0:
192,192,423785,1,0,0:0:0:0:
320,192,423847,1,0,0:0:0:0:
448,192,423910,1,0,0:0:0:0:
64,192,423972,1,0,0:0:0:0:
192,192,424035,1,0,0:0:0:0:
448,192,424097,1,0,0:0:0:0:
320,192,424160,1,0,0:0:0:0:
192,192,424222,1,0,0:0:0:0:
64,192,424285,1,0,0:0:0:0:
320,192,424285,1,0,0:0:0:0:
448,192,424410,1,0,0:0:0:0:
192,192,424410,1,0,0:0:0:0:
192,192,424535,1,0,0:0:0:0:
320,192,424535,1,0,0:0:0:0:
448,192,424535,1,0,0:0:0:0:
64,192,424597,1,0,0:0:0:0:
448,192,424660,1,0,0:0:0:0:
320,192,424722,1,0,0:0:0:0:
192,192,424785,1,0,0:0:0:0:
64,192,424847,1,0,0:0:0:0:
448,192,424910,1,0,0:0:0:0:
320,192,424972,1,0,0:0:0:0:
64,192,425035,1,0,0:0:0:0:
192,192,425035,1,0,0:0:0:0:
448,192,425035,1,0,0:0:0:0:
320,192,425222,1,0,0:0:0:0:
64,192,425222,1,0,0:0:0:0:
192,192,425410,1,0,0:0:0:0:
320,192,425410,1,0,0:0:0:0:
448,192,425535,1,0,0:0:0:0:
64,192,425535,1,0,0:0:0:0:
320,192,425535,1,0,0:0:0:0:
192,192,425597,1,0,0:0:0:0:
320,192,425660,1,0,0:0:0:0:
448,192,425722,1,0,0:0:0:0:
320,192,425785,1,0,0:0:0:0:
192,192,425847,1,0,0:0:0:0:
64,192,425910,1,0,0:0:0:0:
192,192,425972,1,0,0:0:0:0:
320,192,426035,1,0,0:0:0:0:
448,192,426035,1,0,0:0:0:0:
64,192,426035,1,0,0:0:0:0:
192,192,426097,1,0,0:0:0:0:
448,192,426160,1,0,0:0:0:0:
320,192,426222,1,0,0:0:0:0:
64,192,426285,1,0,0:0:0:0:
192,192,426285,1,0,0:0:0:0:
448,192,426285,1,0,0:0:0:0:
320,192,426347,1,0,0:0:0:0:
192,192,426410,1,0,0:0:0:0:
64,192,426472,1,0,0:0:0:0:
320,192,426535,1,0,0:0:0:0:
448,192,426535,1,0,0:0:0:0:
192,192,426535,1,0,0:0:0:0:
64,192,426597,1,0,0:0:0:0:
448,192,426660,1,0,0:0:0:0:
320,192,426722,1,0,0:0:0:0:
192,192,426785,1,0,0:0:0:0:
64,192,426785,1,0,0:0:0:0:
448,192,426785,1,0,0:0:0:0:
320,192,426847,1,0,0:0:0:0:
64,192,426910,1,0,0:0:0:0:
192,192,426972,1,0,0:0:0:0:
64,192,427035,1,0,0:0:0:0:
320,192,427035,1,0,0:0:0:0:
448,192,427035,1,0,0:0:0:0:
192,192,427097,1,0,0:0:0:0:
448,192,427160,1,0,0:0:0:0:
320,192,427222,1,0,0:0:0:0:
448,192,427285,1,0,0:0:0:0:
192,192,427285,1,0,0:0:0:0:
64,192,427285,1,0,0:0:0:0:
320,192,427347,1,0,0:0:0:0:
64,192,427410,1,0,0:0:0:0:
192,192,427472,1,0,0:0:0:0:
64,192,427535,1,0,0:0:0:0:
320,192,427535,1,0,0:0:0:0:
448,192,427535,1,0,0:0:0:0:
192,192,427597,1,0,0:0:0:0:
448,192,427660,1,0,0:0:0:0:
320,192,427722,1,0,0:0:0:0:
64,192,427785,1,0,0:0:0:0:
448,192,427785,1,0,0:0:0:0:
192,192,427785,1,0,0:0:0:0:
320,192,427847,1,0,0:0:0:0:
64,192,427910,1,0,0:0:0:0:
192,192,427972,1,0,0:0:0:0:
320,192,428035,1,0,0:0:0:0:
448,192,428035,1,0,0:0:0:0:
192,192,428097,1,0,0:0:0:0:
64,192,428160,1,0,0:0:0:0:
448,192,428222,1,0,0:0:0:0:
64,192,428285,1,0,0:0:0:0:
192,192,428285,1,0,0:0:0:0:
320,192,428285,1,0,0:0:0:0:
448,192,428347,1,0,0:0:0:0:
64,192,428410,1,0,0:0:0:0:
192,192,428472,1,0,0:0:0:0:
320,192,428535,1,0,0:0:0:0:
448,192,428535,1,0,0:0:0:0:
64,192,428597,1,0,0:0:0:0:
192,192,428660,1,0,0:0:0:0:
320,192,428722,1,0,0:0:0:0:
64,192,428785,1,0,0:0:0:0:
192,192,428785,1,0,0:0:0:0:
448,192,428785,1,0,0:0:0:0:
320,192,428847,1,0,0:0:0:0:
192,192,428910,1,0,0:0:0:0:
64,192,428972,1,0,0:0:0:0:
320,192,429035,1,0,0:0:0:0:
448,192,429035,1,0,0:0:0:0:
192,192,429097,1,0,0:0:0:0:
64,192,429160,1,0,0:0:0:0:
448,192,429222,1,0,0:0:0:0:
64,192,429285,1,0,0:0:0:0:
192,192,429285,1,0,0:0:0:0:
320,192,429285,1,0,0:0:0:0:
448,192,429347,1,0,0:0:0:0:
64,192,429410,1,0,0:0:0:0:
192,192,429472,1,0,0:0:0:0:
320,192,429535,1,0,0:0:0:0:
448,192,429535,1,0,0:0:0:0:
192,192,429597,1,0,0:0:0:0:
64,192,429660,1,0,0:0:0:0:
320,192,429722,1,0,0:0:0:0:
64,192,429785,1,0,0:0:0:0:
448,192,429785,1,0,0:0:0:0:
192,192,429785,1,0,0:0:0:0:
320,192,429847,1,0,0:0:0:0:
192,192,429910,1,0,0:0:0:0:
64,192,429972,1,0,0:0:0:0:
320,192,430035,1,0,0:0:0:0:
448,192,430035,1,0,0:0:0:0:
64,192,430097,1,0,0:0:0:0:
192,192,430160,1,0,0:0:0:0:
320,192,430222,1,0,0:0:0:0:
64,192,430285,1,0,0:0:0:0:
192,192,430285,1,0,0:0:0:0:
448,192,430285,1,0,0:0:0:0:
320,192,430347,1,0,0:0:0:0:
64,192,430410,1,0,0:0:0:0:
192,192,430472,1,0,0:0:0:0:
448,192,430535,1,0,0:0:0:0:
320,192,430535,1,0,0:0:0:0:
64,192,430597,1,0,0:0:0:0:
192,192,430660,1,0,0:0:0:0:
320,192,430722,1,0,0:0:0:0:
192,192,430785,1,0,0:0:0:0:
64,192,430785,1,0,0:0:0:0:
448,192,430785,1,0,0:0:0:0:
320,192,430847,1,0,0:0:0:0:
64,192,430910,1,0,0:0:0:0:
192,192,430972,1,0,0:0:0:0:
64,192,431035,1,0,0:0:0:0:
448,192,431035,1,0,0:0:0:0:
320,192,431097,1,0,0:0:0:0:
192,192,431160,1,0,0:0:0:0:
64,192,431222,1,0,0:0:0:0:
320,192,431285,1,0,0:0:0:0:
448,192,431285,1,0,0:0:0:0:
192,192,431285,1,0,0:0:0:0:
64,192,431347,1,0,0:0:0:0:
192,192,431410,1,0,0:0:0:0:
320,192,431472,1,0,0:0:0:0:
448,192,431535,1,0,0:0:0:0:
64,192,431535,1,0,0:0:0:0:
192,192,431597,1,0,0:0:0:0:
448,192,431660,1,0,0:0:0:0:
320,192,431722,1,0,0:0:0:0:
192,192,431785,1,0,0:0:0:0:
64,192,431785,1,0,0:0:0:0:
448,192,431785,1,0,0:0:0:0:
320,192,431847,1,0,0:0:0:0:
192,192,431910,1,0,0:0:0:0:
64,192,431972,1,0,0:0:0:0:
320,192,432035,1,0,0:0:0:0:
448,192,432035,1,0,0:0:0:0:
192,192,432097,1,0,0:0:0:0:
64,192,432160,1,0,0:0:0:0:
320,192,432222,1,0,0:0:0:0:
192,192,432285,1,0,0:0:0:0:
64,192,432285,1,0,0:0:0:0:
448,192,432285,1,0,0:0:0:0:
320,192,432347,1,0,0:0:0:0:
448,192,432410,1,0,0:0:0:0:
192,192,432472,1,0,0:0:0:0:
320,192,432535,1,0,0:0:0:0:
64,192,432535,1,0,0:0:0:0:
192,192,432597,1,0,0:0:0:0:
448,192,432660,1,0,0:0:0:0:
320,192,432722,1,0,0:0:0:0:
192,192,432785,1,0,0:0:0:0:
64,192,432785,1,0,0:0:0:0:
448,192,432785,1,0,0:0:0:0:
320,192,432847,1,0,0:0:0:0:
64,192,432910,1,0,0:0:0:0:
320,192,432972,1,0,0:0:0:0:
192,192,433035,1,0,0:0:0:0:
448,192,433035,1,0,0:0:0:0:
64,192,433097,1,0,0:0:0:0:
320,192,433160,1,0,0:0:0:0:
448,192,433222,1,0,0:0:0:0:
320,192,433285,1,0,0:0:0:0:
64,192,433285,1,0,0:0:0:0:
192,192,433285,1,0,0:0:0:0:
448,192,433347,1,0,0:0:0:0:
192,192,433410,1,0,0:0:0:0:
448,192,433472,1,0,0:0:0:0:
192,192,433535,1,0,0:0:0:0:
64,192,433535,1,0,0:0:0:0:
320,192,433597,1,0,0:0:0:0:
64,192,433660,1,0,0:0:0:0:
192,192,433722,1,0,0:0:0:0:
320,192,433785,1,0,0:0:0:0:
448,192,433785,1,0,0:0:0:0:
64,192,433785,1,0,0:0:0:0:
192,192,433847,1,0,0:0:0:0:
320,192,433910,1,0,0:0:0:0:
448,192,433972,1,0,0:0:0:0:
64,192,434035,1,0,0:0:0:0:
320,192,434035,1,0,0:0:0:0:
192,192,434097,1,0,0:0:0:0:
320,192,434160,1,0,0:0:0:0:
448,192,434222,1,0,0:0:0:0:
320,192,434285,1,0,0:0:0:0:
192,192,434285,1,0,0:0:0:0:
64,192,434285,1,0,0:0:0:0:
448,192,434347,1,0,0:0:0:0:
192,192,434410,1,0,0:0:0:0:
64,192,434472,1,0,0:0:0:0:
320,192,434535,1,0,0:0:0:0:
448,192,434535,1,0,0:0:0:0:
192,192,434597,1,0,0:0:0:0:
64,192,434660,1,0,0:0:0:0:
320,192,434722,1,0,0:0:0:0:
64,192,434785,1,0,0:0:0:0:
192,192,434785,1,0,0:0:0:0:
448,192,434785,1,0,0:0:0:0:
320,192,434847,1,0,0:0:0:0:
64,192,434910,1,0,0:0:0:0:
192,192,434972,1,0,0:0:0:0:
64,192,435035,1,0,0:0:0:0:
448,192,435035,1,0,0:0:0:0:
320,192,435035,1,0,0:0:0:0:
192,192,435097,1,0,0:0:0:0:
448,192,435160,1,0,0:0:0:0:
320,192,435222,1,0,0:0:0:0:
64,192,435285,1,0,0:0:0:0:
448,192,435285,1,0,0:0:0:0:
192,192,435285,1,0,0:0:0:0:
320,192,435347,1,0,0:0:0:0:
64,192,435410,1,0,0:0:0:0:
192,192,435472,1,0,0:0:0:0:
64,192,435535,1,0,0:0:0:0:
448,192,435535,1,0,0:0:0:0:
320,192,435535,1,0,0:0:0:0:
192,192,435597,1,0,0:0:0:0:
320,192,435660,1,0,0:0:0:0:
448,192,435722,1,0,0:0:0:0:
320,192,435785,1,0,0:0:0:0:
192,192,435785,1,0,0:0:0:0:
64,192,435785,1,0,0:0:0:0:
448,192,435847,1,0,0:0:0:0:
320,192,435910,1,0,0:0:0:0:
192,192,435972,1,0,0:0:0:0:
64,192,436035,1,0,0:0:0:0:
448,192,436035,1,0,0:0:0:0:
320,192,436097,1,0,0:0:0:0:
64,192,436160,1,0,0:0:0:0:
192,192,436222,1,0,0:0:0:0:
64,192,436285,1,0,0:0:0:0:
320,192,436285,1,0,0:0:0:0:
448,192,436285,1,0,0:0:0:0:
192,192,436347,1,0,0:0:0:0:
448,192,436410,1,0,0:0:0:0:
320,192,436472,1,0,0:0:0:0:
192,192,436535,1,0,0:0:0:0:
64,192,436535,1,0,0:0:0:0:
320,192,436597,1,0,0:0:0:0:
448,192,436660,1,0,0:0:0:0:
64,192,436722,1,0,0:0:0:0:
448,192,436785,1,0,0:0:0:0:
320,192,436785,1,0,0:0:0:0:
192,192,436785,1,0,0:0:0:0:
64,192,436847,1,0,0:0:0:0:
448,192,436910,1,0,0:0:0:0:
320,192,436972,1,0,0:0:0:0:
192,192,437035,1,0,0:0:0:0:
64,192,437035,1,0,0:0:0:0:
448,192,437097,1,0,0:0:0:0:
320,192,437160,1,0,0:0:0:0:
192,192,437222,1,0,0:0:0:0:
448,192,437285,1,0,0:0:0:0:
320,192,437285,1,0,0:0:0:0:
64,192,437285,1,0,0:0:0:0:
192,192,437347,1,0,0:0:0:0:
320,192,437410,1,0,0:0:0:0:
448,192,437472,1,0,0:0:0:0:
64,192,437535,1,0,0:0:0:0:
192,192,437535,1,0,0:0:0:0:
320,192,437597,1,0,0:0:0:0:
448,192,437660,1,0,0:0:0:0:
64,192,437722,1,0,0:0:0:0:
320,192,437785,1,0,0:0:0:0:
448,192,437785,1,0,0:0:0:0:
192,192,437785,1,0,0:0:0:0:
64,192,437847,1,0,0:0:0:0:
448,192,437910,1,0,0:0:0:0:
320,192,437972,1,0,0:0:0:0:
192,192,438035,1,0,0:0:0:0:
64,192,438035,1,0,0:0:0:0:
448,192,438097,1,0,0:0:0:0:
320,192,438160,1,0,0:0:0:0:
192,192,438222,1,0,0:0:0:0:
320,192,438285,1,0,0:0:0:0:
448,192,438285,1,0,0:0:0:0:
64,192,438285,1,0,0:0:0:0:
192,192,438347,1,0,0:0:0:0:
64,192,438410,1,0,0:0:0:0:
320,192,438410,1,0,0:0:0:0:
448,192,438472,1,0,0:0:0:0:
320,192,438535,1,0,0:0:0:0:
192,192,438535,1,0,0:0:0:0:
64,192,438597,1,0,0:0:0:0:
448,192,438660,1,0,0:0:0:0:
320,192,438722,1,0,0:0:0:0:
192,192,438785,1,0,0:0:0:0:
64,192,438785,1,0,0:0:0:0:
448,192,438785,1,0,0:0:0:0:
320,192,438847,1,0,0:0:0:0:
448,192,438910,1,0,0:0:0:0:
64,192,438972,1,0,0:0:0:0:
192,192,439035,1,0,0:0:0:0:
320,192,439035,1,0,0:0:0:0:
448,192,439097,1,0,0:0:0:0:
64,192,439160,1,0,0:0:0:0:
192,192,439222,1,0,0:0:0:0:
320,192,439285,1,0,0:0:0:0:
448,192,439285,1,0,0:0:0:0:
64,192,439285,1,0,0:0:0:0:
192,192,439347,1,0,0:0:0:0:
448,192,439410,1,0,0:0:0:0:
320,192,439472,1,0,0:0:0:0:
64,192,439535,1,0,0:0:0:0:
192,192,439535,1,0,0:0:0:0:
448,192,439597,1,0,0:0:0:0:
320,192,439660,1,0,0:0:0:0:
192,192,439722,1,0,0:0:0:0:
64,192,439785,1,0,0:0:0:0:
320,192,439785,1,0,0:0:0:0:
448,192,439785,1,0,0:0:0:0:
192,192,439847,1,0,0:0:0:0:
64,192,439910,1,0,0:0:0:0:
448,192,439972,1,0,0:0:0:0:
192,192,440035,1,0,0:0:0:0:
320,192,440035,1,0,0:0:0:0:
64,192,440097,1,0,0:0:0:0:
448,192,440160,1,0,0:0:0:0:
320,192,440222,1,0,0:0:0:0:
192,192,440285,1,0,0:0:0:0:
64,192,440285,1,0,0:0:0:0:
448,192,440285,1,0,0:0:0:0:
320,192,440347,1,0,0:0:0:0:
448,192,440410,1,0,0:0:0:0:
64,192,440472,1,0,0:0:0:0:
320,192,440535,1,0,0:0:0:0:
192,192,440535,1,0,0:0:0:0:
448,192,440597,1,0,0:0:0:0:
64,192,440660,1,0,0:0:0:0:
192,192,440722,1,0,0:0:0:0:
320,192,440785,1,0,0:0:0:0:
448,192,440785,1,0,0:0:0:0:
64,192,440785,1,0,0:0:0:0:
192,192,440847,1,0,0:0:0:0:
320,192,440910,1,0,0:0:0:0:
448,192,440972,1,0,0:0:0:0:
320,192,441035,1,0,0:0:0:0:
64,192,441035,1,0,0:0:0:0:
192,192,441097,1,0,0:0:0:0:
64,192,441160,1,0,0:0:0:0:
448,192,441222,1,0,0:0:0:0:
320,192,441285,1,0,0:0:0:0:
192,192,441285,1,0,0:0:0:0:
64,192,441285,1,0,0:0:0:0:
448,192,441347,1,0,0:0:0:0:
320,192,441410,1,0,0:0:0:0:
192,192,441472,1,0,0:0:0:0:
448,192,441535,1,0,0:0:0:0:
64,192,441535,1,0,0:0:0:0:
320,192,441597,1,0,0:0:0:0:
64,192,441660,1,0,0:0:0:0:
192,192,441722,1,0,0:0:0:0:
320,192,441785,1,0,0:0:0:0:
448,192,441785,1,0,0:0:0:0:
64,192,441785,1,0,0:0:0:0:
192,192,441847,1,0,0:0:0:0:
448,192,441910,1,0,0:0:0:0:
320,192,441972,1,0,0:0:0:0:
192,192,442035,1,0,0:0:0:0:
64,192,442035,1,0,0:0:0:0:
320,192,442097,1,0,0:0:0:0:
448,192,442160,1,0,0:0:0:0:
64,192,442222,1,0,0:0:0:0:
192,192,442285,1,0,0:0:0:0:
320,192,442285,1,0,0:0:0:0:
448,192,442285,1,0,0:0:0:0:
64,192,442347,5,0,0:0:0:0:
448,192,442410,1,0,0:0:0:0:
320,192,442472,1,0,0:0:0:0:
192,192,442535,1,0,0:0:0:0:
64,192,442535,1,0,0:0:0:0:
448,192,442597,1,0,0:0:0:0:
320,192,442660,1,0,0:0:0:0:
192,192,442722,1,0,0:0:0:0:
64,192,442785,5,0,0:0:0:0:
320,192,442785,1,0,0:0:0:0:
448,192,442785,1,0,0:0:0:0:
64,192,443035,5,0,0:0:0:0:
192,192,443035,1,0,0:0:0:0:
448,192,443035,1,0,0:0:0:0:
64,192,443285,5,0,0:0:0:0:
320,192,443285,1,0,0:0:0:0:
448,192,443285,1,0,0:0:0:0:
64,192,443535,5,0,0:0:0:0:
192,192,443535,1,0,0:0:0:0:
448,192,443535,1,0,0:0:0:0:
320,192,443597,1,0,0:0:0:0:
64,192,443660,1,0,0:0:0:0:
448,192,443722,1,0,0:0:0:0:
320,192,443785,1,0,0:0:0:0:
192,192,443785,1,0,0:0:0:0:
64,192,443847,1,0,0:0:0:0:
320,192,443910,1,0,0:0:0:0:
448,192,443910,1,0,0:0:0:0:
192,192,443972,1,0,0:0:0:0:
64,192,444035,1,0,0:0:0:0:
448,192,444035,1,0,0:0:0:0:
320,192,444097,1,0,0:0:0:0:
192,192,444160,1,0,0:0:0:0:
320,192,444222,1,0,0:0:0:0:
64,192,444285,1,0,0:0:0:0:
448,192,444285,1,0,0:0:0:0:
192,192,444347,1,0,0:0:0:0:
320,192,444410,1,0,0:0:0:0:
64,192,444410,1,0,0:0:0:0:
448,192,444472,1,0,0:0:0:0:
192,192,444535,1,0,0:0:0:0:
320,192,444535,1,0,0:0:0:0:
64,192,444597,1,0,0:0:0:0:
448,192,444660,1,0,0:0:0:0:
64,192,444722,1,0,0:0:0:0:
192,192,444785,1,0,0:0:0:0:
448,192,444785,1,0,0:0:0:0:
320,192,444847,1,0,0:0:0:0:
64,192,444910,1,0,0:0:0:0:
192,192,444910,1,0,0:0:0:0:
448,192,444972,1,0,0:0:0:0:
64,192,445035,1,0,0:0:0:0:
320,192,445035,1,0,0:0:0:0:
192,192,445097,1,0,0:0:0:0:
448,192,445160,1,0,0:0:0:0:
64,192,445222,1,0,0:0:0:0:
320,192,445285,1,0,0:0:0:0:
192,192,445285,1,0,0:0:0:0:
448,192,445347,1,0,0:0:0:0:
64,192,445410,1,0,0:0:0:0:
192,192,445410,1,0,0:0:0:0:
320,192,445472,1,0,0:0:0:0:
64,192,445535,1,0,0:0:0:0:
448,192,445535,1,0,0:0:0:0:
192,192,445597,1,0,0:0:0:0:
448,192,445660,1,0,0:0:0:0:
320,192,445722,1,0,0:0:0:0:
192,192,445785,1,0,0:0:0:0:
64,192,445785,1,0,0:0:0:0:
448,192,445847,1,0,0:0:0:0:
320,192,445910,1,0,0:0:0:0:
192,192,445910,1,0,0:0:0:0:
64,192,445972,1,0,0:0:0:0:
448,192,446035,1,0,0:0:0:0:
320,192,446035,1,0,0:0:0:0:
192,192,446097,1,0,0:0:0:0:
448,192,446160,1,0,0:0:0:0:
192,192,446222,1,0,0:0:0:0:
320,192,446285,1,0,0:0:0:0:
64,192,446285,1,0,0:0:0:0:
448,192,446347,1,0,0:0:0:0:
192,192,446410,1,0,0:0:0:0:
64,192,446410,1,0,0:0:0:0:
320,192,446472,1,0,0:0:0:0:
448,192,446535,1,0,0:0:0:0:
192,192,446535,1,0,0:0:0:0:
64,192,446597,1,0,0:0:0:0:
320,192,446660,1,0,0:0:0:0:
448,192,446722,1,0,0:0:0:0:
192,192,446785,1,0,0:0:0:0:
64,192,446785,1,0,0:0:0:0:
448,192,446847,1,0,0:0:0:0:
320,192,446910,1,0,0:0:0:0:
192,192,446910,1,0,0:0:0:0:
64,192,446972,1,0,0:0:0:0:
320,192,447035,1,0,0:0:0:0:
448,192,447035,1,0,0:0:0:0:
192,192,447160,1,0,0:0:0:0:
320,192,447160,1,0,0:0:0:0:
448,192,447160,1,0,0:0:0:0:
320,192,447285,1,0,0:0:0:0:
192,192,447285,1,0,0:0:0:0:
64,192,447285,1,0,0:0:0:0:
64,192,447410,1,0,0:0:0:0:
192,192,447410,1,0,0:0:0:0:
448,192,447410,1,0,0:0:0:0:
64,192,447535,1,0,0:0:0:0:
320,192,447535,1,0,0:0:0:0:
448,192,447535,1,0,0:0:0:0:
192,192,447597,1,0,0:0:0:0:
320,192,447660,1,0,0:0:0:0:
448,192,447722,1,0,0:0:0:0:
192,192,447785,1,0,0:0:0:0:
64,192,447785,1,0,0:0:0:0:
320,192,447847,1,0,0:0:0:0:
448,192,447910,1,0,0:0:0:0:
64,192,447910,1,0,0:0:0:0:
192,192,447972,1,0,0:0:0:0:
320,192,448035,1,0,0:0:0:0:
448,192,448035,1,0,0:0:0:0:
192,192,448097,1,0,0:0:0:0:
64,192,448160,1,0,0:0:0:0:
320,192,448222,1,0,0:0:0:0:
192,192,448285,1,0,0:0:0:0:
448,192,448285,1,0,0:0:0:0:
64,192,448347,1,0,0:0:0:0:
320,192,448410,1,0,0:0:0:0:
448,192,448472,1,0,0:0:0:0:
192,192,448535,1,0,0:0:0:0:
64,192,448535,1,0,0:0:0:0:
320,192,448597,1,0,0:0:0:0:
448,192,448660,1,0,0:0:0:0:
192,192,448722,1,0,0:0:0:0:
320,192,448785,1,0,0:0:0:0:
64,192,448785,1,0,0:0:0:0:
448,192,448847,1,0,0:0:0:0:
192,192,448910,1,0,0:0:0:0:
320,192,448972,1,0,0:0:0:0:
64,192,449035,1,0,0:0:0:0:
448,192,449035,1,0,0:0:0:0:
192,192,449097,1,0,0:0:0:0:
320,192,449160,1,0,0:0:0:0:
448,192,449222,1,0,0:0:0:0:
192,192,449285,1,0,0:0:0:0:
64,192,449285,1,0,0:0:0:0:
320,192,449347,1,0,0:0:0:0:
192,192,449410,1,0,0:0:0:0:
64,192,449472,1,0,0:0:0:0:
320,192,449535,1,0,0:0:0:0:
448,192,449535,1,0,0:0:0:0:
192,192,449597,1,0,0:0:0:0:
64,192,449660,1,0,0:0:0:0:
448,192,449722,1,0,0:0:0:0:
320,192,449785,1,0,0:0:0:0:
192,192,449785,1,0,0:0:0:0:
64,192,449847,1,0,0:0:0:0:
448,192,449910,1,0,0:0:0:0:
320,192,449972,1,0,0:0:0:0:
192,192,450035,1,0,0:0:0:0:
64,192,450035,1,0,0:0:0:0:
448,192,450097,1,0,0:0:0:0:
320,192,450160,1,0,0:0:0:0:
192,192,450222,1,0,0:0:0:0:
64,192,450285,1,0,0:0:0:0:
448,192,450285,1,0,0:0:0:0:
320,192,450347,1,0,0:0:0:0:
192,192,450410,1,0,0:0:0:0:
64,192,450472,1,0,0:0:0:0:
320,192,450535,1,0,0:0:0:0:
448,192,450535,1,0,0:0:0:0:
192,192,450597,1,0,0:0:0:0:
448,192,450660,1,0,0:0:0:0:
192,192,450722,1,0,0:0:0:0:
320,192,450785,1,0,0:0:0:0:
64,192,450785,1,0,0:0:0:0:
448,192,450785,1,0,0:0:0:0:
192,192,450847,1,0,0:0:0:0:
64,192,450910,1,0,0:0:0:0:
320,192,450972,1,0,0:0:0:0:
448,192,451035,1,0,0:0:0:0:
192,192,451035,1,0,0:0:0:0:
64,192,451035,1,0,0:0:0:0:
320,192,451097,1,0,0:0:0:0:
448,192,451160,1,0,0:0:0:0:
192,192,451222,1,0,0:0:0:0:
64,192,451285,1,0,0:0:0:0:
320,192,451285,1,0,0:0:0:0:
448,192,451285,1,0,0:0:0:0:
192,192,451347,1,0,0:0:0:0:
64,192,451410,1,0,0:0:0:0:
320,192,451472,1,0,0:0:0:0:
448,192,451535,1,0,0:0:0:0:
192,192,451535,1,0,0:0:0:0:
64,192,451535,1,0,0:0:0:0:
320,192,451597,1,0,0:0:0:0:
192,192,451660,1,0,0:0:0:0:
64,192,451722,1,0,0:0:0:0:
320,192,451785,1,0,0:0:0:0:
448,192,451785,1,0,0:0:0:0:
192,192,451847,1,0,0:0:0:0:
64,192,451910,1,0,0:0:0:0:
320,192,451972,1,0,0:0:0:0:
448,192,452035,1,0,0:0:0:0:
64,192,452035,1,0,0:0:0:0:
192,192,452097,1,0,0:0:0:0:
448,192,452160,1,0,0:0:0:0:
64,192,452222,1,0,0:0:0:0:
192,192,452285,1,0,0:0:0:0:
320,192,452285,1,0,0:0:0:0:
448,192,452347,1,0,0:0:0:0:
64,192,452410,1,0,0:0:0:0:
192,192,452472,1,0,0:0:0:0:
320,192,452535,1,0,0:0:0:0:
448,192,452535,1,0,0:0:0:0:
448,192,452628,1,0,0:0:0:0:
320,192,452628,1,0,0:0:0:0:
192,192,452706,1,0,0:0:0:0:
64,192,452706,1,0,0:0:0:0:
192,192,452785,1,0,0:0:0:0:
64,192,452785,1,0,0:0:0:0:
448,192,452847,1,0,0:0:0:0:
320,192,452910,1,0,0:0:0:0:
192,192,452972,1,0,0:0:0:0:
64,192,453035,1,0,0:0:0:0:
448,192,453035,1,0,0:0:0:0:
320,192,453097,1,0,0:0:0:0:
192,192,453160,1,0,0:0:0:0:
64,192,453222,1,0,0:0:0:0:
320,192,453285,1,0,0:0:0:0:
448,192,453285,1,0,0:0:0:0:
192,192,453347,1,0,0:0:0:0:
320,192,453410,1,0,0:0:0:0:
448,192,453472,1,0,0:0:0:0:
192,192,453535,1,0,0:0:0:0:
64,192,453535,1,0,0:0:0:0:
320,192,453597,1,0,0:0:0:0:
448,192,453660,1,0,0:0:0:0:
64,192,453722,1,0,0:0:0:0:
192,192,453785,1,0,0:0:0:0:
448,192,453785,1,0,0:0:0:0:
320,192,453847,1,0,0:0:0:0:
192,192,453910,1,0,0:0:0:0:
64,192,453972,1,0,0:0:0:0:
320,192,454035,1,0,0:0:0:0:
448,192,454035,1,0,0:0:0:0:
192,192,454097,1,0,0:0:0:0:
64,192,454160,1,0,0:0:0:0:
320,192,454222,1,0,0:0:0:0:
448,192,454285,1,0,0:0:0:0:
192,192,454285,1,0,0:0:0:0:
64,192,454347,1,0,0:0:0:0:
320,192,454410,1,0,0:0:0:0:
448,192,454472,1,0,0:0:0:0:
192,192,454535,1,0,0:0:0:0:
64,192,454535,1,0,0:0:0:0:
320,192,454597,1,0,0:0:0:0:
192,192,454660,1,0,0:0:0:0:
64,192,454722,1,0,0:0:0:0:
320,192,454785,1,0,0:0:0:0:
448,192,454785,1,0,0:0:0:0:
192,192,454847,1,0,0:0:0:0:
64,192,454910,1,0,0:0:0:0:
448,192,454972,1,0,0:0:0:0:
320,192,455035,1,0,0:0:0:0:
192,192,455035,1,0,0:0:0:0:
64,192,455097,1,0,0:0:0:0:
448,192,455160,1,0,0:0:0:0:
320,192,455222,1,0,0:0:0:0:
192,192,455285,1,0,0:0:0:0:
64,192,455285,1,0,0:0:0:0:
448,192,455347,1,0,0:0:0:0:
320,192,455410,1,0,0:0:0:0:
192,192,455472,1,0,0:0:0:0:
64,192,455535,1,0,0:0:0:0:
448,192,455535,1,0,0:0:0:0:
320,192,455597,1,0,0:0:0:0:
64,192,455660,1,0,0:0:0:0:
192,192,455722,1,0,0:0:0:0:
448,192,455785,1,0,0:0:0:0:
320,192,455785,1,0,0:0:0:0:
64,192,455847,1,0,0:0:0:0:
192,192,455910,1,0,0:0:0:0:
320,192,455910,1,0,0:0:0:0:
448,192,455972,1,0,0:0:0:0:
192,192,456035,1,0,0:0:0:0:
64,192,456035,1,0,0:0:0:0:
448,192,456097,1,0,0:0:0:0:
64,192,456160,1,0,0:0:0:0:
320,192,456222,1,0,0:0:0:0:
448,192,456285,1,0,0:0:0:0:
192,192,456285,1,0,0:0:0:0:
64,192,456347,1,0,0:0:0:0:
448,192,456410,1,0,0:0:0:0:
320,192,456410,1,0,0:0:0:0:
192,192,456472,1,0,0:0:0:0:
320,192,456535,1,0,0:0:0:0:
64,192,456535,1,0,0:0:0:0:
448,192,456597,1,0,0:0:0:0:
64,192,456660,1,0,0:0:0:0:
320,192,456722,1,0,0:0:0:0:
448,192,456785,1,0,0:0:0:0:
192,192,456785,1,0,0:0:0:0:
64,192,456847,1,0,0:0:0:0:
448,192,456910,1,0,0:0:0:0:
320,192,456972,1,0,0:0:0:0:
64,192,457035,1,0,0:0:0:0:
192,192,457035,1,0,0:0:0:0:
448,192,457097,1,0,0:0:0:0:
64,192,457160,1,0,0:0:0:0:
320,192,457222,1,0,0:0:0:0:
192,192,457285,1,0,0:0:0:0:
448,192,457285,1,0,0:0:0:0:
64,192,457347,1,0,0:0:0:0:
320,192,457410,1,0,0:0:0:0:
448,192,457472,1,0,0:0:0:0:
192,192,457535,1,0,0:0:0:0:
64,192,457535,1,0,0:0:0:0:
320,192,457597,1,0,0:0:0:0:
192,192,457660,1,0,0:0:0:0:
448,192,457722,1,0,0:0:0:0:
320,192,457785,1,0,0:0:0:0:
64,192,457785,1,0,0:0:0:0:
192,192,457847,1,0,0:0:0:0:
448,192,457910,1,0,0:0:0:0:
320,192,457910,1,0,0:0:0:0:
64,192,457972,1,0,0:0:0:0:
192,192,458035,1,0,0:0:0:0:
448,192,458035,1,0,0:0:0:0:
320,192,458097,1,0,0:0:0:0:
192,192,458160,1,0,0:0:0:0:
448,192,458222,1,0,0:0:0:0:
64,192,458285,1,0,0:0:0:0:
320,192,458285,1,0,0:0:0:0:
192,192,458347,1,0,0:0:0:0:
64,192,458410,1,0,0:0:0:0:
448,192,458472,1,0,0:0:0:0:
320,192,458535,1,0,0:0:0:0:
64,192,458535,1,0,0:0:0:0:
192,192,458535,1,0,0:0:0:0:
448,192,458597,1,0,0:0:0:0:
320,192,458660,1,0,0:0:0:0:
64,192,458722,1,0,0:0:0:0:
192,192,458785,1,0,0:0:0:0:
320,192,458785,1,0,0:0:0:0:
448,192,458785,1,0,0:0:0:0:
64,192,458847,1,0,0:0:0:0:
192,192,458910,1,0,0:0:0:0:
448,192,458972,1,0,0:0:0:0:
320,192,459035,1,0,0:0:0:0:
192,192,459035,1,0,0:0:0:0:
64,192,459035,1,0,0:0:0:0:
448,192,459097,1,0,0:0:0:0:
320,192,459160,1,0,0:0:0:0:
64,192,459222,1,0,0:0:0:0:
192,192,459285,1,0,0:0:0:0:
448,192,459285,1,0,0:0:0:0:
320,192,459285,1,0,0:0:0:0:
64,192,459347,1,0,0:0:0:0:
192,192,459410,1,0,0:0:0:0:
320,192,459472,1,0,0:0:0:0:
448,192,459535,1,0,0:0:0:0:
64,192,459535,1,0,0:0:0:0:
64,192,459660,1,0,0:0:0:0:
448,192,459660,1,0,0:0:0:0:
192,192,459785,1,0,0:0:0:0:
448,192,459785,1,0,0:0:0:0:
192,192,459910,1,0,0:0:0:0:
448,192,459910,1,0,0:0:0:0:
448,192,460035,1,0,0:0:0:0:
320,192,460035,1,0,0:0:0:0:
448,192,460160,1,0,0:0:0:0:
320,192,460160,1,0,0:0:0:0:
64,192,460285,1,0,0:0:0:0:
320,192,460285,1,0,0:0:0:0:
192,192,460285,1,0,0:0:0:0:
64,192,460410,1,0,0:0:0:0:
320,192,460410,1,0,0:0:0:0:
192,192,460410,1,0,0:0:0:0:
64,192,460535,1,0,0:0:0:0:
448,192,460535,1,0,0:0:0:0:
64,192,460660,1,0,0:0:0:0:
448,192,460660,1,0,0:0:0:0:
320,192,460785,1,0,0:0:0:0:
64,192,460785,1,0,0:0:0:0:
64,192,460910,1,0,0:0:0:0:
320,192,460910,1,0,0:0:0:0:
192,192,461035,1,0,0:0:0:0:
64,192,461035,1,0,0:0:0:0:
192,192,461160,1,0,0:0:0:0:
64,192,461160,1,0,0:0:0:0:
448,192,461285,1,0,0:0:0:0:
192,192,461285,1,0,0:0:0:0:
320,192,461285,1,0,0:0:0:0:
320,192,461410,1,0,0:0:0:0:
192,192,461410,1,0,0:0:0:0:
448,192,461410,1,0,0:0:0:0:
64,192,461535,1,0,0:0:0:0:
448,192,461535,1,0,0:0:0:0:
320,192,461597,1,0,0:0:0:0:
64,192,461660,1,0,0:0:0:0:
192,192,461722,1,0,0:0:0:0:
320,192,461785,1,0,0:0:0:0:
448,192,461785,1,0,0:0:0:0:
64,192,461847,1,0,0:0:0:0:
320,192,461910,1,0,0:0:0:0:
448,192,461972,1,0,0:0:0:0:
64,192,462035,1,0,0:0:0:0:
192,192,462035,1,0,0:0:0:0:
320,192,462097,1,0,0:0:0:0:
192,192,462160,1,0,0:0:0:0:
64,192,462222,1,0,0:0:0:0:
448,192,462285,1,0,0:0:0:0:
320,192,462285,1,0,0:0:0:0:
192,192,462347,1,0,0:0:0:0:
448,192,462410,1,0,0:0:0:0:
320,192,462472,1,0,0:0:0:0:
192,192,462535,1,0,0:0:0:0:
64,192,462535,1,0,0:0:0:0:
448,192,462597,1,0,0:0:0:0:
64,192,462660,1,0,0:0:0:0:
320,192,462722,1,0,0:0:0:0:
192,192,462785,1,0,0:0:0:0:
448,192,462785,1,0,0:0:0:0:
64,192,462847,1,0,0:0:0:0:
448,192,462910,1,0,0:0:0:0:
320,192,462972,1,0,0:0:0:0:
192,192,463035,1,0,0:0:0:0:
64,192,463035,1,0,0:0:0:0:
320,192,463097,1,0,0:0:0:0:
448,192,463097,1,0,0:0:0:0:
192,192,463160,1,0,0:0:0:0:
64,192,463160,1,0,0:0:0:0:
320,192,463222,1,0,0:0:0:0:
448,192,463222,1,0,0:0:0:0:
192,192,463285,1,0,0:0:0:0:
64,192,463285,1,0,0:0:0:0:
320,192,463347,1,0,0:0:0:0:
448,192,463347,1,0,0:0:0:0:
192,192,463410,1,0,0:0:0:0:
64,192,463410,1,0,0:0:0:0:
448,192,463472,1,0,0:0:0:0:
320,192,463472,1,0,0:0:0:0:
192,192,463535,128,0,467535:0:0:0:0:
64,192,463535,128,0,467535:0:0:0:0:
320,192,463535,1,0,0:0:0:0:
448,192,463535,1,0,0:0:0:0:
