osu file format v14

[General]
AudioFilename: 16th-dan.mp3
AudioLeadIn: 0
PreviewTime: 39017
Countdown: 0
SampleSet: None
StackLeniency: 0.7
Mode: 1
LetterboxInBreaks: 0
WidescreenStoryboard: 1

[Editor]
Bookmarks: 228,163586,291308
DistanceSpacing: 0.5
BeatDivisor: 4
GridSize: 32
TimelineZoom: 2.899999

[Metadata]
Title:osu!Taiko Dan-i Dojo (Part.3)
TitleUnicode:osu!Taiko 段位道場
Artist:Various Artists
ArtistUnicode:Various Artists
Creator:tasuke912
Version:16th Dan
Source:
Tags:danni dani doujou
BeatmapID:2295715
BeatmapSetID:912120

[Difficulty]
HPDrainRate:6
CircleSize:4
OverallDifficulty:7
ApproachRate:7.2
SliderMultiplier:1.4
SliderTickRate:1

[Events]
//Background and Video events
0,0,"bg_16.jpg",0,130
//Break Periods
2,285932,291295
//Storyboard Layer 0 (Background)
Sprite,Background,Centre,"bg_16.jpg",320,240 F,0,0,,0
Sprite,Background,Centre,"BG\16\1.jpg",320,0 S,0,-1272,,0.625 MY,0,-1272,,380 F,0,-1272,-772,0,1 F,0,162086,162586,1,0
Sprite,Background,Centre,"BG\16\2.jpg",320,0 S,0,162086,,0.625 MY,0,162086,,380 F,0,162086,162586,0,1 F,0,289808,290308,1,0
Sprite,Background,Centre,"BG\16\3.jpg",320,0 S,0,289808,,0.625 MY,0,289808,,380 F,0,289808,290308,0,1 F,0,420165,420665,1,0
//Storyboard Layer 1 (Fail)
//Storyboard Layer 2 (Pass)
//Storyboard Layer 3 (Foreground)
Sprite,Foreground,TopCentre,"BG\black.png",320,0 F,0,-1772,-1272,0,1 MY,0,-1272,,0 V,0,-1272,,3,3.2 F,0,421165,422165,1,0
Sprite,Foreground,Centre,"BG\stage.png",0,0 F,0,-1772,-1272,0,1 M,0,-1272,,680,105 V,0,-1272,,0.4,0.3 F,0,421165,422165,1,0
Sprite,Foreground,CentreLeft,"BG\stage.png",0,0 F,0,-1772,-1272,0,1 M,0,-1272,,270,272 V,0,-1272,,0.3,0.22 F,0,421165,422165,1,0
Sprite,Foreground,CentreLeft,"BG\stage.png",0,0 F,0,-1772,-1272,0,1 P,0,-1772,422165,H M,0,-1272,,420,272 V,0,-1272,,0.8,0.22 F,0,421165,422165,1,0
Sprite,Foreground,CentreLeft,"BG\line.png",0,0 C,0,-1272,,255,195,76 F,0,-772,,1 V,0,-772,162086,0,0.5,0.237,0.5 M,0,0,,597,122 P,0,0,,A F,0,160886,162086,1,0 C,0,162086,,255,127,233 F,0,162586,,1 V,0,162586,289808,0,0.5,0.237,0.5 F,0,288608,289808,1,0 C,0,289808,,102,153,255 F,0,290308,,1 V,0,290308,420165,0,0.5,0.237,0.5 F,0,418965,420165,1,0
Sprite,Foreground,TopLeft,"SB\fonts\0074.png",0,0 P,0,-272,161886,A F,0,125,1125,0,1 S,1,125,1125,0.525,0.35 MX,1,125,1125,10.29999,299.3 MY,1,125,1125,270.6,264.6 F,0,160886,161886,1,0
Sprite,Foreground,TopLeft,"SB\fonts\002b.png",0,0 P,0,-272,161886,A F,0,143,1143,0,1 S,1,143,1143,0.525,0.35 MX,1,143,1143,187.25,305.25 MY,1,143,1143,394.35,266.35 F,0,160886,161886,1,0
Sprite,Foreground,TopLeft,"SB\fonts\0070.png",0,0 P,0,-272,161886,A F,0,167,1167,0,1 S,1,167,1167,0.525,0.35 MX,1,167,1167,522.3,313.3 MY,1,167,1167,434.7,266.7 F,0,160886,161886,1,0
Sprite,Foreground,TopLeft,"SB\fonts\0061.png",0,0 P,0,-272,161886,A F,0,197,1197,0,1 S,1,197,1197,0.525,0.35 MX,1,197,1197,236.1,323.1 MY,1,197,1197,507.7,266.7 F,0,160886,161886,1,0
Sprite,Foreground,TopLeft,"SB\fonts\007a.png",0,0 P,0,-272,161886,A F,0,222,1222,0,1 S,1,222,1222,0.525,0.35 MX,1,222,1222,305.5,331.5 MY,1,222,1222,542.7,266.7 F,0,160886,161886,1,0
Sprite,Foreground,TopLeft,"SB\fonts\006f.png",0,0 P,0,-272,161886,A F,0,247,1247,0,1 S,1,247,1247,0.525,0.35 MX,1,247,1247,331.9,339.9 MY,1,247,1247,256.7,266.7 F,0,160886,161886,1,0
Sprite,Foreground,TopLeft,"SB\fonts\006c.png",0,0 P,0,-272,161886,A F,0,272,1272,0,1 S,1,272,1272,0.525,0.35 MX,1,272,1272,335.3,348.3 MY,1,272,1272,240.85,262.85 F,0,160886,161886,1,0
Sprite,Foreground,TopLeft,"SB\fonts\0069.png",0,0 P,0,-272,161886,A F,0,287,1287,0,1 S,1,287,1287,0.525,0.35 MX,1,287,1287,547.2,353.2 MY,1,287,1287,423.55,263.55 F,0,160886,161886,1,0
Sprite,Foreground,TopLeft,"SB\fonts\0074.png",0,0 P,0,-272,161886,A F,0,303,1303,0,1 S,1,303,1303,0.525,0.35 MX,1,303,1303,255.45,358.45 MY,1,303,1303,481.6,264.6 F,0,160886,161886,1,0
Sprite,Foreground,TopLeft,"SB\fonts\0065.png",0,0 P,0,-272,161886,A F,0,320,1320,0,1 S,1,320,1320,0.525,0.35 MX,1,320,1320,647.05,364.05 MY,1,320,1320,554.7,266.7 F,0,160886,161886,1,0
Sprite,Foreground,TopLeft,"SB\fonts\002d.png",0,0 P,0,-272,161886,A F,0,354,1354,0,1 S,1,354,1354,0.525,0.35 MX,1,354,1354,259.6,375.6 MY,1,354,1354,416.85,269.85 F,0,160886,161886,1,0
Sprite,Foreground,TopLeft,"SB\fonts\0047.png",0,0 P,0,-272,161886,A F,0,384,1384,0,1 S,1,384,1384,0.525,0.35 MX,1,384,1384,367.4001,385.4001 MY,1,384,1384,542.55,263.55 F,0,160886,161886,1,0
Sprite,Foreground,TopLeft,"SB\fonts\0061.png",0,0 P,0,-272,161886,A F,0,413,1413,0,1 S,1,413,1413,0.525,0.35 MX,1,413,1413,197.2,395.2 MY,1,413,1413,250.7,266.7 F,0,160886,161886,1,0
Sprite,Foreground,TopLeft,"SB\fonts\0072.png",0,0 P,0,-272,161886,A F,0,440,1440,0,1 S,1,440,1440,0.525,0.35 MX,1,440,1440,517.3,404.3 MY,1,440,1440,413.7,266.7 F,0,160886,161886,1,0
Sprite,Foreground,TopLeft,"SB\fonts\0061.png",0,0 P,0,-272,161886,A F,0,461,1461,0,1 S,1,461,1461,0.525,0.35 MX,1,461,1461,363.3,411.3 MY,1,461,1461,171.7,266.7 F,0,160886,161886,1,0
Sprite,Foreground,TopLeft,"SB\fonts\006b.png",0,0 P,0,-272,161886,A F,0,488,1488,0,1 S,1,488,1488,0.525,0.35 MX,1,488,1488,660.05,420.05 MY,1,488,1488,445.85,262.85 F,0,160886,161886,1,0
Sprite,Foreground,TopLeft,"SB\fonts\0075.png",0,0 P,0,-272,161886,A F,0,515,1515,0,1 S,1,515,1515,0.525,0.35 MX,1,515,1515,457.1501,429.1501 MY,1,515,1515,407.7,266.7 F,0,160886,161886,1,0
Sprite,Foreground,TopLeft,"SB\fonts\0074.png",0,0 P,0,-272,161886,A F,0,542,1542,0,1 S,1,542,1542,0.525,0.35 MX,1,542,1542,281.2501,438.2501 MY,1,542,1542,469.6,264.6 F,0,160886,161886,1,0
Sprite,Foreground,TopLeft,"SB\fonts\0061.png",0,0 P,0,-272,161886,A F,0,559,1559,0,1 S,1,559,1559,0.525,0.35 MX,1,559,1559,571.8501,443.8501 MY,1,559,1559,424.7,266.7 F,0,160886,161886,1,0
Sprite,Foreground,TopLeft,"SB\fonts\0044.png",0,0 P,0,-272,161886,A F,0,597,1597,0,1 S,1,597,1597,0.525,0.35 MX,1,597,1597,194.4501,456.4501 MY,1,597,1597,387.55,263.55 F,0,160886,161886,1,0
Sprite,Foreground,TopLeft,"SB\fonts\006f.png",0,0 P,0,-272,161886,A F,0,632,1632,0,1 S,1,632,1632,0.525,0.35 MX,1,632,1632,464.0001,468.0001 MY,1,632,1632,191.7,266.7 F,0,160886,161886,1,0
Sprite,Foreground,TopLeft,"SB\fonts\006c.png",0,0 P,0,-272,161886,A F,0,657,1657,0,1 S,1,657,1657,0.525,0.35 MX,1,657,1657,464.4001,476.4001 MY,1,657,1657,373.85,262.85 F,0,160886,161886,1,0
Sprite,Foreground,TopLeft,"SB\fonts\006c.png",0,0 P,0,-272,161886,A F,0,670,1670,0,1 S,1,670,1670,0.525,0.35 MX,1,670,1670,777.9501,480.9501 MY,1,670,1670,168.85,262.85 F,0,160886,161886,1,0
Sprite,Foreground,TopLeft,"SB\fonts\0050.png",0,0 P,0,-272,161886,A F,0,696,1696,0,1 S,1,696,1696,0.525,0.35 MX,1,696,1696,235.3501,489.3501 MY,1,696,1696,234.55,263.55 F,0,160886,161886,1,0
Sprite,Foreground,TopLeft,"SB\fonts\006c.png",0,0 P,0,-272,161886,A F,0,724,1724,0,1 S,1,724,1724,0.525,0.35 MX,1,724,1724,246.8001,498.8001 MY,1,724,1724,520.85,262.85 F,0,160886,161886,1,0
Sprite,Foreground,TopLeft,"SB\fonts\0061.png",0,0 P,0,-272,161886,A F,0,739,1739,0,1 S,1,739,1739,0.525,0.35 MX,1,739,1739,539.7001,503.7001 MY,1,739,1739,500.7,266.7 F,0,160886,161886,1,0
Sprite,Foreground,TopLeft,"SB\fonts\0079.png",0,0 P,0,-272,161886,A F,0,764,1764,0,1 S,1,764,1764,0.525,0.35 MX,1,764,1764,231.1001,512.1001 MY,1,764,1764,175.7,266.7 F,0,160886,161886,1,0
Sprite,Foreground,TopLeft,"SB\fonts\0028.png",0,0 P,0,-272,161886,A F,0,802,1802,0,1 S,1,802,1802,0.525,0.35 MX,1,802,1802,335.7,524.7 MY,1,802,1802,322.85,262.85 F,0,160886,161886,1,0
Sprite,Foreground,TopLeft,"SB\fonts\0073.png",0,0 P,0,-272,161886,A F,0,818,1818,0,1 S,1,818,1818,0.525,0.35 MX,1,818,1818,707.3,530.3 MY,1,818,1818,307.7,266.7 F,0,160886,161886,1,0
Sprite,Foreground,TopLeft,"SB\fonts\0061.png",0,0 P,0,-272,161886,A F,0,840,1840,0,1 S,1,840,1840,0.525,0.35 MX,1,840,1840,477.65,537.65 MY,1,840,1840,421.7,266.7 F,0,160886,161886,1,0
Sprite,Foreground,TopLeft,"SB\fonts\0073.png",0,0 P,0,-272,161886,A F,0,866,1866,0,1 S,1,866,1866,0.525,0.35 MX,1,866,1866,834.05,546.05 MY,1,866,1866,460.7,266.7 F,0,160886,161886,1,0
Sprite,Foreground,TopLeft,"SB\fonts\0061.png",0,0 P,0,-272,161886,A F,0,888,1888,0,1 S,1,888,1888,0.525,0.35 MX,1,888,1888,512.4,553.4 MY,1,888,1888,343.7,266.7 F,0,160886,161886,1,0
Sprite,Foreground,TopLeft,"SB\fonts\006b.png",0,0 P,0,-272,161886,A F,0,914,1914,0,1 S,1,914,1914,0.525,0.35 MX,1,914,1914,285.15,562.15 MY,1,914,1914,473.85,262.85 F,0,160886,161886,1,0
Sprite,Foreground,TopLeft,"SB\fonts\0075.png",0,0 P,0,-272,161886,A F,0,941,1941,0,1 S,1,941,1941,0.525,0.35 MX,1,941,1941,679.2501,571.2501 MY,1,941,1941,516.7,266.7 F,0,160886,161886,1,0
Sprite,Foreground,TopLeft,"SB\fonts\0072.png",0,0 P,0,-272,161886,A F,0,968,1968,0,1 S,1,968,1968,0.525,0.35 MX,1,968,1968,854,580 MY,1,968,1968,190.7,266.7 F,0,160886,161886,1,0
Sprite,Foreground,TopLeft,"SB\fonts\0065.png",0,0 P,0,-272,161886,A F,0,989,1989,0,1 S,1,989,1989,0.525,0.35 MX,1,989,1989,848,587 MY,1,989,1989,438.7,266.7 F,0,160886,161886,1,0
Sprite,Foreground,TopLeft,"SB\fonts\002e.png",0,0 P,0,-272,161886,A F,0,1010,2010,0,1 S,1,1010,2010,0.525,0.35 MX,1,1010,2010,731.0001,594.0001 MY,1,1010,2010,337,273 F,0,160886,161886,1,0
Sprite,Foreground,TopLeft,"SB\fonts\0055.png",0,0 P,0,-272,161886,A F,0,1024,2024,0,1 S,1,1024,2024,0.525,0.35 MX,1,1024,2024,583.9,598.9 MY,1,1024,2024,261.55,263.55 F,0,160886,161886,1,0
Sprite,Foreground,TopLeft,"SB\fonts\004b.png",0,0 P,0,-272,161886,A F,0,1054,2054,0,1 S,1,1054,2054,0.525,0.35 MX,1,1054,2054,391.7,608.7 MY,1,1054,2054,539.55,263.55 F,0,160886,161886,1,0
Sprite,Foreground,TopLeft,"SB\fonts\0063.png",0,0 P,0,-272,161886,A F,0,1097,2097,0,1 S,1,1097,2097,0.525,0.35 MX,1,1097,2097,895.05,623.05 MY,1,1097,2097,227.7,266.7 F,0,160886,161886,1,0
Sprite,Foreground,TopLeft,"SB\fonts\006c.png",0,0 P,0,-272,161886,A F,0,1118,2118,0,1 S,1,1118,2118,0.525,0.35 MX,1,1118,2118,410.05,630.05 MY,1,1118,2118,366.85,262.85 F,0,160886,161886,1,0
Sprite,Foreground,TopLeft,"SB\fonts\0075.png",0,0 P,0,-272,161886,A F,0,1133,2133,0,1 S,1,1133,2133,0.525,0.35 MX,1,1133,2133,657.3,635.3 MY,1,1133,2133,376.7,266.7 F,0,160886,161886,1,0
Sprite,Foreground,TopLeft,"SB\fonts\0074.png",0,0 P,0,-272,161886,A F,0,1161,2161,0,1 S,1,1161,2161,0.525,0.35 MX,1,1161,2161,615.4,644.4 MY,1,1161,2161,190.6,264.6 F,0,160886,161886,1,0
Sprite,Foreground,TopLeft,"SB\fonts\0074.png",0,0 P,0,-272,161886,A F,0,1179,2179,0,1 S,1,1179,2179,0.525,0.35 MX,1,1179,2179,755.35,650.35 MY,1,1179,2179,373.6,264.6 F,0,160886,161886,1,0
Sprite,Foreground,TopLeft,"SB\fonts\0065.png",0,0 P,0,-272,161886,A F,0,1195,2195,0,1 S,1,1195,2195,0.525,0.35 MX,1,1195,2195,605.95,655.95 MY,1,1195,2195,501.7,266.7 F,0,160886,161886,1,0
Sprite,Foreground,TopLeft,"SB\fonts\0072.png",0,0 P,0,-272,161886,A F,0,1218,2218,0,1 S,1,1218,2218,0.525,0.35 MX,1,1218,2218,943.65,663.65 MY,1,1218,2218,309.7,266.7 F,0,160886,161886,1,0
Sprite,Foreground,TopLeft,"SB\fonts\0072.png",0,0 P,0,-272,161886,A F,0,1251,2251,0,1 S,1,1251,2251,0.525,0.35 MX,1,1251,2251,521.4999,674.4999 MY,1,1251,2251,336.7,266.7 F,0,160886,161886,1,0
Sprite,Foreground,TopLeft,"SB\fonts\0065.png",0,0 P,0,-272,161886,A F,0,1272,2272,0,1 S,1,1272,2272,0.525,0.35 MX,1,1272,2272,728.4999,681.4999 MY,1,1272,2272,469.7,266.7 F,0,160886,161886,1,0
Sprite,Foreground,TopLeft,"SB\fonts\006d.png",0,0 P,0,-272,161886,A F,0,1295,2295,0,1 S,1,1295,2295,0.525,0.35 MX,1,1295,2295,767.2,689.2 MY,1,1295,2295,180.7,266.7 F,0,160886,161886,1,0
Sprite,Foreground,TopLeft,"SB\fonts\0069.png",0,0 P,0,-272,161886,A F,0,1336,2336,0,1 S,1,1336,2336,0.525,0.35 MX,1,1336,2336,695.85,702.85 MY,1,1336,2336,249.55,263.55 F,0,160886,161886,1,0
Sprite,Foreground,TopLeft,"SB\fonts\0078.png",0,0 P,0,-272,161886,A F,0,1349,2349,0,1 S,1,1349,2349,0.525,0.35 MX,1,1349,2349,609.05,707.05 MY,1,1349,2349,246.7,266.7 F,0,160886,161886,1,0
Sprite,Foreground,TopLeft,"SB\fonts\0029.png",0,0 P,0,-272,161886,A F,0,1372,2372,0,1 S,1,1372,2372,0.525,0.35 MX,1,1372,2372,546.7501,714.7501 MY,1,1372,2372,170.85,262.85 F,0,160886,161886,1,0
Sprite,Foreground,Centre,"SB\1st.png",0,0 M,0,-272,,670,104 S,0,-272,,0.6 P,0,-272,,A F,0,-272,728,0,1 F,0,160886,161886,1,0
Sprite,Foreground,TopLeft,"SB\fonts\0074.png",0,0 P,0,163086,289608,A F,0,163705,164705,0,1 S,1,163705,164705,0.6,0.4 MX,1,163705,164705,648.2,373.2 MY,1,163705,164705,516.4,265.4 F,0,288608,289608,1,0
Sprite,Foreground,TopLeft,"SB\fonts\002b.png",0,0 P,0,163086,289608,A F,0,163726,164726,0,1 S,1,163726,164726,0.6,0.4 MX,1,163726,164726,143,380 MY,1,163726,164726,415.4,267.4 F,0,288608,289608,1,0
Sprite,Foreground,TopLeft,"SB\fonts\0070.png",0,0 P,0,163086,289608,A F,0,163753,164753,0,1 S,1,163753,164753,0.6,0.4 MX,1,163753,164753,418.2,389.2 MY,1,163753,164753,543.8,267.8 F,0,288608,289608,1,0
Sprite,Foreground,TopLeft,"SB\fonts\0061.png",0,0 P,0,163086,289608,A F,0,163787,164787,0,1 S,1,163787,164787,0.6,0.4 MX,1,163787,164787,257.4,400.4 MY,1,163787,164787,508.8,267.8 F,0,288608,289608,1,0
Sprite,Foreground,TopLeft,"SB\fonts\007a.png",0,0 P,0,163086,289608,A F,0,163816,164816,0,1 S,1,163816,164816,0.6,0.4 MX,1,163816,164816,350,410 MY,1,163816,164816,265.8,267.8 F,0,288608,289608,1,0
Sprite,Foreground,TopLeft,"SB\fonts\006f.png",0,0 P,0,163086,289608,A F,0,163844,164844,0,1 S,1,163844,164844,0.6,0.4 MX,1,163844,164844,422.6,419.6 MY,1,163844,164844,355.8,267.8 F,0,288608,289608,1,0
Sprite,Foreground,TopLeft,"SB\fonts\006c.png",0,0 P,0,163086,289608,A F,0,163873,164873,0,1 S,1,163873,164873,0.6,0.4 MX,1,163873,164873,247.2,429.2 MY,1,163873,164873,525.4,263.4 F,0,288608,289608,1,0
Sprite,Foreground,TopLeft,"SB\fonts\0069.png",0,0 P,0,163086,289608,A F,0,163890,164890,0,1 S,1,163890,164890,0.6,0.4 MX,1,163890,164890,729.8,434.8 MY,1,163890,164890,553.2,264.2 F,0,288608,289608,1,0
Sprite,Foreground,TopLeft,"SB\fonts\0074.png",0,0 P,0,163086,289608,A F,0,163908,164908,0,1 S,1,163908,164908,0.6,0.4 MX,1,163908,164908,202.8,440.8 MY,1,163908,164908,227.4,265.4 F,0,288608,289608,1,0
Sprite,Foreground,TopLeft,"SB\fonts\0065.png",0,0 P,0,163086,289608,A F,0,163927,164927,0,1 S,1,163927,164927,0.6,0.4 MX,1,163927,164927,421.2,447.2 MY,1,163927,164927,214.8,267.8 F,0,288608,289608,1,0
Sprite,Foreground,TopLeft,"SB\fonts\002d.png",0,0 P,0,163086,289608,A F,0,163967,164967,0,1 S,1,163967,164967,0.6,0.4 MX,1,163967,164967,215.4,460.4 MY,1,163967,164967,401.4,271.4 F,0,288608,289608,1,0
Sprite,Foreground,TopLeft,"SB\fonts\0047.png",0,0 P,0,163086,289608,A F,0,164000,165000,0,1 S,1,164000,165000,0.6,0.4 MX,1,164000,165000,432.5999,471.5999 MY,1,164000,165000,285.2,264.2 F,0,288608,289608,1,0
Sprite,Foreground,TopLeft,"SB\fonts\006f.png",0,0 P,0,163086,289608,A F,0,164034,165034,0,1 S,1,164034,165034,0.6,0.4 MX,1,164034,165034,682.7999,482.8 MY,1,164034,165034,453.8,267.8 F,0,288608,289608,1,0
Sprite,Foreground,TopLeft,"SB\fonts\006f.png",0,0 P,0,163086,289608,A F,0,164064,165064,0,1 S,1,164064,165064,0.6,0.4 MX,1,164064,165064,560.7999,492.8 MY,1,164064,165064,207.8,267.8 F,0,288608,289608,1,0
Sprite,Foreground,TopLeft,"SB\fonts\0064.png",0,0 P,0,163086,289608,A F,0,164094,165094,0,1 S,1,164094,165094,0.6,0.4 MX,1,164094,165094,473.8,502.8 MY,1,164094,165094,457.4,263.4 F,0,288608,289608,1,0
Sprite,Foreground,TopLeft,"SB\fonts\004e.png",0,0 P,0,163086,289608,A F,0,164137,165137,0,1 S,1,164137,165137,0.6,0.4 MX,1,164137,165137,707.2,517.2 MY,1,164137,165137,536.2,264.2 F,0,288608,289608,1,0
Sprite,Foreground,TopLeft,"SB\fonts\0069.png",0,0 P,0,163086,289608,A F,0,164178,165178,0,1 S,1,164178,165178,0.6,0.4 MX,1,164178,165178,403.8,530.8 MY,1,164178,165178,370.2,264.2 F,0,288608,289608,1,0
Sprite,Foreground,TopLeft,"SB\fonts\0067.png",0,0 P,0,163086,289608,A F,0,164192,165192,0,1 S,1,164192,165192,0.6,0.4 MX,1,164192,165192,575.6,535.6 MY,1,164192,165192,396.8,267.8 F,0,288608,289608,1,0
Sprite,Foreground,TopLeft,"SB\fonts\0068.png",0,0 P,0,163086,289608,A F,0,164225,165225,0,1 S,1,164225,165225,0.6,0.4 MX,1,164225,165225,822.4,546.4 MY,1,164225,165225,184.4,263.4 F,0,288608,289608,1,0
Sprite,Foreground,TopLeft,"SB\fonts\0074.png",0,0 P,0,163086,289608,A F,0,164258,165258,0,1 S,1,164258,165258,0.6,0.4 MX,1,164258,165258,841.6,557.6 MY,1,164258,165258,356.4,265.4 F,0,288608,289608,1,0
Sprite,Foreground,TopLeft,"SB\fonts\002c.png",0,0 P,0,163086,289608,A F,0,164275,165275,0,1 S,1,164275,165275,0.6,0.4 MX,1,164275,165275,608.2,563.2 MY,1,164275,165275,220,275 F,0,288608,289608,1,0
Sprite,Foreground,TopLeft,"SB\fonts\0042.png",0,0 P,0,163086,289608,A F,0,164302,165302,0,1 S,1,164302,165302,0.6,0.4 MX,1,164302,165302,847.0001,572.0001 MY,1,164302,165302,563.2,264.2 F,0,288608,289608,1,0
Sprite,Foreground,TopLeft,"SB\fonts\0061.png",0,0 P,0,163086,289608,A F,0,164338,165338,0,1 S,1,164338,165338,0.6,0.4 MX,1,164338,165338,835.0001,584.0001 MY,1,164338,165338,210.8,267.8 F,0,288608,289608,1,0
Sprite,Foreground,TopLeft,"SB\fonts\0064.png",0,0 P,0,163086,289608,A F,0,164369,165369,0,1 S,1,164369,165369,0.6,0.4 MX,1,164369,165369,630.4001,594.4001 MY,1,164369,165369,452.4,263.4 F,0,288608,289608,1,0
Sprite,Foreground,TopLeft,"SB\fonts\004c.png",0,0 P,0,163086,289608,A F,0,164412,165412,0,1 S,1,164412,165412,0.6,0.4 MX,1,164412,165412,334.8001,608.8001 MY,1,164412,165412,370.2,264.2 F,0,288608,289608,1,0
Sprite,Foreground,TopLeft,"SB\fonts\0075.png",0,0 P,0,163086,289608,A F,0,164446,165446,0,1 S,1,164446,165446,0.6,0.4 MX,1,164446,165446,387.0001,620.0001 MY,1,164446,165446,239.8,267.8 F,0,288608,289608,1,0
Sprite,Foreground,TopLeft,"SB\fonts\0063.png",0,0 P,0,163086,289608,A F,0,164476,165476,0,1 S,1,164476,165476,0.6,0.4 MX,1,164476,165476,775.0002,630.0002 MY,1,164476,165476,207.8,267.8 F,0,288608,289608,1,0
Sprite,Foreground,TopLeft,"SB\fonts\006b.png",0,0 P,0,163086,289608,A F,0,164500,165500,0,1 S,1,164500,165500,0.6,0.4 MX,1,164500,165500,895.0002,638.0002 MY,1,164500,165500,315.4,263.4 F,0,288608,289608,1,0
Sprite,Foreground,Centre,"SB\2nd.png",0,0 M,0,163086,,670,104 S,0,163086,,0.6 P,0,163086,,A F,0,163086,164086,0,1 F,0,288608,289608,1,0
Sprite,Foreground,TopLeft,"SB\fonts\004d.png",0,0 P,0,290808,419965,A F,0,291541,292541,0,1 S,1,291541,292541,0.6,0.4 MX,1,291541,292541,376,411 MY,1,291541,292541,484.2,264.2 F,0,418965,419965,1,0
Sprite,Foreground,TopLeft,"SB\fonts\0065.png",0,0 P,0,290808,419965,A F,0,291589,292589,0,1 S,1,291589,292589,0.6,0.4 MX,1,291589,292589,599,427 MY,1,291589,292589,499.8,267.8 F,0,418965,419965,1,0
Sprite,Foreground,TopLeft,"SB\fonts\006d.png",0,0 P,0,290808,419965,A F,0,291615,292615,0,1 S,1,291615,292615,0.6,0.4 MX,1,291615,292615,330.8,435.8 MY,1,291615,292615,231.8,267.8 F,0,418965,419965,1,0
Sprite,Foreground,TopLeft,"SB\fonts\006d.png",0,0 P,0,290808,419965,A F,0,291662,292662,0,1 S,1,291662,292662,0.6,0.4 MX,1,291662,292662,392.4,451.4 MY,1,291662,292662,432.8,267.8 F,0,418965,419965,1,0
Sprite,Foreground,TopLeft,"SB\fonts\0065.png",0,0 P,0,290808,419965,A F,0,291709,292709,0,1 S,1,291709,292709,0.6,0.4 MX,1,291709,292709,424,467 MY,1,291709,292709,396.8,267.8 F,0,418965,419965,1,0
Sprite,Foreground,TopLeft,"SB\fonts\002d.png",0,0 P,0,290808,419965,A F,0,291748,292748,0,1 S,1,291748,292748,0.6,0.4 MX,1,291748,292748,288.2,480.2 MY,1,291748,292748,443.4,271.4 F,0,418965,419965,1,0
Sprite,Foreground,TopLeft,"SB\fonts\0050.png",0,0 P,0,290808,419965,A F,0,291779,292779,0,1 S,1,291779,292779,0.6,0.4 MX,1,291779,292779,394.6,490.6 MY,1,291779,292779,331.2,264.2 F,0,418965,419965,1,0
Sprite,Foreground,TopLeft,"SB\fonts\0061.png",0,0 P,0,290808,419965,A F,0,291813,292813,0,1 S,1,291813,292813,0.6,0.4 MX,1,291813,292813,208.8,501.8 MY,1,291813,292813,187.8,267.8 F,0,418965,419965,1,0
Sprite,Foreground,TopLeft,"SB\fonts\006e.png",0,0 P,0,290808,419965,A F,0,291844,292844,0,1 S,1,291844,292844,0.6,0.4 MX,1,291844,292844,321.2,512.2 MY,1,291844,292844,559.8,267.8 F,0,418965,419965,1,0
Sprite,Foreground,TopLeft,"SB\fonts\0064.png",0,0 P,0,290808,419965,A F,0,291875,292875,0,1 S,1,291875,292875,0.6,0.4 MX,1,291875,292875,548.6,522.6 MY,1,291875,292875,554.4,263.4 F,0,418965,419965,1,0
Sprite,Foreground,TopLeft,"SB\fonts\0065.png",0,0 P,0,290808,419965,A F,0,291907,292907,0,1 S,1,291907,292907,0.6,0.4 MX,1,291907,292907,604,533 MY,1,291907,292907,341.8,267.8 F,0,418965,419965,1,0
Sprite,Foreground,TopLeft,"SB\fonts\006d.png",0,0 P,0,290808,419965,A F,0,291933,292933,0,1 S,1,291933,292933,0.6,0.4 MX,1,291933,292933,471.8,541.8 MY,1,291933,292933,457.8,267.8 F,0,418965,419965,1,0
Sprite,Foreground,TopLeft,"SB\fonts\006f.png",0,0 P,0,290808,419965,A F,0,291980,292980,0,1 S,1,291980,292980,0.6,0.4 MX,1,291980,292980,350.4,557.4 MY,1,291980,292980,523.8,267.8 F,0,418965,419965,1,0
Sprite,Foreground,TopLeft,"SB\fonts\006e.png",0,0 P,0,290808,419965,A F,0,292010,293010,0,1 S,1,292010,293010,0.6,0.4 MX,1,292010,293010,301.4,567.4 MY,1,292010,293010,541.8,267.8 F,0,418965,419965,1,0
Sprite,Foreground,TopLeft,"SB\fonts\0069.png",0,0 P,0,290808,419965,A F,0,292041,293041,0,1 S,1,292041,293041,0.6,0.4 MX,1,292041,293041,651.8,577.8 MY,1,292041,293041,418.2,264.2 F,0,418965,419965,1,0
Sprite,Foreground,TopLeft,"SB\fonts\0075.png",0,0 P,0,290808,419965,A F,0,292059,293059,0,1 S,1,292059,293059,0.6,0.4 MX,1,292059,293059,396.7999,583.7999 MY,1,292059,293059,242.8,267.8 F,0,418965,419965,1,0
Sprite,Foreground,TopLeft,"SB\fonts\006d.png",0,0 P,0,290808,419965,A F,0,292089,293089,0,1 S,1,292089,293089,0.6,0.4 MX,1,292089,293089,645.8,593.8 MY,1,292089,293089,241.8,267.8 F,0,418965,419965,1,0
Sprite,Foreground,Centre,"SB\3rd.png",0,0 M,0,290808,,670,104 S,0,290808,,0.6 P,0,290808,,A F,0,290808,291808,0,1 F,0,418965,419965,1,0
//Storyboard Layer 4 (Overlay)
//Storyboard Sound Samples

[TimingPoints]
228,234.375,4,1,0,60,1,0
228,-200,4,1,0,60,0,0
6087,-200,4,1,0,20,0,0
8665,-100,4,1,0,75,0,0
32103,234.375,4,1,0,70,1,0
38665,-100,4,1,0,5,0,0
39075,-100,4,1,0,40,0,0
39603,-100,4,1,0,60,0,0
47103,-100,4,1,0,80,0,1
54603,-100,4,1,0,80,0,0
68665,-100,4,1,0,60,0,0
69605,234.375,6,1,0,80,1,8
69722,-133.333333333333,6,1,0,80,0,0
91399,234.375,4,1,0,80,1,0
102649,-100,4,1,0,80,0,1
109211,-100,4,1,0,60,0,0
110149,-100,4,1,0,80,0,0
125149,-100,4,1,0,80,0,1
139211,-100,4,1,0,80,0,0
140149,-100,4,1,0,80,0,1
155149,-100,4,1,0,80,0,0
155266,-100,4,1,0,30,0,0
155441,-100,4,1,0,29,0,0
155617,-100,4,1,0,28,0,0
155852,-100,4,1,0,27,0,0
156086,-106.666666666667,4,1,0,26,0,0
156320,-106.666666666667,4,1,0,25,0,0
156555,-106.666666666667,4,1,0,24,0,0
156789,-106.666666666667,4,1,0,23,0,0
157024,-114.285714285714,4,1,0,22,0,0
157258,-114.285714285714,4,1,0,21,0,0
157492,-114.285714285714,4,1,0,20,0,0
157727,-114.285714285714,4,1,0,19,0,0
157961,-123.076923076923,4,1,0,18,0,0
158274,-123.076923076923,4,1,0,17,0,0
158586,-123.076923076923,4,1,0,16,0,0
158899,-133.333333333333,4,1,0,14,0,0
159211,-133.333333333333,4,1,0,13,0,0
159524,-133.333333333333,4,1,0,12,0,0
159836,-145.454545454545,4,1,0,11,0,0
160149,-145.454545454545,4,1,0,10,0,0
160461,-145.454545454545,4,1,0,9,0,0
160774,-160,4,1,0,8,0,0
161086,-160,4,1,0,7,0,0
161399,-160,4,1,0,6,0,0
161711,210.526315789474,64,1,0,5,1,0
166101,-200,7,1,0,70,0,0
166154,210.526315789474,4,1,0,70,1,0
168206,-100,4,1,0,90,0,0
169522,-100,4,1,0,90,0,0
186575,-133.333333333333,4,1,0,70,0,0
187996,-133.333333333333,4,1,0,80,0,0
189680,-100,4,1,0,90,0,0
203154,-133.333333333333,4,1,0,60,0,0
209048,-142.857142857143,4,1,0,80,0,0
209311,-153.846153846154,4,1,0,80,0,0
209522,-166.666666666667,4,1,0,80,0,0
209627,-172.413793103448,4,1,0,80,0,0
209732,-181.818181818182,4,1,0,80,0,0
209943,-200,4,1,0,80,0,0
215785,-133.333333333333,4,1,0,70,0,0
216627,-100,4,1,0,90,0,0
230101,-100,4,1,0,90,0,0
231154,-111.111111111111,4,1,0,80,0,0
231417,-125,4,1,0,80,0,0
231627,-142.857142857143,4,1,0,80,0,0
231785,-100,4,1,0,90,0,0
235206,-100,4,1,0,90,0,1
237890,-111.111111111111,4,1,0,80,0,1
238154,-125,4,1,0,80,0,1
238259,-133.333333333333,4,1,0,80,0,1
238364,-142.857142857143,4,1,0,80,0,1
238522,-142.857142857143,4,1,0,90,0,1
238575,-99.9999999999999,4,1,0,90,0,0
241943,-100,4,1,0,90,0,1
245259,-100,4,1,0,80,0,1
245311,-101.010101010101,4,1,0,80,0,0
245522,-104.166666666667,4,1,0,80,0,0
245627,-105.263157894737,4,1,0,80,0,0
245732,-107.52688172043,4,1,0,80,0,0
245943,-111.111111111111,4,1,0,80,0,0
246048,-112.359550561798,4,1,0,80,0,0
246153,-114.942528735632,4,1,0,80,0,0
246364,-119.047619047619,4,1,0,80,0,0
246469,-120.481927710843,4,1,0,80,0,0
246575,-123.456790123457,4,1,0,80,0,0
246785,-128.205128205128,4,1,0,80,0,0
246996,-133.333333333333,4,1,0,80,0,0
251996,-100,4,1,0,90,0,0
258785,-100,4,1,0,90,0,1
272259,-100,4,1,0,90,0,0
278364,-90.9090909090909,4,1,0,90,0,0
278575,-83.3333333333333,4,1,0,90,0,0
278996,-95.2380952380952,4,1,0,90,0,1
282364,-90.9090909090909,4,1,0,90,0,1
283206,-88.4955752212389,4,1,0,90,0,1
284048,-86.9565217391304,4,1,0,90,0,1
284820,-86.2068965517241,4,1,0,90,0,1
284890,-84.7457627118644,4,1,0,90,0,1
284961,-82.6446280991736,4,1,0,90,0,1
285031,-81.3008130081301,4,1,0,90,0,1
285101,-79.3650793650794,4,1,0,90,0,1
285171,-78.125,4,1,0,90,0,1
285241,-76.3358778625954,4,1,0,90,0,1
285311,-75.187969924812,4,1,0,90,0,1
285382,-73.5294117647059,4,1,0,90,0,1
285452,-71.9424460431655,4,1,0,90,0,1
285522,-70.9219858156028,4,1,0,90,0,1
285592,-69.4444444444444,4,1,0,90,0,1
285662,-68.0272108843537,4,1,0,90,0,1
285732,210.526315789474,64,1,0,90,1,0
285732,-66.6666666666667,64,1,0,90,0,0
291308,285.714285714286,4,1,0,65,1,0
291308,-125,4,1,0,65,0,0
301022,-121.951219512195,4,1,0,70,0,0
301165,-119.047619047619,4,1,0,75,0,0
301308,-116.279069767442,4,1,0,80,0,0
301450,-113.636363636364,4,1,0,85,0,0
301593,-111.111111111111,4,1,0,90,0,0
306165,-90.9090909090909,4,1,0,100,0,0
306308,-91.743119266055,4,1,0,95,0,0
306379,-92.5925925925926,4,1,0,95,0,0
306450,-93.4579439252337,4,1,0,95,0,0
306522,-94.3396226415094,4,1,0,95,0,0
306593,-95.2380952380952,4,1,0,95,0,0
306736,-96.1538461538461,4,1,0,95,0,0
306808,-97.0873786407767,4,1,0,95,0,0
306879,-98.0392156862745,4,1,0,95,0,0
306950,-99.009900990099,4,1,0,95,0,0
307022,-100,4,1,0,95,0,0
307165,-101.010101010101,4,1,0,95,0,0
307236,-102.040816326531,4,1,0,95,0,0
307308,-103.092783505155,4,1,0,95,0,0
307379,-104.166666666667,4,1,0,95,0,0
307450,-105.263157894737,4,1,0,95,0,0
307593,-106.382978723404,4,1,0,95,0,0
307665,-107.52688172043,4,1,0,95,0,0
307736,-108.695652173913,4,1,0,95,0,0
307808,-109.89010989011,4,1,0,95,0,0
307879,-111.111111111111,4,1,0,95,0,0
308165,-108.108108108108,4,1,0,85,0,0
308212,-105.263157894737,4,1,0,85,0,0
308260,-102.564102564103,4,1,0,85,0,0
308308,-100,4,1,0,85,0,0
308450,-90.9090909090909,4,1,0,100,0,0
308593,-92.5925925925926,4,1,0,85,0,0
308665,-94.3396226415094,4,1,0,85,0,0
308736,-96.1538461538461,4,1,0,85,0,0
308808,-98.0392156862745,4,1,0,85,0,0
308879,-100,4,1,0,85,0,0
309022,-102.040816326531,4,1,0,85,0,0
309093,-104.166666666667,4,1,0,85,0,0
309165,-106.382978723404,4,1,0,85,0,0
309236,-108.695652173913,4,1,0,85,0,0
309308,-111.111111111111,4,1,0,85,0,0
310165,-125,4,1,0,55,0,0
310808,-125,4,1,0,15,0,0
315308,-125,4,1,0,35,0,0
317593,-117.647058823529,4,1,0,35,0,0
317879,-117.647058823529,4,1,0,65,0,0
318022,-114.352365378678,4,1,0,65,0,0
318069,-113.29480554646,4,1,0,65,0,0
318117,-112.256627631295,4,1,0,65,0,0
318165,-111.237179915015,4,1,0,65,0,0
318308,-109.89010989011,4,1,0,65,0,0
318450,-108.695652173913,4,1,0,65,0,0
318593,-107.52688172043,4,1,0,65,0,0
318665,-106.382978723404,4,1,0,65,0,0
318879,-106.382978723404,4,1,0,65,0,0
318927,-105.527643493851,4,1,0,65,0,0
318974,-104.685952610763,4,1,0,65,0,0
319022,-103.857582174715,4,1,0,65,0,0
319165,-101.449304767914,4,1,0,65,0,0
319236,-100.286518583593,4,1,0,65,0,0
319308,-99.1501837748656,4,1,0,80,0,0
319450,-96.9528683021323,4,1,0,80,0,0
319522,-95.8904240945786,4,1,0,80,0,0
319593,-94.850922804628,4,1,0,80,0,0
319641,-94.1703824730084,4,1,0,80,0,0
319688,-93.4995381122817,4,1,0,80,0,0
319736,-92.8381839737157,4,1,0,80,0,0
319784,-92.1861200890149,4,1,0,80,0,0
319831,-91.5431520687379,4,1,0,80,0,0
319879,-90.9090909090909,4,1,0,80,0,0
320165,-100,4,1,0,65,0,0
322165,-100,4,1,0,80,0,0
324450,-100,4,1,0,90,0,0
326736,-95.2380952380952,4,1,0,95,0,0
329022,-86.9565217391304,4,1,0,100,0,1
329450,-90.9090909090909,4,1,0,100,0,1
329522,-90.101210689968,4,1,0,100,0,1
329593,-89.3075627430282,4,1,0,100,0,1
329736,-87.7614853455872,4,1,0,100,0,1
329808,-87.0083484510339,4,1,0,100,0,1
329879,-86.2680278611223,4,1,0,100,0,1
330022,-86.2068965517241,4,1,0,100,0,1
330069,-87.1687587168759,4,1,0,100,0,1
330117,-88.1523272214386,4,1,0,100,0,1
330165,-90.0900900900901,4,1,0,100,0,1
330308,-89.2857142857143,4,1,0,100,0,1
330379,-88.2353200692118,4,1,0,100,0,1
330450,-87.2092769740474,4,1,0,100,0,1
330522,-86.2068965517241,4,1,0,100,0,1
330593,-85.227296939573,4,1,0,100,0,1
330641,-84.5864820651282,4,1,0,100,0,1
330688,-83.9552317122418,4,1,0,100,0,1
330736,-83.3333333333333,4,1,0,100,0,1
330879,-84.0336134453781,4,1,0,100,0,1
330950,-84.490715315294,4,1,0,100,0,1
331022,-85.6807722922091,4,1,0,100,0,1
331165,-88.1642181993869,4,1,0,100,0,1
331212,-89.024364187991,4,1,0,100,0,1
331260,-89.9014590107783,4,1,0,100,0,1
331308,-90.7960086074616,4,1,0,100,0,1
331522,-86.9565217391304,4,1,0,100,0,1
331736,-86.9565217391304,4,1,0,100,0,1
331784,-87.719298245614,4,1,0,100,0,1
331831,-88.495575221239,4,1,0,100,0,1
331879,-89.2857142857143,4,1,0,100,0,1
332022,-91.743119266055,4,1,0,100,0,1
332093,-93.0232558139535,4,1,0,100,0,1
332165,-94.3396226415094,4,1,0,100,0,1
332308,-97.0873786407767,4,1,0,100,0,1
332355,-98.0392156862745,4,1,0,100,0,1
332403,-99.009900990099,4,1,0,100,0,1
332450,-100,4,1,0,100,0,1
332593,-100,4,1,0,100,0,1
332665,-98.0655587873605,4,1,0,100,0,1
332736,-96.2045385453104,4,1,0,100,0,1
332879,-92.686652380564,4,1,0,100,0,1
332950,-91.0224552397076,4,1,0,100,0,1
333022,-89.4169656173884,4,1,0,100,0,1
333165,-89.2857142857143,4,1,0,100,0,1
333236,-88.1057268722467,4,1,0,100,0,1
333308,-86.9565217391304,4,1,0,100,0,1
333355,-86.2068965517241,4,1,0,100,0,1
333403,-85.4700854700855,4,1,0,100,0,1
333450,-84.7457627118644,4,1,0,100,0,1
333498,-84.0336134453782,4,1,0,100,0,1
333546,-83.3333333333333,4,1,0,100,0,1
333593,-82.6446280991736,4,1,0,100,0,1
333665,-84.0190689678929,4,1,0,100,0,1
333736,-85.439998906368,4,1,0,100,0,1
333808,-86.9097416260291,4,1,0,100,0,1
333879,-88.4310127561736,4,1,0,100,0,1
333950,-90.0064894678906,4,1,0,100,0,1
334022,-91.6391214740703,4,1,0,100,0,1
334093,-93.3320764613703,4,1,0,100,0,1
334165,-95.0887606035854,4,1,0,100,0,1
334308,-95.2380952380952,4,1,0,100,0,1
334379,-93.8967136150235,4,1,0,100,0,1
334450,-92.5925925925926,4,1,0,100,0,1
334593,-90.0900900900901,4,1,0,100,0,1
334641,-89.2857142857143,4,1,0,100,0,1
334688,-88.495575221239,4,1,0,100,0,1
334736,-87.719298245614,4,1,0,100,0,1
334879,-88.495575221239,4,1,0,100,0,1
334950,-89.1439594715903,4,1,0,100,0,1
335093,-90.4697369682867,4,1,0,100,0,1
335165,-91.1474830078305,4,1,0,100,0,1
335236,-91.8354602425925,4,1,0,100,0,1
335308,-92.533902108385,4,1,0,100,0,1
335450,-91.743119266055,4,1,0,100,0,1
335522,-90.9204146334589,4,1,0,100,0,1
335593,-90.1123340356088,4,1,0,100,0,1
335665,-89.3184909819586,4,1,0,100,0,1
335736,-88.5385124821595,4,1,0,100,0,1
335808,-87.7720384617073,4,1,0,100,0,1
335879,-87.0187212076806,4,1,0,100,0,1
336165,-95.2380952380952,4,1,0,95,0,0
337879,-90.9090909090909,4,1,0,95,0,0
338022,-89.2857142857143,4,1,0,95,0,0
338165,-86.9565217391304,4,1,0,100,0,1
338236,-89.2857142857143,4,1,0,100,0,1
338308,-91.743119266055,4,1,0,100,0,1
338379,-94.3396226415094,4,1,0,100,0,1
338450,-97.0873786407767,4,1,0,100,0,1
338522,-100,4,1,0,100,0,1
338593,-103.092783505155,4,1,0,100,0,1
338665,-106.382978723404,4,1,0,100,0,1
338736,-109.89010989011,4,1,0,100,0,1
338879,-107.52688172043,4,1,0,100,0,1
338927,-105.781822874685,4,1,0,100,0,1
338974,-104.092392407501,4,1,0,100,0,1
339022,-102.456182052341,4,1,0,100,0,1
339165,-97.8420926466775,4,1,0,100,0,1
339212,-96.3951119966609,4,1,0,100,0,1
339260,-94.9902160077512,4,1,0,100,0,1
339308,-93.6257703060252,4,1,0,100,0,1
339450,-91.743119266055,4,1,0,100,0,1
339522,-93.7219419936157,4,1,0,100,0,1
339593,-95.7879178867653,4,1,0,100,0,1
339665,-97.9471261823442,4,1,0,100,0,1
339736,-100.205923172119,4,1,0,100,0,1
339784,-101.770501413083,4,1,0,100,0,1
339831,-103.384818973182,4,1,0,100,0,1
339879,-105.051065322853,4,1,0,100,0,1
340022,-103.092783505155,4,1,0,100,0,1
340093,-100.603621730382,4,1,0,100,0,1
340165,-98.2318271119843,4,1,0,100,0,1
340212,-96.7117988394584,4,1,0,100,0,1
340260,-95.2380952380952,4,1,0,100,0,1
340308,-93.8086303939962,4,1,0,100,0,1
340355,-92.4214417744917,4,1,0,100,0,1
340403,-91.0746812386157,4,1,0,100,0,1
340450,-89.7666068222621,4,1,0,100,0,1
340522,-87.8734622144113,4,1,0,100,0,1
340593,-86.0585197934596,4,1,0,100,0,1
340665,-84.3170320404722,4,1,0,100,0,1
340736,-82.6446280991736,4,1,0,100,0,1
340879,-84.0336134453782,4,1,0,100,0,1
340927,-85.1311615806473,4,1,0,100,0,1
340974,-86.2578332894856,4,1,0,100,0,1
341022,-87.414650520598,4,1,0,100,0,1
341093,-89.2093287979311,4,1,0,100,0,1
341165,-91.0792434958035,4,1,0,100,0,1
341236,-93.0291404479539,4,1,0,100,0,1
341308,-95.0644441867142,4,1,0,100,0,1
341450,-93.4579439252336,4,1,0,100,0,1
341498,-92.3170944486962,4,1,0,100,0,1
341546,-91.2037619727738,4,1,0,100,0,1
341593,-90.1169628060259,4,1,0,100,0,1
341736,-87.0065315803257,4,1,0,100,0,1
341808,-85.5304685188005,4,1,0,100,0,1
341879,-84.1037234400441,4,1,0,100,0,1
342022,-81.388288876337,4,1,0,100,0,1
342069,-80.5217163042787,4,1,0,100,0,1
342117,-79.6734027872943,4,1,0,100,0,1
342165,-78.8427772525973,4,1,0,100,0,1
342308,-78.125,4,1,0,100,0,1
342379,-77.2200772200772,4,1,0,100,0,1
342450,-76.3358778625954,4,1,0,100,0,1
342498,-75.7575757575758,4,1,0,100,0,1
342546,-75.187969924812,4,1,0,100,0,1
342593,-74.6268656716418,4,1,0,100,0,1
342641,-74.0740740740741,4,1,0,100,0,1
342688,-73.5294117647059,4,1,0,100,0,1
342736,-72.992700729927,4,1,0,100,0,1
342808,-74.6096609065522,4,1,0,100,0,1
342879,-76.2998247393026,4,1,0,100,0,1
342950,-78.068400409703,4,1,0,100,0,1
343022,-79.9209102671996,4,1,0,100,0,1
343093,-81.8634746460633,4,1,0,100,0,1
343165,-83.902753352754,4,1,0,100,0,1
343236,-86.0463015148451,4,1,0,100,0,1
343308,-88.3022479986296,4,1,0,100,0,1
343450,-86.9565217391304,4,1,0,100,0,1
343498,-85.811718791565,4,1,0,100,0,1
343546,-84.696595620339,4,1,0,100,0,1
343593,-83.6101526136116,4,1,0,100,0,1
343736,-80.5117325722291,4,1,0,100,0,1
343784,-79.529376958908,4,1,0,100,0,1
343831,-78.5706428649999,4,1,0,100,0,1
343879,-77.6348089640256,4,1,0,100,0,1
344022,-80,4,1,0,100,0,1
344093,-81.3008130081301,4,1,0,100,0,1
344165,-82.6446280991736,4,1,0,100,0,1
344236,-84.0336134453782,4,1,0,100,0,1
344308,-85.4700854700855,4,1,0,100,0,1
344355,-86.4553064970298,4,1,0,100,0,1
344403,-87.4635823508986,4,1,0,100,0,1
344450,-88.495575221239,4,1,0,100,0,1
344593,-91.743119266055,4,1,0,100,0,1
344665,-93.4579439252336,4,1,0,100,0,1
344736,-95.2380952380952,4,1,0,100,0,1
345022,-100,4,1,0,85,0,1
347308,-100,4,1,0,85,0,0
347593,-100,4,1,0,35,0,0
347665,-100,4,1,0,45,0,0
347736,-100,4,1,0,55,0,0
347808,-100,4,1,0,65,0,0
347879,-100,4,1,0,75,0,0
351879,-95.2380952380952,4,1,0,35,0,0
352022,-90.9090909090909,4,1,0,40,0,0
352093,-86.9565217391304,4,1,0,45,0,0
352165,-83.3333333333333,4,1,0,55,0,0
352308,-80,4,1,0,65,0,0
352450,-83.3333333333333,4,1,0,75,0,0
352736,-86.9565217391304,4,1,0,75,0,0
352879,-90.9090909090909,4,1,0,75,0,0
353165,-95.2380952380952,4,1,0,75,0,0
353308,-100,4,1,0,75,0,0
356450,-100,4,1,0,35,0,0
356522,-100,4,1,0,40,0,0
356593,-100,4,1,0,45,0,0
356665,-100,4,1,0,50,0,0
356736,-100,4,1,0,55,0,0
356808,-100,4,1,0,60,0,0
356879,-100,4,1,0,65,0,0
356950,-100,4,1,0,70,0,0
357022,-100,4,1,0,75,0,0
360950,-50,4,1,0,15,0,0
361093,-100,4,1,0,75,0,0
365308,-102.040816326531,4,1,0,75,0,0
365379,-104.166666666667,4,1,0,75,0,0
365450,-106.382978723404,4,1,0,75,0,0
365486,-107.52688172043,4,1,0,75,0,0
365522,-108.695652173913,4,1,0,75,0,0
365593,-111.111111111111,4,1,0,55,0,0
367879,-111.111111111111,4,1,0,65,0,0
370165,-111.111111111111,4,1,0,75,0,0
372450,-111.111111111111,4,1,0,85,0,0
374165,-108.695652173913,4,1,0,90,0,0
374308,-106.382978723404,4,1,0,95,0,0
374379,-105.263157894737,4,1,0,95,0,0
374451,-104.166666666667,4,1,0,100,0,0
374593,-102.040816326531,4,1,0,100,0,0
374736,-100,4,1,0,100,0,0
374808,-100,4,1,0,35,0,0
379308,-100,4,1,0,75,0,0
381522,-55.5555555555556,4,1,0,100,0,0
382736,-100,4,1,0,100,0,0
383236,-50,4,1,0,100,0,0
383379,-100,4,1,0,75,0,0
383879,-83.3333333333333,4,1,0,100,0,1
383927,-81.7438914833492,4,1,0,100,0,1
383974,-80.2138822957534,4,1,0,100,0,1
384022,-78.740157480315,4,1,0,100,0,1
384093,-76.6283524904215,4,1,0,100,0,1
384165,-74.6268656716418,4,1,0,100,0,1
384236,-72.7272727272727,4,1,0,100,0,1
384308,-70.9219858156028,4,1,0,100,0,1
384379,-69.204152249135,4,1,0,100,0,1
384450,-67.5675675675676,4,1,0,100,0,1
384486,-68.9655172413793,4,1,0,100,0,1
384593,-70.4225352112676,4,1,0,100,0,1
384629,-71.9424460431655,4,1,0,100,0,1
384736,-73.5294117647059,4,1,0,100,0,1
384772,-75.0341217668735,4,1,0,100,0,1
384879,-74.0740740740741,4,1,0,100,0,1
384927,-73.0353491089687,4,1,0,100,0,1
384974,-72.0253529242293,4,1,0,100,0,1
385022,-71.0429099175902,4,1,0,100,0,1
385165,-71.9424460431655,4,1,0,100,0,1
385236,-72.6392075934122,4,1,0,100,0,1
385308,-73.3496511857338,4,1,0,100,0,1
385450,-74.8129489244516,4,1,0,100,0,1
385593,-76.3358778625954,4,1,0,100,0,1
385736,-75.187969924812,4,1,0,100,0,1
385784,-74.1179958493922,4,1,0,100,0,1
385831,-73.0780473545747,4,1,0,100,0,1
385879,-72.0668780628423,4,1,0,100,0,1
386022,-73.5294117647059,4,1,0,100,0,1
386069,-75.7575757575758,4,1,0,100,0,1
386117,-78.125,4,1,0,100,0,1
386165,-80.6451612903226,4,1,0,100,0,1
386212,-83.3333333333333,4,1,0,100,0,1
386260,-86.2068965517241,4,1,0,100,0,1
386308,-89.2857142857143,4,1,0,100,0,1
386355,-92.5925925925926,4,1,0,100,0,1
386403,-96.1538461538461,4,1,0,100,0,1
386450,-100,4,1,0,100,0,1
386736,-83.3333333333333,4,1,0,100,0,1
386772,-81.3008130081301,4,1,0,100,0,1
386879,-79.3650793650794,4,1,0,100,0,1
386915,-77.5193798449612,4,1,0,100,0,1
387022,-75.7575757575758,4,1,0,100,0,1
387058,-74.2240065673401,4,1,0,100,0,1
387165,-75.187969924812,4,1,0,100,0,1
387212,-76.2892889838267,4,1,0,100,0,1
387260,-77.4233508826262,4,1,0,100,0,1
387308,-78.5916378497328,4,1,0,100,0,1
387450,-76.9230769230769,4,1,0,100,0,1
387486,-76.1561841486995,4,1,0,100,0,1
387593,-73.9445888828747,4,1,0,100,0,1
387736,-71.1882095239858,4,1,0,100,0,1
387772,-70.5309144050929,4,1,0,100,0,1
387879,-71.4285714285714,4,1,0,100,0,1
388022,-70.4225352112676,4,1,0,100,0,1
388093,-69.7012742786964,4,1,0,100,0,1
388165,-68.9946377367551,4,1,0,100,0,1
388308,-67.6234940247881,4,1,0,100,0,1
388450,-68.9655172413793,4,1,0,100,0,1
388498,-70.0411561833733,4,1,0,100,0,1
388546,-71.1508797094767,4,1,0,100,0,1
388593,-72.2963339974957,4,1,0,100,0,1
388665,-74.0853789541219,4,1,0,100,0,1
388736,-75.9652140092009,4,1,0,100,0,1
388808,-77.9429301865174,4,1,0,100,0,1
388879,-80.0263766937583,4,1,0,100,0,1
388950,-82.224265038407,4,1,0,100,0,1
389022,-84.5462907851307,4,1,0,100,0,1
389165,-83.3333333333333,4,1,0,100,0,1
389236,-82.1167733363552,4,1,0,100,0,1
389308,-80.9352226851717,4,1,0,100,0,1
389450,-79.3650793650794,4,1,0,100,0,1
389486,-78.125,4,1,0,100,0,1
389593,-79.3650793650794,4,1,0,100,0,1
389736,-81.0337311009081,4,1,0,100,0,1
389808,-82.6446280991736,4,1,0,100,0,1
389879,-80.6451612903226,4,1,0,100,0,1
389915,-80.2138822957534,4,1,0,100,0,1
390022,-78.9473476454348,4,1,0,100,0,1
390058,-78.125,4,1,0,100,0,1
390165,-77.3196075565999,4,1,0,100,0,1
390200,-76.9230769230769,4,1,0,100,0,1
390308,-77.5193798449612,4,1,0,100,0,1
390379,-78.125,4,1,0,100,0,1
390450,-78.740157480315,4,1,0,100,0,1
390498,-80.6053786357056,4,1,0,100,0,1
390546,-82.5611117349062,4,1,0,100,0,1
390593,-84.6140372995599,4,1,0,100,0,1
390641,-86.7717356689971,4,1,0,100,0,1
390688,-89.0423583402861,4,1,0,100,0,1
390736,-91.4350084531665,4,1,0,100,0,0
393022,-91.743119266055,4,1,0,100,0,1
393093,-93.4579439252336,4,1,0,100,0,1
393165,-95.2380952380952,4,1,0,100,0,1
393236,-97.0873786407767,4,1,0,100,0,1
393308,-99.009900990099,4,1,0,100,0,1
393379,-101.010101010101,4,1,0,100,0,1
393450,-103.092783505155,4,1,0,100,0,1
393522,-105.263157894737,4,1,0,100,0,1
393593,-107.52688172043,4,1,0,100,0,1
393629,-105.976210460276,4,1,0,100,0,1
393736,-101.581316351646,4,1,0,100,0,1
393772,-100.196284521377,4,1,0,100,0,1
393879,-96.2588052742124,4,1,0,100,0,1
393915,-95.0142236292773,4,1,0,100,0,1
394022,-91.4662868986435,4,1,0,100,0,1
394069,-89.9731250275543,4,1,0,100,0,1
394117,-88.5278526329954,4,1,0,100,0,1
394165,-87.1283540059875,4,1,0,100,0,1
394308,-88.495575221239,4,1,0,100,0,1
394379,-89.5522120739665,4,1,0,100,0,1
394450,-90.6344684696279,4,1,0,100,0,1
394593,-92.8792282107653,4,1,0,100,0,1
394736,-95.2380952380952,4,1,0,100,0,1
394879,-92.5925925925926,4,1,0,100,0,1
394927,-89.4134477825465,4,1,0,100,0,1
394974,-86.4453665283541,4,1,0,100,0,1
395022,-83.6680053547523,4,1,0,100,0,1
395165,-85.4700854700855,4,1,0,100,0,1
395212,-87.719298245614,4,1,0,100,0,1
395260,-90.0900900900901,4,1,0,100,0,1
395308,-92.5925925925926,4,1,0,100,0,1
395355,-95.2380952380952,4,1,0,100,0,1
395403,-98.0392156862745,4,1,0,100,0,1
395450,-101.010101010101,4,1,0,100,0,1
395498,-104.166666666667,4,1,0,100,0,1
395546,-107.52688172043,4,1,0,100,0,1
395593,-111.111111111111,4,1,0,100,0,1
395879,-100,4,1,0,100,0,1
395915,-96.1538461538461,4,1,0,100,0,1
396022,-92.5925925925926,4,1,0,100,0,1
396058,-89.2857142857143,4,1,0,100,0,1
396165,-86.2068965517241,4,1,0,100,0,1
396200,-83.3333333333333,4,1,0,100,0,1
396308,-81.9672131147541,4,1,0,100,0,1
396355,-80.6451612903226,4,1,0,100,0,1
396403,-79.3650793650794,4,1,0,100,0,1
396450,-78.125,4,1,0,100,0,1
396593,-84.7457627118644,4,1,0,100,0,1
396629,-85.4600786061803,4,1,0,100,0,1
396736,-87.6771516849795,4,1,0,100,0,1
396879,-90.8186025559987,4,1,0,100,0,1
396915,-91.6394573844449,4,1,0,100,0,1
397022,-94.1935338022915,4,1,0,100,0,1
397165,-91.743119266055,4,1,0,100,0,1
397236,-89.6860986547085,4,1,0,100,0,1
397308,-87.719298245614,4,1,0,100,0,1
397450,-84.0336134453782,4,1,0,100,0,1
397593,-80.6451612903226,4,1,0,100,0,1
397879,-90.9090909090909,4,1,0,100,0,1
398022,-86.9565217391304,4,1,0,100,0,1
398165,-83.3333333333333,4,1,0,100,0,1
398308,-80,4,1,0,100,0,1
398450,-76.9230769230769,4,1,0,100,0,1
398736,-86.9565217391304,4,1,0,100,0,1
398879,-81.6841974568442,4,1,0,100,0,1
399022,-77.0146651325345,4,1,0,100,0,1
399093,-74.8745663826674,4,1,0,100,0,1
399165,-72.8501908675001,4,1,0,100,0,1
399308,-69.1129422969133,4,1,0,100,0,1
399593,-80,4,1,0,100,0,1
399736,-74.816811038173,4,1,0,100,0,1
399879,-70.26439084989,4,1,0,100,0,1
400022,-66.2342014870903,4,1,0,100,0,1
400165,-62.641256032353,4,1,0,100,0,1
401308,-71.4285714285714,4,1,0,100,0,1
401522,-50,4,1,0,100,0,1
401665,-83.3333333333333,4,1,0,100,0,1
402165,-100,4,1,0,85,0,0
410022,-99.009900990099,4,1,0,85,0,0
410093,-97.9905086393332,4,1,0,85,0,0
410165,-96.9918934175482,4,1,0,85,0,0
410308,-95.0545042527385,4,1,0,85,0,0
410355,-94.4258530431564,4,1,0,85,0,0
410403,-93.8053744851258,4,1,0,85,0,0
410450,-93.1930839548535,4,1,0,85,0,0
410593,-91.4030830259905,4,1,0,85,0,0
410641,-90.8215719397671,4,1,0,85,0,0
410688,-90.2474132835168,4,1,0,85,0,0
410736,-89.6805489167038,4,1,0,85,0,0
410879,-88.021737848379,4,1,0,85,0,0
410950,-87.2151335699771,4,1,0,85,0,0
411022,-86.4231780049555,4,1,0,85,0,0
411069,-85.9031991210385,4,1,0,85,0,0
411117,-85.3893669744669,4,1,0,85,0,0
411165,-84.8816452779068,4,1,0,85,0,0
411212,-84.3799968779401,4,1,0,85,0,0
411260,-83.8841727342885,4,1,0,85,0,0
411308,-83.3942111074418,4,1,0,85,0,0
411879,-100,4,1,0,85,0,0
418450,-98.0392156862745,4,1,0,85,0,0
418593,-96.5373966567169,4,1,0,85,0,0
418736,-95.0808948253174,4,1,0,85,0,0
418879,-93.667777254279,4,1,0,85,0,0
419165,-76.9230769230769,4,1,0,85,0,0

[HitObjects]
256,192,228,5,0,0:0:0:0:
256,192,1165,1,2,0:0:0:0:
256,192,2103,1,2,0:0:0:0:
256,192,3040,1,0,0:0:0:0:
256,192,3978,1,2,0:0:0:0:
256,192,4915,1,2,0:0:0:0:
256,192,5853,1,0,0:0:0:0:
256,192,6087,12,0,8431,0:0:0:0:
256,192,8665,5,0,0:0:0:0:
256,192,8782,1,0,0:0:0:0:
256,192,8899,1,0,0:0:0:0:
256,192,9017,1,0,0:0:0:0:
256,192,9134,1,0,0:0:0:0:
256,192,9251,1,0,0:0:0:0:
256,192,9368,1,0,0:0:0:0:
256,192,9485,1,0,0:0:0:0:
256,192,9603,1,2,0:0:0:0:
256,192,9837,1,0,0:0:0:0:
256,192,10071,1,2,0:0:0:0:
256,192,10188,1,2,0:0:0:0:
256,192,10306,1,0,0:0:0:0:
256,192,10540,1,0,0:0:0:0:
256,192,10774,1,2,0:0:0:0:
256,192,10892,1,2,0:0:0:0:
256,192,11126,1,0,0:0:0:0:
256,192,11243,1,2,0:0:0:0:
256,192,11360,1,0,0:0:0:0:
256,192,11478,1,0,0:0:0:0:
256,192,11595,1,0,0:0:0:0:
256,192,11712,1,2,0:0:0:0:
256,192,11829,1,2,0:0:0:0:
256,192,12063,1,0,0:0:0:0:
256,192,12181,1,0,0:0:0:0:
256,192,12298,1,2,0:0:0:0:
256,192,12532,1,0,0:0:0:0:
256,192,12649,1,2,0:0:0:0:
256,192,12767,1,2,0:0:0:0:
256,192,13001,1,2,0:0:0:0:
256,192,13118,1,2,0:0:0:0:
256,192,13235,1,0,0:0:0:0:
256,192,13353,1,0,0:0:0:0:
256,192,13587,1,0,0:0:0:0:
256,192,13821,1,2,0:0:0:0:
256,192,13938,1,0,0:0:0:0:
256,192,14173,1,0,0:0:0:0:
256,192,14407,1,0,0:0:0:0:
256,192,14524,1,2,0:0:0:0:
256,192,14642,1,2,0:0:0:0:
256,192,14876,1,2,0:0:0:0:
256,192,14993,1,0,0:0:0:0:
256,192,15110,1,2,0:0:0:0:
256,192,15228,1,0,0:0:0:0:
256,192,15345,1,0,0:0:0:0:
256,192,15462,1,2,0:0:0:0:
256,192,15579,1,2,0:0:0:0:
256,192,15813,1,2,0:0:0:0:
256,192,16048,1,0,0:0:0:0:
256,192,16165,1,2,0:0:0:0:
256,192,16282,1,2,0:0:0:0:
256,192,16341,1,0,0:0:0:0:
256,192,16399,1,2,0:0:0:0:
256,192,16458,1,2,0:0:0:0:
256,192,16517,1,0,0:0:0:0:
256,192,16575,1,0,0:0:0:0:
256,192,16634,1,2,0:0:0:0:
256,192,16751,1,2,0:0:0:0:
256,192,16868,1,0,0:0:0:0:
256,192,16985,1,2,0:0:0:0:
256,192,17103,1,4,0:0:0:0:
256,192,17337,1,0,0:0:0:0:
256,192,17571,1,2,0:0:0:0:
256,192,17688,1,0,0:0:0:0:
256,192,17923,1,0,0:0:0:0:
256,192,18157,1,0,0:0:0:0:
256,192,18274,1,2,0:0:0:0:
256,192,18392,1,2,0:0:0:0:
256,192,18626,1,2,0:0:0:0:
256,192,18743,1,2,0:0:0:0:
256,192,18860,1,0,0:0:0:0:
256,192,18978,1,0,0:0:0:0:
256,192,19212,1,0,0:0:0:0:
256,192,19446,1,2,0:0:0:0:
256,192,19563,1,0,0:0:0:0:
256,192,19798,1,0,0:0:0:0:
256,192,20032,1,0,0:0:0:0:
256,192,20149,1,0,0:0:0:0:
256,192,20267,1,2,0:0:0:0:
256,192,20501,1,0,0:0:0:0:
256,192,20618,1,2,0:0:0:0:
256,192,20735,1,2,0:0:0:0:
256,192,20853,1,0,0:0:0:0:
256,192,21087,1,0,0:0:0:0:
256,192,21321,1,2,0:0:0:0:
256,192,21438,1,0,0:0:0:0:
256,192,21673,1,0,0:0:0:0:
256,192,21907,1,0,0:0:0:0:
256,192,22024,1,0,0:0:0:0:
256,192,22259,1,2,0:0:0:0:
256,192,22376,1,0,0:0:0:0:
256,192,22493,1,2,0:0:0:0:
256,192,22552,1,2,0:0:0:0:
256,192,22610,1,2,0:0:0:0:
256,192,22669,1,2,0:0:0:0:
256,192,22728,1,0,0:0:0:0:
256,192,22845,1,0,0:0:0:0:
256,192,22962,1,2,0:0:0:0:
256,192,23079,1,2,0:0:0:0:
256,192,23196,1,0,0:0:0:0:
256,192,23313,1,2,0:0:0:0:
256,192,23548,1,0,0:0:0:0:
256,192,23665,1,2,0:0:0:0:
256,192,23782,1,2,0:0:0:0:
256,192,23841,1,0,0:0:0:0:
256,192,23899,1,2,0:0:0:0:
256,192,23958,1,2,0:0:0:0:
256,192,24017,1,0,0:0:0:0:
256,192,24075,1,0,0:0:0:0:
256,192,24134,1,2,0:0:0:0:
256,192,24251,1,2,0:0:0:0:
256,192,24310,1,2,0:0:0:0:
256,192,24368,1,0,0:0:0:0:
256,192,24485,1,2,0:0:0:0:
256,192,24603,5,4,0:0:0:0:
256,192,24837,1,0,0:0:0:0:
256,192,25071,1,2,0:0:0:0:
256,192,25188,1,0,0:0:0:0:
256,192,25423,1,0,0:0:0:0:
256,192,25540,1,2,0:0:0:0:
256,192,25657,1,0,0:0:0:0:
256,192,25774,1,0,0:0:0:0:
256,192,26009,1,2,0:0:0:0:
256,192,26126,1,0,0:0:0:0:
256,192,26243,1,2,0:0:0:0:
256,192,26302,1,2,0:0:0:0:
256,192,26360,1,2,0:0:0:0:
256,192,26478,1,0,0:0:0:0:
256,192,26712,1,0,0:0:0:0:
256,192,26829,1,0,0:0:0:0:
256,192,26946,1,2,0:0:0:0:
256,192,27181,1,2,0:0:0:0:
256,192,27298,1,2,0:0:0:0:
256,192,27415,1,0,0:0:0:0:
256,192,27474,1,2,0:0:0:0:
256,192,27532,1,2,0:0:0:0:
256,192,27591,1,2,0:0:0:0:
256,192,27649,1,0,0:0:0:0:
256,192,27767,1,0,0:0:0:0:
256,192,27884,1,2,0:0:0:0:
256,192,28118,1,2,0:0:0:0:
256,192,28235,1,2,0:0:0:0:
256,192,28353,1,0,0:0:0:0:
256,192,28587,1,0,0:0:0:0:
256,192,28704,1,0,0:0:0:0:
256,192,28821,1,2,0:0:0:0:
256,192,28938,1,0,0:0:0:0:
256,192,29173,1,0,0:0:0:0:
256,192,29290,1,2,0:0:0:0:
256,192,29407,1,2,0:0:0:0:
256,192,29524,1,0,0:0:0:0:
256,192,29642,1,0,0:0:0:0:
256,192,29759,1,2,0:0:0:0:
256,192,29876,1,0,0:0:0:0:
256,192,29993,1,2,0:0:0:0:
256,192,30052,1,2,0:0:0:0:
256,192,30110,1,2,0:0:0:0:
256,192,30228,1,0,0:0:0:0:
256,192,30345,1,0,0:0:0:0:
256,192,30462,1,2,0:0:0:0:
256,192,30579,1,2,0:0:0:0:
256,192,30696,1,0,0:0:0:0:
256,192,30813,1,2,0:0:0:0:
256,192,31048,1,0,0:0:0:0:
256,192,31165,1,2,0:0:0:0:
256,192,31282,1,2,0:0:0:0:
256,192,31341,1,2,0:0:0:0:
256,192,31399,1,0,0:0:0:0:
256,192,31458,1,2,0:0:0:0:
256,192,31517,1,0,0:0:0:0:
256,192,31575,1,0,0:0:0:0:
256,192,31634,1,2,0:0:0:0:
256,192,31751,1,2,0:0:0:0:
256,192,31810,1,2,0:0:0:0:
256,192,31868,1,0,0:0:0:0:
256,192,31985,1,2,0:0:0:0:
256,192,32103,1,4,0:0:0:0:
256,192,32337,1,0,0:0:0:0:
256,192,32571,1,2,0:0:0:0:
256,192,32688,1,0,0:0:0:0:
256,192,32923,1,0,0:0:0:0:
256,192,33040,1,2,0:0:0:0:
256,192,33157,1,2,0:0:0:0:
256,192,33274,1,0,0:0:0:0:
256,192,33392,1,0,0:0:0:0:
256,192,33450,1,0,0:0:0:0:
256,192,33509,1,2,0:0:0:0:
256,192,33626,1,0,0:0:0:0:
256,192,33743,1,2,0:0:0:0:
256,192,33802,1,2,0:0:0:0:
256,192,33860,1,2,0:0:0:0:
256,192,33978,1,0,0:0:0:0:
256,192,34212,1,0,0:0:0:0:
256,192,34329,1,0,0:0:0:0:
256,192,34446,1,2,0:0:0:0:
256,192,34681,1,2,0:0:0:0:
256,192,34798,1,2,0:0:0:0:
256,192,34915,1,0,0:0:0:0:
256,192,34974,1,2,0:0:0:0:
256,192,35032,1,2,0:0:0:0:
256,192,35091,1,2,0:0:0:0:
256,192,35149,1,0,0:0:0:0:
256,192,35267,1,0,0:0:0:0:
256,192,35384,1,2,0:0:0:0:
256,192,35618,1,2,0:0:0:0:
256,192,35735,1,2,0:0:0:0:
256,192,35853,1,0,0:0:0:0:
256,192,36087,1,0,0:0:0:0:
256,192,36321,1,2,0:0:0:0:
256,192,36438,1,0,0:0:0:0:
256,192,36673,1,0,0:0:0:0:
256,192,36790,1,2,0:0:0:0:
256,192,36907,1,2,0:0:0:0:
256,192,37024,1,0,0:0:0:0:
256,192,37142,1,0,0:0:0:0:
256,192,37200,1,0,0:0:0:0:
256,192,37259,1,2,0:0:0:0:
256,192,37376,1,0,0:0:0:0:
256,192,37493,1,2,0:0:0:0:
256,192,37552,1,2,0:0:0:0:
256,192,37610,1,2,0:0:0:0:
256,192,37728,1,0,0:0:0:0:
256,192,37845,1,0,0:0:0:0:
256,192,37962,1,0,0:0:0:0:
256,192,38079,1,2,0:0:0:0:
256,192,38196,1,0,0:0:0:0:
256,192,38313,1,2,0:0:0:0:
256,192,38431,1,2,0:0:0:0:
256,192,38548,1,0,0:0:0:0:
256,192,38665,12,0,39017,0:0:0:0:
256,192,39134,5,0,0:0:0:0:
256,192,39368,1,2,0:0:0:0:
256,192,39603,5,6,0:0:0:0:
256,192,39954,1,2,0:0:0:0:
256,192,40071,1,0,0:0:0:0:
256,192,40188,1,2,0:0:0:0:
256,192,40423,1,2,0:0:0:0:
256,192,40657,1,0,0:0:0:0:
256,192,40774,1,2,0:0:0:0:
256,192,41009,1,2,0:0:0:0:
256,192,41126,1,2,0:0:0:0:
256,192,41243,1,0,0:0:0:0:
256,192,41360,1,2,0:0:0:0:
256,192,41478,1,0,0:0:0:0:
256,192,41712,1,2,0:0:0:0:
256,192,41829,1,0,0:0:0:0:
256,192,41946,1,0,0:0:0:0:
256,192,42063,1,2,0:0:0:0:
256,192,42298,1,2,0:0:0:0:
256,192,42532,1,0,0:0:0:0:
256,192,42649,1,2,0:0:0:0:
256,192,42767,1,2,0:0:0:0:
256,192,42884,1,0,0:0:0:0:
256,192,43118,1,2,0:0:0:0:
256,192,43353,1,2,0:0:0:0:
256,192,43587,1,2,0:0:0:0:
256,192,43704,1,2,0:0:0:0:
256,192,43821,1,0,0:0:0:0:
256,192,43938,1,2,0:0:0:0:
256,192,44173,1,2,0:0:0:0:
256,192,44407,1,0,0:0:0:0:
256,192,44524,1,2,0:0:0:0:
256,192,44642,1,0,0:0:0:0:
256,192,44759,1,2,0:0:0:0:
256,192,44876,1,2,0:0:0:0:
256,192,44993,1,0,0:0:0:0:
256,192,45110,1,2,0:0:0:0:
256,192,45228,1,0,0:0:0:0:
256,192,45462,1,2,0:0:0:0:
256,192,45579,1,0,0:0:0:0:
256,192,45696,1,0,0:0:0:0:
256,192,45813,1,2,0:0:0:0:
256,192,46048,1,0,0:0:0:0:
256,192,46282,1,0,0:0:0:0:
256,192,46399,1,2,0:0:0:0:
256,192,46634,1,2,0:0:0:0:
256,192,46692,1,2,0:0:0:0:
256,192,46751,1,2,0:0:0:0:
256,192,46810,1,2,0:0:0:0:
256,192,46868,1,2,0:0:0:0:
256,192,46927,1,2,0:0:0:0:
256,192,46985,1,2,0:0:0:0:
256,192,47044,1,2,0:0:0:0:
256,192,47103,1,0,0:0:0:0:
256,192,47278,1,2,0:0:0:0:
256,192,47337,1,0,0:0:0:0:
256,192,47454,1,2,0:0:0:0:
256,192,47571,1,0,0:0:0:0:
256,192,47630,1,0,0:0:0:0:
256,192,47688,1,2,0:0:0:0:
256,192,47806,1,0,0:0:0:0:
256,192,47923,1,2,0:0:0:0:
256,192,48040,1,0,0:0:0:0:
256,192,48157,1,2,0:0:0:0:
256,192,48216,1,2,0:0:0:0:
256,192,48274,1,0,0:0:0:0:
256,192,48392,1,2,0:0:0:0:
256,192,48509,1,0,0:0:0:0:
256,192,48567,1,0,0:0:0:0:
256,192,48626,1,2,0:0:0:0:
256,192,48685,1,2,0:0:0:0:
256,192,48743,1,0,0:0:0:0:
256,192,48860,1,2,0:0:0:0:
256,192,48978,1,0,0:0:0:0:
256,192,49095,1,2,0:0:0:0:
256,192,49153,1,0,0:0:0:0:
256,192,49212,1,0,0:0:0:0:
256,192,49329,1,2,0:0:0:0:
256,192,49446,1,0,0:0:0:0:
256,192,49505,1,2,0:0:0:0:
256,192,49563,1,2,0:0:0:0:
256,192,49681,1,0,0:0:0:0:
256,192,49798,1,2,0:0:0:0:
256,192,49915,1,0,0:0:0:0:
256,192,49974,1,2,0:0:0:0:
256,192,50032,1,0,0:0:0:0:
256,192,50091,1,0,0:0:0:0:
256,192,50149,1,2,0:0:0:0:
256,192,50208,1,0,0:0:0:0:
256,192,50267,1,2,0:0:0:0:
256,192,50325,1,2,0:0:0:0:
256,192,50384,1,0,0:0:0:0:
256,192,50501,1,0,0:0:0:0:
256,192,50560,1,0,0:0:0:0:
256,192,50618,1,2,0:0:0:0:
256,192,50735,1,2,0:0:0:0:
256,192,50853,1,0,0:0:0:0:
256,192,50970,1,2,0:0:0:0:
256,192,51028,1,2,0:0:0:0:
256,192,51087,1,0,0:0:0:0:
256,192,51204,1,2,0:0:0:0:
256,192,51321,1,0,0:0:0:0:
256,192,51380,1,0,0:0:0:0:
256,192,51438,1,2,0:0:0:0:
256,192,51556,1,0,0:0:0:0:
256,192,51673,1,2,0:0:0:0:
256,192,51790,1,0,0:0:0:0:
256,192,51907,1,2,0:0:0:0:
256,192,51966,1,0,0:0:0:0:
256,192,52024,1,2,0:0:0:0:
256,192,52142,1,0,0:0:0:0:
256,192,52259,1,2,0:0:0:0:
256,192,52317,1,2,0:0:0:0:
256,192,52376,1,0,0:0:0:0:
256,192,52435,1,2,0:0:0:0:
256,192,52493,1,0,0:0:0:0:
256,192,52610,1,2,0:0:0:0:
256,192,52728,1,0,0:0:0:0:
256,192,52845,1,2,0:0:0:0:
256,192,52903,1,0,0:0:0:0:
256,192,52962,1,0,0:0:0:0:
256,192,53079,1,2,0:0:0:0:
256,192,53196,1,0,0:0:0:0:
256,192,53255,1,0,0:0:0:0:
256,192,53313,1,2,0:0:0:0:
256,192,53372,1,2,0:0:0:0:
256,192,53431,1,0,0:0:0:0:
256,192,53548,1,2,0:0:0:0:
256,192,53665,1,0,0:0:0:0:
256,192,53724,1,2,0:0:0:0:
256,192,53782,1,0,0:0:0:0:
256,192,53841,1,0,0:0:0:0:
256,192,53899,1,2,0:0:0:0:
256,192,53958,1,0,0:0:0:0:
256,192,54017,1,2,0:0:0:0:
256,192,54075,1,2,0:0:0:0:
256,192,54134,1,0,0:0:0:0:
256,192,54192,1,0,0:0:0:0:
256,192,54251,1,2,0:0:0:0:
256,192,54310,1,2,0:0:0:0:
256,192,54368,1,0,0:0:0:0:
256,192,54427,1,2,0:0:0:0:
256,192,54485,1,2,0:0:0:0:
256,192,54544,1,2,0:0:0:0:
256,192,54603,5,0,0:0:0:0:
256,192,54720,1,0,0:0:0:0:
256,192,54837,1,2,0:0:0:0:
256,192,54954,1,2,0:0:0:0:
256,192,55188,1,0,0:0:0:0:
256,192,55306,1,2,0:0:0:0:
256,192,55423,1,2,0:0:0:0:
256,192,55540,1,0,0:0:0:0:
256,192,55657,1,2,0:0:0:0:
256,192,55774,1,0,0:0:0:0:
256,192,55833,1,0,0:0:0:0:
256,192,55892,1,2,0:0:0:0:
256,192,55950,1,0,0:0:0:0:
256,192,56009,1,2,0:0:0:0:
256,192,56067,1,2,0:0:0:0:
256,192,56126,1,0,0:0:0:0:
256,192,56185,1,0,0:0:0:0:
256,192,56243,1,0,0:0:0:0:
256,192,56360,1,2,0:0:0:0:
256,192,56595,1,0,0:0:0:0:
256,192,56712,1,2,0:0:0:0:
256,192,56946,1,0,0:0:0:0:
256,192,57063,1,0,0:0:0:0:
256,192,57181,1,2,0:0:0:0:
256,192,57298,1,0,0:0:0:0:
256,192,57532,1,0,0:0:0:0:
256,192,57649,1,2,0:0:0:0:
256,192,57767,1,0,0:0:0:0:
256,192,57825,1,0,0:0:0:0:
256,192,57884,1,2,0:0:0:0:
256,192,58001,1,2,0:0:0:0:
256,192,58118,1,0,0:0:0:0:
256,192,58235,1,2,0:0:0:0:
256,192,58353,1,0,0:0:0:0:
256,192,58470,1,0,0:0:0:0:
256,192,58587,1,2,0:0:0:0:
256,192,58704,1,2,0:0:0:0:
256,192,58938,1,0,0:0:0:0:
256,192,59056,1,2,0:0:0:0:
256,192,59173,1,2,0:0:0:0:
256,192,59407,1,2,0:0:0:0:
256,192,59524,1,0,0:0:0:0:
256,192,59642,1,0,0:0:0:0:
256,192,59759,1,2,0:0:0:0:
256,192,59876,1,0,0:0:0:0:
256,192,59935,1,0,0:0:0:0:
256,192,59993,1,2,0:0:0:0:
256,192,60110,1,2,0:0:0:0:
256,192,60228,1,0,0:0:0:0:
256,192,60345,1,2,0:0:0:0:
256,192,60462,1,2,0:0:0:0:
256,192,60696,1,0,0:0:0:0:
256,192,60813,1,0,0:0:0:0:
256,192,60931,1,2,0:0:0:0:
256,192,61048,1,0,0:0:0:0:
256,192,61165,1,2,0:0:0:0:
256,192,61224,1,2,0:0:0:0:
256,192,61282,1,2,0:0:0:0:
256,192,61341,1,2,0:0:0:0:
256,192,61399,1,0,0:0:0:0:
256,192,61458,1,0,0:0:0:0:
256,192,61517,1,2,0:0:0:0:
256,192,61575,1,2,0:0:0:0:
256,192,61634,1,0,0:0:0:0:
256,192,61692,1,2,0:0:0:0:
256,192,61751,1,0,0:0:0:0:
256,192,61810,1,2,0:0:0:0:
256,192,61868,1,0,0:0:0:0:
256,192,61927,1,0,0:0:0:0:
256,192,61985,1,2,0:0:0:0:
256,192,62044,1,2,0:0:0:0:
256,192,62103,5,0,0:0:0:0:
256,192,62220,1,2,0:0:0:0:
256,192,62337,1,0,0:0:0:0:
256,192,62454,1,2,0:0:0:0:
256,192,62513,1,2,0:0:0:0:
256,192,62571,1,0,0:0:0:0:
256,192,62688,1,2,0:0:0:0:
256,192,62806,1,0,0:0:0:0:
256,192,62864,1,0,0:0:0:0:
256,192,62923,1,2,0:0:0:0:
256,192,63040,1,0,0:0:0:0:
256,192,63157,1,2,0:0:0:0:
256,192,63274,1,0,0:0:0:0:
256,192,63333,1,0,0:0:0:0:
256,192,63392,1,2,0:0:0:0:
256,192,63450,1,0,0:0:0:0:
256,192,63509,1,2,0:0:0:0:
256,192,63567,1,2,0:0:0:0:
256,192,63626,1,0,0:0:0:0:
256,192,63685,1,0,0:0:0:0:
256,192,63743,1,0,0:0:0:0:
256,192,63860,1,2,0:0:0:0:
256,192,63978,1,0,0:0:0:0:
256,192,64095,1,0,0:0:0:0:
256,192,64212,1,2,0:0:0:0:
256,192,64329,1,0,0:0:0:0:
256,192,64388,1,0,0:0:0:0:
256,192,64446,1,2,0:0:0:0:
256,192,64563,1,2,0:0:0:0:
256,192,64681,1,0,0:0:0:0:
256,192,64798,1,2,0:0:0:0:
256,192,64856,1,2,0:0:0:0:
256,192,64915,1,0,0:0:0:0:
256,192,65032,1,2,0:0:0:0:
256,192,65149,1,0,0:0:0:0:
256,192,65208,1,0,0:0:0:0:
256,192,65267,1,2,0:0:0:0:
256,192,65325,1,2,0:0:0:0:
256,192,65384,1,0,0:0:0:0:
256,192,65501,1,0,0:0:0:0:
256,192,65618,1,2,0:0:0:0:
256,192,65677,1,2,0:0:0:0:
256,192,65735,1,2,0:0:0:0:
256,192,65853,1,0,0:0:0:0:
256,192,65970,1,0,0:0:0:0:
256,192,66087,1,2,0:0:0:0:
256,192,66204,1,0,0:0:0:0:
256,192,66263,1,2,0:0:0:0:
256,192,66321,1,0,0:0:0:0:
256,192,66438,1,2,0:0:0:0:
256,192,66556,1,0,0:0:0:0:
256,192,66614,1,0,0:0:0:0:
256,192,66673,1,2,0:0:0:0:
256,192,66790,1,0,0:0:0:0:
256,192,66907,1,2,0:0:0:0:
256,192,67024,1,0,0:0:0:0:
256,192,67083,1,0,0:0:0:0:
256,192,67142,1,2,0:0:0:0:
256,192,67200,1,0,0:0:0:0:
256,192,67259,1,2,0:0:0:0:
256,192,67317,1,2,0:0:0:0:
256,192,67376,1,0,0:0:0:0:
256,192,67493,1,2,0:0:0:0:
256,192,67610,1,2,0:0:0:0:
256,192,67669,1,2,0:0:0:0:
256,192,67728,1,0,0:0:0:0:
256,192,67845,1,0,0:0:0:0:
256,192,67903,1,2,0:0:0:0:
256,192,67962,1,0,0:0:0:0:
256,192,68079,1,2,0:0:0:0:
256,192,68196,1,0,0:0:0:0:
256,192,68255,1,0,0:0:0:0:
256,192,68313,1,2,0:0:0:0:
256,192,68372,1,2,0:0:0:0:
256,192,68431,1,0,0:0:0:0:
256,192,68489,1,2,0:0:0:0:
256,192,68548,1,2,0:0:0:0:
256,192,68665,1,0,0:0:0:0:
256,192,68724,1,2,0:0:0:0:
256,192,68782,1,0,0:0:0:0:
256,192,68841,1,0,0:0:0:0:
256,192,68899,1,2,0:0:0:0:
256,192,68958,1,0,0:0:0:0:
256,192,69017,1,0,0:0:0:0:
256,192,69075,1,2,0:0:0:0:
256,192,69134,1,0,0:0:0:0:
256,192,69192,1,2,0:0:0:0:
256,192,69251,1,2,0:0:0:0:
256,192,69310,1,0,0:0:0:0:
256,192,69368,1,2,0:0:0:0:
256,192,69427,1,0,0:0:0:0:
256,192,69485,1,2,0:0:0:0:
256,192,69544,1,2,0:0:0:0:
256,192,69603,5,0,0:0:0:0:
256,192,69839,1,0,0:0:0:0:
256,192,70073,1,2,0:0:0:0:
256,192,70190,1,0,0:0:0:0:
256,192,70425,1,0,0:0:0:0:
256,192,70659,1,0,0:0:0:0:
256,192,70776,1,2,0:0:0:0:
256,192,71011,1,2,0:0:0:0:
256,192,71128,1,0,0:0:0:0:
256,192,71245,1,2,0:0:0:0:
256,192,71304,1,2,0:0:0:0:
256,192,71362,1,2,0:0:0:0:
256,192,71480,1,0,0:0:0:0:
256,192,71597,1,0,0:0:0:0:
256,192,71714,1,2,0:0:0:0:
256,192,71948,1,0,0:0:0:0:
256,192,72065,1,2,0:0:0:0:
256,192,72300,1,2,0:0:0:0:
256,192,72417,1,0,0:0:0:0:
256,192,72534,1,0,0:0:0:0:
256,192,72651,1,0,0:0:0:0:
256,192,72886,1,2,0:0:0:0:
256,192,73003,1,0,0:0:0:0:
256,192,73120,1,2,0:0:0:0:
256,192,73179,1,2,0:0:0:0:
256,192,73237,1,2,0:0:0:0:
256,192,73355,1,0,0:0:0:0:
256,192,73472,1,2,0:0:0:0:
256,192,73706,1,2,0:0:0:0:
256,192,73823,1,0,0:0:0:0:
256,192,74058,1,0,0:0:0:0:
256,192,74175,1,2,0:0:0:0:
256,192,74409,1,2,0:0:0:0:
256,192,74526,1,0,0:0:0:0:
256,192,74644,1,0,0:0:0:0:
256,192,74761,1,2,0:0:0:0:
256,192,74878,1,0,0:0:0:0:
256,192,74995,1,2,0:0:0:0:
256,192,75054,1,2,0:0:0:0:
256,192,75112,1,2,0:0:0:0:
256,192,75171,1,2,0:0:0:0:
256,192,75230,1,0,0:0:0:0:
256,192,75464,1,0,0:0:0:0:
256,192,75581,1,2,0:0:0:0:
256,192,75698,1,2,0:0:0:0:
256,192,75815,1,0,0:0:0:0:
256,192,76050,1,0,0:0:0:0:
256,192,76284,1,0,0:0:0:0:
256,192,76401,1,2,0:0:0:0:
256,192,76636,1,2,0:0:0:0:
256,192,76753,1,0,0:0:0:0:
256,192,76870,1,2,0:0:0:0:
256,192,76929,1,2,0:0:0:0:
256,192,76987,1,2,0:0:0:0:
256,192,77105,1,0,0:0:0:0:
256,192,77222,1,0,0:0:0:0:
256,192,77339,1,2,0:0:0:0:
256,192,77456,1,2,0:0:0:0:
256,192,77573,1,0,0:0:0:0:
256,192,77690,1,2,0:0:0:0:
256,192,77925,1,2,0:0:0:0:
256,192,78042,1,0,0:0:0:0:
256,192,78159,1,0,0:0:0:0:
256,192,78276,1,0,0:0:0:0:
256,192,78511,1,2,0:0:0:0:
256,192,78628,1,0,0:0:0:0:
256,192,78745,1,2,0:0:0:0:
256,192,78804,1,2,0:0:0:0:
256,192,78862,1,2,0:0:0:0:
256,192,78980,1,0,0:0:0:0:
256,192,79097,1,2,0:0:0:0:
256,192,79331,1,2,0:0:0:0:
256,192,79448,1,0,0:0:0:0:
256,192,79683,1,0,0:0:0:0:
256,192,79800,1,2,0:0:0:0:
256,192,80034,1,2,0:0:0:0:
256,192,80151,1,0,0:0:0:0:
256,192,80269,1,0,0:0:0:0:
256,192,80386,1,2,0:0:0:0:
256,192,80503,1,0,0:0:0:0:
256,192,80620,1,2,0:0:0:0:
256,192,80679,1,2,0:0:0:0:
256,192,80737,1,2,0:0:0:0:
256,192,80796,1,2,0:0:0:0:
256,192,80855,5,0,0:0:0:0:
256,192,80972,1,0,0:0:0:0:
256,192,81089,1,0,0:0:0:0:
256,192,81206,1,2,0:0:0:0:
256,192,81558,1,0,0:0:0:0:
256,192,81675,1,0,0:0:0:0:
256,192,81792,1,2,0:0:0:0:
256,192,81909,1,2,0:0:0:0:
256,192,82261,1,0,0:0:0:0:
256,192,82378,1,2,0:0:0:0:
256,192,82495,1,2,0:0:0:0:
256,192,82612,1,0,0:0:0:0:
256,192,82964,1,2,0:0:0:0:
256,192,83081,1,0,0:0:0:0:
256,192,83198,1,0,0:0:0:0:
256,192,83315,1,2,0:0:0:0:
256,192,83667,1,0,0:0:0:0:
256,192,83784,1,0,0:0:0:0:
256,192,83901,1,2,0:0:0:0:
256,192,84019,1,0,0:0:0:0:
256,192,84370,1,2,0:0:0:0:
256,192,84487,1,2,0:0:0:0:
256,192,84605,1,0,0:0:0:0:
256,192,84722,1,2,0:0:0:0:
256,192,85073,1,0,0:0:0:0:
256,192,85190,1,2,0:0:0:0:
256,192,85308,1,2,0:0:0:0:
256,192,85425,1,2,0:0:0:0:
256,192,85776,1,0,0:0:0:0:
256,192,85894,1,0,0:0:0:0:
256,192,86011,1,0,0:0:0:0:
256,192,86128,1,2,0:0:0:0:
256,192,86480,1,0,0:0:0:0:
256,192,86597,1,0,0:0:0:0:
256,192,86714,1,2,0:0:0:0:
256,192,86831,1,2,0:0:0:0:
256,192,87183,1,0,0:0:0:0:
256,192,87300,1,2,0:0:0:0:
256,192,87417,1,2,0:0:0:0:
256,192,87534,1,0,0:0:0:0:
256,192,87886,1,2,0:0:0:0:
256,192,88003,1,2,0:0:0:0:
256,192,88120,1,0,0:0:0:0:
256,192,88237,1,0,0:0:0:0:
256,192,88589,1,2,0:0:0:0:
256,192,88706,1,0,0:0:0:0:
256,192,88823,1,0,0:0:0:0:
256,192,88940,1,2,0:0:0:0:
256,192,89292,1,0,0:0:0:0:
256,192,89409,1,2,0:0:0:0:
256,192,89526,1,0,0:0:0:0:
256,192,89644,1,2,0:0:0:0:
256,192,89995,1,2,0:0:0:0:
256,192,90112,1,2,0:0:0:0:
256,192,90230,1,0,0:0:0:0:
256,192,90347,1,2,0:0:0:0:
256,192,90698,1,2,0:0:0:0:
256,192,90815,1,0,0:0:0:0:
256,192,90933,1,2,0:0:0:0:
256,192,91050,1,0,0:0:0:0:
256,192,91399,1,0,0:0:0:0:
256,192,91516,1,0,0:0:0:0:
256,192,91633,1,2,0:0:0:0:
256,192,91750,1,0,0:0:0:0:
256,192,91867,1,2,0:0:0:0:
256,192,91984,1,2,0:0:0:0:
256,192,92102,1,0,0:0:0:0:
256,192,92219,1,2,0:0:0:0:
256,192,92336,1,0,0:0:0:0:
256,192,92453,1,0,0:0:0:0:
256,192,92570,1,2,0:0:0:0:
256,192,92688,1,2,0:0:0:0:
256,192,92805,1,0,0:0:0:0:
256,192,92922,1,2,0:0:0:0:
256,192,93039,1,2,0:0:0:0:
256,192,93156,1,2,0:0:0:0:
256,192,93274,1,0,0:0:0:0:
256,192,93391,1,2,0:0:0:0:
256,192,93508,1,0,0:0:0:0:
256,192,93625,1,2,0:0:0:0:
256,192,93742,1,0,0:0:0:0:
256,192,93859,1,0,0:0:0:0:
256,192,93977,1,2,0:0:0:0:
256,192,94094,1,0,0:0:0:0:
256,192,94211,1,2,0:0:0:0:
256,192,94328,1,2,0:0:0:0:
256,192,94445,1,0,0:0:0:0:
256,192,94563,1,2,0:0:0:0:
256,192,94680,1,0,0:0:0:0:
256,192,94797,1,0,0:0:0:0:
256,192,94914,1,2,0:0:0:0:
256,192,95031,1,2,0:0:0:0:
256,192,95149,5,0,0:0:0:0:
256,192,95500,1,2,0:0:0:0:
256,192,95617,1,0,0:0:0:0:
256,192,95734,1,2,0:0:0:0:
256,192,95969,1,2,0:0:0:0:
256,192,96203,1,0,0:0:0:0:
256,192,96320,1,2,0:0:0:0:
256,192,96555,1,2,0:0:0:0:
256,192,96672,1,2,0:0:0:0:
256,192,96789,1,0,0:0:0:0:
256,192,96906,1,2,0:0:0:0:
256,192,97024,1,0,0:0:0:0:
256,192,97375,1,0,0:0:0:0:
256,192,97492,1,0,0:0:0:0:
256,192,97609,1,2,0:0:0:0:
256,192,97844,1,2,0:0:0:0:
256,192,98078,1,0,0:0:0:0:
256,192,98195,1,2,0:0:0:0:
256,192,98430,1,0,0:0:0:0:
256,192,98664,1,2,0:0:0:0:
256,192,98899,1,2,0:0:0:0:
256,192,99250,1,2,0:0:0:0:
256,192,99367,1,0,0:0:0:0:
256,192,99484,1,2,0:0:0:0:
256,192,99719,1,2,0:0:0:0:
256,192,99953,1,0,0:0:0:0:
256,192,100070,1,2,0:0:0:0:
256,192,100305,1,2,0:0:0:0:
256,192,100422,1,2,0:0:0:0:
256,192,100539,1,0,0:0:0:0:
256,192,100656,1,2,0:0:0:0:
256,192,100774,1,0,0:0:0:0:
256,192,101125,1,0,0:0:0:0:
256,192,101242,1,0,0:0:0:0:
256,192,101359,1,2,0:0:0:0:
256,192,101594,1,0,0:0:0:0:
256,192,101828,1,0,0:0:0:0:
256,192,101945,1,2,0:0:0:0:
256,192,102180,1,2,0:0:0:0:
256,192,102238,1,2,0:0:0:0:
256,192,102297,1,2,0:0:0:0:
256,192,102356,1,2,0:0:0:0:
256,192,102414,1,2,0:0:0:0:
256,192,102473,1,2,0:0:0:0:
256,192,102531,1,2,0:0:0:0:
256,192,102590,1,2,0:0:0:0:
256,192,102649,1,0,0:0:0:0:
256,192,102824,1,2,0:0:0:0:
256,192,102883,1,0,0:0:0:0:
256,192,103000,1,2,0:0:0:0:
256,192,103117,1,0,0:0:0:0:
256,192,103176,1,0,0:0:0:0:
256,192,103234,1,2,0:0:0:0:
256,192,103293,1,2,0:0:0:0:
256,192,103352,1,0,0:0:0:0:
256,192,103469,1,2,0:0:0:0:
256,192,103586,1,0,0:0:0:0:
256,192,103703,1,2,0:0:0:0:
256,192,103762,1,0,0:0:0:0:
256,192,103820,1,0,0:0:0:0:
256,192,103938,1,2,0:0:0:0:
256,192,104055,1,0,0:0:0:0:
256,192,104113,1,2,0:0:0:0:
256,192,104172,1,2,0:0:0:0:
256,192,104231,1,2,0:0:0:0:
256,192,104289,1,0,0:0:0:0:
256,192,104406,1,2,0:0:0:0:
256,192,104524,1,0,0:0:0:0:
256,192,104582,1,2,0:0:0:0:
256,192,104699,1,2,0:0:0:0:
256,192,104758,1,0,0:0:0:0:
256,192,104875,1,2,0:0:0:0:
256,192,104934,1,2,0:0:0:0:
256,192,104992,1,0,0:0:0:0:
256,192,105051,1,0,0:0:0:0:
256,192,105109,1,2,0:0:0:0:
256,192,105227,1,0,0:0:0:0:
256,192,105344,1,2,0:0:0:0:
256,192,105402,1,2,0:0:0:0:
256,192,105461,1,0,0:0:0:0:
256,192,105520,1,2,0:0:0:0:
256,192,105578,1,0,0:0:0:0:
256,192,105637,1,0,0:0:0:0:
256,192,105695,1,2,0:0:0:0:
256,192,105754,1,0,0:0:0:0:
256,192,105813,1,2,0:0:0:0:
256,192,105871,1,2,0:0:0:0:
256,192,105930,1,0,0:0:0:0:
256,192,106047,1,0,0:0:0:0:
256,192,106106,1,2,0:0:0:0:
256,192,106164,1,2,0:0:0:0:
256,192,106281,1,2,0:0:0:0:
256,192,106399,1,0,0:0:0:0:
256,192,106516,1,0,0:0:0:0:
256,192,106574,1,2,0:0:0:0:
256,192,106633,1,0,0:0:0:0:
256,192,106750,1,2,0:0:0:0:
256,192,106809,1,2,0:0:0:0:
256,192,106867,1,0,0:0:0:0:
256,192,106926,1,0,0:0:0:0:
256,192,106984,1,2,0:0:0:0:
256,192,107043,1,0,0:0:0:0:
256,192,107102,1,0,0:0:0:0:
256,192,107219,1,2,0:0:0:0:
256,192,107336,1,0,0:0:0:0:
256,192,107395,1,2,0:0:0:0:
256,192,107453,1,2,0:0:0:0:
256,192,107570,1,0,0:0:0:0:
256,192,107688,1,2,0:0:0:0:
256,192,107746,1,0,0:0:0:0:
256,192,107805,1,2,0:0:0:0:
256,192,107863,1,2,0:0:0:0:
256,192,107922,1,0,0:0:0:0:
256,192,107981,1,2,0:0:0:0:
256,192,108039,1,0,0:0:0:0:
256,192,108156,1,2,0:0:0:0:
256,192,108274,1,0,0:0:0:0:
256,192,108332,1,0,0:0:0:0:
256,192,108391,1,2,0:0:0:0:
256,192,108449,1,2,0:0:0:0:
256,192,108508,1,0,0:0:0:0:
256,192,108566,1,2,0:0:0:0:
256,192,108625,1,0,0:0:0:0:
256,192,108684,1,0,0:0:0:0:
256,192,108742,1,2,0:0:0:0:
256,192,108801,1,0,0:0:0:0:
256,192,108859,1,2,0:0:0:0:
256,192,108918,1,2,0:0:0:0:
256,192,108977,1,0,0:0:0:0:
256,192,109094,1,2,0:0:0:0:
256,192,109211,1,0,0:0:0:0:
256,192,109270,1,2,0:0:0:0:
256,192,109328,1,2,0:0:0:0:
256,192,109387,1,0,0:0:0:0:
256,192,109445,1,2,0:0:0:0:
256,192,109504,1,2,0:0:0:0:
256,192,109563,1,0,0:0:0:0:
256,192,109621,1,0,0:0:0:0:
256,192,109680,1,2,0:0:0:0:
256,192,109738,1,2,0:0:0:0:
256,192,109797,1,2,0:0:0:0:
256,192,109856,1,2,0:0:0:0:
256,192,109914,1,0,0:0:0:0:
256,192,109973,1,2,0:0:0:0:
256,192,110031,1,2,0:0:0:0:
256,192,110149,5,0,0:0:0:0:
256,192,110207,1,0,0:0:0:0:
256,192,110266,1,0,0:0:0:0:
256,192,110324,1,0,0:0:0:0:
256,192,110383,1,2,0:0:0:0:
256,192,110441,1,2,0:0:0:0:
256,192,110500,1,2,0:0:0:0:
256,192,110559,1,2,0:0:0:0:
256,192,110617,1,0,0:0:0:0:
256,192,110676,1,0,0:0:0:0:
256,192,110734,1,2,0:0:0:0:
256,192,110793,1,2,0:0:0:0:
256,192,110852,1,0,0:0:0:0:
256,192,110910,1,2,0:0:0:0:
256,192,110969,1,2,0:0:0:0:
256,192,111027,1,2,0:0:0:0:
256,192,111086,1,0,0:0:0:0:
256,192,111203,1,2,0:0:0:0:
256,192,111320,1,0,0:0:0:0:
256,192,111438,1,0,0:0:0:0:
256,192,111555,1,2,0:0:0:0:
256,192,111613,1,2,0:0:0:0:
256,192,111672,1,2,0:0:0:0:
256,192,111789,1,0,0:0:0:0:
256,192,111906,1,2,0:0:0:0:
256,192,112024,1,0,0:0:0:0:
256,192,112082,1,2,0:0:0:0:
256,192,112141,1,2,0:0:0:0:
256,192,112199,1,2,0:0:0:0:
256,192,112258,1,0,0:0:0:0:
256,192,112316,1,0,0:0:0:0:
256,192,112375,1,2,0:0:0:0:
256,192,112434,1,0,0:0:0:0:
256,192,112492,1,2,0:0:0:0:
256,192,112551,1,2,0:0:0:0:
256,192,112609,1,0,0:0:0:0:
256,192,112668,1,2,0:0:0:0:
256,192,112727,1,0,0:0:0:0:
256,192,112785,1,0,0:0:0:0:
256,192,112844,1,2,0:0:0:0:
256,192,112902,1,2,0:0:0:0:
256,192,112961,1,0,0:0:0:0:
256,192,113078,1,2,0:0:0:0:
256,192,113195,1,0,0:0:0:0:
256,192,113313,1,0,0:0:0:0:
256,192,113430,1,2,0:0:0:0:
256,192,113488,1,2,0:0:0:0:
256,192,113547,1,2,0:0:0:0:
256,192,113606,1,2,0:0:0:0:
256,192,113664,1,0,0:0:0:0:
256,192,113781,1,2,0:0:0:0:
256,192,113899,1,0,0:0:0:0:
256,192,113957,1,0,0:0:0:0:
256,192,114016,1,0,0:0:0:0:
256,192,114074,1,0,0:0:0:0:
256,192,114133,1,2,0:0:0:0:
256,192,114191,1,2,0:0:0:0:
256,192,114250,1,2,0:0:0:0:
256,192,114309,1,2,0:0:0:0:
256,192,114367,1,0,0:0:0:0:
256,192,114426,1,0,0:0:0:0:
256,192,114484,1,0,0:0:0:0:
256,192,114543,1,2,0:0:0:0:
256,192,114602,1,0,0:0:0:0:
256,192,114660,1,0,0:0:0:0:
256,192,114719,1,2,0:0:0:0:
256,192,114777,1,2,0:0:0:0:
256,192,114836,1,0,0:0:0:0:
256,192,114953,1,2,0:0:0:0:
256,192,115070,1,0,0:0:0:0:
256,192,115188,1,0,0:0:0:0:
256,192,115305,1,2,0:0:0:0:
256,192,115363,1,2,0:0:0:0:
256,192,115422,1,2,0:0:0:0:
256,192,115539,1,0,0:0:0:0:
256,192,115656,1,2,0:0:0:0:
256,192,115774,1,0,0:0:0:0:
256,192,115832,1,0,0:0:0:0:
256,192,115891,1,2,0:0:0:0:
256,192,115949,1,2,0:0:0:0:
256,192,116008,1,0,0:0:0:0:
256,192,116066,1,2,0:0:0:0:
256,192,116125,1,2,0:0:0:0:
256,192,116184,1,0,0:0:0:0:
256,192,116242,1,2,0:0:0:0:
256,192,116301,1,2,0:0:0:0:
256,192,116359,1,0,0:0:0:0:
256,192,116418,1,0,0:0:0:0:
256,192,116477,1,2,0:0:0:0:
256,192,116535,1,0,0:0:0:0:
256,192,116594,1,2,0:0:0:0:
256,192,116652,1,2,0:0:0:0:
256,192,116711,1,0,0:0:0:0:
256,192,116828,1,2,0:0:0:0:
256,192,116945,1,0,0:0:0:0:
256,192,117063,1,0,0:0:0:0:
256,192,117180,1,2,0:0:0:0:
256,192,117414,1,2,0:0:0:0:
256,192,117649,5,0,0:0:0:0:
256,192,117707,1,0,0:0:0:0:
256,192,117766,1,0,0:0:0:0:
256,192,117824,1,0,0:0:0:0:
256,192,117883,1,2,0:0:0:0:
256,192,117941,1,2,0:0:0:0:
256,192,118000,1,2,0:0:0:0:
256,192,118059,1,2,0:0:0:0:
256,192,118117,1,0,0:0:0:0:
256,192,118176,1,0,0:0:0:0:
256,192,118234,1,0,0:0:0:0:
256,192,118293,1,2,0:0:0:0:
256,192,118352,1,0,0:0:0:0:
256,192,118410,1,0,0:0:0:0:
256,192,118469,1,2,0:0:0:0:
256,192,118527,1,2,0:0:0:0:
256,192,118586,1,0,0:0:0:0:
256,192,118645,1,2,0:0:0:0:
256,192,118703,1,2,0:0:0:0:
256,192,118762,1,2,0:0:0:0:
256,192,118820,1,0,0:0:0:0:
256,192,118879,1,0,0:0:0:0:
256,192,118938,1,2,0:0:0:0:
256,192,118996,1,2,0:0:0:0:
256,192,119055,1,0,0:0:0:0:
256,192,119113,1,2,0:0:0:0:
256,192,119172,1,2,0:0:0:0:
256,192,119231,1,2,0:0:0:0:
256,192,119289,1,0,0:0:0:0:
256,192,119348,1,0,0:0:0:0:
256,192,119406,1,2,0:0:0:0:
256,192,119465,1,2,0:0:0:0:
256,192,119524,1,0,0:0:0:0:
256,192,119582,1,0,0:0:0:0:
256,192,119641,1,0,0:0:0:0:
256,192,119699,1,0,0:0:0:0:
256,192,119758,1,2,0:0:0:0:
256,192,119816,1,0,0:0:0:0:
256,192,119875,1,2,0:0:0:0:
256,192,119934,1,2,0:0:0:0:
256,192,119992,1,0,0:0:0:0:
256,192,120051,1,0,0:0:0:0:
256,192,120109,1,2,0:0:0:0:
256,192,120168,1,2,0:0:0:0:
256,192,120227,1,0,0:0:0:0:
256,192,120285,1,2,0:0:0:0:
256,192,120344,1,2,0:0:0:0:
256,192,120402,1,2,0:0:0:0:
256,192,120461,1,0,0:0:0:0:
256,192,120520,1,2,0:0:0:0:
256,192,120578,1,0,0:0:0:0:
256,192,120637,1,0,0:0:0:0:
256,192,120695,1,2,0:0:0:0:
256,192,120754,1,0,0:0:0:0:
256,192,120813,1,0,0:0:0:0:
256,192,120871,1,2,0:0:0:0:
256,192,120930,1,0,0:0:0:0:
256,192,120988,1,2,0:0:0:0:
256,192,121047,1,2,0:0:0:0:
256,192,121106,1,2,0:0:0:0:
256,192,121164,1,0,0:0:0:0:
256,192,121223,1,0,0:0:0:0:
256,192,121281,1,2,0:0:0:0:
256,192,121340,1,2,0:0:0:0:
256,192,121399,1,0,0:0:0:0:
256,192,121457,1,2,0:0:0:0:
256,192,121516,1,2,0:0:0:0:
256,192,121574,1,2,0:0:0:0:
256,192,121633,1,0,0:0:0:0:
256,192,121691,1,0,0:0:0:0:
256,192,121750,1,2,0:0:0:0:
256,192,121809,1,2,0:0:0:0:
256,192,121867,1,0,0:0:0:0:
256,192,121926,1,0,0:0:0:0:
256,192,121984,1,0,0:0:0:0:
256,192,122043,1,2,0:0:0:0:
256,192,122102,1,0,0:0:0:0:
256,192,122160,1,0,0:0:0:0:
256,192,122219,1,2,0:0:0:0:
256,192,122277,1,0,0:0:0:0:
256,192,122336,1,2,0:0:0:0:
256,192,122395,1,2,0:0:0:0:
256,192,122453,1,0,0:0:0:0:
256,192,122512,1,2,0:0:0:0:
256,192,122570,1,0,0:0:0:0:
256,192,122629,1,0,0:0:0:0:
256,192,122688,1,2,0:0:0:0:
256,192,122746,1,0,0:0:0:0:
256,192,122805,1,2,0:0:0:0:
256,192,122863,1,2,0:0:0:0:
256,192,122922,1,0,0:0:0:0:
256,192,122981,1,2,0:0:0:0:
256,192,123039,1,0,0:0:0:0:
256,192,123098,1,0,0:0:0:0:
256,192,123156,1,2,0:0:0:0:
256,192,123215,1,2,0:0:0:0:
256,192,123274,1,0,0:0:0:0:
256,192,123332,1,2,0:0:0:0:
256,192,123391,1,2,0:0:0:0:
256,192,123449,1,0,0:0:0:0:
256,192,123508,1,2,0:0:0:0:
256,192,123566,1,2,0:0:0:0:
256,192,123625,1,0,0:0:0:0:
256,192,123684,1,2,0:0:0:0:
256,192,123742,1,0,0:0:0:0:
256,192,123801,1,0,0:0:0:0:
256,192,123859,1,2,0:0:0:0:
256,192,123918,1,2,0:0:0:0:
256,192,123977,1,0,0:0:0:0:
256,192,124035,1,2,0:0:0:0:
256,192,124094,1,2,0:0:0:0:
256,192,124152,1,2,0:0:0:0:
256,192,124211,1,0,0:0:0:0:
256,192,124328,1,2,0:0:0:0:
256,192,124445,1,0,0:0:0:0:
256,192,124563,1,0,0:0:0:0:
256,192,124680,1,2,0:0:0:0:
256,192,124914,1,2,0:0:0:0:
256,192,125149,5,2,0:0:0:0:
256,192,125266,1,2,0:0:0:0:
256,192,125383,1,0,0:0:0:0:
256,192,125500,1,2,0:0:0:0:
256,192,125617,1,2,0:0:0:0:
256,192,125734,1,0,0:0:0:0:
256,192,125852,1,2,0:0:0:0:
256,192,125969,1,2,0:0:0:0:
256,192,126086,1,0,0:0:0:0:
256,192,126203,1,2,0:0:0:0:
256,192,126320,1,2,0:0:0:0:
256,192,126438,1,0,0:0:0:0:
256,192,126555,1,2,0:0:0:0:
256,192,126613,1,2,0:0:0:0:
256,192,126672,1,2,0:0:0:0:
256,192,126789,1,0,0:0:0:0:
256,192,126906,1,2,0:0:0:0:
256,192,127024,1,0,0:0:0:0:
256,192,127141,1,0,0:0:0:0:
256,192,127258,1,2,0:0:0:0:
256,192,127375,1,0,0:0:0:0:
256,192,127434,1,0,0:0:0:0:
256,192,127492,1,2,0:0:0:0:
256,192,127609,1,2,0:0:0:0:
256,192,127727,1,0,0:0:0:0:
256,192,127844,1,2,0:0:0:0:
256,192,127961,1,0,0:0:0:0:
256,192,128078,1,2,0:0:0:0:
256,192,128137,1,2,0:0:0:0:
256,192,128195,1,0,0:0:0:0:
256,192,128313,1,2,0:0:0:0:
256,192,128430,1,0,0:0:0:0:
256,192,128488,1,0,0:0:0:0:
256,192,128547,1,0,0:0:0:0:
256,192,128606,1,2,0:0:0:0:
256,192,128664,1,2,0:0:0:0:
256,192,128723,1,2,0:0:0:0:
256,192,128781,1,0,0:0:0:0:
256,192,128840,1,0,0:0:0:0:
256,192,128899,1,0,0:0:0:0:
256,192,129016,1,2,0:0:0:0:
256,192,129250,1,2,0:0:0:0:
256,192,129484,1,0,0:0:0:0:
256,192,129602,1,0,0:0:0:0:
256,192,129719,1,2,0:0:0:0:
256,192,129953,1,2,0:0:0:0:
256,192,130070,1,0,0:0:0:0:
256,192,130188,1,2,0:0:0:0:
256,192,130422,1,2,0:0:0:0:
256,192,130656,1,2,0:0:0:0:
256,192,130774,1,0,0:0:0:0:
256,192,130891,1,0,0:0:0:0:
256,192,131008,1,2,0:0:0:0:
256,192,131125,1,2,0:0:0:0:
256,192,131242,1,0,0:0:0:0:
256,192,131359,1,2,0:0:0:0:
256,192,131477,1,0,0:0:0:0:
256,192,131594,1,2,0:0:0:0:
256,192,131652,1,2,0:0:0:0:
256,192,131711,1,2,0:0:0:0:
256,192,131770,1,0,0:0:0:0:
256,192,131828,1,0,0:0:0:0:
256,192,131887,1,0,0:0:0:0:
256,192,131945,1,2,0:0:0:0:
256,192,132004,1,2,0:0:0:0:
256,192,132063,1,0,0:0:0:0:
256,192,132121,1,0,0:0:0:0:
256,192,132180,1,2,0:0:0:0:
256,192,132238,1,0,0:0:0:0:
256,192,132297,1,0,0:0:0:0:
256,192,132356,1,0,0:0:0:0:
256,192,132414,1,2,0:0:0:0:
256,192,132473,1,2,0:0:0:0:
256,192,132531,1,0,0:0:0:0:
256,192,132590,1,0,0:0:0:0:
256,192,132649,1,2,0:0:0:0:
256,192,132766,1,2,0:0:0:0:
256,192,132883,1,0,0:0:0:0:
256,192,133000,1,2,0:0:0:0:
256,192,133117,1,0,0:0:0:0:
256,192,133234,1,0,0:0:0:0:
256,192,133293,1,0,0:0:0:0:
256,192,133352,1,2,0:0:0:0:
256,192,133469,1,2,0:0:0:0:
256,192,133586,1,0,0:0:0:0:
256,192,133703,1,2,0:0:0:0:
256,192,133820,1,2,0:0:0:0:
256,192,133938,1,0,0:0:0:0:
256,192,134055,1,2,0:0:0:0:
256,192,134113,1,2,0:0:0:0:
256,192,134172,1,2,0:0:0:0:
256,192,134289,1,0,0:0:0:0:
256,192,134406,1,2,0:0:0:0:
256,192,134524,1,0,0:0:0:0:
256,192,134641,1,0,0:0:0:0:
256,192,134758,1,2,0:0:0:0:
256,192,134875,1,0,0:0:0:0:
256,192,134934,1,0,0:0:0:0:
256,192,134992,1,2,0:0:0:0:
256,192,135109,1,2,0:0:0:0:
256,192,135227,1,0,0:0:0:0:
256,192,135344,1,2,0:0:0:0:
256,192,135461,1,0,0:0:0:0:
256,192,135578,1,2,0:0:0:0:
256,192,135637,1,2,0:0:0:0:
256,192,135695,1,0,0:0:0:0:
256,192,135813,1,2,0:0:0:0:
256,192,135930,1,0,0:0:0:0:
256,192,136008,1,0,0:0:0:0:
256,192,136086,1,0,0:0:0:0:
256,192,136164,1,2,0:0:0:0:
256,192,136242,1,2,0:0:0:0:
256,192,136320,1,2,0:0:0:0:
256,192,136399,1,0,0:0:0:0:
256,192,136477,1,2,0:0:0:0:
256,192,136555,1,0,0:0:0:0:
256,192,136633,1,0,0:0:0:0:
256,192,136711,1,2,0:0:0:0:
256,192,136789,1,0,0:0:0:0:
256,192,136867,1,2,0:0:0:0:
256,192,136945,1,2,0:0:0:0:
256,192,137024,1,0,0:0:0:0:
256,192,137102,1,2,0:0:0:0:
256,192,137180,1,2,0:0:0:0:
256,192,137258,1,2,0:0:0:0:
256,192,137336,1,0,0:0:0:0:
256,192,137414,1,0,0:0:0:0:
256,192,137492,1,2,0:0:0:0:
256,192,137570,1,0,0:0:0:0:
256,192,137649,1,0,0:0:0:0:
256,192,137727,1,2,0:0:0:0:
256,192,137805,1,0,0:0:0:0:
256,192,137883,1,2,0:0:0:0:
256,192,137961,1,2,0:0:0:0:
256,192,138039,1,0,0:0:0:0:
256,192,138156,1,2,0:0:0:0:
256,192,138274,1,0,0:0:0:0:
256,192,138332,1,0,0:0:0:0:
256,192,138391,1,0,0:0:0:0:
256,192,138449,1,0,0:0:0:0:
256,192,138508,1,2,0:0:0:0:
256,192,138566,1,2,0:0:0:0:
256,192,138625,1,0,0:0:0:0:
256,192,138684,1,0,0:0:0:0:
256,192,138742,1,2,0:0:0:0:
256,192,138801,1,0,0:0:0:0:
256,192,138859,1,2,0:0:0:0:
256,192,138918,1,2,0:0:0:0:
256,192,138977,1,0,0:0:0:0:
256,192,139035,1,2,0:0:0:0:
256,192,139094,1,2,0:0:0:0:
256,192,139152,1,2,0:0:0:0:
256,192,139211,1,0,0:0:0:0:
256,192,139445,1,0,0:0:0:0:
256,192,139680,1,2,0:0:0:0:
256,192,140149,5,2,0:0:0:0:
256,192,140266,1,2,0:0:0:0:
256,192,140383,1,0,0:0:0:0:
256,192,140500,1,2,0:0:0:0:
256,192,140617,1,2,0:0:0:0:
256,192,140734,1,0,0:0:0:0:
256,192,140852,1,2,0:0:0:0:
256,192,140969,1,2,0:0:0:0:
256,192,141086,1,0,0:0:0:0:
256,192,141203,1,2,0:0:0:0:
256,192,141320,1,2,0:0:0:0:
256,192,141438,1,0,0:0:0:0:
256,192,141555,1,2,0:0:0:0:
256,192,141613,1,2,0:0:0:0:
256,192,141672,1,2,0:0:0:0:
256,192,141789,1,0,0:0:0:0:
256,192,141906,1,2,0:0:0:0:
256,192,142024,1,0,0:0:0:0:
256,192,142141,1,0,0:0:0:0:
256,192,142258,1,2,0:0:0:0:
256,192,142375,1,0,0:0:0:0:
256,192,142492,1,0,0:0:0:0:
256,192,142609,1,2,0:0:0:0:
256,192,142727,1,0,0:0:0:0:
256,192,142844,1,2,0:0:0:0:
256,192,142961,1,0,0:0:0:0:
256,192,143078,1,2,0:0:0:0:
256,192,143137,1,2,0:0:0:0:
256,192,143195,1,0,0:0:0:0:
256,192,143313,1,2,0:0:0:0:
256,192,143430,1,0,0:0:0:0:
256,192,143488,1,0,0:0:0:0:
256,192,143547,1,0,0:0:0:0:
256,192,143606,1,2,0:0:0:0:
256,192,143664,1,2,0:0:0:0:
256,192,143723,1,2,0:0:0:0:
256,192,143781,1,0,0:0:0:0:
256,192,143840,1,0,0:0:0:0:
256,192,143899,1,0,0:0:0:0:
256,192,144016,1,2,0:0:0:0:
256,192,144250,1,2,0:0:0:0:
256,192,144484,1,0,0:0:0:0:
256,192,144602,1,0,0:0:0:0:
256,192,144719,1,2,0:0:0:0:
256,192,144953,1,2,0:0:0:0:
256,192,145070,1,0,0:0:0:0:
256,192,145188,1,2,0:0:0:0:
256,192,145246,1,2,0:0:0:0:
256,192,145305,1,2,0:0:0:0:
256,192,145422,1,2,0:0:0:0:
256,192,145539,1,0,0:0:0:0:
256,192,145656,1,2,0:0:0:0:
256,192,145774,1,0,0:0:0:0:
256,192,145891,1,0,0:0:0:0:
256,192,146008,1,2,0:0:0:0:
256,192,146125,1,2,0:0:0:0:
256,192,146242,1,0,0:0:0:0:
256,192,146359,1,2,0:0:0:0:
256,192,146477,1,0,0:0:0:0:
256,192,146594,1,2,0:0:0:0:
256,192,146652,1,2,0:0:0:0:
256,192,146711,1,0,0:0:0:0:
256,192,146789,1,0,0:0:0:0:
256,192,146867,1,0,0:0:0:0:
256,192,146945,1,2,0:0:0:0:
256,192,147024,1,0,0:0:0:0:
256,192,147102,1,0,0:0:0:0:
256,192,147180,1,2,0:0:0:0:
256,192,147258,1,2,0:0:0:0:
256,192,147336,1,2,0:0:0:0:
256,192,147414,1,0,0:0:0:0:
256,192,147492,1,2,0:0:0:0:
256,192,147570,1,2,0:0:0:0:
256,192,147649,5,0,0:0:0:0:
256,192,147707,1,2,0:0:0:0:
256,192,147766,1,2,0:0:0:0:
256,192,147824,1,0,0:0:0:0:
256,192,147883,1,2,0:0:0:0:
256,192,147941,1,2,0:0:0:0:
256,192,148000,1,0,0:0:0:0:
256,192,148059,1,2,0:0:0:0:
256,192,148117,1,0,0:0:0:0:
256,192,148176,1,0,0:0:0:0:
256,192,148234,1,2,0:0:0:0:
256,192,148293,1,2,0:0:0:0:
256,192,148352,1,0,0:0:0:0:
256,192,148410,1,2,0:0:0:0:
256,192,148469,1,2,0:0:0:0:
256,192,148527,1,2,0:0:0:0:
256,192,148586,1,0,0:0:0:0:
256,192,148703,1,2,0:0:0:0:
256,192,148820,1,2,0:0:0:0:
256,192,148938,1,0,0:0:0:0:
256,192,149055,1,2,0:0:0:0:
256,192,149113,1,2,0:0:0:0:
256,192,149172,1,2,0:0:0:0:
256,192,149289,1,0,0:0:0:0:
256,192,149406,1,2,0:0:0:0:
256,192,149524,1,0,0:0:0:0:
256,192,149582,1,2,0:0:0:0:
256,192,149641,1,0,0:0:0:0:
256,192,149699,1,0,0:0:0:0:
256,192,149758,1,2,0:0:0:0:
256,192,149816,1,0,0:0:0:0:
256,192,149875,1,0,0:0:0:0:
256,192,149934,1,2,0:0:0:0:
256,192,149992,1,0,0:0:0:0:
256,192,150051,1,0,0:0:0:0:
256,192,150109,1,2,0:0:0:0:
256,192,150168,1,2,0:0:0:0:
256,192,150227,1,0,0:0:0:0:
256,192,150285,1,2,0:0:0:0:
256,192,150344,1,2,0:0:0:0:
256,192,150402,1,2,0:0:0:0:
256,192,150461,1,0,0:0:0:0:
256,192,150578,1,2,0:0:0:0:
256,192,150637,1,2,0:0:0:0:
256,192,150695,1,0,0:0:0:0:
256,192,150813,1,2,0:0:0:0:
256,192,150930,1,0,0:0:0:0:
256,192,151008,1,0,0:0:0:0:
256,192,151086,1,0,0:0:0:0:
256,192,151164,1,2,0:0:0:0:
256,192,151242,1,2,0:0:0:0:
256,192,151320,1,2,0:0:0:0:
256,192,151399,1,0,0:0:0:0:
256,192,151457,1,2,0:0:0:0:
256,192,151516,1,0,0:0:0:0:
256,192,151574,1,0,0:0:0:0:
256,192,151633,1,2,0:0:0:0:
256,192,151691,1,2,0:0:0:0:
256,192,151750,1,0,0:0:0:0:
256,192,151809,1,2,0:0:0:0:
256,192,151867,1,0,0:0:0:0:
256,192,151926,1,0,0:0:0:0:
256,192,151984,1,2,0:0:0:0:
256,192,152043,1,2,0:0:0:0:
256,192,152102,1,0,0:0:0:0:
256,192,152160,1,2,0:0:0:0:
256,192,152219,1,2,0:0:0:0:
256,192,152277,1,2,0:0:0:0:
256,192,152336,1,0,0:0:0:0:
256,192,152414,1,2,0:0:0:0:
256,192,152492,1,2,0:0:0:0:
256,192,152570,1,0,0:0:0:0:
256,192,152649,1,2,0:0:0:0:
256,192,152727,1,2,0:0:0:0:
256,192,152805,1,0,0:0:0:0:
256,192,152883,1,2,0:0:0:0:
256,192,152961,1,0,0:0:0:0:
256,192,153039,1,0,0:0:0:0:
256,192,153156,1,2,0:0:0:0:
256,192,153274,1,2,0:0:0:0:
256,192,153332,1,0,0:0:0:0:
256,192,153391,1,2,0:0:0:0:
256,192,153449,1,2,0:0:0:0:
256,192,153508,1,0,0:0:0:0:
256,192,153566,1,2,0:0:0:0:
256,192,153625,1,0,0:0:0:0:
256,192,153684,1,0,0:0:0:0:
256,192,153742,1,2,0:0:0:0:
256,192,153801,1,2,0:0:0:0:
256,192,153859,1,0,0:0:0:0:
256,192,153918,1,2,0:0:0:0:
256,192,153977,1,0,0:0:0:0:
256,192,154035,1,0,0:0:0:0:
256,192,154094,1,2,0:0:0:0:
256,192,154152,1,2,0:0:0:0:
256,192,154211,1,0,0:0:0:0:
256,192,154328,1,2,0:0:0:0:
256,192,154387,1,2,0:0:0:0:
256,192,154445,1,0,0:0:0:0:
256,192,154563,1,2,0:0:0:0:
256,192,154680,1,0,0:0:0:0:
256,192,154738,1,0,0:0:0:0:
256,192,154797,1,0,0:0:0:0:
256,192,154856,1,0,0:0:0:0:
256,192,154914,1,2,0:0:0:0:
256,192,154973,1,2,0:0:0:0:
256,192,155031,1,2,0:0:0:0:
256,192,155149,1,4,0:0:0:0:
256,192,155266,12,0,161711,0:0:0:0:
256,192,166154,5,0,0:0:0:0:
256,192,166364,1,8,0:0:0:0:
256,192,166575,1,8,0:0:0:0:
256,192,166785,1,0,0:0:0:0:
256,192,166996,1,8,0:0:0:0:
256,192,167136,1,8,0:0:0:0:
256,192,167206,1,8,0:0:0:0:
256,192,167417,1,0,0:0:0:0:
256,192,167627,1,8,0:0:0:0:
256,192,167838,1,0,0:0:0:0:
256,192,168048,1,0,0:0:0:0:
256,192,168259,1,8,0:0:0:0:
256,192,168469,1,8,0:0:0:0:
256,192,168680,1,4,0:0:0:0:
256,192,169101,1,8,0:0:0:0:
256,192,169154,1,8,0:0:0:0:
256,192,169206,1,8,0:0:0:0:
256,192,169259,1,8,0:0:0:0:
256,192,169311,1,8,0:0:0:0:
256,192,169364,1,8,0:0:0:0:
256,192,169417,1,8,0:0:0:0:
256,192,169522,5,4,0:0:0:0:
256,192,169732,1,4,0:0:0:0:
256,192,169943,1,8,0:0:0:0:
256,192,170048,1,8,0:0:0:0:
256,192,170154,1,8,0:0:0:0:
256,192,170259,1,4,0:0:0:0:
256,192,170469,1,8,0:0:0:0:
256,192,170680,1,8,0:0:0:0:
256,192,170785,1,4,0:0:0:0:
256,192,170996,1,8,0:0:0:0:
256,192,171048,1,8,0:0:0:0:
256,192,171101,1,8,0:0:0:0:
256,192,171206,1,4,0:0:0:0:
256,192,171417,1,4,0:0:0:0:
256,192,171627,1,0,0:0:0:0:
256,192,171732,1,8,0:0:0:0:
256,192,171838,1,8,0:0:0:0:
256,192,171943,1,4,0:0:0:0:
256,192,172154,1,8,0:0:0:0:
256,192,172259,1,0,0:0:0:0:
256,192,172469,1,4,0:0:0:0:
256,192,172680,1,8,0:0:0:0:
256,192,172890,1,4,0:0:0:0:
256,192,173101,1,4,0:0:0:0:
256,192,173311,1,8,0:0:0:0:
256,192,173417,1,8,0:0:0:0:
256,192,173522,1,8,0:0:0:0:
256,192,173627,1,4,0:0:0:0:
256,192,173838,1,8,0:0:0:0:
256,192,174048,1,8,0:0:0:0:
256,192,174154,1,4,0:0:0:0:
256,192,174364,1,8,0:0:0:0:
256,192,174417,1,8,0:0:0:0:
256,192,174469,1,8,0:0:0:0:
256,192,174575,1,4,0:0:0:0:
256,192,174785,1,4,0:0:0:0:
256,192,174996,1,8,0:0:0:0:
256,192,175101,1,0,0:0:0:0:
256,192,175206,1,8,0:0:0:0:
256,192,175311,1,4,0:0:0:0:
256,192,175522,1,8,0:0:0:0:
256,192,175575,1,8,0:0:0:0:
256,192,175627,1,0,0:0:0:0:
256,192,175732,1,8,0:0:0:0:
256,192,175838,1,0,0:0:0:0:
256,192,175890,1,8,0:0:0:0:
256,192,175943,1,0,0:0:0:0:
256,192,175996,1,8,0:0:0:0:
256,192,176048,1,0,0:0:0:0:
256,192,176101,1,0,0:0:0:0:
256,192,176154,1,8,0:0:0:0:
256,192,176206,1,8,0:0:0:0:
256,192,176259,1,0,0:0:0:0:
256,192,176469,1,0,0:0:0:0:
256,192,176575,1,8,0:0:0:0:
256,192,176680,1,0,0:0:0:0:
256,192,176732,1,0,0:0:0:0:
256,192,176785,1,8,0:0:0:0:
256,192,176890,1,0,0:0:0:0:
256,192,176996,1,8,0:0:0:0:
256,192,177048,1,8,0:0:0:0:
256,192,177101,1,0,0:0:0:0:
256,192,177154,1,0,0:0:0:0:
256,192,177206,1,8,0:0:0:0:
256,192,177311,1,0,0:0:0:0:
256,192,177417,1,8,0:0:0:0:
256,192,177469,1,8,0:0:0:0:
256,192,177522,1,0,0:0:0:0:
256,192,177627,1,0,0:0:0:0:
256,192,177732,1,8,0:0:0:0:
256,192,177943,1,0,0:0:0:0:
256,192,178154,1,0,0:0:0:0:
256,192,178259,1,8,0:0:0:0:
256,192,178364,1,0,0:0:0:0:
256,192,178417,1,0,0:0:0:0:
256,192,178469,1,0,0:0:0:0:
256,192,178575,1,8,0:0:0:0:
256,192,178680,1,0,0:0:0:0:
256,192,178732,1,8,0:0:0:0:
256,192,178785,1,0,0:0:0:0:
256,192,178890,1,8,0:0:0:0:
256,192,178996,1,0,0:0:0:0:
256,192,179048,1,0,0:0:0:0:
256,192,179101,1,8,0:0:0:0:
256,192,179154,1,8,0:0:0:0:
256,192,179206,1,0,0:0:0:0:
256,192,179311,1,0,0:0:0:0:
256,192,179417,1,8,0:0:0:0:
256,192,179469,1,8,0:0:0:0:
256,192,179627,1,0,0:0:0:0:
256,192,179838,1,0,0:0:0:0:
256,192,179943,1,8,0:0:0:0:
256,192,180048,1,0,0:0:0:0:
256,192,180101,1,0,0:0:0:0:
256,192,180154,1,8,0:0:0:0:
256,192,180259,1,0,0:0:0:0:
256,192,180364,1,8,0:0:0:0:
256,192,180417,1,8,0:0:0:0:
256,192,180469,1,0,0:0:0:0:
256,192,180522,1,0,0:0:0:0:
256,192,180575,1,8,0:0:0:0:
256,192,180680,1,0,0:0:0:0:
256,192,180785,1,8,0:0:0:0:
256,192,180838,1,8,0:0:0:0:
256,192,180890,1,8,0:0:0:0:
256,192,180996,1,0,0:0:0:0:
256,192,181101,1,8,0:0:0:0:
256,192,181311,1,0,0:0:0:0:
256,192,181417,1,0,0:0:0:0:
256,192,181522,1,8,0:0:0:0:
256,192,181627,1,8,0:0:0:0:
256,192,181732,1,0,0:0:0:0:
256,192,181785,1,0,0:0:0:0:
256,192,181838,1,8,0:0:0:0:
256,192,181890,1,8,0:0:0:0:
256,192,181943,1,0,0:0:0:0:
256,192,182048,1,8,0:0:0:0:
256,192,182154,1,0,0:0:0:0:
256,192,182206,1,0,0:0:0:0:
256,192,182259,1,8,0:0:0:0:
256,192,182311,1,0,0:0:0:0:
256,192,182364,1,0,0:0:0:0:
256,192,182417,1,0,0:0:0:0:
256,192,182469,1,8,0:0:0:0:
256,192,182522,1,8,0:0:0:0:
256,192,182575,1,0,0:0:0:0:
256,192,182627,1,8,0:0:0:0:
256,192,182680,1,0,0:0:0:0:
256,192,182732,1,0,0:0:0:0:
256,192,182785,1,8,0:0:0:0:
256,192,182890,1,8,0:0:0:0:
256,192,182996,5,4,0:0:0:0:
256,192,183206,1,0,0:0:0:0:
256,192,183417,1,8,0:0:0:0:
256,192,183732,1,0,0:0:0:0:
256,192,184048,1,8,0:0:0:0:
256,192,184259,1,0,0:0:0:0:
256,192,184364,1,0,0:0:0:0:
256,192,184469,1,8,0:0:0:0:
256,192,184680,1,0,0:0:0:0:
256,192,184890,1,0,0:0:0:0:
256,192,185101,1,8,0:0:0:0:
256,192,185417,1,0,0:0:0:0:
256,192,185627,1,0,0:0:0:0:
256,192,185732,1,8,0:0:0:0:
256,192,185943,1,0,0:0:0:0:
256,192,186048,1,8,0:0:0:0:
256,192,186154,1,8,0:0:0:0:
256,192,186259,1,8,0:0:0:0:
256,192,186364,1,4,0:0:0:0:
256,192,186785,1,8,0:0:0:0:
256,192,187101,1,0,0:0:0:0:
256,192,187417,1,0,0:0:0:0:
256,192,187522,1,0,0:0:0:0:
256,192,187627,1,8,0:0:0:0:
256,192,187838,1,0,0:0:0:0:
256,192,188048,1,8,0:0:0:0:
256,192,188259,1,8,0:0:0:0:
256,192,188364,1,8,0:0:0:0:
256,192,188575,1,8,0:0:0:0:
256,192,188785,1,8,0:0:0:0:
256,192,188890,1,8,0:0:0:0:
256,192,188996,1,8,0:0:0:0:
256,192,189101,1,8,0:0:0:0:
256,192,189206,1,8,0:0:0:0:
256,192,189311,1,8,0:0:0:0:
256,192,189364,1,8,0:0:0:0:
256,192,189417,1,8,0:0:0:0:
256,192,189469,1,8,0:0:0:0:
256,192,189522,1,8,0:0:0:0:
256,192,189732,5,4,0:0:0:0:
256,192,189943,1,8,0:0:0:0:
256,192,190048,1,8,0:0:0:0:
256,192,190101,1,8,0:0:0:0:
256,192,190154,1,0,0:0:0:0:
256,192,190259,1,8,0:0:0:0:
256,192,190364,1,0,0:0:0:0:
256,192,190417,1,0,0:0:0:0:
256,192,190469,1,8,0:0:0:0:
256,192,190575,1,0,0:0:0:0:
256,192,190627,1,8,0:0:0:0:
256,192,190680,1,8,0:0:0:0:
256,192,190732,1,8,0:0:0:0:
256,192,190785,1,0,0:0:0:0:
256,192,190890,1,8,0:0:0:0:
256,192,190996,1,0,0:0:0:0:
256,192,191048,1,8,0:0:0:0:
256,192,191101,1,0,0:0:0:0:
256,192,191154,1,0,0:0:0:0:
256,192,191206,1,8,0:0:0:0:
256,192,191417,1,4,0:0:0:0:
256,192,191627,1,12,0:0:0:0:
256,192,191838,1,0,0:0:0:0:
256,192,191996,1,8,0:0:0:0:
256,192,192048,1,0,0:0:0:0:
256,192,192154,1,8,0:0:0:0:
256,192,192259,1,0,0:0:0:0:
256,192,192311,1,0,0:0:0:0:
256,192,192364,1,8,0:0:0:0:
256,192,192417,1,8,0:0:0:0:
256,192,192469,1,0,0:0:0:0:
256,192,192575,1,8,0:0:0:0:
256,192,192680,12,0,192996,0:0:0:0:
256,192,193101,5,0,0:0:0:0:
256,192,193311,1,12,0:0:0:0:
256,192,193522,1,0,0:0:0:0:
256,192,193575,1,8,0:0:0:0:
256,192,193627,1,0,0:0:0:0:
256,192,193680,1,8,0:0:0:0:
256,192,193732,1,0,0:0:0:0:
256,192,193785,1,8,0:0:0:0:
256,192,193838,1,8,0:0:0:0:
256,192,193890,1,8,0:0:0:0:
256,192,193943,1,0,0:0:0:0:
256,192,194101,1,8,0:0:0:0:
256,192,194154,1,0,0:0:0:0:
256,192,194259,1,8,0:0:0:0:
256,192,194364,1,0,0:0:0:0:
256,192,194417,1,0,0:0:0:0:
256,192,194469,1,0,0:0:0:0:
256,192,194575,1,8,0:0:0:0:
256,192,194785,1,4,0:0:0:0:
256,192,194996,1,8,0:0:0:0:
256,192,195101,1,0,0:0:0:0:
256,192,195154,1,0,0:0:0:0:
256,192,195206,1,8,0:0:0:0:
256,192,195311,1,8,0:0:0:0:
256,192,195364,1,8,0:0:0:0:
256,192,195417,1,0,0:0:0:0:
256,192,195469,1,0,0:0:0:0:
256,192,195522,1,8,0:0:0:0:
256,192,195627,1,0,0:0:0:0:
256,192,195732,1,8,0:0:0:0:
256,192,195838,1,8,0:0:0:0:
256,192,195943,1,0,0:0:0:0:
256,192,196048,1,8,0:0:0:0:
256,192,196259,1,12,0:0:0:0:
256,192,196469,1,4,0:0:0:0:
256,192,196680,1,0,0:0:0:0:
256,192,196785,1,8,0:0:0:0:
256,192,196838,1,8,0:0:0:0:
256,192,196890,1,0,0:0:0:0:
256,192,196996,1,8,0:0:0:0:
256,192,197101,1,0,0:0:0:0:
256,192,197154,1,8,0:0:0:0:
256,192,197206,1,8,0:0:0:0:
256,192,197311,1,0,0:0:0:0:
256,192,197364,1,0,0:0:0:0:
256,192,197469,1,8,0:0:0:0:
256,192,197522,1,0,0:0:0:0:
256,192,197627,1,8,0:0:0:0:
256,192,197732,1,0,0:0:0:0:
256,192,197785,1,8,0:0:0:0:
256,192,197838,1,0,0:0:0:0:
256,192,197890,1,0,0:0:0:0:
256,192,197943,1,8,0:0:0:0:
256,192,198048,1,8,0:0:0:0:
256,192,198154,1,4,0:0:0:0:
256,192,198364,1,12,0:0:0:0:
256,192,198575,1,0,0:0:0:0:
256,192,198732,1,8,0:0:0:0:
256,192,198785,1,0,0:0:0:0:
256,192,198890,1,8,0:0:0:0:
256,192,198996,1,0,0:0:0:0:
256,192,199048,1,0,0:0:0:0:
256,192,199101,1,8,0:0:0:0:
256,192,199154,1,8,0:0:0:0:
256,192,199206,1,0,0:0:0:0:
256,192,199259,1,0,0:0:0:0:
256,192,199311,1,8,0:0:0:0:
256,192,199417,1,8,0:0:0:0:
256,192,199838,5,0,0:0:0:0:
256,192,200048,1,12,0:0:0:0:
256,192,200259,1,0,0:0:0:0:
256,192,200311,1,8,0:0:0:0:
256,192,200364,1,0,0:0:0:0:
256,192,200417,1,8,0:0:0:0:
256,192,200469,1,0,0:0:0:0:
256,192,200522,1,8,0:0:0:0:
256,192,200575,1,8,0:0:0:0:
256,192,200627,1,8,0:0:0:0:
256,192,200680,1,0,0:0:0:0:
256,192,200838,1,8,0:0:0:0:
256,192,200890,1,0,0:0:0:0:
256,192,200996,1,8,0:0:0:0:
256,192,201101,1,0,0:0:0:0:
256,192,201206,1,0,0:0:0:0:
256,192,201259,1,0,0:0:0:0:
256,192,201311,1,8,0:0:0:0:
256,192,201417,1,8,0:0:0:0:
256,192,201522,1,0,0:0:0:0:
256,192,201627,1,0,0:0:0:0:
256,192,201680,1,8,0:0:0:0:
256,192,201732,1,0,0:0:0:0:
256,192,201785,1,0,0:0:0:0:
256,192,201838,1,8,0:0:0:0:
256,192,201890,1,8,0:0:0:0:
256,192,201943,1,0,0:0:0:0:
256,192,202013,1,8,0:0:0:0:
256,192,202083,1,8,0:0:0:0:
256,192,202154,1,0,0:0:0:0:
256,192,202224,1,0,0:0:0:0:
256,192,202294,1,0,0:0:0:0:
256,192,202364,1,8,0:0:0:0:
256,192,203206,5,0,0:0:0:0:
256,192,203417,1,8,0:0:0:0:
256,192,203522,1,8,0:0:0:0:
256,192,203627,1,8,0:0:0:0:
256,192,203732,1,8,0:0:0:0:
256,192,203943,1,8,0:0:0:0:
256,192,204154,1,8,0:0:0:0:
256,192,204364,1,8,0:0:0:0:
256,192,204469,1,8,0:0:0:0:
256,192,204680,1,8,0:0:0:0:
256,192,204890,1,8,0:0:0:0:
256,192,205206,1,8,0:0:0:0:
256,192,205522,1,8,0:0:0:0:
256,192,206575,1,0,0:0:0:0:
256,192,206785,1,8,0:0:0:0:
256,192,206890,1,8,0:0:0:0:
256,192,206996,1,8,0:0:0:0:
256,192,207101,1,8,0:0:0:0:
256,192,207311,1,8,0:0:0:0:
256,192,207522,1,8,0:0:0:0:
256,192,207732,1,8,0:0:0:0:
256,192,207838,1,8,0:0:0:0:
256,192,208048,1,8,0:0:0:0:
256,192,208259,1,8,0:0:0:0:
256,192,208575,1,8,0:0:0:0:
256,192,208890,1,8,0:0:0:0:
256,192,209101,1,0,0:0:0:0:
256,192,209311,1,0,0:0:0:0:
256,192,209522,1,8,0:0:0:0:
256,192,209627,1,8,0:0:0:0:
256,192,209732,1,0,0:0:0:0:
256,192,209943,1,0,0:0:0:0:
256,192,210154,1,8,0:0:0:0:
256,192,210259,1,8,0:0:0:0:
256,192,210364,1,0,0:0:0:0:
256,192,210469,1,8,0:0:0:0:
256,192,210680,1,8,0:0:0:0:
256,192,210785,1,0,0:0:0:0:
256,192,210890,1,8,0:0:0:0:
256,192,211101,1,8,0:0:0:0:
256,192,211206,1,0,0:0:0:0:
256,192,211417,1,8,0:0:0:0:
256,192,211627,1,0,0:0:0:0:
256,192,211732,1,0,0:0:0:0:
256,192,211943,1,8,0:0:0:0:
256,192,212048,1,0,0:0:0:0:
256,192,212259,1,8,0:0:0:0:
256,192,212469,1,0,0:0:0:0:
256,192,212680,1,8,0:0:0:0:
256,192,212732,1,8,0:0:0:0:
256,192,212785,1,8,0:0:0:0:
256,192,212838,1,8,0:0:0:0:
256,192,212890,1,0,0:0:0:0:
256,192,213101,1,8,0:0:0:0:
256,192,213311,1,0,0:0:0:0:
256,192,213522,1,8,0:0:0:0:
256,192,213627,1,0,0:0:0:0:
256,192,213732,1,0,0:0:0:0:
256,192,213838,1,8,0:0:0:0:
256,192,214048,1,8,0:0:0:0:
256,192,214154,1,0,0:0:0:0:
256,192,214259,1,8,0:0:0:0:
256,192,214469,1,0,0:0:0:0:
256,192,214575,1,0,0:0:0:0:
256,192,214785,1,8,0:0:0:0:
256,192,214996,1,0,0:0:0:0:
256,192,215101,1,8,0:0:0:0:
256,192,215311,1,8,0:0:0:0:
256,192,215417,1,0,0:0:0:0:
256,192,215627,1,8,0:0:0:0:
256,192,215838,1,8,0:0:0:0:
256,192,215943,1,8,0:0:0:0:
256,192,216048,1,8,0:0:0:0:
256,192,216154,1,8,0:0:0:0:
256,192,216364,1,8,0:0:0:0:
256,192,216680,5,4,0:0:0:0:
256,192,216996,1,4,0:0:0:0:
256,192,217101,1,8,0:0:0:0:
256,192,217311,1,8,0:0:0:0:
256,192,217417,1,8,0:0:0:0:
256,192,217522,1,0,0:0:0:0:
256,192,217575,1,0,0:0:0:0:
256,192,217627,1,0,0:0:0:0:
256,192,217680,1,0,0:0:0:0:
256,192,217732,1,8,0:0:0:0:
256,192,217838,1,8,0:0:0:0:
256,192,217943,1,0,0:0:0:0:
256,192,217996,1,8,0:0:0:0:
256,192,218048,1,0,0:0:0:0:
256,192,218154,1,8,0:0:0:0:
256,192,218206,1,8,0:0:0:0:
256,192,218259,1,0,0:0:0:0:
256,192,218311,1,0,0:0:0:0:
256,192,218364,1,0,0:0:0:0:
256,192,218575,1,0,0:0:0:0:
256,192,218680,1,0,0:0:0:0:
256,192,218785,1,8,0:0:0:0:
256,192,218996,1,8,0:0:0:0:
256,192,219048,1,8,0:0:0:0:
256,192,219101,1,8,0:0:0:0:
256,192,219154,1,8,0:0:0:0:
256,192,219206,1,0,0:0:0:0:
256,192,219311,1,8,0:0:0:0:
256,192,219417,1,0,0:0:0:0:
256,192,219469,1,0,0:0:0:0:
256,192,219575,1,0,0:0:0:0:
256,192,219627,1,8,0:0:0:0:
256,192,219732,1,0,0:0:0:0:
256,192,219838,1,8,0:0:0:0:
256,192,219873,1,8,0:0:0:0:
256,192,219908,1,8,0:0:0:0:
256,192,219943,1,0,0:0:0:0:
256,192,220048,1,12,0:0:0:0:
256,192,220259,1,0,0:0:0:0:
256,192,220311,1,0,0:0:0:0:
256,192,220364,1,0,0:0:0:0:
256,192,220469,1,8,0:0:0:0:
256,192,220680,1,0,0:0:0:0:
256,192,220785,1,0,0:0:0:0:
256,192,220890,1,8,0:0:0:0:
256,192,220943,1,8,0:0:0:0:
256,192,220996,1,8,0:0:0:0:
256,192,221048,1,8,0:0:0:0:
256,192,221101,1,0,0:0:0:0:
256,192,221154,1,8,0:0:0:0:
256,192,221206,1,0,0:0:0:0:
256,192,221259,1,0,0:0:0:0:
256,192,221311,1,8,0:0:0:0:
256,192,221364,1,0,0:0:0:0:
256,192,221469,1,0,0:0:0:0:
256,192,221522,1,8,0:0:0:0:
256,192,221627,1,8,0:0:0:0:
256,192,221732,1,4,0:0:0:0:
256,192,221943,1,0,0:0:0:0:
256,192,222048,1,8,0:0:0:0:
256,192,222101,1,8,0:0:0:0:
256,192,222154,1,8,0:0:0:0:
256,192,222259,1,8,0:0:0:0:
256,192,222364,1,8,0:0:0:0:
256,192,222469,1,0,0:0:0:0:
256,192,222575,1,8,0:0:0:0:
256,192,222627,1,0,0:0:0:0:
256,192,222680,1,0,0:0:0:0:
256,192,222732,1,0,0:0:0:0:
256,192,222785,1,8,0:0:0:0:
256,192,222838,1,0,0:0:0:0:
256,192,222890,1,0,0:0:0:0:
256,192,222943,1,8,0:0:0:0:
256,192,222996,1,0,0:0:0:0:
256,192,223206,1,8,0:0:0:0:
256,192,223417,1,4,0:0:0:0:
256,192,223627,1,8,0:0:0:0:
256,192,223732,1,4,0:0:0:0:
256,192,223838,1,8,0:0:0:0:
256,192,224048,1,0,0:0:0:0:
256,192,224101,1,8,0:0:0:0:
256,192,224154,1,0,0:0:0:0:
256,192,224206,1,0,0:0:0:0:
256,192,224259,1,8,0:0:0:0:
256,192,224311,1,8,0:0:0:0:
256,192,224364,1,8,0:0:0:0:
256,192,224417,1,8,0:0:0:0:
256,192,224469,1,0,0:0:0:0:
256,192,224522,1,0,0:0:0:0:
256,192,224575,1,0,0:0:0:0:
256,192,224627,1,8,0:0:0:0:
256,192,224680,1,0,0:0:0:0:
256,192,224890,1,0,0:0:0:0:
256,192,224996,1,8,0:0:0:0:
256,192,225101,1,4,0:0:0:0:
256,192,225311,1,8,0:0:0:0:
256,192,225417,1,4,0:0:0:0:
256,192,225627,1,0,0:0:0:0:
256,192,225680,1,0,0:0:0:0:
256,192,225732,1,8,0:0:0:0:
256,192,225785,1,8,0:0:0:0:
256,192,225838,1,8,0:0:0:0:
256,192,225890,1,8,0:0:0:0:
256,192,225943,1,0,0:0:0:0:
256,192,225996,1,8,0:0:0:0:
256,192,226048,1,0,0:0:0:0:
256,192,226154,1,8,0:0:0:0:
256,192,226189,1,0,0:0:0:0:
256,192,226224,1,0,0:0:0:0:
256,192,226259,1,8,0:0:0:0:
256,192,226364,1,0,0:0:0:0:
256,192,226575,1,8,0:0:0:0:
256,192,226785,1,4,0:0:0:0:
256,192,226996,1,0,0:0:0:0:
256,192,227101,1,8,0:0:0:0:
256,192,227417,1,8,0:0:0:0:
256,192,227627,1,4,0:0:0:0:
256,192,227943,1,8,0:0:0:0:
256,192,228048,1,0,0:0:0:0:
256,192,228259,1,12,0:0:0:0:
256,192,228469,1,4,0:0:0:0:
256,192,228680,1,0,0:0:0:0:
256,192,228785,1,8,0:0:0:0:
256,192,228890,1,0,0:0:0:0:
256,192,228996,1,0,0:0:0:0:
256,192,229101,1,8,0:0:0:0:
256,192,229206,1,8,0:0:0:0:
256,192,229311,1,0,0:0:0:0:
256,192,229417,1,8,0:0:0:0:
256,192,229522,1,8,0:0:0:0:
256,192,229627,1,0,0:0:0:0:
256,192,229732,1,8,0:0:0:0:
256,192,229838,1,0,0:0:0:0:
256,192,229943,1,8,0:0:0:0:
256,192,230048,1,8,0:0:0:0:
256,192,230154,1,0,0:0:0:0:
256,192,230206,1,0,0:0:0:0:
256,192,230259,1,8,0:0:0:0:
256,192,230311,1,8,0:0:0:0:
256,192,230364,1,0,0:0:0:0:
256,192,230417,1,8,0:0:0:0:
256,192,230469,1,8,0:0:0:0:
256,192,230522,1,8,0:0:0:0:
256,192,230575,1,0,0:0:0:0:
256,192,230627,1,0,0:0:0:0:
256,192,230680,1,8,0:0:0:0:
256,192,230732,1,0,0:0:0:0:
256,192,230785,1,8,0:0:0:0:
256,192,230838,1,8,0:0:0:0:
256,192,230890,1,0,0:0:0:0:
256,192,230943,1,0,0:0:0:0:
256,192,230996,1,8,0:0:0:0:
256,192,231206,1,8,0:0:0:0:
256,192,231417,1,8,0:0:0:0:
256,192,231627,1,8,0:0:0:0:
256,192,231838,5,4,0:0:0:0:
256,192,232048,1,4,0:0:0:0:
256,192,232259,1,8,0:0:0:0:
256,192,232364,1,0,0:0:0:0:
256,192,232417,1,0,0:0:0:0:
256,192,232469,1,8,0:0:0:0:
256,192,232575,1,4,0:0:0:0:
256,192,232785,1,8,0:0:0:0:
256,192,232890,1,4,0:0:0:0:
256,192,233101,1,8,0:0:0:0:
256,192,233311,1,0,0:0:0:0:
256,192,233417,1,8,0:0:0:0:
256,192,233522,1,4,0:0:0:0:
256,192,233732,1,4,0:0:0:0:
256,192,233943,1,8,0:0:0:0:
256,192,233996,1,8,0:0:0:0:
256,192,234048,1,0,0:0:0:0:
256,192,234154,1,8,0:0:0:0:
256,192,234259,1,4,0:0:0:0:
256,192,234469,1,8,0:0:0:0:
256,192,234575,1,0,0:0:0:0:
256,192,234645,1,0,0:0:0:0:
256,192,234715,1,0,0:0:0:0:
256,192,234785,1,8,0:0:0:0:
256,192,234996,1,12,0:0:0:0:
256,192,235206,1,4,0:0:0:0:
256,192,235311,1,0,0:0:0:0:
256,192,235364,1,0,0:0:0:0:
256,192,235417,1,8,0:0:0:0:
256,192,235522,1,0,0:0:0:0:
256,192,235627,1,8,0:0:0:0:
256,192,235680,1,0,0:0:0:0:
256,192,235732,1,8,0:0:0:0:
256,192,235785,1,8,0:0:0:0:
256,192,235838,1,0,0:0:0:0:
256,192,235943,1,8,0:0:0:0:
256,192,236048,1,0,0:0:0:0:
256,192,236154,1,0,0:0:0:0:
256,192,236206,1,0,0:0:0:0:
256,192,236259,1,8,0:0:0:0:
256,192,236311,1,8,0:0:0:0:
256,192,236364,1,0,0:0:0:0:
256,192,236417,1,8,0:0:0:0:
256,192,236469,1,0,0:0:0:0:
256,192,236575,1,0,0:0:0:0:
256,192,236627,1,0,0:0:0:0:
256,192,236680,1,8,0:0:0:0:
256,192,236785,1,8,0:0:0:0:
256,192,236890,1,0,0:0:0:0:
256,192,236943,1,8,0:0:0:0:
256,192,237048,1,8,0:0:0:0:
256,192,237101,1,0,0:0:0:0:
256,192,237206,1,8,0:0:0:0:
256,192,237311,1,0,0:0:0:0:
256,192,237364,1,0,0:0:0:0:
256,192,237417,1,8,0:0:0:0:
256,192,237469,1,0,0:0:0:0:
256,192,237522,1,8,0:0:0:0:
256,192,237627,1,8,0:0:0:0:
256,192,237732,1,0,0:0:0:0:
256,192,237943,1,8,0:0:0:0:
256,192,238154,1,0,0:0:0:0:
256,192,238259,1,0,0:0:0:0:
256,192,238364,1,8,0:0:0:0:
256,192,238575,1,4,0:0:0:0:
256,192,238785,1,4,0:0:0:0:
256,192,238996,1,8,0:0:0:0:
256,192,239101,1,0,0:0:0:0:
256,192,239154,1,8,0:0:0:0:
256,192,239206,1,8,0:0:0:0:
256,192,239311,1,4,0:0:0:0:
256,192,239522,1,8,0:0:0:0:
256,192,239627,1,4,0:0:0:0:
256,192,239838,1,8,0:0:0:0:
256,192,240048,1,0,0:0:0:0:
256,192,240154,1,8,0:0:0:0:
256,192,240259,1,4,0:0:0:0:
256,192,240469,1,4,0:0:0:0:
256,192,240680,1,8,0:0:0:0:
256,192,240732,1,0,0:0:0:0:
256,192,240785,1,0,0:0:0:0:
256,192,240890,1,8,0:0:0:0:
256,192,240996,1,4,0:0:0:0:
256,192,241206,1,8,0:0:0:0:
256,192,241311,1,0,0:0:0:0:
256,192,241382,1,8,0:0:0:0:
256,192,241452,1,0,0:0:0:0:
256,192,241522,1,8,0:0:0:0:
256,192,241732,1,12,0:0:0:0:
256,192,241943,1,4,0:0:0:0:
256,192,242048,1,0,0:0:0:0:
256,192,242101,1,0,0:0:0:0:
256,192,242154,1,8,0:0:0:0:
256,192,242259,1,0,0:0:0:0:
256,192,242364,1,8,0:0:0:0:
256,192,242417,1,8,0:0:0:0:
256,192,242469,1,0,0:0:0:0:
256,192,242522,1,8,0:0:0:0:
256,192,242575,1,0,0:0:0:0:
256,192,242680,1,8,0:0:0:0:
256,192,242785,1,0,0:0:0:0:
256,192,242838,1,8,0:0:0:0:
256,192,242890,1,0,0:0:0:0:
256,192,242943,1,0,0:0:0:0:
256,192,242996,1,8,0:0:0:0:
256,192,243048,1,8,0:0:0:0:
256,192,243101,1,0,0:0:0:0:
256,192,243154,1,8,0:0:0:0:
256,192,243206,1,0,0:0:0:0:
256,192,243311,1,8,0:0:0:0:
256,192,243417,1,8,0:0:0:0:
256,192,243522,1,0,0:0:0:0:
256,192,243575,1,0,0:0:0:0:
256,192,243627,1,8,0:0:0:0:
256,192,243732,1,0,0:0:0:0:
256,192,243838,1,0,0:0:0:0:
256,192,243943,1,0,0:0:0:0:
256,192,244048,1,8,0:0:0:0:
256,192,244154,1,0,0:0:0:0:
256,192,244206,1,0,0:0:0:0:
256,192,244259,1,0,0:0:0:0:
256,192,244364,1,0,0:0:0:0:
256,192,244469,1,8,0:0:0:0:
256,192,244522,1,8,0:0:0:0:
256,192,244575,1,0,0:0:0:0:
256,192,244627,1,0,0:0:0:0:
256,192,244680,1,8,0:0:0:0:
256,192,244732,1,0,0:0:0:0:
256,192,244785,1,8,0:0:0:0:
256,192,244838,1,8,0:0:0:0:
256,192,244890,1,0,0:0:0:0:
256,192,244925,1,8,0:0:0:0:
256,192,244961,1,8,0:0:0:0:
256,192,244996,1,0,0:0:0:0:
256,192,245101,1,8,0:0:0:0:
256,192,245136,1,0,0:0:0:0:
256,192,245171,1,0,0:0:0:0:
256,192,245206,1,8,0:0:0:0:
256,192,245311,5,0,0:0:0:0:
256,192,245522,1,0,0:0:0:0:
256,192,245627,1,0,0:0:0:0:
256,192,245732,1,8,0:0:0:0:
256,192,245943,1,0,0:0:0:0:
256,192,246048,1,8,0:0:0:0:
256,192,246154,1,0,0:0:0:0:
256,192,246364,1,0,0:0:0:0:
256,192,246469,1,0,0:0:0:0:
256,192,246575,1,8,0:0:0:0:
256,192,246785,1,8,0:0:0:0:
256,192,246996,1,0,0:0:0:0:
256,192,247206,1,8,0:0:0:0:
256,192,247311,1,0,0:0:0:0:
256,192,247417,1,8,0:0:0:0:
256,192,247627,1,0,0:0:0:0:
256,192,247732,1,8,0:0:0:0:
256,192,247838,1,0,0:0:0:0:
256,192,248048,1,8,0:0:0:0:
256,192,248118,1,8,0:0:0:0:
256,192,248189,1,8,0:0:0:0:
256,192,248259,1,0,0:0:0:0:
256,192,248469,1,8,0:0:0:0:
256,192,248680,1,0,0:0:0:0:
256,192,248890,1,0,0:0:0:0:
256,192,248996,1,0,0:0:0:0:
256,192,249101,1,8,0:0:0:0:
256,192,249311,1,0,0:0:0:0:
256,192,249417,1,8,0:0:0:0:
256,192,249522,1,0,0:0:0:0:
256,192,249732,1,0,0:0:0:0:
256,192,249838,1,0,0:0:0:0:
256,192,249943,1,8,0:0:0:0:
256,192,250154,1,8,0:0:0:0:
256,192,250364,1,0,0:0:0:0:
256,192,250575,1,8,0:0:0:0:
256,192,250680,1,8,0:0:0:0:
256,192,250785,1,8,0:0:0:0:
256,192,250996,1,8,0:0:0:0:
256,192,251101,1,0,0:0:0:0:
256,192,251206,1,8,0:0:0:0:
256,192,251311,1,0,0:0:0:0:
256,192,251417,1,8,0:0:0:0:
256,192,251487,1,0,0:0:0:0:
256,192,251557,1,0,0:0:0:0:
256,192,251627,1,8,0:0:0:0:
256,192,251838,1,8,0:0:0:0:
256,192,252048,1,0,0:0:0:0:
256,192,252259,1,0,0:0:0:0:
256,192,252329,1,0,0:0:0:0:
256,192,252399,1,0,0:0:0:0:
256,192,252469,1,8,0:0:0:0:
256,192,252680,1,8,0:0:0:0:
256,192,252785,1,8,0:0:0:0:
256,192,252890,1,0,0:0:0:0:
256,192,253101,1,0,0:0:0:0:
256,192,253171,1,0,0:0:0:0:
256,192,253241,1,0,0:0:0:0:
256,192,253311,1,8,0:0:0:0:
256,192,253522,1,0,0:0:0:0:
256,192,253627,1,8,0:0:0:0:
256,192,253732,1,0,0:0:0:0:
256,192,253943,1,8,0:0:0:0:
256,192,254013,1,0,0:0:0:0:
256,192,254083,1,0,0:0:0:0:
256,192,254154,1,8,0:0:0:0:
256,192,254259,1,0,0:0:0:0:
256,192,254364,1,8,0:0:0:0:
256,192,254469,1,8,0:0:0:0:
256,192,254575,1,0,0:0:0:0:
256,192,254680,1,0,0:0:0:0:
256,192,254785,1,8,0:0:0:0:
256,192,254855,1,8,0:0:0:0:
256,192,254925,1,8,0:0:0:0:
256,192,254996,1,0,0:0:0:0:
256,192,255206,1,8,0:0:0:0:
256,192,255417,1,0,0:0:0:0:
256,192,255522,1,0,0:0:0:0:
256,192,255627,1,8,0:0:0:0:
256,192,255697,1,8,0:0:0:0:
256,192,255768,1,8,0:0:0:0:
256,192,255838,1,0,0:0:0:0:
256,192,255943,1,0,0:0:0:0:
256,192,256048,1,8,0:0:0:0:
256,192,256118,1,8,0:0:0:0:
256,192,256189,1,8,0:0:0:0:
256,192,256259,1,0,0:0:0:0:
256,192,256364,1,0,0:0:0:0:
256,192,256469,1,8,0:0:0:0:
256,192,256539,1,0,0:0:0:0:
256,192,256610,1,0,0:0:0:0:
256,192,256680,1,8,0:0:0:0:
256,192,256890,1,8,0:0:0:0:
256,192,256996,1,8,0:0:0:0:
256,192,257101,1,0,0:0:0:0:
256,192,257206,1,0,0:0:0:0:
256,192,257259,1,0,0:0:0:0:
256,192,257311,1,8,0:0:0:0:
256,192,257417,1,0,0:0:0:0:
256,192,257469,1,0,0:0:0:0:
256,192,257522,1,8,0:0:0:0:
256,192,257627,1,0,0:0:0:0:
256,192,257680,1,0,0:0:0:0:
256,192,257732,1,8,0:0:0:0:
256,192,257785,1,0,0:0:0:0:
256,192,257838,1,8,0:0:0:0:
256,192,257890,1,8,0:0:0:0:
256,192,257943,1,0,0:0:0:0:
256,192,258364,1,8,0:0:0:0:
256,192,258417,1,8,0:0:0:0:
256,192,258469,1,8,0:0:0:0:
256,192,258522,1,8,0:0:0:0:
256,192,258575,1,8,0:0:0:0:
256,192,258627,1,8,0:0:0:0:
256,192,258680,1,8,0:0:0:0:
256,192,258785,5,4,0:0:0:0:
256,192,258890,1,8,0:0:0:0:
256,192,258996,1,0,0:0:0:0:
256,192,259101,1,8,0:0:0:0:
256,192,259206,1,0,0:0:0:0:
256,192,259259,1,8,0:0:0:0:
256,192,259311,1,0,0:0:0:0:
256,192,259364,1,0,0:0:0:0:
256,192,259417,1,8,0:0:0:0:
256,192,259522,1,8,0:0:0:0:
256,192,259627,1,0,0:0:0:0:
256,192,259732,1,8,0:0:0:0:
256,192,259785,1,8,0:0:0:0:
256,192,259838,1,0,0:0:0:0:
256,192,259943,1,8,0:0:0:0:
256,192,260048,1,0,0:0:0:0:
256,192,260101,1,0,0:0:0:0:
256,192,260154,1,8,0:0:0:0:
256,192,260206,1,0,0:0:0:0:
256,192,260259,1,8,0:0:0:0:
256,192,260364,1,8,0:0:0:0:
256,192,260469,1,0,0:0:0:0:
256,192,260522,1,0,0:0:0:0:
256,192,260575,1,8,0:0:0:0:
256,192,260627,1,8,0:0:0:0:
256,192,260680,1,0,0:0:0:0:
256,192,260785,1,8,0:0:0:0:
256,192,260890,1,0,0:0:0:0:
256,192,260943,1,8,0:0:0:0:
256,192,260996,1,0,0:0:0:0:
256,192,261048,1,0,0:0:0:0:
256,192,261101,1,0,0:0:0:0:
256,192,261206,1,8,0:0:0:0:
256,192,261311,1,0,0:0:0:0:
256,192,261417,1,8,0:0:0:0:
256,192,261469,1,8,0:0:0:0:
256,192,261522,1,0,0:0:0:0:
256,192,261627,1,0,0:0:0:0:
256,192,261732,1,8,0:0:0:0:
256,192,261785,1,0,0:0:0:0:
256,192,261838,1,0,0:0:0:0:
256,192,261890,1,0,0:0:0:0:
256,192,261943,1,8,0:0:0:0:
256,192,262048,1,8,0:0:0:0:
256,192,262154,1,4,0:0:0:0:
256,192,262294,1,8,0:0:0:0:
256,192,262364,1,0,0:0:0:0:
256,192,262504,1,0,0:0:0:0:
256,192,262575,1,8,0:0:0:0:
256,192,262645,1,0,0:0:0:0:
256,192,262715,1,0,0:0:0:0:
256,192,262785,1,8,0:0:0:0:
256,192,262855,1,8,0:0:0:0:
256,192,262925,1,8,0:0:0:0:
256,192,262996,1,0,0:0:0:0:
256,192,263136,1,8,0:0:0:0:
256,192,263206,1,0,0:0:0:0:
256,192,263346,1,8,0:0:0:0:
256,192,263417,1,0,0:0:0:0:
256,192,263487,1,0,0:0:0:0:
256,192,263557,1,8,0:0:0:0:
256,192,263627,1,0,0:0:0:0:
256,192,263697,1,8,0:0:0:0:
256,192,263768,1,8,0:0:0:0:
256,192,263838,1,0,0:0:0:0:
256,192,263908,1,0,0:0:0:0:
256,192,263978,1,8,0:0:0:0:
256,192,264048,1,0,0:0:0:0:
256,192,264189,1,8,0:0:0:0:
256,192,264259,1,0,0:0:0:0:
256,192,264329,1,8,0:0:0:0:
256,192,264399,1,8,0:0:0:0:
256,192,264469,1,0,0:0:0:0:
256,192,264610,1,8,0:0:0:0:
256,192,264680,1,0,0:0:0:0:
256,192,264750,1,0,0:0:0:0:
256,192,264820,1,0,0:0:0:0:
256,192,264890,1,8,0:0:0:0:
256,192,264961,1,0,0:0:0:0:
256,192,265031,1,0,0:0:0:0:
256,192,265101,1,8,0:0:0:0:
256,192,265136,1,8,0:0:0:0:
256,192,265171,1,8,0:0:0:0:
256,192,265206,1,8,0:0:0:0:
256,192,265311,1,0,0:0:0:0:
256,192,265522,1,4,0:0:0:0:
256,192,265627,1,8,0:0:0:0:
256,192,265732,1,0,0:0:0:0:
256,192,265838,1,8,0:0:0:0:
256,192,265943,1,0,0:0:0:0:
256,192,265996,1,8,0:0:0:0:
256,192,266048,1,0,0:0:0:0:
256,192,266101,1,0,0:0:0:0:
256,192,266154,1,8,0:0:0:0:
256,192,266259,1,8,0:0:0:0:
256,192,266364,1,0,0:0:0:0:
256,192,266469,1,8,0:0:0:0:
256,192,266522,1,8,0:0:0:0:
256,192,266575,1,0,0:0:0:0:
256,192,266680,1,0,0:0:0:0:
256,192,266785,1,8,0:0:0:0:
256,192,266838,1,8,0:0:0:0:
256,192,266890,1,0,0:0:0:0:
256,192,266943,1,0,0:0:0:0:
256,192,266996,1,8,0:0:0:0:
256,192,267101,1,8,0:0:0:0:
256,192,267206,1,0,0:0:0:0:
256,192,267259,1,0,0:0:0:0:
256,192,267311,1,8,0:0:0:0:
256,192,267364,1,8,0:0:0:0:
256,192,267417,1,0,0:0:0:0:
256,192,267522,1,8,0:0:0:0:
256,192,267627,1,0,0:0:0:0:
256,192,267680,1,8,0:0:0:0:
256,192,267732,1,0,0:0:0:0:
256,192,267785,1,8,0:0:0:0:
256,192,267838,1,8,0:0:0:0:
256,192,267943,1,8,0:0:0:0:
256,192,268048,1,0,0:0:0:0:
256,192,268154,1,8,0:0:0:0:
256,192,268206,1,8,0:0:0:0:
256,192,268259,1,0,0:0:0:0:
256,192,268364,1,0,0:0:0:0:
256,192,268469,1,8,0:0:0:0:
256,192,268522,1,0,0:0:0:0:
256,192,268575,1,0,0:0:0:0:
256,192,268627,1,0,0:0:0:0:
256,192,268680,1,8,0:0:0:0:
256,192,268785,1,8,0:0:0:0:
256,192,268890,1,4,0:0:0:0:
256,192,269031,1,8,0:0:0:0:
256,192,269101,1,0,0:0:0:0:
256,192,269241,1,0,0:0:0:0:
256,192,269311,1,8,0:0:0:0:
256,192,269382,1,0,0:0:0:0:
256,192,269452,1,0,0:0:0:0:
256,192,269522,1,8,0:0:0:0:
256,192,269592,1,8,0:0:0:0:
256,192,269662,1,8,0:0:0:0:
256,192,269732,1,0,0:0:0:0:
256,192,269873,1,8,0:0:0:0:
256,192,269943,1,0,0:0:0:0:
256,192,270013,1,0,0:0:0:0:
256,192,270083,1,8,0:0:0:0:
256,192,270154,1,0,0:0:0:0:
256,192,270224,1,8,0:0:0:0:
256,192,270294,1,8,0:0:0:0:
256,192,270364,1,0,0:0:0:0:
256,192,270504,1,8,0:0:0:0:
256,192,270575,1,0,0:0:0:0:
256,192,270645,1,0,0:0:0:0:
256,192,270715,1,8,0:0:0:0:
256,192,270785,1,0,0:0:0:0:
256,192,270855,1,0,0:0:0:0:
256,192,270925,1,0,0:0:0:0:
256,192,270996,1,8,0:0:0:0:
256,192,271066,1,8,0:0:0:0:
256,192,271136,1,0,0:0:0:0:
256,192,271206,1,8,0:0:0:0:
256,192,271276,1,8,0:0:0:0:
256,192,271346,1,8,0:0:0:0:
256,192,271417,1,0,0:0:0:0:
256,192,271557,1,0,0:0:0:0:
256,192,271627,1,8,0:0:0:0:
256,192,271697,1,0,0:0:0:0:
256,192,271768,1,0,0:0:0:0:
256,192,271838,1,8,0:0:0:0:
256,192,272048,1,8,0:0:0:0:
256,192,272259,5,4,0:0:0:0:
256,192,272364,1,8,0:0:0:0:
256,192,272469,1,8,0:0:0:0:
256,192,272575,1,0,0:0:0:0:
256,192,272680,1,8,0:0:0:0:
256,192,272890,1,4,0:0:0:0:
256,192,273031,1,8,0:0:0:0:
256,192,273101,1,8,0:0:0:0:
256,192,273241,1,0,0:0:0:0:
256,192,273311,1,8,0:0:0:0:
256,192,273522,1,4,0:0:0:0:
256,192,273627,1,8,0:0:0:0:
256,192,273732,1,8,0:0:0:0:
256,192,273838,1,8,0:0:0:0:
256,192,273943,1,0,0:0:0:0:
256,192,274048,1,8,0:0:0:0:
256,192,274101,1,8,0:0:0:0:
256,192,274154,1,0,0:0:0:0:
256,192,274259,1,8,0:0:0:0:
256,192,274364,1,0,0:0:0:0:
256,192,274417,1,8,0:0:0:0:
256,192,274469,1,8,0:0:0:0:
256,192,274522,1,0,0:0:0:0:
256,192,274575,1,8,0:0:0:0:
256,192,274680,1,8,0:0:0:0:
256,192,274785,1,0,0:0:0:0:
256,192,274925,1,8,0:0:0:0:
256,192,274996,1,0,0:0:0:0:
256,192,275136,1,8,0:0:0:0:
256,192,275206,1,8,0:0:0:0:
256,192,275417,1,8,0:0:0:0:
256,192,275627,1,0,0:0:0:0:
256,192,275732,1,8,0:0:0:0:
256,192,275838,1,8,0:0:0:0:
256,192,275908,1,8,0:0:0:0:
256,192,275978,1,8,0:0:0:0:
256,192,276048,1,0,0:0:0:0:
256,192,276154,1,8,0:0:0:0:
256,192,276259,1,8,0:0:0:0:
256,192,276329,1,8,0:0:0:0:
256,192,276399,1,8,0:0:0:0:
256,192,276469,1,0,0:0:0:0:
256,192,276575,1,0,0:0:0:0:
256,192,276680,1,8,0:0:0:0:
256,192,276750,1,0,0:0:0:0:
256,192,276820,1,0,0:0:0:0:
256,192,276890,1,8,0:0:0:0:
256,192,277101,1,8,0:0:0:0:
256,192,277206,1,8,0:0:0:0:
256,192,277311,1,0,0:0:0:0:
256,192,277364,1,0,0:0:0:0:
256,192,277417,1,0,0:0:0:0:
256,192,277469,1,0,0:0:0:0:
256,192,277522,1,8,0:0:0:0:
256,192,277575,1,0,0:0:0:0:
256,192,277627,1,0,0:0:0:0:
256,192,277680,1,0,0:0:0:0:
256,192,277732,1,8,0:0:0:0:
256,192,277785,1,8,0:0:0:0:
256,192,277838,1,0,0:0:0:0:
256,192,277890,1,0,0:0:0:0:
256,192,277943,1,8,0:0:0:0:
256,192,277996,1,0,0:0:0:0:
256,192,278048,1,8,0:0:0:0:
256,192,278101,1,8,0:0:0:0:
256,192,278154,1,0,0:0:0:0:
256,192,278364,1,0,0:0:0:0:
256,192,278575,1,12,0:0:0:0:
256,192,278996,5,4,0:0:0:0:
256,192,279101,1,8,0:0:0:0:
256,192,279154,1,8,0:0:0:0:
256,192,279206,1,0,0:0:0:0:
256,192,279311,1,8,0:0:0:0:
256,192,279364,1,8,0:0:0:0:
256,192,279417,1,0,0:0:0:0:
256,192,279469,1,8,0:0:0:0:
256,192,279522,1,0,0:0:0:0:
256,192,279575,1,0,0:0:0:0:
256,192,279627,1,8,0:0:0:0:
256,192,279732,1,8,0:0:0:0:
256,192,279838,1,0,0:0:0:0:
256,192,279943,1,8,0:0:0:0:
256,192,279996,1,8,0:0:0:0:
256,192,280048,1,0,0:0:0:0:
256,192,280154,1,0,0:0:0:0:
256,192,280206,1,8,0:0:0:0:
256,192,280259,1,0,0:0:0:0:
256,192,280311,1,0,0:0:0:0:
256,192,280364,1,8,0:0:0:0:
256,192,280417,1,0,0:0:0:0:
256,192,280469,1,8,0:0:0:0:
256,192,280575,1,8,0:0:0:0:
256,192,280680,1,0,0:0:0:0:
256,192,280732,1,0,0:0:0:0:
256,192,280785,1,0,0:0:0:0:
256,192,280838,1,8,0:0:0:0:
256,192,280890,1,0,0:0:0:0:
256,192,280996,1,8,0:0:0:0:
256,192,281048,1,8,0:0:0:0:
256,192,281101,1,0,0:0:0:0:
256,192,281154,1,8,0:0:0:0:
256,192,281206,1,0,0:0:0:0:
256,192,281259,1,0,0:0:0:0:
256,192,281311,1,0,0:0:0:0:
256,192,281417,1,8,0:0:0:0:
256,192,281522,1,0,0:0:0:0:
256,192,281662,1,8,0:0:0:0:
256,192,281732,1,0,0:0:0:0:
256,192,281873,1,0,0:0:0:0:
256,192,281943,1,8,0:0:0:0:
256,192,282013,1,0,0:0:0:0:
256,192,282083,1,0,0:0:0:0:
256,192,282154,1,8,0:0:0:0:
256,192,282364,1,4,0:0:0:0:
256,192,282504,1,0,0:0:0:0:
256,192,282575,1,8,0:0:0:0:
256,192,282645,1,0,0:0:0:0:
256,192,282785,1,12,0:0:0:0:
256,192,282925,1,8,0:0:0:0:
256,192,282996,1,0,0:0:0:0:
256,192,283066,1,8,0:0:0:0:
256,192,283206,1,4,0:0:0:0:
256,192,283346,1,8,0:0:0:0:
256,192,283417,1,8,0:0:0:0:
256,192,283487,1,0,0:0:0:0:
256,192,283627,1,12,0:0:0:0:
256,192,283768,1,0,0:0:0:0:
256,192,283838,1,0,0:0:0:0:
256,192,283908,1,8,0:0:0:0:
256,192,284048,1,0,0:0:0:0:
256,192,284189,1,8,0:0:0:0:
256,192,284259,1,0,0:0:0:0:
256,192,284399,1,0,0:0:0:0:
256,192,284469,1,8,0:0:0:0:
256,192,284539,1,0,0:0:0:0:
256,192,284610,1,0,0:0:0:0:
256,192,284680,1,8,0:0:0:0:
256,192,284715,1,8,0:0:0:0:
256,192,284750,1,8,0:0:0:0:
256,192,284820,1,8,0:0:0:0:
256,192,284890,1,0,0:0:0:0:
256,192,284961,1,0,0:0:0:0:
256,192,285031,1,0,0:0:0:0:
256,192,285101,1,0,0:0:0:0:
256,192,285171,1,0,0:0:0:0:
256,192,285241,1,0,0:0:0:0:
256,192,285311,1,8,0:0:0:0:
256,192,285382,1,8,0:0:0:0:
256,192,285452,1,8,0:0:0:0:
256,192,285522,1,8,0:0:0:0:
256,192,285592,1,8,0:0:0:0:
256,192,285662,1,8,0:0:0:0:
256,192,285732,1,8,0:0:0:0:
256,192,292165,5,0,0:0:0:0:
256,192,292308,5,0,0:0:0:0:
256,192,292450,5,12,0:0:0:0:
256,192,292736,5,8,0:0:0:0:
256,192,292879,5,0,0:0:0:0:
256,192,293165,5,8,0:0:0:0:
256,192,293308,5,8,0:0:0:0:
256,192,293450,1,0,0:0:0:0:
256,192,293593,5,0,0:0:0:0:
256,192,293736,5,8,0:0:0:0:
256,192,293808,5,8,0:0:0:0:
256,192,293879,5,8,0:0:0:0:
256,192,294022,5,0,0:0:0:0:
256,192,294165,5,8,0:0:0:0:
256,192,294308,5,0,0:0:0:0:
256,192,294593,5,8,0:0:0:0:
256,192,294736,5,8,0:0:0:0:
256,192,295022,5,8,0:0:0:0:
256,192,295165,5,0,0:0:0:0:
256,192,295450,5,8,0:0:0:0:
256,192,295736,5,8,0:0:0:0:
256,192,295879,5,8,0:0:0:0:
256,192,296022,5,0,0:0:0:0:
256,192,296093,5,0,0:0:0:0:
256,192,296165,5,8,0:0:0:0:
256,192,296308,5,0,0:0:0:0:
256,192,296450,5,8,0:0:0:0:
256,192,296593,5,0,0:0:0:0:
256,192,296736,5,8,0:0:0:0:
256,192,296879,5,0,0:0:0:0:
256,192,297022,5,8,0:0:0:0:
256,192,297165,5,0,0:0:0:0:
256,192,297236,5,0,0:0:0:0:
256,192,297308,5,0,0:0:0:0:
256,192,297450,5,8,0:0:0:0:
256,192,297736,5,8,0:0:0:0:
256,192,298022,5,8,0:0:0:0:
256,192,298165,5,0,0:0:0:0:
256,192,298308,5,8,0:0:0:0:
256,192,298379,5,8,0:0:0:0:
256,192,298450,5,0,0:0:0:0:
256,192,298593,5,8,0:0:0:0:
256,192,298736,5,0,0:0:0:0:
256,192,298879,5,8,0:0:0:0:
256,192,299165,5,8,0:0:0:0:
256,192,299308,5,0,0:0:0:0:
256,192,299450,5,0,0:0:0:0:
256,192,299522,5,0,0:0:0:0:
256,192,299593,5,0,0:0:0:0:
256,192,299736,5,8,0:0:0:0:
256,192,300022,5,8,0:0:0:0:
256,192,300308,5,8,0:0:0:0:
256,192,300450,5,0,0:0:0:0:
256,192,300593,5,0,0:0:0:0:
256,192,300665,5,8,0:0:0:0:
256,192,300736,5,0,0:0:0:0:
256,192,300879,5,8,0:0:0:0:
256,192,301022,5,0,0:0:0:0:
256,192,301165,5,0,0:0:0:0:
256,192,301308,5,8,0:0:0:0:
256,192,301450,5,8,0:0:0:0:
256,192,301593,5,4,0:0:0:0:
256,192,301879,5,8,0:0:0:0:
256,192,302022,5,0,0:0:0:0:
256,192,302308,5,0,0:0:0:0:
256,192,302450,5,8,0:0:0:0:
256,192,302593,5,8,0:0:0:0:
256,192,302736,5,0,0:0:0:0:
256,192,302808,5,0,0:0:0:0:
256,192,302879,5,8,0:0:0:0:
256,192,302950,5,8,0:0:0:0:
256,192,303022,5,8,0:0:0:0:
256,192,303165,5,0,0:0:0:0:
256,192,303308,5,8,0:0:0:0:
256,192,303450,5,0,0:0:0:0:
256,192,303593,5,8,0:0:0:0:
256,192,303665,5,8,0:0:0:0:
256,192,303736,5,8,0:0:0:0:
256,192,303879,5,0,0:0:0:0:
256,192,304165,5,8,0:0:0:0:
256,192,304308,5,0,0:0:0:0:
256,192,304593,5,0,0:0:0:0:
256,192,304736,5,8,0:0:0:0:
256,192,304879,5,0,0:0:0:0:
256,192,305022,5,0,0:0:0:0:
256,192,305093,5,0,0:0:0:0:
256,192,305165,5,8,0:0:0:0:
256,192,305236,5,0,0:0:0:0:
256,192,305308,5,8,0:0:0:0:
256,192,305450,5,8,0:0:0:0:
256,192,305593,5,0,0:0:0:0:
256,192,305665,5,8,0:0:0:0:
256,192,305736,5,0,0:0:0:0:
256,192,305808,5,0,0:0:0:0:
256,192,305879,5,8,0:0:0:0:
256,192,305950,5,0,0:0:0:0:
256,192,306022,5,8,0:0:0:0:
256,192,306165,5,4,0:0:0:0:
256,192,306308,5,0,0:0:0:0:
256,192,306379,5,0,0:0:0:0:
256,192,306450,5,0,0:0:0:0:
256,192,306522,5,0,0:0:0:0:
256,192,306593,5,12,0:0:0:0:
256,192,306736,5,0,0:0:0:0:
256,192,306808,5,8,0:0:0:0:
256,192,306879,5,0,0:0:0:0:
256,192,306950,5,0,0:0:0:0:
256,192,307022,5,12,0:0:0:0:
256,192,307165,5,8,0:0:0:0:
256,192,307236,5,8,0:0:0:0:
256,192,307308,5,0,0:0:0:0:
256,192,307379,5,0,0:0:0:0:
256,192,307450,5,12,0:0:0:0:
256,192,307593,5,0,0:0:0:0:
256,192,307665,5,8,0:0:0:0:
256,192,307736,5,0,0:0:0:0:
256,192,307808,5,0,0:0:0:0:
256,192,307879,5,12,0:0:0:0:
256,192,308165,5,8,0:0:0:0:
256,192,308212,5,8,0:0:0:0:
256,192,308260,5,8,0:0:0:0:
256,192,308308,5,0,0:0:0:0:
256,192,308450,5,4,0:0:0:0:
256,192,308593,5,8,0:0:0:0:
256,192,308665,5,0,0:0:0:0:
256,192,308736,5,0,0:0:0:0:
256,192,308808,5,0,0:0:0:0:
256,192,308879,5,12,0:0:0:0:
256,192,309022,5,8,0:0:0:0:
256,192,309093,5,0,0:0:0:0:
256,192,309165,5,8,0:0:0:0:
256,192,309236,5,0,0:0:0:0:
256,192,309308,5,12,0:0:0:0:
256,192,310165,5,8,0:0:0:0:
256,192,310200,5,8,0:0:0:0:
256,192,310308,5,8,0:0:0:0:
256,192,310343,5,8,0:0:0:0:
256,192,310593,5,8,0:0:0:0:
256,192,310665,5,8,0:0:0:0:
256,192,310736,5,4,0:0:0:0:
256,192,310808,12,0,315165,0:0:0:0:
256,192,315308,5,0,0:0:0:0:
256,192,315593,5,0,0:0:0:0:
256,192,315736,5,0,0:0:0:0:
256,192,315879,5,8,0:0:0:0:
256,192,316165,5,0,0:0:0:0:
256,192,316308,5,8,0:0:0:0:
256,192,316450,5,0,0:0:0:0:
256,192,316593,5,0,0:0:0:0:
256,192,316736,5,8,0:0:0:0:
256,192,316879,5,8,0:0:0:0:
256,192,317022,5,0,0:0:0:0:
256,192,317308,5,8,0:0:0:0:
256,192,317593,5,0,0:0:0:0:
256,192,317879,5,0,0:0:0:0:
256,192,318022,5,0,0:0:0:0:
256,192,318069,5,0,0:0:0:0:
256,192,318117,5,0,0:0:0:0:
256,192,318165,5,8,0:0:0:0:
256,192,318308,5,8,0:0:0:0:
256,192,318450,5,0,0:0:0:0:
256,192,318593,5,8,0:0:0:0:
256,192,318665,5,8,0:0:0:0:
256,192,318879,5,8,0:0:0:0:
256,192,318927,5,8,0:0:0:0:
256,192,318974,5,8,0:0:0:0:
256,192,319022,5,0,0:0:0:0:
256,192,319165,5,8,0:0:0:0:
256,192,319236,5,0,0:0:0:0:
256,192,319308,5,8,0:0:0:0:
256,192,319450,5,8,0:0:0:0:
256,192,319522,5,8,0:0:0:0:
256,192,319593,5,0,0:0:0:0:
256,192,319641,5,0,0:0:0:0:
256,192,319688,5,0,0:0:0:0:
256,192,319736,5,8,0:0:0:0:
256,192,319784,5,8,0:0:0:0:
256,192,319831,5,8,0:0:0:0:
256,192,319879,5,0,0:0:0:0:
256,192,320165,5,8,0:0:0:0:
256,192,320308,5,0,0:0:0:0:
256,192,320450,5,8,0:0:0:0:
256,192,320736,5,0,0:0:0:0:
256,192,320879,5,8,0:0:0:0:
256,192,321022,5,0,0:0:0:0:
256,192,321165,5,0,0:0:0:0:
256,192,321308,5,8,0:0:0:0:
256,192,321379,5,0,0:0:0:0:
256,192,321450,5,8,0:0:0:0:
256,192,321522,5,8,0:0:0:0:
256,192,321593,5,0,0:0:0:0:
256,192,321736,5,0,0:0:0:0:
256,192,321879,5,8,0:0:0:0:
256,192,322022,5,8,0:0:0:0:
256,192,322069,5,0,0:0:0:0:
256,192,322117,5,0,0:0:0:0:
256,192,322165,5,8,0:0:0:0:
256,192,322450,5,0,0:0:0:0:
256,192,322522,5,0,0:0:0:0:
256,192,322593,5,0,0:0:0:0:
256,192,322665,5,0,0:0:0:0:
256,192,322736,5,8,0:0:0:0:
256,192,322879,5,0,0:0:0:0:
256,192,323022,5,8,0:0:0:0:
256,192,323165,5,8,0:0:0:0:
256,192,323236,5,8,0:0:0:0:
256,192,323308,5,8,0:0:0:0:
256,192,323450,5,8,0:0:0:0:
256,192,323498,5,8,0:0:0:0:
256,192,323546,5,8,0:0:0:0:
256,192,323593,5,8,0:0:0:0:
256,192,323736,5,0,0:0:0:0:
256,192,323879,5,8,0:0:0:0:
256,192,324022,5,0,0:0:0:0:
256,192,324093,5,0,0:0:0:0:
256,192,324165,5,8,0:0:0:0:
256,192,324212,5,8,0:0:0:0:
256,192,324260,5,8,0:0:0:0:
256,192,324308,5,8,0:0:0:0:
256,192,324355,5,8,0:0:0:0:
256,192,324403,5,8,0:0:0:0:
256,192,324450,5,0,0:0:0:0:
256,192,324593,5,0,0:0:0:0:
256,192,324736,5,8,0:0:0:0:
256,192,324879,5,0,0:0:0:0:
256,192,325022,5,8,0:0:0:0:
256,192,325308,5,0,0:0:0:0:
256,192,325450,5,8,0:0:0:0:
256,192,325593,5,0,0:0:0:0:
256,192,325736,5,8,0:0:0:0:
256,192,325879,5,0,0:0:0:0:
256,192,325950,5,0,0:0:0:0:
256,192,326022,5,8,0:0:0:0:
256,192,326093,5,0,0:0:0:0:
256,192,326165,5,0,0:0:0:0:
256,192,326308,5,0,0:0:0:0:
256,192,326379,5,0,0:0:0:0:
256,192,326450,5,8,0:0:0:0:
256,192,326522,5,0,0:0:0:0:
256,192,326593,5,8,0:0:0:0:
256,192,326736,5,4,0:0:0:0:
256,192,327022,5,8,0:0:0:0:
256,192,327058,5,8,0:0:0:0:
256,192,327165,5,8,0:0:0:0:
256,192,327200,5,8,0:0:0:0:
256,192,327308,5,8,0:0:0:0:
256,192,327450,5,0,0:0:0:0:
256,192,327736,5,12,0:0:0:0:
256,192,328022,5,0,0:0:0:0:
256,192,328093,5,8,0:0:0:0:
256,192,328165,5,0,0:0:0:0:
256,192,328308,5,0,0:0:0:0:
256,192,328343,5,0,0:0:0:0:
256,192,328450,5,8,0:0:0:0:
256,192,328486,5,8,0:0:0:0:
256,192,328593,5,0,0:0:0:0:
256,192,328629,5,0,0:0:0:0:
256,192,328736,5,8,0:0:0:0:
256,192,328772,5,8,0:0:0:0:
256,192,329022,5,4,0:0:0:0:
256,192,329236,5,8,0:0:0:0:
256,192,329272,5,8,0:0:0:0:
256,192,329450,5,0,0:0:0:0:
256,192,329522,5,0,0:0:0:0:
256,192,329593,5,8,0:0:0:0:
256,192,329736,5,8,0:0:0:0:
256,192,329808,5,8,0:0:0:0:
256,192,329879,5,0,0:0:0:0:
256,192,330022,5,0,0:0:0:0:
256,192,330069,5,8,0:0:0:0:
256,192,330117,5,8,0:0:0:0:
256,192,330165,5,0,0:0:0:0:
256,192,330308,5,8,0:0:0:0:
256,192,330379,5,0,0:0:0:0:
256,192,330450,5,0,0:0:0:0:
256,192,330522,5,0,0:0:0:0:
256,192,330593,5,8,0:0:0:0:
256,192,330641,5,0,0:0:0:0:
256,192,330688,5,0,0:0:0:0:
256,192,330736,5,8,0:0:0:0:
256,192,330879,5,0,0:0:0:0:
256,192,330950,5,8,0:0:0:0:
256,192,331022,5,0,0:0:0:0:
256,192,331165,5,8,0:0:0:0:
256,192,331212,5,8,0:0:0:0:
256,192,331260,5,8,0:0:0:0:
256,192,331308,5,0,0:0:0:0:
256,192,331522,5,8,0:0:0:0:
256,192,331736,5,0,0:0:0:0:
256,192,331784,5,0,0:0:0:0:
256,192,331831,5,0,0:0:0:0:
256,192,331879,5,8,0:0:0:0:
256,192,332022,5,8,0:0:0:0:
256,192,332093,5,0,0:0:0:0:
256,192,332165,5,0,0:0:0:0:
256,192,332308,5,8,0:0:0:0:
256,192,332355,5,8,0:0:0:0:
256,192,332403,5,0,0:0:0:0:
256,192,332450,5,0,0:0:0:0:
256,192,332593,5,0,0:0:0:0:
256,192,332665,5,8,0:0:0:0:
256,192,332736,5,0,0:0:0:0:
256,192,332879,5,8,0:0:0:0:
256,192,332950,5,0,0:0:0:0:
256,192,333022,5,8,0:0:0:0:
256,192,333165,5,8,0:0:0:0:
256,192,333236,5,8,0:0:0:0:
256,192,333308,5,0,0:0:0:0:
256,192,333355,5,0,0:0:0:0:
256,192,333403,5,0,0:0:0:0:
256,192,333450,5,8,0:0:0:0:
256,192,333498,5,8,0:0:0:0:
256,192,333546,5,8,0:0:0:0:
256,192,333593,5,0,0:0:0:0:
256,192,333665,5,0,0:0:0:0:
256,192,333736,5,0,0:0:0:0:
256,192,333808,5,0,0:0:0:0:
256,192,333879,5,0,0:0:0:0:
256,192,333950,5,0,0:0:0:0:
256,192,334022,5,8,0:0:0:0:
256,192,334093,5,0,0:0:0:0:
256,192,334165,5,8,0:0:0:0:
256,192,334308,5,8,0:0:0:0:
256,192,334379,5,8,0:0:0:0:
256,192,334450,5,0,0:0:0:0:
256,192,334593,5,0,0:0:0:0:
256,192,334641,5,0,0:0:0:0:
256,192,334688,5,8,0:0:0:0:
256,192,334736,5,8,0:0:0:0:
256,192,334879,5,8,0:0:0:0:
256,192,334950,5,0,0:0:0:0:
256,192,335093,5,0,0:0:0:0:
256,192,335165,5,8,0:0:0:0:
256,192,335236,5,8,0:0:0:0:
256,192,335308,5,0,0:0:0:0:
256,192,335450,5,8,0:0:0:0:
256,192,335522,5,0,0:0:0:0:
256,192,335593,5,8,0:0:0:0:
256,192,335665,5,8,0:0:0:0:
256,192,335736,5,0,0:0:0:0:
256,192,335808,5,8,0:0:0:0:
256,192,335879,5,4,0:0:0:0:
256,192,336165,5,0,0:0:0:0:
256,192,336308,5,0,0:0:0:0:
256,192,336450,5,8,0:0:0:0:
256,192,336736,5,0,0:0:0:0:
256,192,336879,5,4,0:0:0:0:
256,192,337165,5,4,0:0:0:0:
256,192,337308,5,0,0:0:0:0:
256,192,337450,5,0,0:0:0:0:
256,192,337593,5,8,0:0:0:0:
256,192,337879,5,0,0:0:0:0:
256,192,338022,5,8,0:0:0:0:
256,192,338165,5,0,0:0:0:0:
256,192,338236,5,0,0:0:0:0:
256,192,338308,5,0,0:0:0:0:
256,192,338379,5,0,0:0:0:0:
256,192,338450,5,0,0:0:0:0:
256,192,338522,5,0,0:0:0:0:
256,192,338593,5,0,0:0:0:0:
256,192,338665,5,0,0:0:0:0:
256,192,338736,5,8,0:0:0:0:
256,192,338879,5,8,0:0:0:0:
256,192,338927,5,8,0:0:0:0:
256,192,338974,5,8,0:0:0:0:
256,192,339022,5,0,0:0:0:0:
256,192,339165,5,0,0:0:0:0:
256,192,339212,5,0,0:0:0:0:
256,192,339260,5,0,0:0:0:0:
256,192,339308,5,8,0:0:0:0:
256,192,339450,5,8,0:0:0:0:
256,192,339522,5,0,0:0:0:0:
256,192,339593,5,0,0:0:0:0:
256,192,339665,5,0,0:0:0:0:
256,192,339736,5,8,0:0:0:0:
256,192,339784,5,0,0:0:0:0:
256,192,339831,5,0,0:0:0:0:
256,192,339879,5,8,0:0:0:0:
256,192,340022,5,0,0:0:0:0:
256,192,340093,5,0,0:0:0:0:
256,192,340165,5,8,0:0:0:0:
256,192,340212,5,8,0:0:0:0:
256,192,340260,5,0,0:0:0:0:
256,192,340308,5,8,0:0:0:0:
256,192,340355,5,8,0:0:0:0:
256,192,340403,5,8,0:0:0:0:
256,192,340450,5,0,0:0:0:0:
256,192,340522,5,0,0:0:0:0:
256,192,340593,5,0,0:0:0:0:
256,192,340665,5,0,0:0:0:0:
256,192,340736,5,8,0:0:0:0:
256,192,340879,5,0,0:0:0:0:
256,192,340927,5,0,0:0:0:0:
256,192,340974,5,8,0:0:0:0:
256,192,341022,5,8,0:0:0:0:
256,192,341093,5,0,0:0:0:0:
256,192,341165,5,8,0:0:0:0:
256,192,341236,5,8,0:0:0:0:
256,192,341308,5,0,0:0:0:0:
256,192,341450,5,8,0:0:0:0:
256,192,341498,5,8,0:0:0:0:
256,192,341546,5,0,0:0:0:0:
256,192,341593,5,0,0:0:0:0:
256,192,341736,5,0,0:0:0:0:
256,192,341808,5,8,0:0:0:0:
256,192,341879,5,0,0:0:0:0:
256,192,342022,5,8,0:0:0:0:
256,192,342069,5,0,0:0:0:0:
256,192,342117,5,0,0:0:0:0:
256,192,342165,5,8,0:0:0:0:
256,192,342308,5,0,0:0:0:0:
256,192,342379,5,8,0:0:0:0:
256,192,342450,5,0,0:0:0:0:
256,192,342498,5,0,0:0:0:0:
256,192,342546,5,0,0:0:0:0:
256,192,342593,5,8,0:0:0:0:
256,192,342641,5,8,0:0:0:0:
256,192,342688,5,8,0:0:0:0:
256,192,342736,5,0,0:0:0:0:
256,192,342808,5,0,0:0:0:0:
256,192,342879,5,0,0:0:0:0:
256,192,342950,5,0,0:0:0:0:
256,192,343022,5,0,0:0:0:0:
256,192,343093,5,0,0:0:0:0:
256,192,343165,5,8,0:0:0:0:
256,192,343236,5,0,0:0:0:0:
256,192,343308,5,8,0:0:0:0:
256,192,343450,5,8,0:0:0:0:
256,192,343498,5,8,0:0:0:0:
256,192,343546,5,0,0:0:0:0:
256,192,343593,5,0,0:0:0:0:
256,192,343736,5,0,0:0:0:0:
256,192,343784,5,0,0:0:0:0:
256,192,343831,5,8,0:0:0:0:
256,192,343879,5,8,0:0:0:0:
256,192,344022,5,8,0:0:0:0:
256,192,344093,5,0,0:0:0:0:
256,192,344165,5,0,0:0:0:0:
256,192,344236,5,0,0:0:0:0:
256,192,344308,5,8,0:0:0:0:
256,192,344355,5,8,0:0:0:0:
256,192,344403,5,8,0:0:0:0:
256,192,344450,5,0,0:0:0:0:
256,192,344593,5,0,0:0:0:0:
256,192,344665,5,8,0:0:0:0:
256,192,344736,5,4,0:0:0:0:
256,192,345022,5,0,0:0:0:0:
256,192,345308,5,0,0:0:0:0:
256,192,345450,5,0,0:0:0:0:
256,192,345522,5,0,0:0:0:0:
256,192,345593,5,8,0:0:0:0:
256,192,345736,5,0,0:0:0:0:
256,192,345879,5,0,0:0:0:0:
256,192,346022,5,12,0:0:0:0:
256,192,346308,5,0,0:0:0:0:
256,192,346379,5,8,0:0:0:0:
256,192,346450,5,8,0:0:0:0:
256,192,346522,5,0,0:0:0:0:
256,192,346593,5,8,0:0:0:0:
256,192,346665,5,8,0:0:0:0:
256,192,346736,5,0,0:0:0:0:
256,192,346879,5,8,0:0:0:0:
256,192,346950,5,8,0:0:0:0:
256,192,347022,5,0,0:0:0:0:
256,192,347165,5,0,0:0:0:0:
256,192,347308,5,0,0:0:0:0:
256,192,347593,5,0,0:0:0:0:
256,192,347665,5,0,0:0:0:0:
256,192,347736,5,0,0:0:0:0:
256,192,347808,5,0,0:0:0:0:
256,192,347879,5,8,0:0:0:0:
256,192,348022,5,0,0:0:0:0:
256,192,348165,5,8,0:0:0:0:
256,192,348308,5,0,0:0:0:0:
256,192,348450,5,0,0:0:0:0:
256,192,348593,5,0,0:0:0:0:
256,192,348736,5,8,0:0:0:0:
256,192,349022,5,0,0:0:0:0:
256,192,349165,5,0,0:0:0:0:
256,192,349308,5,8,0:0:0:0:
256,192,349450,5,8,0:0:0:0:
256,192,349593,5,0,0:0:0:0:
256,192,349736,5,0,0:0:0:0:
256,192,349879,5,8,0:0:0:0:
256,192,350022,5,8,0:0:0:0:
256,192,350308,5,8,0:0:0:0:
256,192,350450,5,8,0:0:0:0:
256,192,350593,5,0,0:0:0:0:
256,192,350736,5,8,0:0:0:0:
256,192,350879,5,0,0:0:0:0:
256,192,350950,5,0,0:0:0:0:
256,192,351022,5,8,0:0:0:0:
256,192,351165,5,0,0:0:0:0:
256,192,351450,5,0,0:0:0:0:
256,192,351593,5,8,0:0:0:0:
256,192,351736,5,8,0:0:0:0:
256,192,351879,5,0,0:0:0:0:
256,192,352022,5,0,0:0:0:0:
256,192,352093,5,0,0:0:0:0:
256,192,352165,5,8,0:0:0:0:
256,192,352308,5,8,0:0:0:0:
256,192,352450,5,12,0:0:0:0:
256,192,352736,5,8,0:0:0:0:
256,192,352879,5,0,0:0:0:0:
256,192,353165,5,0,0:0:0:0:
256,192,353308,5,8,0:0:0:0:
256,192,353593,5,0,0:0:0:0:
256,192,353736,5,0,0:0:0:0:
256,192,353879,5,8,0:0:0:0:
256,192,354022,5,0,0:0:0:0:
256,192,354308,5,0,0:0:0:0:
256,192,354450,5,8,0:0:0:0:
256,192,354593,5,8,0:0:0:0:
256,192,354736,5,0,0:0:0:0:
256,192,354808,5,0,0:0:0:0:
256,192,354879,5,8,0:0:0:0:
256,192,355022,5,0,0:0:0:0:
256,192,355165,5,8,0:0:0:0:
256,192,355308,5,0,0:0:0:0:
256,192,355593,5,8,0:0:0:0:
256,192,355736,5,0,0:0:0:0:
256,192,356022,5,0,0:0:0:0:
256,192,356165,5,8,0:0:0:0:
256,192,356308,5,8,0:0:0:0:
256,192,356450,5,0,0:0:0:0:
256,192,356522,5,0,0:0:0:0:
256,192,356593,5,0,0:0:0:0:
256,192,356665,5,0,0:0:0:0:
256,192,356736,5,0,0:0:0:0:
256,192,356808,5,0,0:0:0:0:
256,192,356879,5,8,0:0:0:0:
256,192,356950,5,8,0:0:0:0:
256,192,357022,5,8,0:0:0:0:
256,192,357308,5,8,0:0:0:0:
256,192,357450,5,0,0:0:0:0:
256,192,357736,5,0,0:0:0:0:
256,192,357879,5,8,0:0:0:0:
256,192,358165,5,0,0:0:0:0:
256,192,358308,5,0,0:0:0:0:
256,192,358450,5,8,0:0:0:0:
256,192,358593,5,0,0:0:0:0:
256,192,358879,5,0,0:0:0:0:
256,192,359022,5,8,0:0:0:0:
256,192,359165,5,8,0:0:0:0:
256,192,359450,5,0,0:0:0:0:
256,192,359593,5,0,0:0:0:0:
256,192,359736,5,8,0:0:0:0:
256,192,359879,5,8,0:0:0:0:
256,192,360022,5,0,0:0:0:0:
256,192,360093,5,0,0:0:0:0:
256,192,360165,5,8,0:0:0:0:
256,192,360308,5,0,0:0:0:0:
256,192,360593,5,0,0:0:0:0:
256,192,360736,5,8,0:0:0:0:
256,192,360879,5,8,0:0:0:0:
256,192,361022,5,4,0:0:0:0:
256,192,361593,5,8,0:0:0:0:
256,192,361879,5,8,0:0:0:0:
256,192,362022,5,0,0:0:0:0:
256,192,362308,5,0,0:0:0:0:
256,192,362450,5,8,0:0:0:0:
256,192,362736,5,0,0:0:0:0:
256,192,362879,5,0,0:0:0:0:
256,192,363022,5,8,0:0:0:0:
256,192,363165,5,0,0:0:0:0:
256,192,363450,5,0,0:0:0:0:
256,192,363593,5,8,0:0:0:0:
256,192,363736,5,8,0:0:0:0:
256,192,363879,5,0,0:0:0:0:
256,192,363950,5,0,0:0:0:0:
256,192,364022,5,8,0:0:0:0:
256,192,364165,5,0,0:0:0:0:
256,192,364308,5,8,0:0:0:0:
256,192,364450,5,4,0:0:0:0:
256,192,364593,5,0,0:0:0:0:
256,192,364736,5,8,0:0:0:0:
256,192,364879,5,8,0:0:0:0:
256,192,364950,5,0,0:0:0:0:
256,192,365022,5,8,0:0:0:0:
256,192,365165,5,8,0:0:0:0:
256,192,365308,5,0,0:0:0:0:
256,192,365379,5,8,0:0:0:0:
256,192,365450,5,0,0:0:0:0:
256,192,365486,5,0,0:0:0:0:
256,192,365522,5,0,0:0:0:0:
256,192,365593,5,0,0:0:0:0:
256,192,365879,5,8,0:0:0:0:
256,192,366022,5,0,0:0:0:0:
256,192,366308,5,8,0:0:0:0:
256,192,366450,5,8,0:0:0:0:
256,192,366736,5,0,0:0:0:0:
256,192,366879,5,8,0:0:0:0:
256,192,366950,5,8,0:0:0:0:
256,192,367022,5,8,0:0:0:0:
256,192,367165,5,0,0:0:0:0:
256,192,367308,5,8,0:0:0:0:
256,192,367450,5,0,0:0:0:0:
256,192,367736,5,8,0:0:0:0:
256,192,367879,5,8,0:0:0:0:
256,192,368165,5,8,0:0:0:0:
256,192,368308,5,0,0:0:0:0:
256,192,368593,5,8,0:0:0:0:
256,192,368879,5,8,0:0:0:0:
256,192,369022,5,8,0:0:0:0:
256,192,369165,5,0,0:0:0:0:
256,192,369236,5,0,0:0:0:0:
256,192,369308,5,8,0:0:0:0:
256,192,369450,5,0,0:0:0:0:
256,192,369593,5,8,0:0:0:0:
256,192,369736,5,0,0:0:0:0:
256,192,369879,5,8,0:0:0:0:
256,192,370022,5,0,0:0:0:0:
256,192,370165,5,8,0:0:0:0:
256,192,370308,5,0,0:0:0:0:
256,192,370379,5,0,0:0:0:0:
256,192,370450,5,0,0:0:0:0:
256,192,370593,5,8,0:0:0:0:
256,192,370879,5,8,0:0:0:0:
256,192,371165,5,8,0:0:0:0:
256,192,371308,5,0,0:0:0:0:
256,192,371450,5,8,0:0:0:0:
256,192,371522,5,8,0:0:0:0:
256,192,371593,5,0,0:0:0:0:
256,192,371736,5,8,0:0:0:0:
256,192,371879,5,0,0:0:0:0:
256,192,372022,5,8,0:0:0:0:
256,192,372308,5,8,0:0:0:0:
256,192,372450,5,0,0:0:0:0:
256,192,372593,5,0,0:0:0:0:
256,192,372665,5,0,0:0:0:0:
256,192,372736,5,0,0:0:0:0:
256,192,372879,5,8,0:0:0:0:
256,192,373022,1,0,0:0:0:0:
256,192,373165,5,8,0:0:0:0:
256,192,373308,1,0,0:0:0:0:
256,192,373450,5,8,0:0:0:0:
256,192,373522,1,8,0:0:0:0:
256,192,373593,5,0,0:0:0:0:
256,192,373736,5,0,0:0:0:0:
256,192,373784,5,8,0:0:0:0:
256,192,373831,1,8,0:0:0:0:
256,192,373879,5,0,0:0:0:0:
256,192,374022,5,8,0:0:0:0:
256,192,374165,5,0,0:0:0:0:
256,192,374308,5,0,0:0:0:0:
256,192,374379,1,0,0:0:0:0:
256,192,374450,5,8,0:0:0:0:
256,192,374593,5,8,0:0:0:0:
256,192,374736,5,4,0:0:0:0:
256,192,374808,12,0,379165,0:0:0:0:
256,192,379308,5,0,0:0:0:0:
256,192,379593,5,0,0:0:0:0:
256,192,379736,5,0,0:0:0:0:
256,192,379879,5,8,0:0:0:0:
256,192,380165,5,0,0:0:0:0:
256,192,380308,5,8,0:0:0:0:
256,192,380450,5,0,0:0:0:0:
256,192,380593,5,8,0:0:0:0:
256,192,380665,5,0,0:0:0:0:
256,192,380736,5,0,0:0:0:0:
256,192,380879,5,0,0:0:0:0:
256,192,381022,5,8,0:0:0:0:
256,192,381165,5,0,0:0:0:0:
256,192,381236,5,0,0:0:0:0:
256,192,381308,5,8,0:0:0:0:
256,192,381593,5,12,0:0:0:0:
256,192,382022,5,12,0:0:0:0:
256,192,382450,5,12,0:0:0:0:
256,192,383022,5,0,0:0:0:0:
256,192,383165,5,8,0:0:0:0:
256,192,383308,5,4,0:0:0:0:
256,192,383879,5,8,0:0:0:0:
256,192,383927,5,8,0:0:0:0:
256,192,383974,5,8,0:0:0:0:
256,192,384022,5,0,0:0:0:0:
256,192,384093,5,0,0:0:0:0:
256,192,384165,5,0,0:0:0:0:
256,192,384236,5,0,0:0:0:0:
256,192,384308,5,0,0:0:0:0:
256,192,384379,5,0,0:0:0:0:
256,192,384450,5,8,0:0:0:0:
256,192,384486,5,8,0:0:0:0:
256,192,384593,5,0,0:0:0:0:
256,192,384629,5,0,0:0:0:0:
256,192,384736,5,0,0:0:0:0:
256,192,384772,5,0,0:0:0:0:
256,192,384879,5,8,0:0:0:0:
256,192,384927,5,8,0:0:0:0:
256,192,384974,5,8,0:0:0:0:
256,192,385022,5,0,0:0:0:0:
256,192,385165,5,0,0:0:0:0:
256,192,385236,5,0,0:0:0:0:
256,192,385308,5,8,0:0:0:0:
256,192,385450,5,0,0:0:0:0:
256,192,385593,5,0,0:0:0:0:
256,192,385736,5,8,0:0:0:0:
256,192,385784,5,8,0:0:0:0:
256,192,385831,5,0,0:0:0:0:
256,192,385879,5,0,0:0:0:0:
256,192,386022,5,8,0:0:0:0:
256,192,386069,5,8,0:0:0:0:
256,192,386117,5,8,0:0:0:0:
256,192,386165,5,0,0:0:0:0:
256,192,386212,5,0,0:0:0:0:
256,192,386260,5,0,0:0:0:0:
256,192,386308,5,8,0:0:0:0:
256,192,386355,5,0,0:0:0:0:
256,192,386403,5,0,0:0:0:0:
256,192,386450,5,8,0:0:0:0:
256,192,386736,5,8,0:0:0:0:
256,192,386772,5,8,0:0:0:0:
256,192,386879,5,0,0:0:0:0:
256,192,386915,5,0,0:0:0:0:
256,192,387022,5,0,0:0:0:0:
256,192,387058,5,0,0:0:0:0:
256,192,387165,5,0,0:0:0:0:
256,192,387212,5,0,0:0:0:0:
256,192,387260,5,8,0:0:0:0:
256,192,387308,5,8,0:0:0:0:
256,192,387450,5,0,0:0:0:0:
256,192,387486,5,0,0:0:0:0:
256,192,387593,5,8,0:0:0:0:
256,192,387736,5,0,0:0:0:0:
256,192,387772,5,0,0:0:0:0:
256,192,387879,5,8,0:0:0:0:
256,192,388022,5,8,0:0:0:0:
256,192,388093,5,8,0:0:0:0:
256,192,388165,5,8,0:0:0:0:
256,192,388308,5,8,0:0:0:0:
256,192,388450,5,8,0:0:0:0:
256,192,388498,5,8,0:0:0:0:
256,192,388546,5,8,0:0:0:0:
256,192,388593,5,0,0:0:0:0:
256,192,388665,5,0,0:0:0:0:
256,192,388736,5,0,0:0:0:0:
256,192,388808,5,0,0:0:0:0:
256,192,388879,5,0,0:0:0:0:
256,192,388950,5,0,0:0:0:0:
256,192,389022,5,8,0:0:0:0:
256,192,389165,5,8,0:0:0:0:
256,192,389236,5,0,0:0:0:0:
256,192,389308,5,8,0:0:0:0:
256,192,389450,5,0,0:0:0:0:
256,192,389486,5,0,0:0:0:0:
256,192,389593,5,8,0:0:0:0:
256,192,389736,5,8,0:0:0:0:
256,192,389808,5,0,0:0:0:0:
256,192,389879,5,8,0:0:0:0:
256,192,389915,5,8,0:0:0:0:
256,192,390022,5,0,0:0:0:0:
256,192,390058,5,0,0:0:0:0:
256,192,390165,5,8,0:0:0:0:
256,192,390200,5,8,0:0:0:0:
256,192,390308,5,8,0:0:0:0:
256,192,390379,5,8,0:0:0:0:
256,192,390450,5,0,0:0:0:0:
256,192,390498,5,0,0:0:0:0:
256,192,390546,5,0,0:0:0:0:
256,192,390593,5,0,0:0:0:0:
256,192,390641,5,0,0:0:0:0:
256,192,390688,5,0,0:0:0:0:
256,192,390736,5,8,0:0:0:0:
256,192,391022,5,8,0:0:0:0:
256,192,391165,5,0,0:0:0:0:
256,192,391308,5,8,0:0:0:0:
256,192,391450,5,0,0:0:0:0:
256,192,391522,5,8,0:0:0:0:
256,192,391593,5,8,0:0:0:0:
256,192,391736,5,4,0:0:0:0:
256,192,392022,5,4,0:0:0:0:
256,192,392165,5,8,0:0:0:0:
256,192,392308,5,8,0:0:0:0:
256,192,392450,5,8,0:0:0:0:
256,192,392593,5,8,0:0:0:0:
256,192,392665,5,0,0:0:0:0:
256,192,392736,5,0,0:0:0:0:
256,192,392879,5,0,0:0:0:0:
256,192,393022,5,0,0:0:0:0:
256,192,393093,5,0,0:0:0:0:
256,192,393165,5,0,0:0:0:0:
256,192,393236,5,0,0:0:0:0:
256,192,393308,5,0,0:0:0:0:
256,192,393379,5,0,0:0:0:0:
256,192,393450,5,0,0:0:0:0:
256,192,393522,5,0,0:0:0:0:
256,192,393593,5,8,0:0:0:0:
256,192,393629,5,8,0:0:0:0:
256,192,393736,5,0,0:0:0:0:
256,192,393772,5,0,0:0:0:0:
256,192,393879,5,0,0:0:0:0:
256,192,393915,5,0,0:0:0:0:
256,192,394022,5,8,0:0:0:0:
256,192,394069,5,8,0:0:0:0:
256,192,394117,5,8,0:0:0:0:
256,192,394165,5,0,0:0:0:0:
256,192,394308,5,0,0:0:0:0:
256,192,394379,5,0,0:0:0:0:
256,192,394450,5,8,0:0:0:0:
256,192,394593,5,0,0:0:0:0:
256,192,394736,5,8,0:0:0:0:
256,192,394879,5,8,0:0:0:0:
256,192,394927,5,8,0:0:0:0:
256,192,394974,5,0,0:0:0:0:
256,192,395022,5,0,0:0:0:0:
256,192,395165,5,8,0:0:0:0:
256,192,395212,5,8,0:0:0:0:
256,192,395260,5,8,0:0:0:0:
256,192,395308,5,0,0:0:0:0:
256,192,395355,5,0,0:0:0:0:
256,192,395403,5,0,0:0:0:0:
256,192,395450,5,8,0:0:0:0:
256,192,395498,5,0,0:0:0:0:
256,192,395546,5,0,0:0:0:0:
256,192,395593,5,8,0:0:0:0:
256,192,395879,5,8,0:0:0:0:
256,192,395915,5,8,0:0:0:0:
256,192,396022,5,0,0:0:0:0:
256,192,396058,5,0,0:0:0:0:
256,192,396165,5,0,0:0:0:0:
256,192,396200,5,0,0:0:0:0:
256,192,396308,5,0,0:0:0:0:
256,192,396355,5,0,0:0:0:0:
256,192,396403,5,0,0:0:0:0:
256,192,396450,5,8,0:0:0:0:
256,192,396593,5,0,0:0:0:0:
256,192,396629,5,0,0:0:0:0:
256,192,396736,5,8,0:0:0:0:
256,192,396879,5,0,0:0:0:0:
256,192,396915,5,0,0:0:0:0:
256,192,397022,5,8,0:0:0:0:
256,192,397165,5,8,0:0:0:0:
256,192,397236,5,8,0:0:0:0:
256,192,397308,5,8,0:0:0:0:
256,192,397450,5,0,0:0:0:0:
256,192,397593,5,12,0:0:0:0:
256,192,397879,5,0,0:0:0:0:
256,192,398022,5,8,0:0:0:0:
256,192,398165,5,8,0:0:0:0:
256,192,398308,5,0,0:0:0:0:
256,192,398450,5,12,0:0:0:0:
256,192,398736,5,0,0:0:0:0:
256,192,398879,5,0,0:0:0:0:
256,192,399022,5,8,0:0:0:0:
256,192,399093,5,0,0:0:0:0:
256,192,399165,5,0,0:0:0:0:
256,192,399308,5,12,0:0:0:0:
256,192,399593,5,0,0:0:0:0:
256,192,399736,5,0,0:0:0:0:
256,192,399879,5,8,0:0:0:0:
256,192,400022,5,0,0:0:0:0:
256,192,400165,5,12,0:0:0:0:
256,192,400236,12,0,401165,0:0:0:0:
256,192,401308,5,8,0:0:0:0:
256,192,401593,5,4,0:0:0:0:
256,192,402165,5,4,0:0:0:0:
256,192,402736,5,8,0:0:0:0:
256,192,403022,5,8,0:0:0:0:
256,192,403165,5,0,0:0:0:0:
256,192,403593,5,0,0:0:0:0:
256,192,403879,1,8,0:0:0:0:
256,192,404022,5,0,0:0:0:0:
256,192,404165,5,8,0:0:0:0:
256,192,404308,5,0,0:0:0:0:
256,192,404736,5,0,0:0:0:0:
256,192,405022,5,8,0:0:0:0:
256,192,405450,5,0,0:0:0:0:
256,192,405593,5,0,0:0:0:0:
256,192,405736,5,0,0:0:0:0:
256,192,405879,5,0,0:0:0:0:
256,192,406165,5,8,0:0:0:0:
256,192,406450,5,0,0:0:0:0:
256,192,406593,5,8,0:0:0:0:
256,192,406736,5,0,0:0:0:0:
256,192,407308,5,8,0:0:0:0:
256,192,407593,5,8,0:0:0:0:
256,192,407736,5,0,0:0:0:0:
256,192,408165,5,0,0:0:0:0:
256,192,408450,1,8,0:0:0:0:
256,192,408593,5,0,0:0:0:0:
256,192,408736,5,8,0:0:0:0:
256,192,408879,5,0,0:0:0:0:
256,192,409308,5,8,0:0:0:0:
256,192,409593,5,8,0:0:0:0:
256,192,409736,5,0,0:0:0:0:
256,192,409879,5,8,0:0:0:0:
256,192,410022,5,0,0:0:0:0:
256,192,410093,1,8,0:0:0:0:
256,192,410165,1,8,0:0:0:0:
256,192,410308,1,0,0:0:0:0:
256,192,410355,1,0,0:0:0:0:
256,192,410403,1,0,0:0:0:0:
256,192,410450,1,8,0:0:0:0:
256,192,410593,1,0,0:0:0:0:
256,192,410641,1,0,0:0:0:0:
256,192,410688,1,8,0:0:0:0:
256,192,410736,1,8,0:0:0:0:
256,192,410879,1,8,0:0:0:0:
256,192,410950,1,8,0:0:0:0:
256,192,411022,1,0,0:0:0:0:
256,192,411069,1,0,0:0:0:0:
256,192,411117,1,0,0:0:0:0:
256,192,411165,1,8,0:0:0:0:
256,192,411212,1,8,0:0:0:0:
256,192,411260,1,8,0:0:0:0:
256,192,411308,1,0,0:0:0:0:
256,192,411879,5,8,0:0:0:0:
256,192,412165,5,8,0:0:0:0:
256,192,412308,5,0,0:0:0:0:
256,192,412593,5,8,0:0:0:0:
256,192,412736,5,0,0:0:0:0:
256,192,412808,5,0,0:0:0:0:
256,192,412879,5,8,0:0:0:0:
256,192,413022,5,0,0:0:0:0:
256,192,413093,5,8,0:0:0:0:
256,192,413165,5,0,0:0:0:0:
256,192,413308,5,8,0:0:0:0:
256,192,413450,5,0,0:0:0:0:
256,192,413879,5,8,0:0:0:0:
256,192,414022,5,8,0:0:0:0:
256,192,414093,5,8,0:0:0:0:
256,192,414165,5,0,0:0:0:0:
256,192,414236,5,8,0:0:0:0:
256,192,414308,5,0,0:0:0:0:
256,192,414450,5,8,0:0:0:0:
256,192,414593,5,0,0:0:0:0:
256,192,414665,5,8,0:0:0:0:
256,192,414736,5,0,0:0:0:0:
256,192,414879,5,0,0:0:0:0:
256,192,414927,5,0,0:0:0:0:
256,192,414974,5,8,0:0:0:0:
256,192,415022,5,8,0:0:0:0:
256,192,415308,5,8,0:0:0:0:
256,192,415379,5,8,0:0:0:0:
256,192,415450,5,8,0:0:0:0:
256,192,415522,5,8,0:0:0:0:
256,192,415593,5,0,0:0:0:0:
256,192,415736,5,8,0:0:0:0:
256,192,415879,5,0,0:0:0:0:
256,192,416450,5,8,0:0:0:0:
256,192,416736,5,8,0:0:0:0:
256,192,416879,5,0,0:0:0:0:
256,192,417165,5,8,0:0:0:0:
256,192,417308,5,0,0:0:0:0:
256,192,417379,5,0,0:0:0:0:
256,192,417450,5,8,0:0:0:0:
256,192,417593,5,8,0:0:0:0:
256,192,417879,5,8,0:0:0:0:
256,192,418022,5,8,0:0:0:0:
256,192,418069,5,8,0:0:0:0:
256,192,418117,5,8,0:0:0:0:
256,192,418165,5,0,0:0:0:0:
256,192,418450,5,8,0:0:0:0:
256,192,418593,5,8,0:0:0:0:
256,192,418736,5,12,0:0:0:0:
256,192,418879,5,4,0:0:0:0:
256,192,419165,5,4,0:0:0:0:
