osu file format v14

[General]
AudioFilename: 15th-dan.mp3
AudioLeadIn: 0
PreviewTime: 87387
Countdown: 0
SampleSet: None
StackLeniency: 0.7
Mode: 1
LetterboxInBreaks: 0
WidescreenStoryboard: 1

[Editor]
Bookmarks: 575,120450,245422
DistanceSpacing: 0.5
BeatDivisor: 4
GridSize: 32
TimelineZoom: 2.899999

[Metadata]
Title:osu!Taiko Dan-i Dojo (Part.3)
TitleUnicode:osu!Taiko 段位道場
Artist:Various Artists
ArtistUnicode:Various Artists
Creator:tasuke912
Version:15th Dan
Source:
Tags:danni dani doujou
BeatmapID:2295714
BeatmapSetID:912120

[Difficulty]
HPDrainRate:6
CircleSize:8
OverallDifficulty:6
ApproachRate:7.24
SliderMultiplier:1.4
SliderTickRate:1

[Events]
//Background and Video events
0,0,"bg_15.jpg",0,130
//Break Periods
2,117400,121258
//Storyboard Layer 0 (Background)
Sprite,Background,Centre,"bg_15.jpg",320,240 F,0,0,,0
Sprite,Background,Centre,"BG\15\1.jpg",320,0 S,0,-925,,0.625 MY,0,-925,,380 F,0,-925,-425,0,1 F,0,118950,119450,1,0
Sprite,Background,Centre,"BG\15\2.jpg",320,0 S,0,118950,,0.625 MY,0,118950,,380 F,0,118950,119450,0,1 F,0,243922,244422,1,0
Sprite,Background,Centre,"BG\15\3.jpg",320,0 S,0,243922,,0.625 MY,0,243922,,380 F,0,243922,244422,0,1 F,0,384141,384641,1,0
//Storyboard Layer 1 (Fail)
//Storyboard Layer 2 (Pass)
//Storyboard Layer 3 (Foreground)
Sprite,Foreground,TopCentre,"BG\black.png",320,0 F,0,-1425,-925,0,1 MY,0,-925,,0 V,0,-925,,3,3.2 F,0,385141,386141,1,0
Sprite,Foreground,Centre,"BG\stage.png",0,0 F,0,-1425,-925,0,1 M,0,-925,,680,105 V,0,-925,,0.4,0.3 F,0,385141,386141,1,0
Sprite,Foreground,CentreLeft,"BG\stage.png",0,0 F,0,-1425,-925,0,1 M,0,-925,,270,272 V,0,-925,,0.3,0.22 F,0,385141,386141,1,0
Sprite,Foreground,CentreLeft,"BG\stage.png",0,0 F,0,-1425,-925,0,1 P,0,-1425,386141,H M,0,-925,,420,272 V,0,-925,,0.8,0.22 F,0,385141,386141,1,0
Sprite,Foreground,CentreLeft,"BG\line.png",0,0 C,0,-925,,191,255,127 F,0,-425,,1 V,0,-425,118950,0,0.5,0.237,0.5 M,0,0,,597,122 P,0,0,,A F,0,117750,118950,1,0 C,0,118950,,255,170,50 F,0,119450,,1 V,0,119450,243922,0,0.5,0.237,0.5 F,0,242722,243922,1,0 C,0,243922,,255,0,0 F,0,244422,,1 V,0,244422,384141,0,0.5,0.237,0.5 F,0,382941,384141,1,0
Sprite,Foreground,TopLeft,"SB\fonts\0053.png",0,0 P,0,75,118750,A F,0,761,1761,0,1 S,1,761,1761,0.6,0.4 MX,1,761,1761,195.6,395.6 MY,1,761,1761,425.2,264.2 F,0,117750,118750,1,0
Sprite,Foreground,TopLeft,"SB\fonts\0068.png",0,0 P,0,75,118750,A F,0,791,1791,0,1 S,1,791,1791,0.6,0.4 MX,1,791,1791,304.6,405.6 MY,1,791,1791,315.4,263.4 F,0,117750,118750,1,0
Sprite,Foreground,TopLeft,"SB\fonts\0069.png",0,0 P,0,75,118750,A F,0,824,1824,0,1 S,1,824,1824,0.6,0.4 MX,1,824,1824,176.4,416.4 MY,1,824,1824,217.2,264.2 F,0,117750,118750,1,0
Sprite,Foreground,TopLeft,"SB\fonts\0072.png",0,0 P,0,75,118750,A F,0,841,1841,0,1 S,1,841,1841,0.6,0.4 MX,1,841,1841,686,422 MY,1,841,1841,489.8,267.8 F,0,117750,118750,1,0
Sprite,Foreground,TopLeft,"SB\fonts\006f.png",0,0 P,0,75,118750,A F,0,865,1865,0,1 S,1,865,1865,0.6,0.4 MX,1,865,1865,431,430 MY,1,865,1865,297.8,267.8 F,0,117750,118750,1,0
Sprite,Foreground,TopLeft,"SB\fonts\006e.png",0,0 P,0,75,118750,A F,0,895,1895,0,1 S,1,895,1895,0.6,0.4 MX,1,895,1895,452,440 MY,1,895,1895,343.8,267.8 F,0,117750,118750,1,0
Sprite,Foreground,TopLeft,"SB\fonts\002d.png",0,0 P,0,75,118750,A F,0,939,1939,0,1 S,1,939,1939,0.6,0.4 MX,1,939,1939,351.8,454.8 MY,1,939,1939,532.4,271.4 F,0,117750,118750,1,0
Sprite,Foreground,TopLeft,"SB\fonts\0044.png",0,0 P,0,75,118750,A F,0,970,1970,0,1 S,1,970,1970,0.6,0.4 MX,1,970,1970,550.2,465.2 MY,1,970,1970,487.2,264.2 F,0,117750,118750,1,0
Sprite,Foreground,TopLeft,"SB\fonts\0065.png",0,0 P,0,75,118750,A F,0,1010,2010,0,1 S,1,1010,2010,0.6,0.4 MX,1,1010,2010,574.4,478.4 MY,1,1010,2010,231.8,267.8 F,0,117750,118750,1,0
Sprite,Foreground,TopLeft,"SB\fonts\0061.png",0,0 P,0,75,118750,A F,0,1036,2036,0,1 S,1,1036,2036,0.6,0.4 MX,1,1036,2036,722.2,487.2 MY,1,1036,2036,407.8,267.8 F,0,117750,118750,1,0
Sprite,Foreground,TopLeft,"SB\fonts\0064.png",0,0 P,0,75,118750,A F,0,1067,2067,0,1 S,1,1067,2067,0.6,0.4 MX,1,1067,2067,727.6,497.5999 MY,1,1067,2067,461.4,263.4 F,0,117750,118750,1,0
Sprite,Foreground,TopLeft,"SB\fonts\006c.png",0,0 P,0,75,118750,A F,0,1097,2097,0,1 S,1,1097,2097,0.6,0.4 MX,1,1097,2097,417.5999,507.5999 MY,1,1097,2097,169.4,263.4 F,0,117750,118750,1,0
Sprite,Foreground,TopLeft,"SB\fonts\0079.png",0,0 P,0,75,118750,A F,0,1112,2112,0,1 S,1,1112,2112,0.6,0.4 MX,1,1112,2112,386.3999,512.3999 MY,1,1112,2112,334.8,267.8 F,0,117750,118750,1,0
Sprite,Foreground,TopLeft,"SB\fonts\0044.png",0,0 P,0,75,118750,A F,0,1154,2154,0,1 S,1,1154,2154,0.6,0.4 MX,1,1154,2154,597.4,526.4 MY,1,1154,2154,500.2,264.2 F,0,117750,118750,1,0
Sprite,Foreground,TopLeft,"SB\fonts\006f.png",0,0 P,0,75,118750,A F,0,1193,2193,0,1 S,1,1193,2193,0.6,0.4 MX,1,1193,2193,646.6,539.6 MY,1,1193,2193,291.8,267.8 F,0,117750,118750,1,0
Sprite,Foreground,TopLeft,"SB\fonts\006c.png",0,0 P,0,75,118750,A F,0,1222,2222,0,1 S,1,1222,2222,0.6,0.4 MX,1,1222,2222,454.2,549.2 MY,1,1222,2222,463.4,263.4 F,0,117750,118750,1,0
Sprite,Foreground,TopLeft,"SB\fonts\006c.png",0,0 P,0,75,118750,A F,0,1238,2238,0,1 S,1,1238,2238,0.6,0.4 MX,1,1238,2238,647.4,554.4 MY,1,1238,2238,271.4,263.4 F,0,117750,118750,1,0
Sprite,Foreground,TopLeft,"SB\fonts\0079.png",0,0 P,0,75,118750,A F,0,1252,2252,0,1 S,1,1252,2252,0.6,0.4 MX,1,1252,2252,599.2,559.2 MY,1,1252,2252,525.8,267.8 F,0,117750,118750,1,0
Sprite,Foreground,TopLeft,"SB\fonts\0044.png",0,0 P,0,75,118750,A F,0,1294,2294,0,1 S,1,1294,2294,0.6,0.4 MX,1,1294,2294,819.2,573.2 MY,1,1294,2294,327.2,264.2 F,0,117750,118750,1,0
Sprite,Foreground,TopLeft,"SB\fonts\0061.png",0,0 P,0,75,118750,A F,0,1334,2334,0,1 S,1,1334,2334,0.6,0.4 MX,1,1334,2334,489.4,586.4 MY,1,1334,2334,471.8,267.8 F,0,117750,118750,1,0
Sprite,Foreground,TopLeft,"SB\fonts\006e.png",0,0 P,0,75,118750,A F,0,1365,2365,0,1 S,1,1365,2365,0.6,0.4 MX,1,1365,2365,524.8,596.8 MY,1,1365,2365,387.8,267.8 F,0,117750,118750,1,0
Sprite,Foreground,TopLeft,"SB\fonts\0063.png",0,0 P,0,75,118750,A F,0,1396,2396,0,1 S,1,1396,2396,0.6,0.4 MX,1,1396,2396,739.2001,607.2001 MY,1,1396,2396,372.8,267.8 F,0,117750,118750,1,0
Sprite,Foreground,TopLeft,"SB\fonts\0065.png",0,0 P,0,75,118750,A F,0,1421,2421,0,1 S,1,1421,2421,0.6,0.4 MX,1,1421,2421,569.6001,615.6001 MY,1,1421,2421,566.8,267.8 F,0,117750,118750,1,0
Sprite,Foreground,Centre,"SB\1st.png",0,0 M,0,75,,670,104 S,0,75,,0.6 P,0,75,,A F,0,75,1075,0,1 F,0,117750,118750,1,0
Sprite,Foreground,TopLeft,"SB\fonts\004e.png",0,0 P,0,119950,243722,A F,0,120553,121553,0,1 S,1,120553,121553,0.6,0.4 MX,1,120553,121553,352.8,367.8 MY,1,120553,121553,487.2,264.2 F,0,242722,243722,1,0
Sprite,Foreground,TopLeft,"SB\fonts\0065.png",0,0 P,0,119950,243722,A F,0,120594,121594,0,1 S,1,120594,121594,0.6,0.4 MX,1,120594,121594,171.4,381.4 MY,1,120594,121594,455.8,267.8 F,0,242722,243722,1,0
Sprite,Foreground,TopLeft,"SB\fonts\006b.png",0,0 P,0,119950,243722,A F,0,120619,121619,0,1 S,1,120619,121619,0.6,0.4 MX,1,120619,121619,643.8,389.8 MY,1,120619,121619,246.4,263.4 F,0,242722,243722,1,0
Sprite,Foreground,TopLeft,"SB\fonts\006f.png",0,0 P,0,119950,243722,A F,0,120649,121649,0,1 S,1,120649,121649,0.6,0.4 MX,1,120649,121649,618.8,399.8 MY,1,120649,121649,513.8,267.8 F,0,242722,243722,1,0
Sprite,Foreground,TopLeft,"SB\fonts\006d.png",0,0 P,0,119950,243722,A F,0,120679,121679,0,1 S,1,120679,121679,0.6,0.4 MX,1,120679,121679,279.8,409.8 MY,1,120679,121679,335.8,267.8 F,0,242722,243722,1,0
Sprite,Foreground,TopLeft,"SB\fonts\0061.png",0,0 P,0,119950,243722,A F,0,120726,121726,0,1 S,1,120726,121726,0.6,0.4 MX,1,120726,121726,306.4,425.4 MY,1,120726,121726,292.8,267.8 F,0,242722,243722,1,0
Sprite,Foreground,TopLeft,"SB\fonts\0074.png",0,0 P,0,119950,243722,A F,0,120758,121758,0,1 S,1,120758,121758,0.6,0.4 MX,1,120758,121758,190.2,436.2 MY,1,120758,121758,438.4,265.4 F,0,242722,243722,1,0
Sprite,Foreground,TopLeft,"SB\fonts\0061.png",0,0 P,0,119950,243722,A F,0,120777,121777,0,1 S,1,120777,121777,0.6,0.4 MX,1,120777,121777,450.6,442.6 MY,1,120777,121777,207.8,267.8 F,0,242722,243722,1,0
Sprite,Foreground,TopLeft,"SB\fonts\004d.png",0,0 P,0,119950,243722,A F,0,120821,121821,0,1 S,1,120821,121821,0.6,0.4 MX,1,120821,121821,233,457 MY,1,120821,121821,240.2,264.2 F,0,242722,243722,1,0
Sprite,Foreground,TopLeft,"SB\fonts\0061.png",0,0 P,0,119950,243722,A F,0,120869,121869,0,1 S,1,120869,121869,0.6,0.4 MX,1,120869,121869,763,473 MY,1,120869,121869,474.8,267.8 F,0,242722,243722,1,0
Sprite,Foreground,TopLeft,"SB\fonts\0073.png",0,0 P,0,119950,243722,A F,0,120897,121897,0,1 S,1,120897,121897,0.6,0.4 MX,1,120897,121897,652.6,482.6 MY,1,120897,121897,190.8,267.8 F,0,242722,243722,1,0
Sprite,Foreground,TopLeft,"SB\fonts\0074.png",0,0 P,0,119950,243722,A F,0,120924,121924,0,1 S,1,120924,121924,0.6,0.4 MX,1,120924,121924,393.4,491.4 MY,1,120924,121924,463.4,265.4 F,0,242722,243722,1,0
Sprite,Foreground,TopLeft,"SB\fonts\0065.png",0,0 P,0,119950,243722,A F,0,120943,121943,0,1 S,1,120943,121943,0.6,0.4 MX,1,120943,121943,736.7999,497.8 MY,1,120943,121943,268.8,267.8 F,0,242722,243722,1,0
Sprite,Foreground,TopLeft,"SB\fonts\0072.png",0,0 P,0,119950,243722,A F,0,120969,121969,0,1 S,1,120969,121969,0.6,0.4 MX,1,120969,121969,699.6,506.5999 MY,1,120969,121969,219.8,267.8 F,0,242722,243722,1,0
Sprite,Foreground,TopLeft,"SB\fonts\002d.png",0,0 P,0,119950,243722,A F,0,121007,122007,0,1 S,1,121007,122007,0.6,0.4 MX,1,121007,122007,351,519 MY,1,121007,122007,303.4,271.4 F,0,242722,243722,1,0
Sprite,Foreground,TopLeft,"SB\fonts\004c.png",0,0 P,0,119950,243722,A F,0,121038,122038,0,1 S,1,121038,122038,0.6,0.4 MX,1,121038,122038,244.4,529.4 MY,1,121038,122038,498.2,264.2 F,0,242722,243722,1,0
Sprite,Foreground,TopLeft,"SB\fonts\0069.png",0,0 P,0,119950,243722,A F,0,121070,122070,0,1 S,1,121070,122070,0.6,0.4 MX,1,121070,122070,595.2001,540.2001 MY,1,121070,122070,281.2,264.2 F,0,242722,243722,1,0
Sprite,Foreground,TopLeft,"SB\fonts\0066.png",0,0 P,0,119950,243722,A F,0,121085,122085,0,1 S,1,121085,122085,0.6,0.4 MX,1,121085,122085,810,545 MY,1,121085,122085,487.4,263.4 F,0,242722,243722,1,0
Sprite,Foreground,TopLeft,"SB\fonts\0065.png",0,0 P,0,119950,243722,A F,0,121105,122105,0,1 S,1,121105,122105,0.6,0.4 MX,1,121105,122105,665.8,551.8 MY,1,121105,122105,550.8,267.8 F,0,242722,243722,1,0
Sprite,Foreground,TopLeft,"SB\fonts\0069.png",0,0 P,0,119950,243722,A F,0,121145,122145,0,1 S,1,121145,122145,0.6,0.4 MX,1,121145,122145,497.0001,565.0001 MY,1,121145,122145,217.2,264.2 F,0,242722,243722,1,0
Sprite,Foreground,TopLeft,"SB\fonts\0073.png",0,0 P,0,119950,243722,A F,0,121159,122159,0,1 S,1,121159,122159,0.6,0.4 MX,1,121159,122159,799.8,569.8 MY,1,121159,122159,482.8,267.8 F,0,242722,243722,1,0
Sprite,Foreground,TopLeft,"SB\fonts\0042.png",0,0 P,0,119950,243722,A F,0,121196,122196,0,1 S,1,121196,122196,0.6,0.4 MX,1,121196,122196,874.2,582.2 MY,1,121196,122196,222.2,264.2 F,0,242722,243722,1,0
Sprite,Foreground,TopLeft,"SB\fonts\0065.png",0,0 P,0,119950,243722,A F,0,121232,122232,0,1 S,1,121232,122232,0.6,0.4 MX,1,121232,122232,649.2,594.2 MY,1,121232,122232,405.8,267.8 F,0,242722,243722,1,0
Sprite,Foreground,TopLeft,"SB\fonts\0061.png",0,0 P,0,119950,243722,A F,0,121259,122259,0,1 S,1,121259,122259,0.6,0.4 MX,1,121259,122259,493,603 MY,1,121259,122259,429.8,267.8 F,0,242722,243722,1,0
Sprite,Foreground,TopLeft,"SB\fonts\0075.png",0,0 P,0,119950,243722,A F,0,121291,122291,0,1 S,1,121291,122291,0.6,0.4 MX,1,121291,122291,460.8,613.8 MY,1,121291,122291,279.8,267.8 F,0,242722,243722,1,0
Sprite,Foreground,TopLeft,"SB\fonts\0074.png",0,0 P,0,119950,243722,A F,0,121322,122322,0,1 S,1,121322,122322,0.6,0.4 MX,1,121322,122322,579.2,624.2 MY,1,121322,122322,376.4,265.4 F,0,242722,243722,1,0
Sprite,Foreground,TopLeft,"SB\fonts\0069.png",0,0 P,0,119950,243722,A F,0,121341,122341,0,1 S,1,121341,122341,0.6,0.4 MX,1,121341,122341,648.6,630.6 MY,1,121341,122341,426.2,264.2 F,0,242722,243722,1,0
Sprite,Foreground,TopLeft,"SB\fonts\0066.png",0,0 P,0,119950,243722,A F,0,121356,122356,0,1 S,1,121356,122356,0.6,0.4 MX,1,121356,122356,462.4,635.4 MY,1,121356,122356,329.4,263.4 F,0,242722,243722,1,0
Sprite,Foreground,TopLeft,"SB\fonts\0075.png",0,0 P,0,119950,243722,A F,0,121377,122377,0,1 S,1,121377,122377,0.6,0.4 MX,1,121377,122377,623.6,642.6 MY,1,121377,122377,328.8,267.8 F,0,242722,243722,1,0
Sprite,Foreground,Centre,"SB\2nd.png",0,0 M,0,119950,,670,104 S,0,119950,,0.6 P,0,119950,,A F,0,119950,120950,0,1 F,0,242722,243722,1,0
Sprite,Foreground,TopLeft,"SB\fonts\0055.png",0,0 P,0,244922,383941,A F,0,245364,246364,0,1 S,1,245364,246364,0.6,0.4 MX,1,245364,246364,506.0001,314.0001 MY,1,245364,246364,432.2,264.2 F,0,382941,383941,1,0
Sprite,Foreground,TopLeft,"SB\fonts\004e.png",0,0 P,0,244922,383941,A F,0,245397,246397,0,1 S,1,245397,246397,0.6,0.4 MX,1,245397,246397,257.2,325.2 MY,1,245397,246397,457.2,264.2 F,0,382941,383941,1,0
Sprite,Foreground,TopLeft,"SB\fonts\0044.png",0,0 P,0,244922,383941,A F,0,245437,246437,0,1 S,1,245437,246437,0.6,0.4 MX,1,245437,246437,425.4001,338.4001 MY,1,245437,246437,544.2,264.2 F,0,382941,383941,1,0
Sprite,Foreground,TopLeft,"SB\fonts\0045.png",0,0 P,0,244922,383941,A F,0,245475,246475,0,1 S,1,245475,246475,0.6,0.4 MX,1,245475,246475,287.2,351.2 MY,1,245475,246475,350.2,264.2 F,0,382941,383941,1,0
Sprite,Foreground,TopLeft,"SB\fonts\0041.png",0,0 P,0,244922,383941,A F,0,245508,246508,0,1 S,1,245508,246508,0.6,0.4 MX,1,245508,246508,494.0001,362.0001 MY,1,245508,246508,483.2,264.2 F,0,382941,383941,1,0
Sprite,Foreground,TopLeft,"SB\fonts\0044.png",0,0 P,0,244922,383941,A F,0,245544,246544,0,1 S,1,245544,246544,0.6,0.4 MX,1,245544,246544,518.0001,374.0001 MY,1,245544,246544,445.2,264.2 F,0,382941,383941,1,0
Sprite,Foreground,TopLeft,"SB\fonts\0043.png",0,0 P,0,244922,383941,A F,0,245598,246598,0,1 S,1,245598,246598,0.6,0.4 MX,1,245598,246598,337,392 MY,1,245598,246598,231.2,264.2 F,0,382941,383941,1,0
Sprite,Foreground,TopLeft,"SB\fonts\004f.png",0,0 P,0,244922,383941,A F,0,245629,246629,0,1 S,1,245629,246629,0.6,0.4 MX,1,245629,246629,583.4,402.4 MY,1,245629,246629,504.2,264.2 F,0,382941,383941,1,0
Sprite,Foreground,TopLeft,"SB\fonts\0052.png",0,0 P,0,244922,383941,A F,0,245662,246662,0,1 S,1,245662,246662,0.6,0.4 MX,1,245662,246662,643.6,413.6 MY,1,245662,246662,562.2,264.2 F,0,382941,383941,1,0
Sprite,Foreground,TopLeft,"SB\fonts\0050.png",0,0 P,0,244922,383941,A F,0,245697,246697,0,1 S,1,245697,246697,0.6,0.4 MX,1,245697,246697,167.2,425.2 MY,1,245697,246697,240.2,264.2 F,0,382941,383941,1,0
Sprite,Foreground,TopLeft,"SB\fonts\004f.png",0,0 P,0,244922,383941,A F,0,245732,246732,0,1 S,1,245732,246732,0.6,0.4 MX,1,245732,246732,228.8,436.8 MY,1,245732,246732,285.2,264.2 F,0,382941,383941,1,0
Sprite,Foreground,TopLeft,"SB\fonts\0052.png",0,0 P,0,244922,383941,A F,0,245766,246766,0,1 S,1,245766,246766,0.6,0.4 MX,1,245766,246766,708,448 MY,1,245766,246766,230.2,264.2 F,0,382941,383941,1,0
Sprite,Foreground,TopLeft,"SB\fonts\0041.png",0,0 P,0,244922,383941,A F,0,245799,246799,0,1 S,1,245799,246799,0.6,0.4 MX,1,245799,246799,690.2001,459.2 MY,1,245799,246799,540.2,264.2 F,0,382941,383941,1,0
Sprite,Foreground,TopLeft,"SB\fonts\0054.png",0,0 P,0,244922,383941,A F,0,245839,246839,0,1 S,1,245839,246839,0.6,0.4 MX,1,245839,246839,716.4,472.4001 MY,1,245839,246839,362.2,264.2 F,0,382941,383941,1,0
Sprite,Foreground,TopLeft,"SB\fonts\0049.png",0,0 P,0,244922,383941,A F,0,245869,246869,0,1 S,1,245869,246869,0.6,0.4 MX,1,245869,246869,364.4001,482.4001 MY,1,245869,246869,539.2,264.2 F,0,382941,383941,1,0
Sprite,Foreground,TopLeft,"SB\fonts\004f.png",0,0 P,0,244922,383941,A F,0,245890,246890,0,1 S,1,245890,246890,0.6,0.4 MX,1,245890,246890,237.6,489.6 MY,1,245890,246890,374.2,264.2 F,0,382941,383941,1,0
Sprite,Foreground,TopLeft,"SB\fonts\004e.png",0,0 P,0,244922,383941,A F,0,245924,246924,0,1 S,1,245924,246924,0.6,0.4 MX,1,245924,246924,404.8,500.8 MY,1,245924,246924,278.2,264.2 F,0,382941,383941,1,0
Sprite,Foreground,TopLeft,"SB\fonts\002d.png",0,0 P,0,244922,383941,A F,0,245978,246978,0,1 S,1,245978,246978,0.6,0.4 MX,1,245978,246978,299.8001,518.8001 MY,1,245978,246978,457.4,271.4 F,0,382941,383941,1,0
Sprite,Foreground,TopLeft,"SB\fonts\0045.png",0,0 P,0,244922,383941,A F,0,246009,247009,0,1 S,1,246009,247009,0.6,0.4 MX,1,246009,247009,676.2001,529.2001 MY,1,246009,247009,224.2,264.2 F,0,382941,383941,1,0
Sprite,Foreground,TopLeft,"SB\fonts\0076.png",0,0 P,0,244922,383941,A F,0,246043,247043,0,1 S,1,246043,247043,0.6,0.4 MX,1,246043,247043,325.4001,540.4001 MY,1,246043,247043,181.8,267.8 F,0,382941,383941,1,0
Sprite,Foreground,TopLeft,"SB\fonts\0065.png",0,0 P,0,244922,383941,A F,0,246072,247072,0,1 S,1,246072,247072,0.6,0.4 MX,1,246072,247072,700.0002,550.0002 MY,1,246072,247072,217.8,267.8 F,0,382941,383941,1,0
Sprite,Foreground,TopLeft,"SB\fonts\0072.png",0,0 P,0,244922,383941,A F,0,246098,247098,0,1 S,1,246098,247098,0.6,0.4 MX,1,246098,247098,782.8002,558.8002 MY,1,246098,247098,374.8,267.8 F,0,382941,383941,1,0
Sprite,Foreground,TopLeft,"SB\fonts\0079.png",0,0 P,0,244922,383941,A F,0,246120,247120,0,1 S,1,246120,247120,0.6,0.4 MX,1,246120,247120,815.0001,566.0001 MY,1,246120,247120,383.8,267.8 F,0,382941,383941,1,0
Sprite,Foreground,TopLeft,"SB\fonts\0074.png",0,0 P,0,244922,383941,A F,0,246151,247151,0,1 S,1,246151,247151,0.6,0.4 MX,1,246151,247151,798.4001,576.4001 MY,1,246151,247151,267.4,265.4 F,0,382941,383941,1,0
Sprite,Foreground,TopLeft,"SB\fonts\0068.png",0,0 P,0,244922,383941,A F,0,246169,247169,0,1 S,1,246169,247169,0.6,0.4 MX,1,246169,247169,717.4001,582.4001 MY,1,246169,247169,435.4,263.4 F,0,382941,383941,1,0
Sprite,Foreground,TopLeft,"SB\fonts\0069.png",0,0 P,0,244922,383941,A F,0,246201,247201,0,1 S,1,246201,247201,0.6,0.4 MX,1,246201,247201,755.2002,593.2002 MY,1,246201,247201,250.2,264.2 F,0,382941,383941,1,0
Sprite,Foreground,TopLeft,"SB\fonts\006e.png",0,0 P,0,244922,383941,A F,0,246218,247218,0,1 S,1,246218,247218,0.6,0.4 MX,1,246218,247218,506.8002,598.8002 MY,1,246218,247218,278.8,267.8 F,0,382941,383941,1,0
Sprite,Foreground,TopLeft,"SB\fonts\0067.png",0,0 P,0,244922,383941,A F,0,246247,247247,0,1 S,1,246247,247247,0.6,0.4 MX,1,246247,247247,457.4001,608.4001 MY,1,246247,247247,374.8,267.8 F,0,382941,383941,1,0
Sprite,Foreground,TopLeft,"SB\fonts\0077.png",0,0 P,0,244922,383941,A F,0,246292,247292,0,1 S,1,246292,247292,0.6,0.4 MX,1,246292,247292,764.6002,623.6002 MY,1,246292,247292,255.8,267.8 F,0,382941,383941,1,0
Sprite,Foreground,TopLeft,"SB\fonts\0069.png",0,0 P,0,244922,383941,A F,0,246336,247336,0,1 S,1,246336,247336,0.6,0.4 MX,1,246336,247336,846.0002,638.0002 MY,1,246336,247336,446.2,264.2 F,0,382941,383941,1,0
Sprite,Foreground,TopLeft,"SB\fonts\006c.png",0,0 P,0,244922,383941,A F,0,246351,247351,0,1 S,1,246351,247351,0.6,0.4 MX,1,246351,247351,370.2002,643.2002 MY,1,246351,247351,522.4,263.4 F,0,382941,383941,1,0
Sprite,Foreground,TopLeft,"SB\fonts\006c.png",0,0 P,0,244922,383941,A F,0,246367,247367,0,1 S,1,246367,247367,0.6,0.4 MX,1,246367,247367,445.4002,648.4002 MY,1,246367,247367,476.4,263.4 F,0,382941,383941,1,0
Sprite,Foreground,TopLeft,"SB\fonts\0066.png",0,0 P,0,244922,383941,A F,0,246394,247394,0,1 S,1,246394,247394,0.6,0.4 MX,1,246394,247394,787.6002,657.6002 MY,1,246394,247394,249.4,263.4 F,0,382941,383941,1,0
Sprite,Foreground,TopLeft,"SB\fonts\0072.png",0,0 P,0,244922,383941,A F,0,246415,247415,0,1 S,1,246415,247415,0.6,0.4 MX,1,246415,247415,581.4003,664.4003 MY,1,246415,247415,216.8,267.8 F,0,382941,383941,1,0
Sprite,Foreground,TopLeft,"SB\fonts\0065.png",0,0 P,0,244922,383941,A F,0,246439,247439,0,1 S,1,246439,247439,0.6,0.4 MX,1,246439,247439,391.4003,672.4003 MY,1,246439,247439,201.8,267.8 F,0,382941,383941,1,0
Sprite,Foreground,TopLeft,"SB\fonts\0065.png",0,0 P,0,244922,383941,A F,0,246465,247465,0,1 S,1,246465,247465,0.6,0.4 MX,1,246465,247465,443.2003,681.2003 MY,1,246465,247465,460.8,267.8 F,0,382941,383941,1,0
Sprite,Foreground,TopLeft,"SB\fonts\007a.png",0,0 P,0,244922,383941,A F,0,246489,247489,0,1 S,1,246489,247489,0.6,0.4 MX,1,246489,247489,901.2002,689.2002 MY,1,246489,247489,180.8,267.8 F,0,382941,383941,1,0
Sprite,Foreground,TopLeft,"SB\fonts\0065.png",0,0 P,0,244922,383941,A F,0,246518,247518,0,1 S,1,246518,247518,0.6,0.4 MX,1,246518,247518,662.8002,698.8002 MY,1,246518,247518,178.8,267.8 F,0,382941,383941,1,0
Sprite,Foreground,Centre,"SB\3rd.png",0,0 M,0,244922,,670,104 S,0,244922,,0.6 P,0,244922,,A F,0,244922,245922,0,1 F,0,382941,383941,1,0
//Storyboard Layer 4 (Overlay)
//Storyboard Sound Samples

[TimingPoints]
575,375,4,1,0,90,1,0
575,-100,4,1,0,90,0,0
38075,-66.6666666666667,4,1,0,90,0,1
50075,-66.6666666666667,4,1,0,90,0,0
50450,-66.6666666666667,4,1,0,90,0,1
60950,-66.6666666666667,4,1,0,90,0,1
62075,-66.6666666666667,4,1,0,90,0,0
74074,-100,4,1,0,90,0,0
87574,-125,4,1,0,90,0,0
93574,-100,4,1,0,90,0,0
99574,-66.6666666666667,4,1,0,90,0,0
99950,-66.6666666666667,4,1,0,90,0,1
117575,375,50,1,0,20,1,0
117575,-66.6666666666667,50,1,0,20,0,0
122259,-66.6666666666667,50,1,0,70,0,0
122327,387.096774193548,4,1,0,80,1,0
134778,-105.263157894737,4,1,0,80,0,0
136262,-100,4,1,0,80,0,0
161037,387.096774193548,3,1,0,80,1,0
161327,-125,3,1,0,80,0,0
165682,-111.111111111111,3,1,0,80,0,0
170327,-100,3,1,0,80,0,0
179617,387.096774193548,4,1,0,80,1,1
179617,-66.6666666666667,4,1,0,80,0,1
204391,-66.6666666666667,4,1,0,80,0,0
204439,-100,4,1,0,80,0,0
226068,-95.2380952380952,4,1,0,80,0,0
226649,-90.9090909090909,4,1,0,80,0,0
227615,-80,4,1,0,80,0,0
229165,-66.6666666666667,4,1,0,80,0,1
241552,387.096774193548,50,1,0,20,1,0
241552,-66.6666666666667,50,1,0,20,0,0
246068,-66.6666666666667,50,1,0,90,0,0
246142,250,4,1,0,90,1,0
296142,-100,4,1,0,90,0,1
312142,-100,4,1,0,90,0,0
330142,-100,4,1,0,90,0,1
348142,-100,4,1,0,90,0,0
358142,-100,4,1,0,90,0,1
374142,-100,4,1,0,90,0,0

[HitObjects]
128,128,1887,5,0,0:0:0:0:
128,128,2075,1,4,0:0:0:0:
128,128,4512,1,0,0:0:0:0:
128,128,4887,1,0,0:0:0:0:
128,128,4950,1,0,0:0:0:0:
128,128,5012,1,0,0:0:0:0:
128,128,5075,1,0,0:0:0:0:
128,128,5262,1,4,0:0:0:0:
128,128,7137,1,0,0:0:0:0:
128,128,7200,1,0,0:0:0:0:
128,128,7262,1,0,0:0:0:0:
128,128,7325,1,0,0:0:0:0:
128,128,7450,1,0,0:0:0:0:
128,128,7575,1,0,0:0:0:0:
128,128,7700,1,0,0:0:0:0:
128,128,7825,1,0,0:0:0:0:
128,128,7950,1,0,0:0:0:0:
128,128,8075,1,4,0:0:0:0:
128,128,9575,1,4,0:0:0:0:
128,128,10512,1,0,0:0:0:0:
128,128,10887,1,0,0:0:0:0:
128,128,10950,1,0,0:0:0:0:
128,128,11012,1,0,0:0:0:0:
128,128,11075,1,0,0:0:0:0:
128,128,11262,1,4,0:0:0:0:
128,128,11637,1,4,0:0:0:0:
128,128,12012,1,4,0:0:0:0:
128,128,12387,1,0,0:0:0:0:
128,128,12450,1,0,0:0:0:0:
128,128,12512,1,0,0:0:0:0:
128,128,12575,1,0,0:0:0:0:
128,128,12950,5,2,0:0:0:0:
128,128,13043,1,2,0:0:0:0:
128,128,13137,5,0,0:0:0:0:
128,128,13231,1,2,0:0:0:0:
128,128,13325,5,0,0:0:0:0:
128,128,13387,1,0,0:0:0:0:
128,128,13450,1,0,0:0:0:0:
128,128,13512,1,0,0:0:0:0:
128,128,13575,1,0,0:0:0:0:
128,128,13637,1,0,0:0:0:0:
128,128,13700,5,2,0:0:0:0:
128,128,14075,5,0,0:0:0:0:
128,128,14387,5,2,0:0:0:0:
128,128,14450,5,0,0:0:0:0:
128,128,14575,1,0,0:0:0:0:
128,128,14637,5,2,0:0:0:0:
128,128,14762,1,2,0:0:0:0:
128,128,14825,5,0,0:0:0:0:
128,128,15012,5,2,0:0:0:0:
128,128,15200,5,0,0:0:0:0:
128,128,15387,5,2,0:0:0:0:
128,128,15575,5,0,0:0:0:0:
128,128,15887,5,2,0:0:0:0:
128,128,15950,5,0,0:0:0:0:
128,128,16075,5,2,0:0:0:0:
128,128,16137,1,2,0:0:0:0:
128,128,16262,1,2,0:0:0:0:
128,128,16325,5,0,0:0:0:0:
128,128,16512,5,2,0:0:0:0:
128,128,16700,5,0,0:0:0:0:
128,128,16762,5,2,0:0:0:0:
128,128,16825,1,2,0:0:0:0:
128,128,16887,5,0,0:0:0:0:
128,128,17075,1,0,0:0:0:0:
128,128,17387,5,2,0:0:0:0:
128,128,17450,5,0,0:0:0:0:
128,128,17575,1,0,0:0:0:0:
128,128,17637,1,0,0:0:0:0:
128,128,17762,5,2,0:0:0:0:
128,128,17825,5,0,0:0:0:0:
128,128,18012,1,0,0:0:0:0:
128,128,18200,5,2,0:0:0:0:
128,128,18387,1,2,0:0:0:0:
128,128,18575,5,0,0:0:0:0:
128,128,18887,5,2,0:0:0:0:
128,128,18950,5,0,0:0:0:0:
128,128,19075,1,0,0:0:0:0:
128,128,19137,5,2,0:0:0:0:
128,128,19262,1,2,0:0:0:0:
128,128,19325,5,0,0:0:0:0:
128,128,19512,5,2,0:0:0:0:
128,128,19825,1,2,0:0:0:0:
128,128,20012,1,2,0:0:0:0:
128,128,20075,5,0,0:0:0:0:
128,128,20387,5,2,0:0:0:0:
128,128,20450,5,0,0:0:0:0:
128,128,20575,1,0,0:0:0:0:
128,128,20637,5,2,0:0:0:0:
128,128,20762,1,2,0:0:0:0:
128,128,20825,5,0,0:0:0:0:
128,128,21012,5,2,0:0:0:0:
128,128,21200,5,0,0:0:0:0:
128,128,21387,1,0,0:0:0:0:
128,128,21575,5,2,0:0:0:0:
128,128,21887,1,2,0:0:0:0:
128,128,21950,5,0,0:0:0:0:
128,128,22075,5,2,0:0:0:0:
128,128,22137,1,2,0:0:0:0:
128,128,22262,1,2,0:0:0:0:
128,128,22325,5,0,0:0:0:0:
128,128,22512,5,2,0:0:0:0:
128,128,22700,1,0,0:0:0:0:
128,128,22762,1,2,0:0:0:0:
128,128,22825,1,2,0:0:0:0:
128,128,22887,5,0,0:0:0:0:
128,128,23075,1,0,0:0:0:0:
128,128,23387,5,2,0:0:0:0:
128,128,23450,5,0,0:0:0:0:
128,128,23575,1,0,0:0:0:0:
128,128,23637,1,0,0:0:0:0:
128,128,23762,5,2,0:0:0:0:
128,128,23825,5,0,0:0:0:0:
128,128,24012,5,2,0:0:0:0:
128,128,24200,5,0,0:0:0:0:
128,128,24387,1,0,0:0:0:0:
128,128,24575,1,0,0:0:0:0:
128,128,24887,1,0,0:0:0:0:
128,128,25137,1,0,0:0:0:0:
128,128,25200,5,2,0:0:0:0:
128,128,25262,1,2,0:0:0:0:
128,128,25325,5,0,0:0:0:0:
128,128,25512,1,0,0:0:0:0:
128,128,25700,1,0,0:0:0:0:
128,128,25825,5,2,0:0:0:0:
128,128,25887,5,0,0:0:0:0:
128,128,26012,5,2,0:0:0:0:
128,128,26075,5,0,0:0:0:0:
128,128,26387,5,2,0:0:0:0:
128,128,26450,5,0,0:0:0:0:
128,128,26575,1,0,0:0:0:0:
128,128,26637,5,2,0:0:0:0:
128,128,26762,1,2,0:0:0:0:
128,128,26825,5,0,0:0:0:0:
128,128,27012,5,2,0:0:0:0:
128,128,27200,5,0,0:0:0:0:
128,128,27387,5,6,0:0:0:0:
128,128,27575,5,4,0:0:0:0:
128,128,27762,5,6,0:0:0:0:
128,128,27950,5,4,0:0:0:0:
128,128,28137,5,6,0:0:0:0:
128,128,28325,5,4,0:0:0:0:
128,128,28512,5,6,0:0:0:0:
128,128,28700,1,6,0:0:0:0:
128,128,28887,5,0,0:0:0:0:
128,128,29075,1,0,0:0:0:0:
128,128,29387,5,2,0:0:0:0:
128,128,29450,5,0,0:0:0:0:
128,128,29575,1,0,0:0:0:0:
128,128,29637,1,0,0:0:0:0:
128,128,29762,5,2,0:0:0:0:
128,128,29825,5,0,0:0:0:0:
128,128,30012,1,0,0:0:0:0:
128,128,30200,5,2,0:0:0:0:
128,128,30387,1,6,0:0:0:0:
128,128,30575,5,4,0:0:0:0:
128,128,30762,5,6,0:0:0:0:
128,128,30950,5,4,0:0:0:0:
128,128,31137,5,6,0:0:0:0:
128,128,31325,5,4,0:0:0:0:
128,128,31512,5,2,0:0:0:0:
128,128,31700,2,0,L|96:192,1,70
128,128,32075,5,0,0:0:0:0:
128,128,32387,5,2,0:0:0:0:
128,128,32575,5,4,0:0:0:0:
128,128,32762,1,4,0:0:0:0:
128,128,32950,1,4,0:0:0:0:
128,128,33137,1,4,0:0:0:0:
128,128,33325,1,4,0:0:0:0:
128,128,33512,1,0,0:0:0:0:
128,128,33575,1,0,0:0:0:0:
128,128,33887,1,0,0:0:0:0:
128,128,34075,1,0,0:0:0:0:
128,128,34137,5,2,0:0:0:0:
128,128,34262,5,0,0:0:0:0:
128,128,34325,5,2,0:0:0:0:
128,128,34450,1,2,0:0:0:0:
128,128,34575,5,0,0:0:0:0:
128,128,34700,5,2,0:0:0:0:
128,128,34825,5,0,0:0:0:0:
128,128,34950,1,0,0:0:0:0:
128,128,35075,1,0,0:0:0:0:
128,128,35262,1,0,0:0:0:0:
128,128,35450,1,0,0:0:0:0:
128,128,35575,1,0,0:0:0:0:
128,128,35637,1,0,0:0:0:0:
128,128,35762,5,2,0:0:0:0:
128,128,35825,5,0,0:0:0:0:
128,128,35887,1,2,0:0:0:0:
128,128,35950,1,2,0:0:0:0:
128,128,36012,1,0,0:0:0:0:
128,128,36137,5,2,0:0:0:0:
128,128,36200,5,0,0:0:0:0:
128,128,36262,1,0,0:0:0:0:
128,128,36325,1,0,0:0:0:0:
128,128,36387,1,2,0:0:0:0:
128,128,36450,1,0,0:0:0:0:
128,128,36512,1,2,0:0:0:0:
128,128,36575,1,0,0:0:0:0:
128,128,36762,5,2,0:0:0:0:
128,128,36950,5,0,0:0:0:0:
128,128,37012,1,2,0:0:0:0:
128,128,37075,1,2,0:0:0:0:
128,128,37137,1,0,0:0:0:0:
128,128,37231,1,2,0:0:0:0:
128,128,37325,5,0,0:0:0:0:
128,128,37387,1,0,0:0:0:0:
128,128,37450,1,0,0:0:0:0:
128,128,37512,1,2,0:0:0:0:
128,128,37575,1,2,0:0:0:0:
128,128,37637,1,2,0:0:0:0:
128,128,37700,5,0,0:0:0:0:
128,128,38075,1,4,0:0:0:0:
128,128,38200,1,0,0:0:0:0:
128,128,38262,5,2,0:0:0:0:
128,128,38387,1,2,0:0:0:0:
128,128,38450,5,0,0:0:0:0:
128,128,38637,5,2,0:0:0:0:
128,128,38762,5,0,0:0:0:0:
128,128,38950,1,0,0:0:0:0:
128,128,39012,5,2,0:0:0:0:
128,128,39137,1,2,0:0:0:0:
128,128,39200,5,0,0:0:0:0:
128,128,39387,5,2,0:0:0:0:
128,128,39512,1,2,0:0:0:0:
128,128,39575,5,0,0:0:0:0:
128,128,39762,5,2,0:0:0:0:
128,128,39950,5,0,0:0:0:0:
128,128,40137,5,2,0:0:0:0:
128,128,40262,5,0,0:0:0:0:
128,128,40450,1,0,0:0:0:0:
128,128,40512,5,2,0:0:0:0:
128,128,40637,5,0,0:0:0:0:
128,128,40700,1,0,0:0:0:0:
128,128,40825,1,0,0:0:0:0:
128,128,40887,5,2,0:0:0:0:
128,128,41012,5,0,0:0:0:0:
128,128,41075,1,0,0:0:0:0:
128,128,41262,5,2,0:0:0:0:
128,128,41450,5,0,0:0:0:0:
128,128,41512,1,0,0:0:0:0:
128,128,41575,1,0,0:0:0:0:
128,128,41637,5,2,0:0:0:0:
128,128,41762,1,2,0:0:0:0:
128,128,41825,5,0,0:0:0:0:
128,128,42012,5,2,0:0:0:0:
128,128,42075,1,2,0:0:0:0:
128,128,42137,1,2,0:0:0:0:
128,128,42200,5,0,0:0:0:0:
128,128,42262,1,0,0:0:0:0:
128,128,42325,1,0,0:0:0:0:
128,128,42387,5,2,0:0:0:0:
128,128,42575,5,0,0:0:0:0:
128,128,42700,5,2,0:0:0:0:
128,128,42762,1,2,0:0:0:0:
128,128,42887,1,2,0:0:0:0:
128,128,42950,5,0,0:0:0:0:
128,128,43075,5,2,0:0:0:0:
128,128,43106,1,2,0:0:0:0:
128,128,43262,1,2,0:0:0:0:
128,128,43325,5,0,0:0:0:0:
128,128,43387,5,2,0:0:0:0:
128,128,43450,1,2,0:0:0:0:
128,128,43512,5,0,0:0:0:0:
128,128,43575,1,0,0:0:0:0:
128,128,43637,5,2,0:0:0:0:
128,128,43700,5,0,0:0:0:0:
128,128,43825,5,2,0:0:0:0:
128,128,43887,5,0,0:0:0:0:
128,128,44075,1,0,0:0:0:0:
128,128,44200,1,0,0:0:0:0:
128,128,44262,1,0,0:0:0:0:
128,128,44387,5,2,0:0:0:0:
128,128,44450,5,0,0:0:0:0:
128,128,44637,5,2,0:0:0:0:
128,128,44762,5,0,0:0:0:0:
128,128,44950,5,2,0:0:0:0:
128,128,45012,1,2,0:0:0:0:
128,128,45137,1,2,0:0:0:0:
128,128,45200,5,0,0:0:0:0:
128,128,45325,1,0,0:0:0:0:
128,128,45387,5,2,0:0:0:0:
128,128,45575,5,0,0:0:0:0:
128,128,45762,5,2,0:0:0:0:
128,128,45825,1,2,0:0:0:0:
128,128,45887,1,2,0:0:0:0:
128,128,45950,5,0,0:0:0:0:
128,128,46075,1,0,0:0:0:0:
128,128,46137,5,2,0:0:0:0:
128,128,46262,5,0,0:0:0:0:
128,128,46512,5,2,0:0:0:0:
128,128,46637,5,0,0:0:0:0:
128,128,46700,5,2,0:0:0:0:
128,128,46825,5,0,0:0:0:0:
128,128,46887,1,0,0:0:0:0:
128,128,47012,5,2,0:0:0:0:
128,128,47075,5,0,0:0:0:0:
128,128,47262,5,2,0:0:0:0:
128,128,47450,5,0,0:0:0:0:
128,128,47512,5,2,0:0:0:0:
128,128,47575,1,2,0:0:0:0:
128,128,47637,5,0,0:0:0:0:
128,128,47825,1,0,0:0:0:0:
128,128,48012,5,2,0:0:0:0:
128,128,48137,1,2,0:0:0:0:
128,128,48200,5,0,0:0:0:0:
128,128,48262,5,2,0:0:0:0:
128,128,48325,1,2,0:0:0:0:
128,128,48387,5,0,0:0:0:0:
128,128,48575,1,0,0:0:0:0:
128,128,48700,5,2,0:0:0:0:
128,128,48762,1,2,0:0:0:0:
128,128,48887,1,2,0:0:0:0:
128,128,48950,1,2,0:0:0:0:
128,128,49075,1,2,0:0:0:0:
128,128,49137,5,0,0:0:0:0:
128,128,49262,5,2,0:0:0:0:
128,128,49325,1,2,0:0:0:0:
128,128,49387,1,2,0:0:0:0:
128,128,49450,1,2,0:0:0:0:
128,128,49512,5,0,0:0:0:0:
128,128,49575,5,2,0:0:0:0:
128,128,49637,1,2,0:0:0:0:
128,128,49700,1,2,0:0:0:0:
128,128,49762,1,2,0:0:0:0:
128,128,49825,1,2,0:0:0:0:
128,128,49887,5,0,0:0:0:0:
128,128,50075,1,0,0:0:0:0:
128,128,50200,1,0,0:0:0:0:
128,128,50262,1,0,0:0:0:0:
128,128,50387,1,0,0:0:0:0:
128,128,50450,5,2,0:0:0:0:
128,128,50637,1,2,0:0:0:0:
128,128,50762,5,0,0:0:0:0:
128,128,50950,5,2,0:0:0:0:
128,128,51012,1,2,0:0:0:0:
128,128,51137,1,2,0:0:0:0:
128,128,51200,5,0,0:0:0:0:
128,128,51387,5,2,0:0:0:0:
128,128,51575,5,0,0:0:0:0:
128,128,51762,5,2,0:0:0:0:
128,128,51950,5,0,0:0:0:0:
128,128,52137,5,2,0:0:0:0:
128,128,52262,5,0,0:0:0:0:
128,128,52450,1,0,0:0:0:0:
128,128,52512,5,2,0:0:0:0:
128,128,52637,1,2,0:0:0:0:
128,128,52700,5,0,0:0:0:0:
128,128,52825,1,0,0:0:0:0:
128,128,52887,5,2,0:0:0:0:
128,128,53012,5,0,0:0:0:0:
128,128,53262,5,2,0:0:0:0:
128,128,53450,5,0,0:0:0:0:
128,128,53512,1,0,0:0:0:0:
128,128,53575,1,0,0:0:0:0:
128,128,53637,5,2,0:0:0:0:
128,128,53762,1,2,0:0:0:0:
128,128,53825,5,0,0:0:0:0:
128,128,54012,5,2,0:0:0:0:
128,128,54075,1,2,0:0:0:0:
128,128,54137,1,2,0:0:0:0:
128,128,54200,5,0,0:0:0:0:
128,128,54262,1,0,0:0:0:0:
128,128,54325,1,0,0:0:0:0:
128,128,54387,5,2,0:0:0:0:
128,128,54762,5,4,0:0:0:0:
128,128,55075,1,4,0:0:0:0:
128,128,55262,1,4,0:0:0:0:
128,128,55450,1,4,0:0:0:0:
128,128,55637,5,2,0:0:0:0:
128,128,55700,5,0,0:0:0:0:
128,128,55825,5,2,0:0:0:0:
128,128,55887,1,2,0:0:0:0:
128,128,55950,1,2,0:0:0:0:
128,128,56012,1,2,0:0:0:0:
128,128,56075,5,0,0:0:0:0:
128,128,56200,5,2,0:0:0:0:
128,128,56262,1,2,0:0:0:0:
128,128,56387,1,2,0:0:0:0:
128,128,56450,5,0,0:0:0:0:
128,128,56637,5,2,0:0:0:0:
128,128,56762,5,0,0:0:0:0:
128,128,56950,5,2,0:0:0:0:
128,128,57012,1,2,0:0:0:0:
128,128,57137,1,2,0:0:0:0:
128,128,57200,5,0,0:0:0:0:
128,128,57325,1,0,0:0:0:0:
128,128,57387,5,2,0:0:0:0:
128,128,57512,1,2,0:0:0:0:
128,128,57575,5,0,0:0:0:0:
128,128,57762,5,2,0:0:0:0:
128,128,57950,5,0,0:0:0:0:
128,128,58075,1,0,0:0:0:0:
128,128,58137,5,2,0:0:0:0:
128,128,58262,1,2,0:0:0:0:
128,128,58325,5,0,0:0:0:0:
128,128,58512,5,2,0:0:0:0:
128,128,58575,5,0,0:0:0:0:
128,128,58637,1,0,0:0:0:0:
128,128,58700,1,0,0:0:0:0:
128,128,58762,1,0,0:0:0:0:
128,128,58825,1,0,0:0:0:0:
128,128,58887,5,2,0:0:0:0:
128,128,58950,5,0,0:0:0:0:
128,128,59012,1,0,0:0:0:0:
128,128,59075,1,0,0:0:0:0:
128,128,59262,5,2,0:0:0:0:
128,128,59450,5,0,0:0:0:0:
128,128,59512,5,2,0:0:0:0:
128,128,59575,1,2,0:0:0:0:
128,128,59637,1,2,0:0:0:0:
128,128,59762,1,2,0:0:0:0:
128,128,59825,5,0,0:0:0:0:
128,128,60012,5,2,0:0:0:0:
128,128,60075,1,2,0:0:0:0:
128,128,60137,1,2,0:0:0:0:
128,128,60200,5,0,0:0:0:0:
128,128,60262,5,2,0:0:0:0:
128,128,60325,1,2,0:0:0:0:
128,128,60387,1,2,0:0:0:0:
128,128,60575,5,0,0:0:0:0:
128,128,60637,5,2,0:0:0:0:
128,128,60700,1,2,0:0:0:0:
128,128,60762,5,0,0:0:0:0:
128,128,60825,5,2,0:0:0:0:
128,128,60887,5,0,0:0:0:0:
128,128,60950,5,0,0:0:0:0:
128,128,61012,1,2,0:0:0:0:
128,128,61075,5,0,0:0:0:0:
128,128,61137,5,2,0:0:0:0:
128,128,61200,5,2,0:0:0:0:
128,128,61262,5,0,0:0:0:0:
128,128,61325,5,2,0:0:0:0:
128,128,61387,1,0,0:0:0:0:
128,128,61450,5,0,0:0:0:0:
128,128,61512,5,2,0:0:0:0:
128,128,61575,5,0,0:0:0:0:
128,128,61637,5,0,0:0:0:0:
128,128,61700,1,2,0:0:0:0:
128,128,61762,5,0,0:0:0:0:
128,128,61825,1,2,0:0:0:0:
128,128,61887,1,2,0:0:0:0:
128,128,62075,5,0,0:0:0:0:
128,128,62450,1,0,0:0:0:0:
128,128,62825,1,0,0:0:0:0:
128,128,63137,1,0,0:0:0:0:
128,128,63200,1,0,0:0:0:0:
128,128,63325,1,0,0:0:0:0:
128,128,63387,5,2,0:0:0:0:
128,128,63512,1,2,0:0:0:0:
128,128,63575,5,0,0:0:0:0:
128,128,63887,1,0,0:0:0:0:
128,128,64137,1,0,0:0:0:0:
128,128,64262,1,0,0:0:0:0:
128,128,64512,1,0,0:0:0:0:
128,128,64700,1,0,0:0:0:0:
128,128,64825,1,2,0:0:0:0:
128,128,64887,5,2,0:0:0:0:
128,128,64950,1,2,0:0:0:0:
128,128,65012,1,2,0:0:0:0:
128,128,65075,5,0,0:0:0:0:
128,128,65450,1,0,0:0:0:0:
128,128,65825,1,0,0:0:0:0:
128,128,66137,1,0,0:0:0:0:
128,128,66200,1,0,0:0:0:0:
128,128,66387,5,2,0:0:0:0:
128,128,66512,1,2,0:0:0:0:
128,128,66575,5,0,0:0:0:0:
128,128,66887,1,0,0:0:0:0:
128,128,67137,1,0,0:0:0:0:
128,128,67200,1,0,0:0:0:0:
128,128,67262,1,0,0:0:0:0:
128,128,67325,5,2,0:0:0:0:
128,128,67512,1,2,0:0:0:0:
128,128,67700,5,0,0:0:0:0:
128,128,67825,5,2,0:0:0:0:
128,128,67887,5,0,0:0:0:0:
128,128,68012,5,2,0:0:0:0:
128,128,68075,5,0,0:0:0:0:
128,128,68450,1,0,0:0:0:0:
128,128,68825,1,0,0:0:0:0:
128,128,69137,1,0,0:0:0:0:
128,128,69200,1,0,0:0:0:0:
128,128,69325,1,0,0:0:0:0:
128,128,69387,5,2,0:0:0:0:
128,128,69512,1,2,0:0:0:0:
128,128,69575,5,0,0:0:0:0:
128,128,69887,1,0,0:0:0:0:
128,128,70137,1,0,0:0:0:0:
128,128,70262,1,0,0:0:0:0:
128,128,70512,1,0,0:0:0:0:
128,128,70700,1,0,0:0:0:0:
128,128,70825,1,2,0:0:0:0:
128,128,70887,5,2,0:0:0:0:
128,128,70950,1,2,0:0:0:0:
128,128,71012,1,2,0:0:0:0:
128,128,71075,5,0,0:0:0:0:
128,128,71200,5,2,0:0:0:0:
128,128,71262,1,2,0:0:0:0:
128,128,71387,1,2,0:0:0:0:
128,128,71450,5,0,0:0:0:0:
128,128,71575,5,2,0:0:0:0:
128,128,71637,1,2,0:0:0:0:
128,128,71762,1,2,0:0:0:0:
128,128,71825,5,0,0:0:0:0:
128,128,71950,5,2,0:0:0:0:
128,128,72012,1,2,0:0:0:0:
128,128,72075,1,2,0:0:0:0:
128,128,72137,5,0,0:0:0:0:
128,128,72200,1,0,0:0:0:0:
128,128,72325,1,2,0:0:0:0:
128,128,72387,1,0,0:0:0:0:
128,128,72450,5,2,0:0:0:0:
128,128,72512,1,2,0:0:0:0:
128,128,72575,5,0,0:0:0:0:
128,128,72762,1,4,0:0:0:0:
128,128,72950,5,6,0:0:0:0:
128,128,73075,1,6,0:0:0:0:
128,128,73262,5,4,0:0:0:0:
128,128,74075,1,4,0:0:0:0:
128,128,74450,1,4,0:0:0:0:
128,128,74825,1,4,0:0:0:0:
128,128,75387,5,2,0:0:0:0:
128,128,75481,1,2,0:0:0:0:
128,128,75575,5,0,0:0:0:0:
128,128,75762,5,2,0:0:0:0:
128,128,75825,1,2,0:0:0:0:
128,128,75887,1,2,0:0:0:0:
128,128,75950,1,2,0:0:0:0:
128,128,76043,1,2,0:0:0:0:
128,128,76137,5,0,0:0:0:0:
128,128,76231,1,0,0:0:0:0:
128,128,76325,1,0,0:0:0:0:
128,128,76450,5,2,0:0:0:0:
128,128,76512,5,0,0:0:0:0:
128,128,76637,5,2,0:0:0:0:
128,128,76700,5,0,0:0:0:0:
128,128,76825,5,2,0:0:0:0:
128,128,76887,5,0,0:0:0:0:
128,128,77075,1,4,0:0:0:0:
128,128,77450,1,4,0:0:0:0:
128,128,77825,1,4,0:0:0:0:
128,128,78387,5,2,0:0:0:0:
128,128,78481,1,2,0:0:0:0:
128,128,78575,5,0,0:0:0:0:
128,128,78762,5,2,0:0:0:0:
128,128,78950,1,2,0:0:0:0:
128,128,79043,1,0,0:0:0:0:
128,128,79137,5,0,0:0:0:0:
128,128,79231,5,2,0:0:0:0:
128,128,79325,5,0,0:0:0:0:
128,128,79418,1,0,0:0:0:0:
128,128,79512,5,2,0:0:0:0:
128,128,79606,1,2,0:0:0:0:
128,128,79700,5,0,0:0:0:0:
128,128,79762,1,0,0:0:0:0:
128,128,79825,5,2,0:0:0:0:
128,128,79887,5,0,0:0:0:0:
128,128,79950,1,0,0:0:0:0:
128,128,80012,5,2,0:0:0:0:
128,128,80075,5,0,0:0:0:0:
128,128,80450,1,4,0:0:0:0:
128,128,80825,1,4,0:0:0:0:
128,128,81200,5,2,0:0:0:0:
128,128,81387,1,2,0:0:0:0:
128,128,81512,1,0,0:0:0:0:
128,128,81575,1,2,0:0:0:0:
128,128,81637,1,2,0:0:0:0:
128,128,81700,1,2,0:0:0:0:
128,128,81762,5,0,0:0:0:0:
128,128,81825,1,2,0:0:0:0:
128,128,81887,1,0,0:0:0:0:
128,128,81950,5,2,0:0:0:0:
128,128,82012,1,2,0:0:0:0:
128,128,82075,1,0,0:0:0:0:
128,128,82137,5,2,0:0:0:0:
128,128,82200,1,0,0:0:0:0:
128,128,82262,1,0,0:0:0:0:
128,128,82325,5,2,0:0:0:0:
128,128,82387,1,0,0:0:0:0:
128,128,82450,1,0,0:0:0:0:
128,128,82512,5,2,0:0:0:0:
128,128,82575,1,0,0:0:0:0:
128,128,82637,1,0,0:0:0:0:
128,128,82700,5,2,0:0:0:0:
128,128,82762,1,2,0:0:0:0:
128,128,82825,1,2,0:0:0:0:
128,128,82887,5,0,0:0:0:0:
128,128,83075,1,4,0:0:0:0:
128,128,83450,1,4,0:0:0:0:
128,128,83825,1,4,0:0:0:0:
128,128,84575,1,4,0:0:0:0:
128,128,84950,1,4,0:0:0:0:
128,128,85325,1,4,0:0:0:0:
128,128,85700,5,2,0:0:0:0:
128,128,86075,5,4,0:0:0:0:
128,128,86356,1,4,0:0:0:0:
128,128,86637,1,4,0:0:0:0:
128,128,87012,1,0,0:0:0:0:
128,128,87075,1,0,0:0:0:0:
128,128,87137,1,0,0:0:0:0:
128,128,87200,5,2,0:0:0:0:
128,128,87575,5,4,0:0:0:0:
128,128,87950,5,2,0:0:0:0:
128,128,88700,1,2,0:0:0:0:
128,128,89450,1,2,0:0:0:0:
128,128,90200,1,2,0:0:0:0:
128,128,90387,5,0,0:0:0:0:
128,128,90950,5,2,0:0:0:0:
128,128,91700,1,2,0:0:0:0:
128,128,92075,2,0,L|384:256,1,280
128,128,93200,1,6,0:0:0:0:
128,128,93575,5,4,0:0:0:0:
128,128,94325,1,4,0:0:0:0:
128,128,95075,1,4,0:0:0:0:
128,128,95825,1,4,0:0:0:0:
128,128,96200,5,2,0:0:0:0:
128,128,96325,1,2,0:0:0:0:
128,128,96387,1,2,0:0:0:0:
128,128,96512,1,2,0:0:0:0:
128,128,96575,5,0,0:0:0:0:
128,128,96762,5,2,0:0:0:0:
128,128,96950,5,0,0:0:0:0:
128,128,97012,5,2,0:0:0:0:
128,128,97075,1,2,0:0:0:0:
128,128,97137,1,2,0:0:0:0:
128,128,97325,5,0,0:0:0:0:
128,128,97512,5,2,0:0:0:0:
128,128,97637,1,2,0:0:0:0:
128,128,97700,5,0,0:0:0:0:
128,128,97762,5,2,0:0:0:0:
128,128,97825,1,2,0:0:0:0:
128,128,97887,1,2,0:0:0:0:
128,128,98075,2,0,L|256:256,1,490.186666666667
128,128,99575,5,0,0:0:0:0:
128,128,99700,1,0,0:0:0:0:
128,128,99762,1,0,0:0:0:0:
128,128,99887,1,0,0:0:0:0:
128,128,99950,5,2,0:0:0:0:
128,128,100137,1,2,0:0:0:0:
128,128,100262,5,0,0:0:0:0:
128,128,100450,5,2,0:0:0:0:
128,128,100512,1,2,0:0:0:0:
128,128,100637,1,2,0:0:0:0:
128,128,100700,5,0,0:0:0:0:
128,128,100887,5,2,0:0:0:0:
128,128,101075,5,4,0:0:0:0:
128,128,101262,5,2,0:0:0:0:
128,128,101450,5,4,0:0:0:0:
128,128,101637,5,2,0:0:0:0:
128,128,101762,5,0,0:0:0:0:
128,128,101950,5,2,0:0:0:0:
128,128,102012,1,2,0:0:0:0:
128,128,102137,1,2,0:0:0:0:
128,128,102200,5,0,0:0:0:0:
128,128,102325,5,2,0:0:0:0:
128,128,102512,1,2,0:0:0:0:
128,128,102575,5,0,0:0:0:0:
128,128,102762,5,2,0:0:0:0:
128,128,102950,5,0,0:0:0:0:
128,128,103012,1,0,0:0:0:0:
128,128,103075,1,0,0:0:0:0:
128,128,103137,5,2,0:0:0:0:
128,128,103262,1,2,0:0:0:0:
128,128,103325,5,0,0:0:0:0:
128,128,103512,5,2,0:0:0:0:
128,128,103575,1,2,0:0:0:0:
128,128,103637,1,2,0:0:0:0:
128,128,103700,5,0,0:0:0:0:
128,128,103762,1,0,0:0:0:0:
128,128,103825,1,0,0:0:0:0:
128,128,103887,5,2,0:0:0:0:
128,128,104075,5,4,0:0:0:0:
128,128,104262,1,4,0:0:0:0:
128,128,104450,5,2,0:0:0:0:
128,128,104512,1,2,0:0:0:0:
128,128,104575,1,2,0:0:0:0:
128,128,104637,1,2,0:0:0:0:
128,128,104825,5,4,0:0:0:0:
128,128,104950,1,4,0:0:0:0:
128,128,105075,1,4,0:0:0:0:
128,128,105200,1,4,0:0:0:0:
128,128,105575,1,0,0:0:0:0:
128,128,105700,1,0,0:0:0:0:
128,128,105762,5,2,0:0:0:0:
128,128,105887,1,2,0:0:0:0:
128,128,105950,5,0,0:0:0:0:
128,128,106137,5,2,0:0:0:0:
128,128,106262,5,0,0:0:0:0:
128,128,106450,5,2,0:0:0:0:
128,128,106512,1,2,0:0:0:0:
128,128,106637,1,2,0:0:0:0:
128,128,106700,5,0,0:0:0:0:
128,128,106825,1,0,0:0:0:0:
128,128,106887,5,2,0:0:0:0:
128,128,107012,1,2,0:0:0:0:
128,128,107075,5,0,0:0:0:0:
128,128,107262,5,2,0:0:0:0:
128,128,107325,1,2,0:0:0:0:
128,128,107387,1,2,0:0:0:0:
128,128,107450,5,0,0:0:0:0:
128,128,107575,1,0,0:0:0:0:
128,128,107637,5,2,0:0:0:0:
128,128,107762,1,2,0:0:0:0:
128,128,107825,5,0,0:0:0:0:
128,128,108012,5,2,0:0:0:0:
128,128,108075,5,0,0:0:0:0:
128,128,108137,1,0,0:0:0:0:
128,128,108200,1,0,0:0:0:0:
128,128,108262,1,0,0:0:0:0:
128,128,108325,1,0,0:0:0:0:
128,128,108387,5,2,0:0:0:0:
128,128,108450,5,0,0:0:0:0:
128,128,108512,1,0,0:0:0:0:
128,128,108575,1,0,0:0:0:0:
128,128,108762,5,2,0:0:0:0:
128,128,108887,1,2,0:0:0:0:
128,128,108950,5,0,0:0:0:0:
128,128,109012,5,0,0:0:0:0:
128,128,109075,1,2,0:0:0:0:
128,128,109137,1,0,0:0:0:0:
128,128,109262,1,2,0:0:0:0:
128,128,109325,5,0,0:0:0:0:
128,128,109450,1,2,0:0:0:0:
128,128,109512,5,2,0:0:0:0:
128,128,109575,1,0,0:0:0:0:
128,128,109637,1,2,0:0:0:0:
128,128,109700,5,0,0:0:0:0:
128,128,109762,1,0,0:0:0:0:
128,128,109825,1,2,0:0:0:0:
128,128,109887,5,0,0:0:0:0:
128,128,110012,1,2,0:0:0:0:
128,128,110075,5,0,0:0:0:0:
128,128,110137,5,2,0:0:0:0:
128,128,110200,1,2,0:0:0:0:
128,128,110262,5,0,0:0:0:0:
128,128,110325,5,2,0:0:0:0:
128,128,110387,5,0,0:0:0:0:
128,128,110450,5,0,0:0:0:0:
128,128,110512,5,2,0:0:0:0:
128,128,110575,1,0,0:0:0:0:
128,128,110637,5,2,0:0:0:0:
128,128,110700,5,2,0:0:0:0:
128,128,110762,5,0,0:0:0:0:
128,128,110825,5,2,0:0:0:0:
128,128,110887,1,0,0:0:0:0:
128,128,110950,5,0,0:0:0:0:
128,128,111012,5,2,0:0:0:0:
128,128,111075,5,0,0:0:0:0:
128,128,111137,1,0,0:0:0:0:
128,128,111200,5,2,0:0:0:0:
128,128,111262,5,0,0:0:0:0:
128,128,111325,5,2,0:0:0:0:
128,128,111387,1,2,0:0:0:0:
128,128,111450,5,0,0:0:0:0:
128,128,111512,1,2,0:0:0:0:
128,128,111575,5,0,0:0:0:0:
128,128,111856,1,0,0:0:0:0:
128,128,112137,1,0,0:0:0:0:
128,128,112418,1,0,0:0:0:0:
128,128,112700,1,0,0:0:0:0:
128,128,112825,5,2,0:0:0:0:
128,128,112887,1,2,0:0:0:0:
128,128,113012,1,2,0:0:0:0:
128,128,113075,5,0,0:0:0:0:
128,128,113356,1,0,0:0:0:0:
128,128,113637,1,0,0:0:0:0:
128,128,113918,1,0,0:0:0:0:
128,128,114200,1,0,0:0:0:0:
128,128,114325,1,0,0:0:0:0:
128,128,114387,5,2,0:0:0:0:
128,128,114450,1,2,0:0:0:0:
128,128,114512,1,2,0:0:0:0:
128,128,114575,5,0,0:0:0:0:
128,128,114856,1,0,0:0:0:0:
128,128,114950,1,0,0:0:0:0:
128,128,115137,1,0,0:0:0:0:
128,128,115325,1,0,0:0:0:0:
128,128,115450,1,0,0:0:0:0:
128,128,115512,1,0,0:0:0:0:
128,128,115637,1,0,0:0:0:0:
128,128,115700,1,0,0:0:0:0:
128,128,115825,1,0,0:0:0:0:
128,128,115887,5,2,0:0:0:0:
128,128,115950,1,2,0:0:0:0:
128,128,116012,1,2,0:0:0:0:
128,128,116075,5,0,0:0:0:0:
128,128,116262,1,4,0:0:0:0:
128,128,116450,5,6,0:0:0:0:
128,128,116575,1,6,0:0:0:0:
128,128,116762,5,4,0:0:0:0:
128,128,117012,1,0,0:0:0:0:
128,128,117200,5,2,0:0:0:0:
256,192,122327,5,0,0:0:0:0:
256,192,122714,1,2,0:0:0:0:
256,192,123488,1,2,0:0:0:0:
256,192,123875,1,0,0:0:0:0:
256,192,124262,1,2,0:0:0:0:
256,192,125036,1,2,0:0:0:0:
256,192,125230,1,0,0:0:0:0:
256,192,125810,1,2,0:0:0:0:
256,192,126585,1,2,0:0:0:0:
256,192,126778,1,0,0:0:0:0:
256,192,127165,1,0,0:0:0:0:
256,192,127359,1,2,0:0:0:0:
256,192,127552,1,0,0:0:0:0:
256,192,127746,1,0,0:0:0:0:
256,192,127843,1,0,0:0:0:0:
256,192,127939,1,2,0:0:0:0:
256,192,128327,1,2,0:0:0:0:
256,192,128391,1,2,0:0:0:0:
256,192,128456,1,2,0:0:0:0:
256,192,128520,1,0,0:0:0:0:
256,192,128907,1,2,0:0:0:0:
256,192,129681,1,2,0:0:0:0:
256,192,130068,1,0,0:0:0:0:
256,192,130456,1,2,0:0:0:0:
256,192,131036,1,0,0:0:0:0:
256,192,131230,1,2,0:0:0:0:
256,192,131423,1,0,0:0:0:0:
256,192,132004,1,2,0:0:0:0:
256,192,132391,1,0,0:0:0:0:
256,192,132778,1,2,0:0:0:0:
256,192,132972,1,0,0:0:0:0:
256,192,133165,1,0,0:0:0:0:
256,192,133456,1,2,0:0:0:0:
256,192,133552,1,0,0:0:0:0:
256,192,133746,1,2,0:0:0:0:
256,192,133939,1,0,0:0:0:0:
256,192,134133,1,0,0:0:0:0:
256,192,134230,1,2,0:0:0:0:
256,192,134520,1,2,0:0:0:0:
256,192,134585,1,2,0:0:0:0:
256,192,134649,1,2,0:0:0:0:
256,192,134714,1,0,0:0:0:0:
256,192,134907,1,0,0:0:0:0:
256,192,135004,1,2,0:0:0:0:
256,192,135197,1,0,0:0:0:0:
256,192,135294,1,2,0:0:0:0:
256,192,135391,1,2,0:0:0:0:
256,192,135488,1,0,0:0:0:0:
256,192,135585,1,2,0:0:0:0:
256,192,135778,1,0,0:0:0:0:
256,192,135875,1,2,0:0:0:0:
256,192,135972,1,0,0:0:0:0:
256,192,136068,1,0,0:0:0:0:
256,192,136165,1,2,0:0:0:0:
256,192,136262,1,0,0:0:0:0:
256,192,136552,1,0,0:0:0:0:
256,192,136649,1,2,0:0:0:0:
256,192,136843,1,0,0:0:0:0:
256,192,136939,1,2,0:0:0:0:
256,192,137036,1,0,0:0:0:0:
256,192,137230,1,0,0:0:0:0:
256,192,137423,1,2,0:0:0:0:
256,192,137520,1,2,0:0:0:0:
256,192,137617,1,0,0:0:0:0:
256,192,137810,1,2,0:0:0:0:
256,192,137907,1,0,0:0:0:0:
256,192,138004,1,2,0:0:0:0:
256,192,138197,1,2,0:0:0:0:
256,192,138294,1,2,0:0:0:0:
256,192,138391,1,0,0:0:0:0:
256,192,138488,1,2,0:0:0:0:
256,192,138585,1,0,0:0:0:0:
256,192,138681,1,2,0:0:0:0:
256,192,138875,1,0,0:0:0:0:
256,192,138972,1,2,0:0:0:0:
256,192,139068,1,2,0:0:0:0:
256,192,139165,1,0,0:0:0:0:
256,192,139262,1,2,0:0:0:0:
256,192,139359,1,0,0:0:0:0:
256,192,139456,1,0,0:0:0:0:
256,192,139552,1,2,0:0:0:0:
256,192,139746,1,0,0:0:0:0:
256,192,139810,1,0,0:0:0:0:
256,192,139875,1,0,0:0:0:0:
256,192,139939,1,2,0:0:0:0:
256,192,140133,1,0,0:0:0:0:
256,192,140327,1,2,0:0:0:0:
256,192,140423,1,0,0:0:0:0:
256,192,140520,1,2,0:0:0:0:
256,192,140714,1,0,0:0:0:0:
256,192,140810,1,2,0:0:0:0:
256,192,140907,1,0,0:0:0:0:
256,192,141004,1,0,0:0:0:0:
256,192,141101,1,2,0:0:0:0:
256,192,141197,1,2,0:0:0:0:
256,192,141294,1,0,0:0:0:0:
256,192,141488,1,0,0:0:0:0:
256,192,141585,1,0,0:0:0:0:
256,192,141681,1,2,0:0:0:0:
256,192,141746,1,2,0:0:0:0:
256,192,141810,1,2,0:0:0:0:
256,192,141875,1,0,0:0:0:0:
256,192,141972,1,0,0:0:0:0:
256,192,142068,1,2,0:0:0:0:
256,192,142133,1,0,0:0:0:0:
256,192,142197,1,0,0:0:0:0:
256,192,142262,1,2,0:0:0:0:
256,192,142359,1,2,0:0:0:0:
256,192,142456,1,0,0:0:0:0:
256,192,142746,1,0,0:0:0:0:
256,192,142843,1,2,0:0:0:0:
256,192,143036,1,2,0:0:0:0:
256,192,143133,1,2,0:0:0:0:
256,192,143230,1,0,0:0:0:0:
256,192,143423,1,0,0:0:0:0:
256,192,143520,1,0,0:0:0:0:
256,192,143617,1,2,0:0:0:0:
256,192,143810,1,0,0:0:0:0:
256,192,143907,1,2,0:0:0:0:
256,192,144004,1,0,0:0:0:0:
256,192,144101,1,0,0:0:0:0:
256,192,144197,1,2,0:0:0:0:
256,192,144294,1,0,0:0:0:0:
256,192,144391,1,2,0:0:0:0:
256,192,144585,1,0,0:0:0:0:
256,192,144681,1,2,0:0:0:0:
256,192,144778,1,0,0:0:0:0:
256,192,144972,1,2,0:0:0:0:
256,192,145068,1,2,0:0:0:0:
256,192,145165,1,0,0:0:0:0:
256,192,145230,1,2,0:0:0:0:
256,192,145294,1,2,0:0:0:0:
256,192,145359,1,2,0:0:0:0:
256,192,145552,1,0,0:0:0:0:
256,192,145649,1,2,0:0:0:0:
256,192,145746,1,0,0:0:0:0:
256,192,145843,1,0,0:0:0:0:
256,192,145939,1,2,0:0:0:0:
256,192,146036,1,2,0:0:0:0:
256,192,146133,1,0,0:0:0:0:
256,192,146230,1,2,0:0:0:0:
256,192,146326,1,0,0:0:0:0:
256,192,146520,1,2,0:0:0:0:
256,192,146617,1,2,0:0:0:0:
256,192,146714,1,0,0:0:0:0:
256,192,146778,1,0,0:0:0:0:
256,192,146843,1,0,0:0:0:0:
256,192,146907,1,2,0:0:0:0:
256,192,147004,1,2,0:0:0:0:
256,192,147101,1,0,0:0:0:0:
256,192,147165,1,2,0:0:0:0:
256,192,147230,1,2,0:0:0:0:
256,192,147294,1,0,0:0:0:0:
256,192,147488,1,2,0:0:0:0:
256,192,147552,1,2,0:0:0:0:
256,192,147617,1,2,0:0:0:0:
256,192,147681,1,0,0:0:0:0:
256,192,147875,1,2,0:0:0:0:
256,192,147939,1,0,0:0:0:0:
256,192,148004,1,0,0:0:0:0:
256,192,148068,1,2,0:0:0:0:
256,192,148133,1,2,0:0:0:0:
256,192,148197,1,2,0:0:0:0:
256,192,148262,1,0,0:0:0:0:
256,192,148359,1,0,0:0:0:0:
256,192,148456,1,2,0:0:0:0:
256,192,148552,1,2,0:0:0:0:
256,192,148649,1,0,0:0:0:0:
256,192,148939,1,0,0:0:0:0:
256,192,149036,1,2,0:0:0:0:
256,192,149230,1,2,0:0:0:0:
256,192,149326,1,2,0:0:0:0:
256,192,149423,1,0,0:0:0:0:
256,192,149617,1,0,0:0:0:0:
256,192,149714,1,2,0:0:0:0:
256,192,149810,1,0,0:0:0:0:
256,192,149907,1,0,0:0:0:0:
256,192,150004,1,2,0:0:0:0:
256,192,150197,1,2,0:0:0:0:
256,192,150294,1,2,0:0:0:0:
256,192,150391,1,0,0:0:0:0:
256,192,150585,1,2,0:0:0:0:
256,192,150681,1,0,0:0:0:0:
256,192,150778,1,0,0:0:0:0:
256,192,150875,1,2,0:0:0:0:
256,192,150972,1,0,0:0:0:0:
256,192,151068,1,2,0:0:0:0:
256,192,151262,1,0,0:0:0:0:
256,192,151359,1,2,0:0:0:0:
256,192,151456,1,0,0:0:0:0:
256,192,151552,1,0,0:0:0:0:
256,192,151649,1,2,0:0:0:0:
256,192,151746,1,0,0:0:0:0:
256,192,151843,1,0,0:0:0:0:
256,192,151939,1,2,0:0:0:0:
256,192,152133,1,0,0:0:0:0:
256,192,152197,1,0,0:0:0:0:
256,192,152262,1,0,0:0:0:0:
256,192,152326,1,2,0:0:0:0:
256,192,152520,1,0,0:0:0:0:
256,192,152714,1,2,0:0:0:0:
256,192,152810,1,0,0:0:0:0:
256,192,152859,1,0,0:0:0:0:
256,192,152907,1,2,0:0:0:0:
256,192,153004,1,2,0:0:0:0:
256,192,153101,1,0,0:0:0:0:
256,192,153197,1,0,0:0:0:0:
256,192,153294,1,0,0:0:0:0:
256,192,153391,1,2,0:0:0:0:
256,192,153488,1,0,0:0:0:0:
256,192,153585,1,2,0:0:0:0:
256,192,153778,1,0,0:0:0:0:
256,192,153875,1,2,0:0:0:0:
256,192,153972,1,2,0:0:0:0:
256,192,154068,1,0,0:0:0:0:
256,192,154133,1,0,0:0:0:0:
256,192,154197,1,0,0:0:0:0:
256,192,154262,1,2,0:0:0:0:
256,192,154359,1,2,0:0:0:0:
256,192,154456,1,0,0:0:0:0:
256,192,154520,1,2,0:0:0:0:
256,192,154585,1,2,0:0:0:0:
256,192,154649,1,2,0:0:0:0:
256,192,154746,1,2,0:0:0:0:
256,192,154843,1,0,0:0:0:0:
256,192,155133,1,0,0:0:0:0:
256,192,155230,1,2,0:0:0:0:
256,192,155423,1,2,0:0:0:0:
256,192,155520,1,2,0:0:0:0:
256,192,155617,1,0,0:0:0:0:
256,192,155810,1,0,0:0:0:0:
256,192,155907,1,0,0:0:0:0:
256,192,156004,1,2,0:0:0:0:
256,192,156101,1,0,0:0:0:0:
256,192,156197,1,2,0:0:0:0:
256,192,156294,1,2,0:0:0:0:
256,192,156391,1,0,0:0:0:0:
256,192,156585,1,2,0:0:0:0:
256,192,156681,1,0,0:0:0:0:
256,192,156778,1,2,0:0:0:0:
256,192,156972,1,0,0:0:0:0:
256,192,157068,1,2,0:0:0:0:
256,192,157165,1,0,0:0:0:0:
256,192,157359,1,2,0:0:0:0:
256,192,157456,1,2,0:0:0:0:
256,192,157552,1,0,0:0:0:0:
256,192,157617,1,2,0:0:0:0:
256,192,157681,1,2,0:0:0:0:
256,192,157746,1,2,0:0:0:0:
256,192,157939,1,0,0:0:0:0:
256,192,158036,1,2,0:0:0:0:
256,192,158133,1,0,0:0:0:0:
256,192,158230,1,0,0:0:0:0:
256,192,158326,1,2,0:0:0:0:
256,192,158423,1,0,0:0:0:0:
256,192,158520,1,2,0:0:0:0:
256,192,158617,1,2,0:0:0:0:
256,192,158714,1,0,0:0:0:0:
256,192,158907,1,2,0:0:0:0:
256,192,159004,1,2,0:0:0:0:
256,192,159101,1,0,0:0:0:0:
256,192,159165,1,2,0:0:0:0:
256,192,159230,1,2,0:0:0:0:
256,192,159294,1,0,0:0:0:0:
256,192,159391,1,2,0:0:0:0:
256,192,159439,1,2,0:0:0:0:
256,192,159488,1,0,0:0:0:0:
256,192,159585,1,0,0:0:0:0:
256,192,159681,1,2,0:0:0:0:
256,192,159778,1,2,0:0:0:0:
256,192,159875,1,0,0:0:0:0:
256,192,159972,1,2,0:0:0:0:
256,192,160165,1,0,0:0:0:0:
256,192,160262,1,2,0:0:0:0:
256,192,160326,1,2,0:0:0:0:
256,192,160391,1,2,0:0:0:0:
256,192,160456,1,0,0:0:0:0:
256,192,160552,1,0,0:0:0:0:
256,192,160649,1,2,0:0:0:0:
256,192,160746,1,2,0:0:0:0:
256,192,160843,1,0,0:0:0:0:
256,192,160939,1,2,0:0:0:0:
256,192,161036,1,0,0:0:0:0:
256,192,161327,1,2,0:0:0:0:
256,192,161424,1,2,0:0:0:0:
256,192,161617,1,0,0:0:0:0:
256,192,161811,1,2,0:0:0:0:
256,192,162004,1,2,0:0:0:0:
256,192,162198,1,0,0:0:0:0:
256,192,162391,1,2,0:0:0:0:
256,192,162488,1,2,0:0:0:0:
256,192,162585,1,2,0:0:0:0:
256,192,162778,1,0,0:0:0:0:
256,192,162972,1,2,0:0:0:0:
256,192,163746,1,6,0:0:0:0:
256,192,164133,1,0,0:0:0:0:
256,192,164327,1,2,0:0:0:0:
256,192,164391,1,0,0:0:0:0:
256,192,164456,1,0,0:0:0:0:
256,192,164520,1,2,0:0:0:0:
256,192,164714,1,2,0:0:0:0:
256,192,164778,1,2,0:0:0:0:
256,192,164843,1,2,0:0:0:0:
256,192,164907,1,0,0:0:0:0:
256,192,165004,1,2,0:0:0:0:
256,192,165198,1,2,0:0:0:0:
256,192,165295,1,0,0:0:0:0:
256,192,165488,1,2,0:0:0:0:
256,192,165585,1,2,0:0:0:0:
256,192,165682,1,0,0:0:0:0:
256,192,165875,1,0,0:0:0:0:
256,192,165972,1,2,0:0:0:0:
256,192,166166,1,2,0:0:0:0:
256,192,166262,1,0,0:0:0:0:
256,192,166456,1,2,0:0:0:0:
256,192,166553,1,2,0:0:0:0:
256,192,166649,1,0,0:0:0:0:
256,192,166746,1,2,0:0:0:0:
256,192,166843,1,0,0:0:0:0:
256,192,167101,1,2,0:0:0:0:
256,192,167166,1,2,0:0:0:0:
256,192,167230,1,2,0:0:0:0:
256,192,167424,1,0,0:0:0:0:
256,192,167488,1,0,0:0:0:0:
256,192,167553,1,0,0:0:0:0:
256,192,167617,1,2,0:0:0:0:
256,192,167811,1,0,0:0:0:0:
256,192,167907,1,0,0:0:0:0:
256,192,168004,1,2,0:0:0:0:
256,192,168101,1,0,0:0:0:0:
256,192,168149,1,0,0:0:0:0:
256,192,168198,1,2,0:0:0:0:
256,192,168295,1,0,0:0:0:0:
256,192,168391,1,2,0:0:0:0:
256,192,168488,1,2,0:0:0:0:
256,192,168537,1,2,0:0:0:0:
256,192,168585,1,0,0:0:0:0:
256,192,168682,1,0,0:0:0:0:
256,192,168778,1,2,0:0:0:0:
256,192,168843,1,0,0:0:0:0:
256,192,168907,1,0,0:0:0:0:
256,192,168972,1,2,0:0:0:0:
256,192,169037,1,0,0:0:0:0:
256,192,169101,1,0,0:0:0:0:
256,192,169166,1,2,0:0:0:0:
256,192,169553,1,2,0:0:0:0:
256,192,169649,1,2,0:0:0:0:
256,192,169746,1,0,0:0:0:0:
256,192,169843,1,0,0:0:0:0:
256,192,169940,1,2,0:0:0:0:
256,192,170037,1,0,0:0:0:0:
256,192,170133,1,2,0:0:0:0:
256,192,170230,1,2,0:0:0:0:
256,192,170327,1,0,0:0:0:0:
256,192,170520,1,0,0:0:0:0:
256,192,170617,1,0,0:0:0:0:
256,192,170811,1,0,0:0:0:0:
256,192,170907,1,2,0:0:0:0:
256,192,171101,1,2,0:0:0:0:
256,192,171198,1,0,0:0:0:0:
256,192,171295,1,2,0:0:0:0:
256,192,171391,1,2,0:0:0:0:
256,192,171488,1,0,0:0:0:0:
256,192,171682,1,2,0:0:0:0:
256,192,171778,1,0,0:0:0:0:
256,192,171875,1,2,0:0:0:0:
256,192,172069,1,0,0:0:0:0:
256,192,172262,1,2,0:0:0:0:
256,192,172456,1,2,0:0:0:0:
256,192,172553,1,2,0:0:0:0:
256,192,172649,1,0,0:0:0:0:
256,192,172714,1,2,0:0:0:0:
256,192,172778,1,2,0:0:0:0:
256,192,172843,1,0,0:0:0:0:
256,192,172907,1,0,0:0:0:0:
256,192,172972,1,2,0:0:0:0:
256,192,173037,1,0,0:0:0:0:
256,192,173133,1,0,0:0:0:0:
256,192,173230,1,2,0:0:0:0:
256,192,173327,1,2,0:0:0:0:
256,192,173424,1,0,0:0:0:0:
256,192,173520,1,2,0:0:0:0:
256,192,173682,1,2,0:0:0:0:
256,192,173811,5,0,0:0:0:0:
256,192,174004,1,2,0:0:0:0:
256,192,174101,1,2,0:0:0:0:
256,192,174262,1,2,0:0:0:0:
256,192,174391,1,0,0:0:0:0:
256,192,174585,1,2,0:0:0:0:
256,192,174714,1,2,0:0:0:0:
256,192,174843,1,2,0:0:0:0:
256,192,174972,5,0,0:0:0:0:
256,192,175166,1,2,0:0:0:0:
256,192,175262,1,0,0:0:0:0:
256,192,175359,1,0,0:0:0:0:
256,192,175456,1,2,0:0:0:0:
256,192,175553,1,0,0:0:0:0:
256,192,175649,1,0,0:0:0:0:
256,192,175746,1,2,0:0:0:0:
256,192,175843,1,0,0:0:0:0:
256,192,175940,1,2,0:0:0:0:
256,192,176037,1,2,0:0:0:0:
256,192,176133,1,0,0:0:0:0:
256,192,176198,1,0,0:0:0:0:
256,192,176262,1,0,0:0:0:0:
256,192,176327,1,2,0:0:0:0:
256,192,176424,1,0,0:0:0:0:
256,192,176488,1,2,0:0:0:0:
256,192,176553,1,2,0:0:0:0:
256,192,176617,1,2,0:0:0:0:
256,192,176714,1,0,0:0:0:0:
256,192,176811,1,0,0:0:0:0:
256,192,176907,1,2,0:0:0:0:
256,192,176972,1,0,0:0:0:0:
256,192,177037,1,0,0:0:0:0:
256,192,177101,1,2,0:0:0:0:
256,192,177166,1,2,0:0:0:0:
256,192,177230,1,2,0:0:0:0:
256,192,177295,1,0,0:0:0:0:
256,192,177424,1,0,0:0:0:0:
256,192,177488,1,2,0:0:0:0:
256,192,177553,1,2,0:0:0:0:
256,192,177617,1,2,0:0:0:0:
256,192,177682,1,0,0:0:0:0:
256,192,177811,1,0,0:0:0:0:
256,192,177875,1,2,0:0:0:0:
256,192,177940,1,0,0:0:0:0:
256,192,178004,1,0,0:0:0:0:
256,192,178069,1,2,0:0:0:0:
256,192,178166,1,0,0:0:0:0:
256,192,178262,1,0,0:0:0:0:
256,192,178359,1,2,0:0:0:0:
256,192,178407,1,0,0:0:0:0:
256,192,178456,1,0,0:0:0:0:
256,192,178553,1,0,0:0:0:0:
256,192,178649,1,2,0:0:0:0:
256,192,178698,1,0,0:0:0:0:
256,192,178746,1,0,0:0:0:0:
256,192,178795,1,0,0:0:0:0:
256,192,178843,1,2,0:0:0:0:
256,192,178940,1,2,0:0:0:0:
256,192,179037,1,0,0:0:0:0:
256,192,179133,1,2,0:0:0:0:
256,192,179230,1,0,0:0:0:0:
256,192,179278,1,0,0:0:0:0:
256,192,179327,1,2,0:0:0:0:
256,192,179375,1,2,0:0:0:0:
256,192,179424,1,0,0:0:0:0:
256,192,179520,1,2,0:0:0:0:
256,192,179617,1,4,0:0:0:0:
256,192,179810,1,2,0:0:0:0:
256,192,179907,1,0,0:0:0:0:
256,192,180004,1,2,0:0:0:0:
256,192,180197,1,0,0:0:0:0:
256,192,180294,1,2,0:0:0:0:
256,192,180391,1,2,0:0:0:0:
256,192,180487,1,0,0:0:0:0:
256,192,180584,1,2,0:0:0:0:
256,192,180778,1,0,0:0:0:0:
256,192,180842,1,2,0:0:0:0:
256,192,180907,1,2,0:0:0:0:
256,192,180971,1,2,0:0:0:0:
256,192,181068,1,0,0:0:0:0:
256,192,181165,1,2,0:0:0:0:
256,192,181358,1,0,0:0:0:0:
256,192,181423,1,2,0:0:0:0:
256,192,181487,1,2,0:0:0:0:
256,192,181552,1,0,0:0:0:0:
256,192,181649,1,0,0:0:0:0:
256,192,181746,1,2,0:0:0:0:
256,192,181939,1,0,0:0:0:0:
256,192,182036,1,2,0:0:0:0:
256,192,182133,1,0,0:0:0:0:
256,192,182229,1,0,0:0:0:0:
256,192,182326,1,2,0:0:0:0:
256,192,182423,1,2,0:0:0:0:
256,192,182520,1,0,0:0:0:0:
256,192,182617,1,2,0:0:0:0:
256,192,182713,1,0,0:0:0:0:
256,192,182907,1,2,0:0:0:0:
256,192,183004,1,0,0:0:0:0:
256,192,183100,1,2,0:0:0:0:
256,192,183294,1,0,0:0:0:0:
256,192,183391,1,2,0:0:0:0:
256,192,183487,1,0,0:0:0:0:
256,192,183584,1,0,0:0:0:0:
256,192,183681,1,2,0:0:0:0:
256,192,183875,1,0,0:0:0:0:
256,192,183939,1,0,0:0:0:0:
256,192,184004,1,0,0:0:0:0:
256,192,184068,1,2,0:0:0:0:
256,192,184165,1,0,0:0:0:0:
256,192,184262,1,2,0:0:0:0:
256,192,184455,1,0,0:0:0:0:
256,192,184520,1,2,0:0:0:0:
256,192,184584,1,2,0:0:0:0:
256,192,184649,1,0,0:0:0:0:
256,192,184746,1,0,0:0:0:0:
256,192,184842,1,2,0:0:0:0:
256,192,185036,1,0,0:0:0:0:
256,192,185100,1,2,0:0:0:0:
256,192,185165,1,2,0:0:0:0:
256,192,185229,1,2,0:0:0:0:
256,192,185326,1,2,0:0:0:0:
256,192,185423,1,0,0:0:0:0:
256,192,185487,1,0,0:0:0:0:
256,192,185552,1,0,0:0:0:0:
256,192,185617,1,2,0:0:0:0:
256,192,185713,1,2,0:0:0:0:
256,192,185810,1,0,0:0:0:0:
256,192,186004,1,2,0:0:0:0:
256,192,186100,1,0,0:0:0:0:
256,192,186197,1,2,0:0:0:0:
256,192,186391,1,0,0:0:0:0:
256,192,186487,1,2,0:0:0:0:
256,192,186681,1,2,0:0:0:0:
256,192,186778,1,0,0:0:0:0:
256,192,186875,1,0,0:0:0:0:
256,192,186971,1,2,0:0:0:0:
256,192,187036,1,2,0:0:0:0:
256,192,187100,1,2,0:0:0:0:
256,192,187165,1,0,0:0:0:0:
256,192,187262,1,0,0:0:0:0:
256,192,187358,1,2,0:0:0:0:
256,192,187552,1,0,0:0:0:0:
256,192,187617,1,2,0:0:0:0:
256,192,187681,1,2,0:0:0:0:
256,192,187746,1,0,0:0:0:0:
256,192,187842,1,0,0:0:0:0:
256,192,187939,1,2,0:0:0:0:
256,192,188036,1,2,0:0:0:0:
256,192,188133,1,0,0:0:0:0:
256,192,188229,1,2,0:0:0:0:
256,192,188326,1,0,0:0:0:0:
256,192,188423,1,2,0:0:0:0:
256,192,188520,1,0,0:0:0:0:
256,192,188617,1,0,0:0:0:0:
256,192,188713,1,2,0:0:0:0:
256,192,188810,1,2,0:0:0:0:
256,192,188907,1,0,0:0:0:0:
256,192,189100,1,0,0:0:0:0:
256,192,189197,1,2,0:0:0:0:
256,192,189294,1,0,0:0:0:0:
256,192,189487,1,2,0:0:0:0:
256,192,189584,1,0,0:0:0:0:
256,192,189778,1,2,0:0:0:0:
256,192,189875,1,0,0:0:0:0:
256,192,189971,1,0,0:0:0:0:
256,192,190068,1,2,0:0:0:0:
256,192,190262,1,0,0:0:0:0:
256,192,190358,1,2,0:0:0:0:
256,192,190455,1,0,0:0:0:0:
256,192,190552,1,0,0:0:0:0:
256,192,190649,1,2,0:0:0:0:
256,192,190842,1,0,0:0:0:0:
256,192,190939,1,2,0:0:0:0:
256,192,191036,1,0,0:0:0:0:
256,192,191133,1,0,0:0:0:0:
256,192,191229,1,2,0:0:0:0:
256,192,191294,1,0,0:0:0:0:
256,192,191358,1,0,0:0:0:0:
256,192,191423,1,2,0:0:0:0:
256,192,191487,1,0,0:0:0:0:
256,192,191552,1,0,0:0:0:0:
256,192,191617,1,2,0:0:0:0:
256,192,191681,1,2,0:0:0:0:
256,192,191746,1,2,0:0:0:0:
256,192,191810,1,0,0:0:0:0:
256,192,191907,1,2,0:0:0:0:
256,192,192004,1,0,0:0:0:0:
256,192,192197,1,2,0:0:0:0:
256,192,192294,1,0,0:0:0:0:
256,192,192391,1,2,0:0:0:0:
256,192,192584,1,0,0:0:0:0:
256,192,192681,1,2,0:0:0:0:
256,192,192778,1,0,0:0:0:0:
256,192,192875,1,0,0:0:0:0:
256,192,192971,1,2,0:0:0:0:
256,192,193165,1,0,0:0:0:0:
256,192,193229,1,2,0:0:0:0:
256,192,193294,1,2,0:0:0:0:
256,192,193358,1,0,0:0:0:0:
256,192,193455,1,0,0:0:0:0:
256,192,193552,1,2,0:0:0:0:
256,192,193746,1,0,0:0:0:0:
256,192,193810,1,2,0:0:0:0:
256,192,193875,1,2,0:0:0:0:
256,192,193939,1,2,0:0:0:0:
256,192,194036,1,0,0:0:0:0:
256,192,194133,1,2,0:0:0:0:
256,192,194326,1,0,0:0:0:0:
256,192,194423,1,2,0:0:0:0:
256,192,194520,1,0,0:0:0:0:
256,192,194617,1,0,0:0:0:0:
256,192,194713,1,2,0:0:0:0:
256,192,194810,1,0,0:0:0:0:
256,192,194907,1,2,0:0:0:0:
256,192,195004,1,2,0:0:0:0:
256,192,195100,1,0,0:0:0:0:
256,192,195294,1,2,0:0:0:0:
256,192,195391,1,0,0:0:0:0:
256,192,195487,1,2,0:0:0:0:
256,192,195681,1,0,0:0:0:0:
256,192,195778,1,2,0:0:0:0:
256,192,195875,1,2,0:0:0:0:
256,192,195971,1,0,0:0:0:0:
256,192,196068,1,2,0:0:0:0:
256,192,196165,1,2,0:0:0:0:
256,192,196262,1,0,0:0:0:0:
256,192,196326,1,2,0:0:0:0:
256,192,196391,1,2,0:0:0:0:
256,192,196455,1,0,0:0:0:0:
256,192,196552,1,2,0:0:0:0:
256,192,196649,1,0,0:0:0:0:
256,192,196842,1,0,0:0:0:0:
256,192,196907,1,0,0:0:0:0:
256,192,196971,1,0,0:0:0:0:
256,192,197036,1,2,0:0:0:0:
256,192,197229,1,0,0:0:0:0:
256,192,197326,1,0,0:0:0:0:
256,192,197423,1,2,0:0:0:0:
256,192,197487,1,2,0:0:0:0:
256,192,197552,1,2,0:0:0:0:
256,192,197617,1,2,0:0:0:0:
256,192,197681,1,2,0:0:0:0:
256,192,197746,1,2,0:0:0:0:
256,192,197810,1,0,0:0:0:0:
256,192,197875,1,0,0:0:0:0:
256,192,197939,1,0,0:0:0:0:
256,192,198004,1,0,0:0:0:0:
256,192,198068,1,0,0:0:0:0:
256,192,198133,1,0,0:0:0:0:
256,192,198197,1,2,0:0:0:0:
256,192,198391,1,0,0:0:0:0:
256,192,198487,1,2,0:0:0:0:
256,192,198681,1,0,0:0:0:0:
256,192,198778,1,2,0:0:0:0:
256,192,198875,1,0,0:0:0:0:
256,192,198971,1,0,0:0:0:0:
256,192,199068,1,2,0:0:0:0:
256,192,199165,1,0,0:0:0:0:
256,192,199358,1,0,0:0:0:0:
256,192,199455,1,2,0:0:0:0:
256,192,199552,1,0,0:0:0:0:
256,192,199649,1,0,0:0:0:0:
256,192,199746,1,2,0:0:0:0:
256,192,199842,1,2,0:0:0:0:
256,192,199939,1,0,0:0:0:0:
256,192,200036,1,2,0:0:0:0:
256,192,200133,1,2,0:0:0:0:
256,192,200326,1,0,0:0:0:0:
256,192,200423,1,2,0:0:0:0:
256,192,200520,1,0,0:0:0:0:
256,192,200616,1,2,0:0:0:0:
256,192,200713,1,0,0:0:0:0:
256,192,200810,1,0,0:0:0:0:
256,192,200907,1,2,0:0:0:0:
256,192,201004,1,0,0:0:0:0:
256,192,201100,1,0,0:0:0:0:
256,192,201197,1,0,0:0:0:0:
256,192,201294,1,2,0:0:0:0:
256,192,201487,1,0,0:0:0:0:
256,192,201584,1,2,0:0:0:0:
256,192,201681,1,0,0:0:0:0:
256,192,201778,1,0,0:0:0:0:
256,192,201875,1,2,0:0:0:0:
256,192,201939,1,0,0:0:0:0:
256,192,202004,1,0,0:0:0:0:
256,192,202068,1,0,0:0:0:0:
256,192,202133,1,2,0:0:0:0:
256,192,202262,1,0,0:0:0:0:
256,192,202326,1,0,0:0:0:0:
256,192,202391,1,0,0:0:0:0:
256,192,202455,1,2,0:0:0:0:
256,192,202552,1,0,0:0:0:0:
256,192,202649,1,2,0:0:0:0:
256,192,202746,1,2,0:0:0:0:
256,192,202842,1,0,0:0:0:0:
256,192,202891,1,0,0:0:0:0:
256,192,202939,1,0,0:0:0:0:
256,192,202987,1,0,0:0:0:0:
256,192,203036,1,2,0:0:0:0:
256,192,203229,1,0,0:0:0:0:
256,192,203326,1,2,0:0:0:0:
256,192,203423,1,0,0:0:0:0:
256,192,203520,1,0,0:0:0:0:
256,192,203616,1,2,0:0:0:0:
256,192,203681,1,0,0:0:0:0:
256,192,203746,1,0,0:0:0:0:
256,192,203810,1,2,0:0:0:0:
256,192,203907,1,2,0:0:0:0:
256,192,204004,1,0,0:0:0:0:
256,192,204068,1,0,0:0:0:0:
256,192,204133,1,0,0:0:0:0:
256,192,204197,1,2,0:0:0:0:
256,192,204294,1,2,0:0:0:0:
256,192,204391,1,4,0:0:0:0:
256,192,204971,1,0,0:0:0:0:
256,192,205165,1,2,0:0:0:0:
256,192,205552,1,0,0:0:0:0:
256,192,205746,1,2,0:0:0:0:
256,192,205842,1,2,0:0:0:0:
256,192,205939,1,0,0:0:0:0:
256,192,206133,1,2,0:0:0:0:
256,192,206229,1,0,0:0:0:0:
256,192,206520,1,0,0:0:0:0:
256,192,206713,1,2,0:0:0:0:
256,192,206810,1,0,0:0:0:0:
256,192,206907,1,0,0:0:0:0:
256,192,207004,1,2,0:0:0:0:
256,192,207197,1,2,0:0:0:0:
256,192,207294,1,0,0:0:0:0:
256,192,207487,1,4,0:0:0:0:
256,192,207778,1,0,0:0:0:0:
256,192,207875,1,2,0:0:0:0:
256,192,208068,1,0,0:0:0:0:
256,192,208165,1,0,0:0:0:0:
256,192,208262,1,2,0:0:0:0:
256,192,208455,1,0,0:0:0:0:
256,192,208649,1,2,0:0:0:0:
256,192,208746,1,2,0:0:0:0:
256,192,208842,1,0,0:0:0:0:
256,192,208939,1,2,0:0:0:0:
256,192,209036,1,0,0:0:0:0:
256,192,209133,1,0,0:0:0:0:
256,192,209326,1,0,0:0:0:0:
256,192,209423,1,2,0:0:0:0:
256,192,209616,1,0,0:0:0:0:
256,192,209713,1,0,0:0:0:0:
256,192,209810,1,2,0:0:0:0:
256,192,210004,1,0,0:0:0:0:
256,192,210197,1,2,0:0:0:0:
256,192,210294,1,2,0:0:0:0:
256,192,210391,1,0,0:0:0:0:
256,192,210487,1,0,0:0:0:0:
256,192,210584,1,2,0:0:0:0:
256,192,210649,1,2,0:0:0:0:
256,192,210713,1,2,0:0:0:0:
256,192,210778,1,0,0:0:0:0:
256,192,210875,1,2,0:0:0:0:
256,192,210939,1,0,0:0:0:0:
256,192,211004,1,0,0:0:0:0:
256,192,211068,1,0,0:0:0:0:
256,192,211165,1,2,0:0:0:0:
256,192,211229,1,0,0:0:0:0:
256,192,211294,1,0,0:0:0:0:
256,192,211358,1,2,0:0:0:0:
256,192,211455,1,0,0:0:0:0:
256,192,211552,1,0,0:0:0:0:
256,192,211649,1,2,0:0:0:0:
256,192,211746,1,0,0:0:0:0:
256,192,211939,1,2,0:0:0:0:
256,192,212133,1,0,0:0:0:0:
256,192,212229,1,0,0:0:0:0:
256,192,212423,1,0,0:0:0:0:
256,192,212520,1,2,0:0:0:0:
256,192,212616,1,2,0:0:0:0:
256,192,212713,1,0,0:0:0:0:
256,192,212907,1,2,0:0:0:0:
256,192,213004,1,2,0:0:0:0:
256,192,213100,1,0,0:0:0:0:
256,192,213197,1,2,0:0:0:0:
256,192,213294,1,2,0:0:0:0:
256,192,213391,1,2,0:0:0:0:
256,192,213487,1,0,0:0:0:0:
256,192,213584,1,2,0:0:0:0:
256,192,213681,1,0,0:0:0:0:
256,192,213971,1,0,0:0:0:0:
256,192,214068,1,2,0:0:0:0:
256,192,214262,1,0,0:0:0:0:
256,192,214358,1,0,0:0:0:0:
256,192,214455,1,2,0:0:0:0:
256,192,214552,1,2,0:0:0:0:
256,192,214649,1,0,0:0:0:0:
256,192,214842,1,0,0:0:0:0:
256,192,214939,1,0,0:0:0:0:
256,192,215036,1,2,0:0:0:0:
256,192,215100,1,2,0:0:0:0:
256,192,215165,1,2,0:0:0:0:
256,192,215229,1,0,0:0:0:0:
256,192,215326,1,2,0:0:0:0:
256,192,215520,1,2,0:0:0:0:
256,192,215616,1,0,0:0:0:0:
256,192,215810,1,0,0:0:0:0:
256,192,215907,1,2,0:0:0:0:
256,192,216004,1,0,0:0:0:0:
256,192,216068,1,0,0:0:0:0:
256,192,216133,1,0,0:0:0:0:
256,192,216197,1,2,0:0:0:0:
256,192,216391,1,2,0:0:0:0:
256,192,216487,1,0,0:0:0:0:
256,192,216584,1,2,0:0:0:0:
256,192,216681,1,2,0:0:0:0:
256,192,216778,1,0,0:0:0:0:
256,192,217068,1,0,0:0:0:0:
256,192,217165,1,2,0:0:0:0:
256,192,217358,1,0,0:0:0:0:
256,192,217552,1,2,0:0:0:0:
256,192,217649,1,0,0:0:0:0:
256,192,217746,1,2,0:0:0:0:
256,192,217939,1,0,0:0:0:0:
256,192,218133,1,2,0:0:0:0:
256,192,218229,1,2,0:0:0:0:
256,192,218326,1,0,0:0:0:0:
256,192,218423,1,2,0:0:0:0:
256,192,218616,1,2,0:0:0:0:
256,192,218713,1,0,0:0:0:0:
256,192,218907,1,0,0:0:0:0:
256,192,219004,1,0,0:0:0:0:
256,192,219100,1,2,0:0:0:0:
256,192,219197,1,0,0:0:0:0:
256,192,219294,1,0,0:0:0:0:
256,192,219391,1,2,0:0:0:0:
256,192,219487,1,0,0:0:0:0:
256,192,219681,1,2,0:0:0:0:
256,192,219746,1,2,0:0:0:0:
256,192,219810,1,2,0:0:0:0:
256,192,219875,1,0,0:0:0:0:
256,192,220165,1,0,0:0:0:0:
256,192,220262,1,2,0:0:0:0:
256,192,220455,1,0,0:0:0:0:
256,192,220552,1,0,0:0:0:0:
256,192,220649,1,2,0:0:0:0:
256,192,220746,1,0,0:0:0:0:
256,192,220842,1,2,0:0:0:0:
256,192,221036,1,0,0:0:0:0:
256,192,221133,1,2,0:0:0:0:
256,192,221229,1,2,0:0:0:0:
256,192,221326,1,2,0:0:0:0:
256,192,221423,1,0,0:0:0:0:
256,192,221520,1,2,0:0:0:0:
256,192,221713,1,2,0:0:0:0:
256,192,221810,1,0,0:0:0:0:
256,192,222004,1,0,0:0:0:0:
256,192,222100,1,2,0:0:0:0:
256,192,222197,1,0,0:0:0:0:
256,192,222391,1,0,0:0:0:0:
256,192,222487,1,0,0:0:0:0:
256,192,222584,1,2,0:0:0:0:
256,192,222681,1,0,0:0:0:0:
256,192,222778,1,2,0:0:0:0:
256,192,222875,1,2,0:0:0:0:
256,192,222971,5,0,0:0:0:0:
256,192,223036,1,0,0:0:0:0:
256,192,223100,1,2,0:0:0:0:
256,192,223165,1,2,0:0:0:0:
256,192,223262,1,0,0:0:0:0:
256,192,223326,1,2,0:0:0:0:
256,192,223391,1,2,0:0:0:0:
256,192,223455,1,2,0:0:0:0:
256,192,223552,1,0,0:0:0:0:
256,192,223616,1,0,0:0:0:0:
256,192,223681,1,0,0:0:0:0:
256,192,223746,1,2,0:0:0:0:
256,192,223842,1,2,0:0:0:0:
256,192,223939,1,0,0:0:0:0:
256,192,224036,1,0,0:0:0:0:
256,192,224133,1,2,0:0:0:0:
256,192,224326,1,2,0:0:0:0:
256,192,224423,1,2,0:0:0:0:
256,192,224520,1,0,0:0:0:0:
256,192,224616,1,2,0:0:0:0:
256,192,224713,1,0,0:0:0:0:
256,192,224810,1,0,0:0:0:0:
256,192,224907,1,2,0:0:0:0:
256,192,225004,1,2,0:0:0:0:
256,192,225100,1,0,0:0:0:0:
256,192,225294,1,2,0:0:0:0:
256,192,225358,1,0,0:0:0:0:
256,192,225423,1,0,0:0:0:0:
256,192,225487,1,2,0:0:0:0:
256,192,225552,1,0,0:0:0:0:
256,192,225616,1,0,0:0:0:0:
256,192,225681,1,2,0:0:0:0:
256,192,225746,1,2,0:0:0:0:
256,192,225810,1,0,0:0:0:0:
256,192,225875,1,2,0:0:0:0:
256,192,225939,1,2,0:0:0:0:
256,192,226004,1,2,0:0:0:0:
256,192,226068,1,0,0:0:0:0:
256,192,226262,1,0,0:0:0:0:
256,192,226358,1,0,0:0:0:0:
256,192,226455,1,2,0:0:0:0:
256,192,226649,1,2,0:0:0:0:
256,192,226746,1,2,0:0:0:0:
256,192,226842,1,0,0:0:0:0:
256,192,226907,1,0,0:0:0:0:
256,192,226971,1,0,0:0:0:0:
256,192,227036,1,2,0:0:0:0:
256,192,227133,1,2,0:0:0:0:
256,192,227229,1,0,0:0:0:0:
256,192,227294,1,2,0:0:0:0:
256,192,227358,1,2,0:0:0:0:
256,192,227423,1,0,0:0:0:0:
256,192,227487,1,2,0:0:0:0:
256,192,227552,1,2,0:0:0:0:
256,192,227616,1,0,0:0:0:0:
256,192,227681,1,0,0:0:0:0:
256,192,227746,1,0,0:0:0:0:
256,192,227810,1,2,0:0:0:0:
256,192,227907,1,2,0:0:0:0:
256,192,228004,1,0,0:0:0:0:
256,192,228068,1,2,0:0:0:0:
256,192,228133,1,2,0:0:0:0:
256,192,228197,1,0,0:0:0:0:
256,192,228262,1,2,0:0:0:0:
256,192,228326,1,2,0:0:0:0:
256,192,228391,5,0,0:0:0:0:
256,192,228455,1,2,0:0:0:0:
256,192,228520,1,2,0:0:0:0:
256,192,228584,1,2,0:0:0:0:
256,192,228649,1,2,0:0:0:0:
256,192,228713,1,2,0:0:0:0:
256,192,228778,1,0,0:0:0:0:
256,192,228842,1,2,0:0:0:0:
256,192,228907,1,2,0:0:0:0:
256,192,228971,1,2,0:0:0:0:
256,192,229036,1,2,0:0:0:0:
256,192,229100,1,2,0:0:0:0:
256,192,229165,1,0,0:0:0:0:
256,192,229358,1,0,0:0:0:0:
256,192,229455,1,2,0:0:0:0:
256,192,229649,1,0,0:0:0:0:
256,192,229746,1,0,0:0:0:0:
256,192,229842,1,0,0:0:0:0:
256,192,229939,1,2,0:0:0:0:
256,192,230133,1,0,0:0:0:0:
256,192,230229,1,0,0:0:0:0:
256,192,230326,1,2,0:0:0:0:
256,192,230423,1,0,0:0:0:0:
256,192,230520,1,2,0:0:0:0:
256,192,230616,1,2,0:0:0:0:
256,192,230713,1,0,0:0:0:0:
256,192,230907,1,0,0:0:0:0:
256,192,231004,1,2,0:0:0:0:
256,192,231197,1,2,0:0:0:0:
256,192,231294,1,0,0:0:0:0:
256,192,231391,1,0,0:0:0:0:
256,192,231487,1,2,0:0:0:0:
256,192,231681,1,0,0:0:0:0:
256,192,231778,1,0,0:0:0:0:
256,192,231875,1,2,0:0:0:0:
256,192,231971,1,0,0:0:0:0:
256,192,232068,1,2,0:0:0:0:
256,192,232165,1,2,0:0:0:0:
256,192,232262,1,0,0:0:0:0:
256,192,232358,1,2,0:0:0:0:
256,192,232552,1,2,0:0:0:0:
256,192,232649,1,0,0:0:0:0:
256,192,232746,1,0,0:0:0:0:
256,192,232842,1,2,0:0:0:0:
256,192,232939,1,0,0:0:0:0:
256,192,233036,1,2,0:0:0:0:
256,192,233133,1,0,0:0:0:0:
256,192,233229,1,0,0:0:0:0:
256,192,233326,1,2,0:0:0:0:
256,192,233423,1,0,0:0:0:0:
256,192,233520,1,2,0:0:0:0:
256,192,233616,1,2,0:0:0:0:
256,192,233713,1,0,0:0:0:0:
256,192,233810,1,2,0:0:0:0:
256,192,233907,1,0,0:0:0:0:
256,192,234100,1,2,0:0:0:0:
256,192,234197,1,0,0:0:0:0:
256,192,234262,1,2,0:0:0:0:
256,192,234326,1,2,0:0:0:0:
256,192,234391,1,0,0:0:0:0:
256,192,234487,1,2,0:0:0:0:
256,192,234584,1,0,0:0:0:0:
256,192,234681,1,2,0:0:0:0:
256,192,234778,1,0,0:0:0:0:
256,192,234875,1,0,0:0:0:0:
256,192,234971,1,2,0:0:0:0:
256,192,235068,1,0,0:0:0:0:
256,192,235165,1,2,0:0:0:0:
256,192,235229,1,2,0:0:0:0:
256,192,235294,1,2,0:0:0:0:
256,192,235358,1,0,0:0:0:0:
256,192,235552,1,0,0:0:0:0:
256,192,235649,1,2,0:0:0:0:
256,192,235746,1,0,0:0:0:0:
256,192,235842,1,0,0:0:0:0:
256,192,235939,1,2,0:0:0:0:
256,192,236036,1,0,0:0:0:0:
256,192,236133,1,0,0:0:0:0:
256,192,236229,1,2,0:0:0:0:
256,192,236326,1,0,0:0:0:0:
256,192,236423,1,2,0:0:0:0:
256,192,236520,1,0,0:0:0:0:
256,192,236616,1,0,0:0:0:0:
256,192,236713,5,2,0:0:0:0:
256,192,236810,1,0,0:0:0:0:
256,192,236907,1,2,0:0:0:0:
256,192,236971,1,2,0:0:0:0:
256,192,237036,1,2,0:0:0:0:
256,192,237100,1,0,0:0:0:0:
256,192,237165,1,0,0:0:0:0:
256,192,237229,1,0,0:0:0:0:
256,192,237294,1,2,0:0:0:0:
256,192,237423,1,0,0:0:0:0:
256,192,237487,1,0,0:0:0:0:
256,192,237552,1,2,0:0:0:0:
256,192,237616,1,0,0:0:0:0:
256,192,237746,1,0,0:0:0:0:
256,192,237810,1,2,0:0:0:0:
250,183,237875,1,0,0:0:0:0:
256,192,238004,1,0,0:0:0:0:
256,192,238068,1,2,0:0:0:0:
256,192,238133,1,2,0:0:0:0:
256,192,238197,1,0,0:0:0:0:
256,192,238262,1,0,0:0:0:0:
256,192,238326,1,2,0:0:0:0:
256,192,238455,1,2,0:0:0:0:
256,192,238520,1,2,0:0:0:0:
256,192,238584,1,2,0:0:0:0:
256,192,238649,1,2,0:0:0:0:
256,192,238713,1,2,0:0:0:0:
256,192,238778,1,2,0:0:0:0:
256,192,238842,1,0,0:0:0:0:
256,192,238907,1,0,0:0:0:0:
256,192,238971,1,0,0:0:0:0:
256,192,239036,1,0,0:0:0:0:
256,192,239100,1,0,0:0:0:0:
256,192,239165,1,0,0:0:0:0:
256,192,239229,1,2,0:0:0:0:
256,192,239294,1,2,0:0:0:0:
256,192,239358,1,2,0:0:0:0:
256,192,239423,1,2,0:0:0:0:
256,192,239487,1,2,0:0:0:0:
256,192,239552,1,2,0:0:0:0:
256,192,239616,1,0,0:0:0:0:
256,192,239713,1,2,0:0:0:0:
256,192,239810,1,0,0:0:0:0:
256,192,239907,1,0,0:0:0:0:
256,192,240004,5,2,0:0:0:0:
256,192,240197,1,0,0:0:0:0:
256,192,240294,1,2,0:0:0:0:
256,192,240391,1,0,0:0:0:0:
256,192,240487,1,0,0:0:0:0:
256,192,240584,1,2,0:0:0:0:
256,192,240778,1,0,0:0:0:0:
256,192,240875,1,2,0:0:0:0:
256,192,240971,1,0,0:0:0:0:
256,192,241165,1,6,0:0:0:0:
256,192,241455,1,6,0:0:0:0:
256,192,246142,5,0,0:0:0:0:
256,192,246267,1,2,0:0:0:0:
256,192,246392,1,2,0:0:0:0:
256,192,246517,1,2,0:0:0:0:
256,192,246579,1,2,0:0:0:0:
256,192,246642,1,2,0:0:0:0:
256,192,246704,1,2,0:0:0:0:
256,192,246767,1,0,0:0:0:0:
256,192,246829,1,0,0:0:0:0:
256,192,246892,1,2,0:0:0:0:
256,192,246954,1,2,0:0:0:0:
256,192,247017,1,0,0:0:0:0:
256,192,247079,1,0,0:0:0:0:
256,192,247142,1,0,0:0:0:0:
256,192,247204,1,0,0:0:0:0:
256,192,247267,1,2,0:0:0:0:
256,192,247329,1,2,0:0:0:0:
256,192,247392,1,0,0:0:0:0:
256,192,247454,1,0,0:0:0:0:
256,192,247517,1,0,0:0:0:0:
256,192,247579,1,0,0:0:0:0:
256,192,247642,1,2,0:0:0:0:
256,192,247704,1,2,0:0:0:0:
256,192,247767,1,0,0:0:0:0:
256,192,247829,1,0,0:0:0:0:
256,192,247892,1,2,0:0:0:0:
256,192,248142,1,4,0:0:0:0:
256,192,249017,1,0,0:0:0:0:
256,192,249079,1,0,0:0:0:0:
256,192,249142,1,0,0:0:0:0:
256,192,249267,1,0,0:0:0:0:
256,192,249392,1,2,0:0:0:0:
256,192,249454,1,2,0:0:0:0:
256,192,249517,1,2,0:0:0:0:
256,192,249579,1,2,0:0:0:0:
256,192,249642,1,0,0:0:0:0:
256,192,249704,1,2,0:0:0:0:
256,192,249767,1,2,0:0:0:0:
256,192,249829,1,2,0:0:0:0:
256,192,249892,1,0,0:0:0:0:
256,192,250017,1,0,0:0:0:0:
256,192,250079,1,0,0:0:0:0:
256,192,250142,1,0,0:0:0:0:
256,192,251142,1,0,0:0:0:0:
256,192,251204,1,0,0:0:0:0:
256,192,251267,1,0,0:0:0:0:
256,192,251329,1,0,0:0:0:0:
256,192,251392,1,2,0:0:0:0:
256,192,251454,1,2,0:0:0:0:
256,192,251517,1,0,0:0:0:0:
256,192,251579,1,0,0:0:0:0:
256,192,251642,1,2,0:0:0:0:
256,192,251704,1,2,0:0:0:0:
256,192,251767,1,2,0:0:0:0:
256,192,251829,1,2,0:0:0:0:
256,192,251892,1,0,0:0:0:0:
256,192,251954,1,0,0:0:0:0:
256,192,252017,1,0,0:0:0:0:
256,192,252079,1,0,0:0:0:0:
256,192,252142,1,0,0:0:0:0:
256,192,252267,1,2,0:0:0:0:
256,192,252392,1,0,0:0:0:0:
256,192,252454,1,0,0:0:0:0:
256,192,252517,1,2,0:0:0:0:
256,192,252642,1,0,0:0:0:0:
256,192,252767,1,2,0:0:0:0:
256,192,252892,1,0,0:0:0:0:
256,192,252954,1,0,0:0:0:0:
256,192,253017,1,2,0:0:0:0:
256,192,253142,1,0,0:0:0:0:
256,192,253267,1,2,0:0:0:0:
256,192,253392,1,0,0:0:0:0:
256,192,253454,1,0,0:0:0:0:
256,192,253517,1,2,0:0:0:0:
256,192,253642,1,0,0:0:0:0:
256,192,253767,1,2,0:0:0:0:
256,192,253829,1,2,0:0:0:0:
256,192,253892,1,0,0:0:0:0:
256,192,253954,1,0,0:0:0:0:
256,192,254017,1,2,0:0:0:0:
256,192,254142,1,2,0:0:0:0:
256,192,254204,1,0,0:0:0:0:
256,192,254267,1,0,0:0:0:0:
256,192,254329,1,0,0:0:0:0:
256,192,254392,1,0,0:0:0:0:
256,192,254454,1,0,0:0:0:0:
256,192,254517,1,2,0:0:0:0:
256,192,254579,1,0,0:0:0:0:
256,192,254642,1,0,0:0:0:0:
256,192,254704,1,0,0:0:0:0:
256,192,254767,1,0,0:0:0:0:
256,192,254829,1,0,0:0:0:0:
256,192,254892,1,2,0:0:0:0:
256,192,254954,1,2,0:0:0:0:
256,192,255017,1,0,0:0:0:0:
256,192,255079,1,0,0:0:0:0:
256,192,255142,1,2,0:0:0:0:
256,192,255392,1,0,0:0:0:0:
256,192,255454,1,0,0:0:0:0:
256,192,255517,1,0,0:0:0:0:
256,192,255579,1,0,0:0:0:0:
256,192,255642,1,2,0:0:0:0:
256,192,255892,1,2,0:0:0:0:
256,192,255954,1,2,0:0:0:0:
256,192,256017,1,2,0:0:0:0:
256,192,256079,1,2,0:0:0:0:
256,192,256142,1,0,0:0:0:0:
256,192,256267,1,2,0:0:0:0:
256,192,256392,1,0,0:0:0:0:
256,192,256454,1,0,0:0:0:0:
256,192,256517,1,2,0:0:0:0:
256,192,256642,1,0,0:0:0:0:
256,192,256767,1,2,0:0:0:0:
256,192,256892,1,0,0:0:0:0:
256,192,256954,1,0,0:0:0:0:
256,192,257017,1,2,0:0:0:0:
256,192,257142,1,0,0:0:0:0:
256,192,257267,1,2,0:0:0:0:
256,192,257392,1,0,0:0:0:0:
256,192,257454,1,0,0:0:0:0:
256,192,257517,1,2,0:0:0:0:
256,192,257642,1,0,0:0:0:0:
256,192,257767,1,2,0:0:0:0:
256,192,257829,1,2,0:0:0:0:
256,192,257892,1,0,0:0:0:0:
256,192,257954,1,0,0:0:0:0:
256,192,258017,1,2,0:0:0:0:
256,192,258142,1,0,0:0:0:0:
256,192,258267,1,2,0:0:0:0:
256,192,258392,1,0,0:0:0:0:
256,192,258454,1,0,0:0:0:0:
256,192,258517,1,2,0:0:0:0:
256,192,258642,1,0,0:0:0:0:
256,192,258767,1,2,0:0:0:0:
256,192,258892,1,0,0:0:0:0:
256,192,258954,1,0,0:0:0:0:
256,192,259017,1,2,0:0:0:0:
256,192,259142,1,0,0:0:0:0:
256,192,259204,1,0,0:0:0:0:
256,192,259267,1,0,0:0:0:0:
256,192,259329,1,0,0:0:0:0:
256,192,259392,1,2,0:0:0:0:
256,192,259454,1,2,0:0:0:0:
256,192,259517,1,0,0:0:0:0:
256,192,259579,1,0,0:0:0:0:
256,192,259642,1,2,0:0:0:0:
256,192,259704,1,2,0:0:0:0:
256,192,259767,1,2,0:0:0:0:
256,192,259829,1,2,0:0:0:0:
256,192,259892,1,0,0:0:0:0:
256,192,259954,1,0,0:0:0:0:
256,192,260017,1,0,0:0:0:0:
256,192,260079,1,0,0:0:0:0:
256,192,260142,1,0,0:0:0:0:
256,192,260267,1,2,0:0:0:0:
256,192,260392,1,0,0:0:0:0:
256,192,260454,1,0,0:0:0:0:
256,192,260517,1,2,0:0:0:0:
256,192,260642,1,0,0:0:0:0:
256,192,260767,1,2,0:0:0:0:
256,192,260892,1,0,0:0:0:0:
256,192,260954,1,0,0:0:0:0:
256,192,261017,1,2,0:0:0:0:
256,192,261142,1,0,0:0:0:0:
256,192,261267,1,2,0:0:0:0:
256,192,261392,1,0,0:0:0:0:
256,192,261454,1,0,0:0:0:0:
256,192,261517,1,2,0:0:0:0:
256,192,261642,1,0,0:0:0:0:
256,192,261767,1,2,0:0:0:0:
256,192,261829,1,2,0:0:0:0:
256,192,261892,1,0,0:0:0:0:
256,192,261954,1,0,0:0:0:0:
256,192,262017,1,2,0:0:0:0:
256,192,262142,1,6,0:0:0:0:
256,192,262267,1,0,0:0:0:0:
256,192,262392,1,6,0:0:0:0:
256,192,262517,1,0,0:0:0:0:
256,192,262642,1,6,0:0:0:0:
256,192,262767,1,0,0:0:0:0:
256,192,262892,1,6,0:0:0:0:
256,192,263017,1,0,0:0:0:0:
256,192,263142,1,6,0:0:0:0:
256,192,263392,1,0,0:0:0:0:
256,192,263454,1,0,0:0:0:0:
256,192,263517,1,0,0:0:0:0:
256,192,263579,1,0,0:0:0:0:
256,192,263642,1,2,0:0:0:0:
256,192,263892,1,2,0:0:0:0:
256,192,263954,1,2,0:0:0:0:
256,192,264017,1,2,0:0:0:0:
256,192,264079,1,2,0:0:0:0:
256,192,264142,1,0,0:0:0:0:
256,192,264267,1,2,0:0:0:0:
256,192,264392,1,0,0:0:0:0:
256,192,264454,1,0,0:0:0:0:
256,192,264517,1,2,0:0:0:0:
256,192,264642,1,0,0:0:0:0:
256,192,264767,1,2,0:0:0:0:
256,192,264892,1,0,0:0:0:0:
256,192,264954,1,2,0:0:0:0:
256,192,265017,1,2,0:0:0:0:
256,192,265142,1,0,0:0:0:0:
256,192,265267,1,2,0:0:0:0:
256,192,265392,1,0,0:0:0:0:
256,192,265454,1,0,0:0:0:0:
256,192,265517,1,2,0:0:0:0:
256,192,265642,1,0,0:0:0:0:
256,192,265767,1,2,0:0:0:0:
256,192,265829,1,0,0:0:0:0:
256,192,265892,1,0,0:0:0:0:
256,192,265954,1,0,0:0:0:0:
256,192,266017,1,2,0:0:0:0:
256,192,266142,1,0,0:0:0:0:
256,192,266267,1,2,0:0:0:0:
256,192,266392,1,0,0:0:0:0:
256,192,266454,1,2,0:0:0:0:
256,192,266517,1,2,0:0:0:0:
256,192,266642,1,0,0:0:0:0:
256,192,266767,1,2,0:0:0:0:
256,192,266892,1,0,0:0:0:0:
256,192,266954,1,0,0:0:0:0:
256,192,267017,1,2,0:0:0:0:
256,192,267142,1,0,0:0:0:0:
256,192,267204,1,0,0:0:0:0:
256,192,267267,1,0,0:0:0:0:
256,192,267329,1,0,0:0:0:0:
256,192,267392,1,2,0:0:0:0:
256,192,267454,1,2,0:0:0:0:
256,192,267517,1,0,0:0:0:0:
256,192,267579,1,0,0:0:0:0:
256,192,267642,1,2,0:0:0:0:
256,192,267704,1,2,0:0:0:0:
256,192,267767,1,2,0:0:0:0:
256,192,267829,1,2,0:0:0:0:
256,192,267892,1,0,0:0:0:0:
256,192,267954,1,0,0:0:0:0:
256,192,268017,1,0,0:0:0:0:
256,192,268079,1,0,0:0:0:0:
256,192,268142,1,0,0:0:0:0:
256,192,268267,1,2,0:0:0:0:
256,192,268392,1,0,0:0:0:0:
256,192,268454,1,0,0:0:0:0:
256,192,268517,1,2,0:0:0:0:
256,192,268642,1,0,0:0:0:0:
256,192,268767,1,2,0:0:0:0:
256,192,268892,1,0,0:0:0:0:
256,192,268954,1,2,0:0:0:0:
256,192,269017,1,2,0:0:0:0:
256,192,269142,1,0,0:0:0:0:
256,192,269267,1,2,0:0:0:0:
256,192,269392,1,0,0:0:0:0:
256,192,269454,1,0,0:0:0:0:
256,192,269517,1,2,0:0:0:0:
256,192,269642,1,0,0:0:0:0:
256,192,269767,1,2,0:0:0:0:
256,192,269829,1,0,0:0:0:0:
256,192,269892,1,0,0:0:0:0:
256,192,269954,1,0,0:0:0:0:
256,192,270017,1,2,0:0:0:0:
256,192,270142,1,2,0:0:0:0:
256,192,270267,1,0,0:0:0:0:
256,192,270329,1,0,0:0:0:0:
256,192,270392,1,0,0:0:0:0:
256,192,270517,1,2,0:0:0:0:
256,192,270642,1,0,0:0:0:0:
256,192,270704,1,2,0:0:0:0:
256,192,270767,1,0,0:0:0:0:
256,192,270829,1,0,0:0:0:0:
256,192,270892,1,2,0:0:0:0:
256,192,271017,1,0,0:0:0:0:
256,192,271142,1,2,0:0:0:0:
256,192,271392,1,0,0:0:0:0:
256,192,271454,1,0,0:0:0:0:
256,192,271517,1,0,0:0:0:0:
256,192,271579,1,0,0:0:0:0:
256,192,271642,1,2,0:0:0:0:
256,192,271892,1,2,0:0:0:0:
256,192,271954,1,2,0:0:0:0:
256,192,272017,1,2,0:0:0:0:
256,192,272079,1,2,0:0:0:0:
256,192,272142,1,0,0:0:0:0:
256,192,272267,1,0,0:0:0:0:
256,192,272329,1,0,0:0:0:0:
256,192,272392,1,0,0:0:0:0:
256,192,272517,1,2,0:0:0:0:
256,192,272642,1,0,0:0:0:0:
256,192,272767,1,2,0:0:0:0:
256,192,272892,1,0,0:0:0:0:
256,192,272954,1,0,0:0:0:0:
256,192,273017,1,2,0:0:0:0:
256,192,273142,1,0,0:0:0:0:
256,192,273267,1,2,0:0:0:0:
256,192,273329,1,2,0:0:0:0:
256,192,273392,1,0,0:0:0:0:
256,192,273517,1,2,0:0:0:0:
256,192,273642,1,0,0:0:0:0:
256,192,273767,1,0,0:0:0:0:
256,192,273829,1,0,0:0:0:0:
256,192,273892,1,2,0:0:0:0:
256,192,274017,1,2,0:0:0:0:
256,192,274142,1,0,0:0:0:0:
256,192,274267,1,0,0:0:0:0:
256,192,274329,1,0,0:0:0:0:
256,192,274392,1,0,0:0:0:0:
256,192,274517,1,2,0:0:0:0:
256,192,274642,1,0,0:0:0:0:
256,192,274767,1,2,0:0:0:0:
256,192,274892,1,0,0:0:0:0:
256,192,274954,1,2,0:0:0:0:
256,192,275017,1,2,0:0:0:0:
256,192,275142,1,0,0:0:0:0:
256,192,275267,1,2,0:0:0:0:
256,192,275329,1,2,0:0:0:0:
256,192,275392,1,0,0:0:0:0:
256,192,275517,1,2,0:0:0:0:
256,192,275642,1,0,0:0:0:0:
256,192,275767,1,2,0:0:0:0:
256,192,275829,1,0,0:0:0:0:
256,192,275892,1,2,0:0:0:0:
256,192,276017,1,2,0:0:0:0:
256,192,276079,1,2,0:0:0:0:
256,192,276142,1,0,0:0:0:0:
256,192,276267,1,0,0:0:0:0:
256,192,276329,1,0,0:0:0:0:
256,192,276392,1,0,0:0:0:0:
256,192,276517,1,2,0:0:0:0:
256,192,276642,1,0,0:0:0:0:
256,192,276767,1,2,0:0:0:0:
256,192,276892,1,0,0:0:0:0:
256,192,276954,1,0,0:0:0:0:
256,192,277017,1,2,0:0:0:0:
256,192,277142,1,0,0:0:0:0:
256,192,277267,1,2,0:0:0:0:
256,192,277392,1,0,0:0:0:0:
256,192,277454,1,2,0:0:0:0:
256,192,277517,1,2,0:0:0:0:
256,192,277579,1,2,0:0:0:0:
256,192,277642,1,0,0:0:0:0:
256,192,277704,1,0,0:0:0:0:
256,192,277767,1,0,0:0:0:0:
256,192,277829,1,0,0:0:0:0:
256,192,277892,1,2,0:0:0:0:
256,192,278017,1,0,0:0:0:0:
256,192,278142,1,2,0:0:0:0:
256,192,278204,1,2,0:0:0:0:
256,192,278267,1,2,0:0:0:0:
256,192,278329,1,2,0:0:0:0:
256,192,278392,1,0,0:0:0:0:
256,192,278454,1,0,0:0:0:0:
256,192,278517,1,2,0:0:0:0:
256,192,278579,1,0,0:0:0:0:
256,192,278642,1,0,0:0:0:0:
256,192,278704,1,0,0:0:0:0:
256,192,278767,1,2,0:0:0:0:
256,192,278829,1,0,0:0:0:0:
256,192,278892,1,2,0:0:0:0:
256,192,278954,1,2,0:0:0:0:
256,192,279017,1,2,0:0:0:0:
256,192,279079,1,2,0:0:0:0:
256,192,279142,1,0,0:0:0:0:
256,192,279204,1,0,0:0:0:0:
256,192,279267,1,2,0:0:0:0:
256,192,279329,1,2,0:0:0:0:
256,192,279392,1,0,0:0:0:0:
256,192,279454,1,2,0:0:0:0:
256,192,279517,1,0,0:0:0:0:
256,192,279579,1,0,0:0:0:0:
256,192,279642,1,2,0:0:0:0:
256,192,279704,1,0,0:0:0:0:
256,192,279767,1,0,0:0:0:0:
256,192,279829,1,0,0:0:0:0:
256,192,279892,1,2,0:0:0:0:
256,192,280017,1,2,0:0:0:0:
256,192,280079,1,2,0:0:0:0:
256,192,280142,1,0,0:0:0:0:
256,192,280267,1,0,0:0:0:0:
256,192,280329,1,0,0:0:0:0:
256,192,280392,1,0,0:0:0:0:
256,192,280517,1,2,0:0:0:0:
256,192,280642,1,0,0:0:0:0:
256,192,280767,1,2,0:0:0:0:
256,192,280892,1,0,0:0:0:0:
256,192,280954,1,0,0:0:0:0:
256,192,281017,1,2,0:0:0:0:
256,192,281142,1,0,0:0:0:0:
256,192,281267,1,2,0:0:0:0:
256,192,281329,1,2,0:0:0:0:
256,192,281392,1,0,0:0:0:0:
256,192,281517,1,2,0:0:0:0:
256,192,281642,1,0,0:0:0:0:
256,192,281767,1,0,0:0:0:0:
256,192,281829,1,0,0:0:0:0:
256,192,281892,1,2,0:0:0:0:
256,192,282017,1,2,0:0:0:0:
256,192,282142,1,0,0:0:0:0:
256,192,282267,1,0,0:0:0:0:
256,192,282329,1,0,0:0:0:0:
256,192,282392,1,0,0:0:0:0:
256,192,282517,1,2,0:0:0:0:
256,192,282642,1,0,0:0:0:0:
256,192,282767,1,2,0:0:0:0:
256,192,282892,1,0,0:0:0:0:
256,192,282954,1,2,0:0:0:0:
256,192,283017,1,2,0:0:0:0:
256,192,283142,1,0,0:0:0:0:
256,192,283267,1,2,0:0:0:0:
256,192,283329,1,2,0:0:0:0:
256,192,283392,1,0,0:0:0:0:
256,192,283517,1,2,0:0:0:0:
256,192,283642,1,0,0:0:0:0:
256,192,283767,1,2,0:0:0:0:
256,192,283829,1,0,0:0:0:0:
256,192,283892,1,2,0:0:0:0:
256,192,284017,1,2,0:0:0:0:
256,192,284079,1,2,0:0:0:0:
256,192,284142,1,0,0:0:0:0:
256,192,284267,1,0,0:0:0:0:
256,192,284329,1,0,0:0:0:0:
256,192,284392,1,0,0:0:0:0:
256,192,284517,1,2,0:0:0:0:
256,192,284642,1,0,0:0:0:0:
256,192,284767,1,2,0:0:0:0:
256,192,284892,1,0,0:0:0:0:
256,192,284954,1,0,0:0:0:0:
256,192,285017,1,2,0:0:0:0:
256,192,285142,1,0,0:0:0:0:
256,192,285267,1,2,0:0:0:0:
256,192,285329,1,2,0:0:0:0:
256,192,285392,1,0,0:0:0:0:
256,192,285454,1,2,0:0:0:0:
256,192,285517,1,2,0:0:0:0:
256,192,285579,1,2,0:0:0:0:
256,192,285642,1,0,0:0:0:0:
256,192,285704,1,0,0:0:0:0:
256,192,285767,1,0,0:0:0:0:
256,192,285829,1,0,0:0:0:0:
256,192,285892,1,2,0:0:0:0:
256,192,286017,1,0,0:0:0:0:
256,192,286142,1,2,0:0:0:0:
256,192,286267,1,0,0:0:0:0:
256,192,286329,1,0,0:0:0:0:
256,192,286392,1,0,0:0:0:0:
256,192,286517,1,2,0:0:0:0:
256,192,286642,1,0,0:0:0:0:
256,192,286704,1,0,0:0:0:0:
256,192,286767,1,2,0:0:0:0:
256,192,286829,1,2,0:0:0:0:
256,192,286892,1,0,0:0:0:0:
256,192,286954,1,2,0:0:0:0:
256,192,287017,1,0,0:0:0:0:
256,192,287079,1,0,0:0:0:0:
256,192,287142,1,2,0:0:0:0:
256,192,287204,1,0,0:0:0:0:
256,192,287267,1,2,0:0:0:0:
256,192,287329,1,2,0:0:0:0:
256,192,287392,1,2,0:0:0:0:
256,192,287454,1,2,0:0:0:0:
256,192,287517,1,0,0:0:0:0:
256,192,287579,1,2,0:0:0:0:
256,192,287642,1,0,0:0:0:0:
256,192,287704,1,0,0:0:0:0:
256,192,287767,1,0,0:0:0:0:
256,192,287829,1,0,0:0:0:0:
256,192,287892,1,2,0:0:0:0:
256,192,288142,1,4,0:0:0:0:
256,192,288392,1,2,0:0:0:0:
256,192,288454,1,2,0:0:0:0:
256,192,288517,1,2,0:0:0:0:
256,192,288579,1,2,0:0:0:0:
256,192,288642,1,0,0:0:0:0:
256,192,288704,1,2,0:0:0:0:
256,192,288767,1,0,0:0:0:0:
256,192,288829,1,0,0:0:0:0:
256,192,288892,1,2,0:0:0:0:
256,192,288954,1,2,0:0:0:0:
256,192,289017,1,2,0:0:0:0:
256,192,289079,1,2,0:0:0:0:
256,192,289142,1,0,0:0:0:0:
256,192,289204,1,2,0:0:0:0:
256,192,289267,1,2,0:0:0:0:
256,192,289329,1,0,0:0:0:0:
256,192,289392,1,2,0:0:0:0:
256,192,289454,1,2,0:0:0:0:
256,192,289517,1,0,0:0:0:0:
256,192,289579,1,0,0:0:0:0:
256,192,289642,1,2,0:0:0:0:
256,192,289704,1,0,0:0:0:0:
256,192,289767,1,0,0:0:0:0:
256,192,289829,1,0,0:0:0:0:
256,192,289892,1,2,0:0:0:0:
256,192,290142,1,0,0:0:0:0:
256,192,290267,1,0,0:0:0:0:
256,192,290329,1,0,0:0:0:0:
256,192,290392,1,0,0:0:0:0:
256,192,290517,1,0,0:0:0:0:
256,192,290642,1,2,0:0:0:0:
256,192,290767,1,0,0:0:0:0:
256,192,290829,1,0,0:0:0:0:
256,192,290892,1,0,0:0:0:0:
256,192,291017,1,0,0:0:0:0:
256,192,291142,1,0,0:0:0:0:
256,192,291267,1,0,0:0:0:0:
256,192,291329,1,0,0:0:0:0:
256,192,291392,1,2,0:0:0:0:
256,192,291517,1,0,0:0:0:0:
256,192,291642,1,2,0:0:0:0:
256,192,291767,1,0,0:0:0:0:
256,192,291829,1,0,0:0:0:0:
256,192,291892,1,0,0:0:0:0:
256,192,292017,1,0,0:0:0:0:
256,192,292142,1,0,0:0:0:0:
256,192,292267,1,0,0:0:0:0:
256,192,292329,1,2,0:0:0:0:
256,192,292392,1,2,0:0:0:0:
256,192,292517,1,0,0:0:0:0:
256,192,292642,1,2,0:0:0:0:
256,192,292767,1,0,0:0:0:0:
256,192,292829,1,0,0:0:0:0:
256,192,292892,1,0,0:0:0:0:
256,192,293017,1,0,0:0:0:0:
256,192,293142,1,0,0:0:0:0:
256,192,293267,1,2,0:0:0:0:
256,192,293329,1,2,0:0:0:0:
256,192,293392,1,2,0:0:0:0:
256,192,293517,1,0,0:0:0:0:
256,192,293642,1,2,0:0:0:0:
256,192,293767,1,0,0:0:0:0:
256,192,293829,1,0,0:0:0:0:
256,192,293892,1,0,0:0:0:0:
256,192,293954,1,0,0:0:0:0:
256,192,294017,1,0,0:0:0:0:
256,192,294142,1,6,0:0:0:0:
256,192,294267,1,0,0:0:0:0:
256,192,294392,1,6,0:0:0:0:
256,192,294517,1,0,0:0:0:0:
256,192,294642,1,6,0:0:0:0:
256,192,294767,1,0,0:0:0:0:
256,192,294892,1,6,0:0:0:0:
256,192,295017,1,0,0:0:0:0:
256,192,295142,1,6,0:0:0:0:
256,192,295392,1,0,0:0:0:0:
256,192,295454,1,0,0:0:0:0:
256,192,295517,1,0,0:0:0:0:
256,192,295579,1,0,0:0:0:0:
256,192,295642,1,2,0:0:0:0:
256,192,295704,1,2,0:0:0:0:
256,192,295767,1,0,0:0:0:0:
256,192,295829,1,0,0:0:0:0:
256,192,295892,1,2,0:0:0:0:
256,192,296142,5,4,0:0:0:0:
256,192,296267,1,0,0:0:0:0:
256,192,296329,1,0,0:0:0:0:
256,192,296392,1,2,0:0:0:0:
256,192,296517,1,2,0:0:0:0:
256,192,296642,1,0,0:0:0:0:
256,192,296704,1,0,0:0:0:0:
256,192,296767,1,2,0:0:0:0:
256,192,296829,1,2,0:0:0:0:
256,192,296892,1,0,0:0:0:0:
256,192,297017,1,2,0:0:0:0:
256,192,297142,1,0,0:0:0:0:
256,192,297267,1,2,0:0:0:0:
256,192,297329,1,0,0:0:0:0:
256,192,297392,1,0,0:0:0:0:
256,192,297517,1,2,0:0:0:0:
256,192,297642,1,0,0:0:0:0:
256,192,297704,1,2,0:0:0:0:
256,192,297767,1,2,0:0:0:0:
256,192,297829,1,2,0:0:0:0:
256,192,297892,1,0,0:0:0:0:
256,192,298017,1,0,0:0:0:0:
256,192,298079,1,0,0:0:0:0:
256,192,298142,1,0,0:0:0:0:
256,192,298267,1,0,0:0:0:0:
256,192,298329,1,0,0:0:0:0:
256,192,298392,1,2,0:0:0:0:
256,192,298517,1,2,0:0:0:0:
256,192,298642,1,0,0:0:0:0:
256,192,298704,1,0,0:0:0:0:
256,192,298767,1,2,0:0:0:0:
256,192,298829,1,2,0:0:0:0:
256,192,298892,1,0,0:0:0:0:
256,192,298954,1,2,0:0:0:0:
256,192,299017,1,2,0:0:0:0:
256,192,299142,1,0,0:0:0:0:
256,192,299267,1,2,0:0:0:0:
256,192,299329,1,0,0:0:0:0:
256,192,299392,1,0,0:0:0:0:
256,192,299517,1,2,0:0:0:0:
256,192,299642,1,0,0:0:0:0:
256,192,299704,1,2,0:0:0:0:
256,192,299767,1,2,0:0:0:0:
256,192,299829,1,2,0:0:0:0:
256,192,299892,1,0,0:0:0:0:
256,192,300142,1,0,0:0:0:0:
256,192,300267,1,0,0:0:0:0:
256,192,300329,1,0,0:0:0:0:
256,192,300392,1,2,0:0:0:0:
256,192,300517,1,2,0:0:0:0:
256,192,300642,1,0,0:0:0:0:
256,192,300704,1,0,0:0:0:0:
256,192,300767,1,2,0:0:0:0:
256,192,300829,1,2,0:0:0:0:
256,192,300892,1,0,0:0:0:0:
256,192,301017,1,2,0:0:0:0:
256,192,301142,1,0,0:0:0:0:
256,192,301267,1,2,0:0:0:0:
256,192,301329,1,2,0:0:0:0:
256,192,301392,1,0,0:0:0:0:
256,192,301517,1,2,0:0:0:0:
256,192,301642,1,0,0:0:0:0:
256,192,301704,1,2,0:0:0:0:
256,192,301767,1,2,0:0:0:0:
256,192,301829,1,2,0:0:0:0:
256,192,301892,1,0,0:0:0:0:
256,192,302017,1,0,0:0:0:0:
256,192,302142,1,2,0:0:0:0:
256,192,302204,1,2,0:0:0:0:
256,192,302267,1,2,0:0:0:0:
256,192,302329,1,2,0:0:0:0:
256,192,302392,1,0,0:0:0:0:
256,192,302454,1,0,0:0:0:0:
256,192,302517,1,2,0:0:0:0:
256,192,302579,1,2,0:0:0:0:
256,192,302642,1,0,0:0:0:0:
256,192,302704,1,2,0:0:0:0:
256,192,302767,1,0,0:0:0:0:
256,192,302829,1,0,0:0:0:0:
256,192,302892,1,2,0:0:0:0:
256,192,302954,1,2,0:0:0:0:
256,192,303017,1,2,0:0:0:0:
256,192,303079,1,2,0:0:0:0:
256,192,303142,1,0,0:0:0:0:
256,192,303204,1,0,0:0:0:0:
256,192,303267,1,2,0:0:0:0:
256,192,303329,1,0,0:0:0:0:
256,192,303392,1,2,0:0:0:0:
256,192,303454,1,2,0:0:0:0:
256,192,303517,1,0,0:0:0:0:
256,192,303579,1,2,0:0:0:0:
256,192,303642,1,0,0:0:0:0:
256,192,303704,1,0,0:0:0:0:
256,192,303767,1,0,0:0:0:0:
256,192,303829,1,0,0:0:0:0:
256,192,303892,1,2,0:0:0:0:
256,192,304017,1,2,0:0:0:0:
256,192,304142,5,4,0:0:0:0:
256,192,304267,1,0,0:0:0:0:
256,192,304329,1,0,0:0:0:0:
256,192,304392,1,2,0:0:0:0:
256,192,304454,1,2,0:0:0:0:
256,192,304517,1,0,0:0:0:0:
256,192,304579,1,0,0:0:0:0:
256,192,304642,1,2,0:0:0:0:
256,192,304704,1,0,0:0:0:0:
256,192,304767,1,0,0:0:0:0:
256,192,304829,1,0,0:0:0:0:
256,192,304892,1,2,0:0:0:0:
256,192,304954,1,0,0:0:0:0:
256,192,305017,1,2,0:0:0:0:
256,192,305079,1,2,0:0:0:0:
256,192,305142,1,0,0:0:0:0:
256,192,305204,1,2,0:0:0:0:
256,192,305267,1,2,0:0:0:0:
256,192,305329,1,2,0:0:0:0:
256,192,305392,1,0,0:0:0:0:
256,192,305454,1,0,0:0:0:0:
256,192,305517,1,2,0:0:0:0:
256,192,305579,1,0,0:0:0:0:
256,192,305642,1,2,0:0:0:0:
256,192,305704,1,2,0:0:0:0:
256,192,305767,1,0,0:0:0:0:
256,192,305829,1,2,0:0:0:0:
256,192,305892,1,0,0:0:0:0:
256,192,306017,1,2,0:0:0:0:
256,192,306142,1,0,0:0:0:0:
256,192,306204,1,0,0:0:0:0:
256,192,306267,1,0,0:0:0:0:
256,192,306329,1,0,0:0:0:0:
256,192,306392,1,2,0:0:0:0:
256,192,306454,1,2,0:0:0:0:
256,192,306517,1,0,0:0:0:0:
256,192,306579,1,0,0:0:0:0:
256,192,306642,1,2,0:0:0:0:
256,192,306704,1,0,0:0:0:0:
256,192,306767,1,2,0:0:0:0:
256,192,306829,1,2,0:0:0:0:
256,192,306892,1,0,0:0:0:0:
256,192,306954,1,2,0:0:0:0:
256,192,307017,1,2,0:0:0:0:
256,192,307079,1,2,0:0:0:0:
256,192,307142,1,0,0:0:0:0:
256,192,307204,1,2,0:0:0:0:
256,192,307267,1,0,0:0:0:0:
256,192,307329,1,0,0:0:0:0:
256,192,307392,1,2,0:0:0:0:
256,192,307454,1,2,0:0:0:0:
256,192,307517,1,0,0:0:0:0:
256,192,307579,1,2,0:0:0:0:
256,192,307642,1,0,0:0:0:0:
256,192,307704,1,0,0:0:0:0:
256,192,307767,1,2,0:0:0:0:
256,192,307829,1,2,0:0:0:0:
256,192,307892,1,0,0:0:0:0:
256,192,308017,1,2,0:0:0:0:
256,192,308142,1,0,0:0:0:0:
256,192,308204,1,0,0:0:0:0:
256,192,308267,1,0,0:0:0:0:
256,192,308329,1,0,0:0:0:0:
256,192,308392,1,2,0:0:0:0:
256,192,308454,1,2,0:0:0:0:
256,192,308517,1,0,0:0:0:0:
256,192,308579,1,0,0:0:0:0:
256,192,308642,1,2,0:0:0:0:
256,192,308704,1,0,0:0:0:0:
256,192,308767,1,0,0:0:0:0:
256,192,308829,1,0,0:0:0:0:
256,192,308892,1,2,0:0:0:0:
256,192,308954,1,0,0:0:0:0:
256,192,309017,1,2,0:0:0:0:
256,192,309079,1,2,0:0:0:0:
256,192,309142,1,0,0:0:0:0:
256,192,309204,1,2,0:0:0:0:
256,192,309267,1,2,0:0:0:0:
256,192,309329,1,0,0:0:0:0:
256,192,309392,1,2,0:0:0:0:
256,192,309454,1,2,0:0:0:0:
256,192,309517,1,0,0:0:0:0:
256,192,309579,1,2,0:0:0:0:
256,192,309642,1,0,0:0:0:0:
256,192,309704,1,0,0:0:0:0:
256,192,309767,1,2,0:0:0:0:
256,192,309829,1,2,0:0:0:0:
256,192,309892,1,0,0:0:0:0:
256,192,310017,1,2,0:0:0:0:
256,192,310142,1,0,0:0:0:0:
256,192,310225,1,0,0:0:0:0:
256,192,310308,1,0,0:0:0:0:
256,192,310392,1,2,0:0:0:0:
256,192,310475,1,2,0:0:0:0:
256,192,310558,1,2,0:0:0:0:
256,192,310642,1,0,0:0:0:0:
256,192,310725,1,2,0:0:0:0:
256,192,310808,1,2,0:0:0:0:
256,192,310892,1,0,0:0:0:0:
256,192,310975,1,2,0:0:0:0:
256,192,311058,1,2,0:0:0:0:
256,192,311142,1,4,0:0:0:0:
256,192,311642,1,6,0:0:0:0:
256,192,312142,1,0,0:0:0:0:
256,192,312204,1,0,0:0:0:0:
256,192,312267,1,2,0:0:0:0:
256,192,312392,1,2,0:0:0:0:
256,192,312517,1,2,0:0:0:0:
256,192,312579,1,2,0:0:0:0:
256,192,312642,1,2,0:0:0:0:
256,192,312704,1,2,0:0:0:0:
256,192,312767,1,0,0:0:0:0:
256,192,312829,1,0,0:0:0:0:
256,192,312892,1,2,0:0:0:0:
256,192,312954,1,2,0:0:0:0:
256,192,313017,1,0,0:0:0:0:
256,192,313079,1,0,0:0:0:0:
256,192,313142,1,0,0:0:0:0:
256,192,313204,1,0,0:0:0:0:
256,192,313267,1,2,0:0:0:0:
256,192,313329,1,2,0:0:0:0:
256,192,313392,1,2,0:0:0:0:
256,192,313454,1,2,0:0:0:0:
256,192,313517,1,0,0:0:0:0:
256,192,313579,1,0,0:0:0:0:
256,192,313642,1,2,0:0:0:0:
256,192,313704,1,0,0:0:0:0:
256,192,313767,1,0,0:0:0:0:
256,192,313829,1,0,0:0:0:0:
256,192,313892,1,2,0:0:0:0:
256,192,314142,5,4,0:0:0:0:
256,192,314267,1,0,0:0:0:0:
256,192,314392,1,0,0:0:0:0:
256,192,314517,1,0,0:0:0:0:
256,192,314642,1,2,0:0:0:0:
256,192,314767,1,2,0:0:0:0:
256,192,314892,1,0,0:0:0:0:
256,192,315017,1,0,0:0:0:0:
256,192,315142,1,2,0:0:0:0:
256,192,315267,1,0,0:0:0:0:
256,192,315392,1,0,0:0:0:0:
256,192,315517,1,0,0:0:0:0:
256,192,315642,1,2,0:0:0:0:
256,192,315767,1,2,0:0:0:0:
256,192,315892,1,0,0:0:0:0:
256,192,315954,1,0,0:0:0:0:
256,192,316017,1,0,0:0:0:0:
256,192,316079,1,0,0:0:0:0:
256,192,316142,1,2,0:0:0:0:
256,192,316267,1,0,0:0:0:0:
256,192,316392,1,0,0:0:0:0:
256,192,316517,1,0,0:0:0:0:
256,192,316642,1,2,0:0:0:0:
256,192,316767,1,2,0:0:0:0:
256,192,316892,1,0,0:0:0:0:
256,192,316954,1,0,0:0:0:0:
256,192,317017,1,0,0:0:0:0:
256,192,317079,1,0,0:0:0:0:
256,192,317142,1,2,0:0:0:0:
256,192,317267,1,0,0:0:0:0:
256,192,317392,1,0,0:0:0:0:
256,192,317517,1,0,0:0:0:0:
256,192,317642,1,2,0:0:0:0:
256,192,317725,1,2,0:0:0:0:
256,192,317808,1,2,0:0:0:0:
256,192,317892,1,0,0:0:0:0:
256,192,317975,1,0,0:0:0:0:
256,192,318058,1,0,0:0:0:0:
256,192,318142,1,2,0:0:0:0:
256,192,318267,1,0,0:0:0:0:
256,192,318392,1,0,0:0:0:0:
256,192,318517,1,0,0:0:0:0:
256,192,318642,1,2,0:0:0:0:
256,192,318767,1,2,0:0:0:0:
256,192,318892,1,0,0:0:0:0:
256,192,318954,1,0,0:0:0:0:
256,192,319017,1,0,0:0:0:0:
256,192,319079,1,0,0:0:0:0:
256,192,319142,1,2,0:0:0:0:
256,192,319267,1,0,0:0:0:0:
256,192,319392,1,0,0:0:0:0:
256,192,319517,1,0,0:0:0:0:
256,192,319642,1,2,0:0:0:0:
256,192,319767,1,2,0:0:0:0:
256,192,319892,1,0,0:0:0:0:
256,192,320017,1,2,0:0:0:0:
256,192,320142,1,0,0:0:0:0:
256,192,320204,1,0,0:0:0:0:
256,192,320267,1,0,0:0:0:0:
256,192,320329,1,0,0:0:0:0:
256,192,320392,1,2,0:0:0:0:
256,192,320454,1,2,0:0:0:0:
256,192,320517,1,2,0:0:0:0:
256,192,320579,1,2,0:0:0:0:
256,192,320642,1,0,0:0:0:0:
256,192,320704,1,0,0:0:0:0:
256,192,320767,1,2,0:0:0:0:
256,192,320829,1,0,0:0:0:0:
256,192,320892,1,2,0:0:0:0:
256,192,320954,1,2,0:0:0:0:
256,192,321017,1,0,0:0:0:0:
256,192,321079,1,0,0:0:0:0:
256,192,321142,1,2,0:0:0:0:
256,192,321204,1,0,0:0:0:0:
256,192,321267,1,0,0:0:0:0:
256,192,321329,1,0,0:0:0:0:
256,192,321392,1,2,0:0:0:0:
256,192,321454,1,2,0:0:0:0:
256,192,321517,1,2,0:0:0:0:
256,192,321579,1,0,0:0:0:0:
256,192,321642,1,2,0:0:0:0:
256,192,321704,1,0,0:0:0:0:
256,192,321767,1,0,0:0:0:0:
256,192,321829,1,0,0:0:0:0:
256,192,321892,1,2,0:0:0:0:
256,192,321954,1,2,0:0:0:0:
256,192,322017,1,2,0:0:0:0:
256,192,322079,1,2,0:0:0:0:
256,192,322142,1,0,0:0:0:0:
256,192,322642,1,0,0:0:0:0:
256,192,323142,1,2,0:0:0:0:
256,192,323642,1,2,0:0:0:0:
256,192,323892,1,0,0:0:0:0:
256,192,323954,1,0,0:0:0:0:
256,192,324017,1,0,0:0:0:0:
256,192,324142,1,2,0:0:0:0:
256,192,324642,1,0,0:0:0:0:
256,192,325142,1,2,0:0:0:0:
256,192,325392,1,0,0:0:0:0:
256,192,325475,1,0,0:0:0:0:
256,192,325558,1,0,0:0:0:0:
256,192,325642,1,2,0:0:0:0:
256,192,325725,1,2,0:0:0:0:
256,192,325808,1,2,0:0:0:0:
256,192,325892,1,0,0:0:0:0:
256,192,325975,1,0,0:0:0:0:
256,192,326058,1,0,0:0:0:0:
256,192,326142,1,0,0:0:0:0:
256,192,326642,1,0,0:0:0:0:
256,192,326892,1,0,0:0:0:0:
256,192,326954,1,0,0:0:0:0:
256,192,327017,1,0,0:0:0:0:
256,192,327079,1,0,0:0:0:0:
256,192,327142,1,2,0:0:0:0:
256,192,327642,1,2,0:0:0:0:
256,192,327767,1,0,0:0:0:0:
256,192,328142,1,6,0:0:0:0:
256,192,328267,1,0,0:0:0:0:
256,192,328392,1,0,0:0:0:0:
256,192,328517,1,6,0:0:0:0:
256,192,328642,1,0,0:0:0:0:
256,192,328767,1,0,0:0:0:0:
256,192,328892,1,6,0:0:0:0:
256,192,329017,1,0,0:0:0:0:
256,192,329142,1,6,0:0:0:0:
256,192,329392,1,0,0:0:0:0:
256,192,329454,1,0,0:0:0:0:
256,192,329517,1,0,0:0:0:0:
256,192,329579,1,0,0:0:0:0:
256,192,329642,1,2,0:0:0:0:
256,192,329892,1,2,0:0:0:0:
256,192,329954,1,2,0:0:0:0:
256,192,330017,1,2,0:0:0:0:
256,192,330079,1,2,0:0:0:0:
256,192,330142,5,0,0:0:0:0:
256,192,330267,1,2,0:0:0:0:
256,192,330392,1,0,0:0:0:0:
256,192,330454,1,0,0:0:0:0:
256,192,330517,1,2,0:0:0:0:
256,192,330642,1,0,0:0:0:0:
256,192,330767,1,2,0:0:0:0:
256,192,330892,1,0,0:0:0:0:
256,192,330954,1,2,0:0:0:0:
256,192,331017,1,2,0:0:0:0:
256,192,331142,1,0,0:0:0:0:
256,192,331267,1,2,0:0:0:0:
256,192,331329,1,2,0:0:0:0:
256,192,331392,1,0,0:0:0:0:
256,192,331454,1,0,0:0:0:0:
256,192,331517,1,2,0:0:0:0:
256,192,331642,1,0,0:0:0:0:
256,192,331767,1,2,0:0:0:0:
256,192,331829,1,0,0:0:0:0:
256,192,331892,1,2,0:0:0:0:
256,192,331954,1,2,0:0:0:0:
256,192,332017,1,0,0:0:0:0:
256,192,332142,1,0,0:0:0:0:
256,192,332267,1,2,0:0:0:0:
256,192,332329,1,2,0:0:0:0:
256,192,332392,1,0,0:0:0:0:
256,192,332517,1,2,0:0:0:0:
256,192,332642,1,0,0:0:0:0:
256,192,332704,1,0,0:0:0:0:
256,192,332767,1,0,0:0:0:0:
256,192,332829,1,2,0:0:0:0:
256,192,332892,1,0,0:0:0:0:
256,192,332954,1,0,0:0:0:0:
256,192,333017,1,2,0:0:0:0:
256,192,333079,1,2,0:0:0:0:
256,192,333142,1,0,0:0:0:0:
256,192,333267,1,2,0:0:0:0:
256,192,333392,1,0,0:0:0:0:
256,192,333454,1,0,0:0:0:0:
256,192,333517,1,2,0:0:0:0:
256,192,333579,1,2,0:0:0:0:
256,192,333642,1,2,0:0:0:0:
256,192,333767,1,0,0:0:0:0:
256,192,333892,1,2,0:0:0:0:
256,192,334017,1,2,0:0:0:0:
256,192,334079,1,2,0:0:0:0:
256,192,334142,1,0,0:0:0:0:
256,192,334267,1,2,0:0:0:0:
256,192,334392,1,0,0:0:0:0:
256,192,334454,1,0,0:0:0:0:
256,192,334517,1,2,0:0:0:0:
256,192,334642,1,0,0:0:0:0:
256,192,334767,1,2,0:0:0:0:
256,192,334892,1,0,0:0:0:0:
256,192,334954,1,2,0:0:0:0:
256,192,335017,1,0,0:0:0:0:
256,192,335142,1,0,0:0:0:0:
256,192,335267,1,2,0:0:0:0:
256,192,335392,1,0,0:0:0:0:
256,192,335454,1,2,0:0:0:0:
256,192,335517,1,2,0:0:0:0:
256,192,335642,1,0,0:0:0:0:
256,192,335767,1,2,0:0:0:0:
256,192,335829,1,2,0:0:0:0:
256,192,335892,1,0,0:0:0:0:
256,192,335954,1,2,0:0:0:0:
256,192,336017,1,2,0:0:0:0:
256,192,336142,1,0,0:0:0:0:
256,192,336267,1,2,0:0:0:0:
256,192,336329,1,2,0:0:0:0:
256,192,336392,1,0,0:0:0:0:
256,192,336454,1,0,0:0:0:0:
256,192,336517,1,2,0:0:0:0:
256,192,336579,1,2,0:0:0:0:
256,192,336642,1,0,0:0:0:0:
256,192,336704,1,0,0:0:0:0:
256,192,336767,1,2,0:0:0:0:
256,192,336829,1,0,0:0:0:0:
256,192,336892,1,2,0:0:0:0:
256,192,336954,1,2,0:0:0:0:
256,192,337017,1,2,0:0:0:0:
256,192,337079,1,2,0:0:0:0:
256,192,337142,1,0,0:0:0:0:
256,192,337204,1,2,0:0:0:0:
256,192,337267,1,2,0:0:0:0:
256,192,337329,1,0,0:0:0:0:
256,192,337392,1,2,0:0:0:0:
256,192,337454,1,0,0:0:0:0:
256,192,337517,1,0,0:0:0:0:
256,192,337579,1,2,0:0:0:0:
256,192,337642,1,0,0:0:0:0:
256,192,337704,1,0,0:0:0:0:
256,192,337767,1,0,0:0:0:0:
256,192,337829,1,0,0:0:0:0:
256,192,337892,1,2,0:0:0:0:
256,192,338017,1,2,0:0:0:0:
256,192,338079,1,2,0:0:0:0:
256,192,338142,1,0,0:0:0:0:
256,192,338267,1,2,0:0:0:0:
256,192,338392,1,0,0:0:0:0:
256,192,338517,1,0,0:0:0:0:
256,192,338579,1,0,0:0:0:0:
256,192,338642,1,2,0:0:0:0:
256,192,338767,1,0,0:0:0:0:
256,192,338892,1,2,0:0:0:0:
256,192,338954,1,2,0:0:0:0:
256,192,339017,1,2,0:0:0:0:
256,192,339142,1,0,0:0:0:0:
256,192,339267,1,2,0:0:0:0:
256,192,339329,1,2,0:0:0:0:
256,192,339392,1,0,0:0:0:0:
256,192,339454,1,0,0:0:0:0:
256,192,339517,1,2,0:0:0:0:
256,192,339642,1,0,0:0:0:0:
256,192,339767,1,2,0:0:0:0:
256,192,339829,1,2,0:0:0:0:
256,192,339892,1,0,0:0:0:0:
256,192,339954,1,2,0:0:0:0:
256,192,340017,1,0,0:0:0:0:
256,192,340142,1,2,0:0:0:0:
256,192,340204,1,2,0:0:0:0:
256,192,340267,1,2,0:0:0:0:
256,192,340329,1,0,0:0:0:0:
256,192,340392,1,2,0:0:0:0:
256,192,340454,1,2,0:0:0:0:
256,192,340517,1,0,0:0:0:0:
256,192,340579,1,0,0:0:0:0:
256,192,340642,1,2,0:0:0:0:
256,192,340704,1,2,0:0:0:0:
256,192,340767,1,2,0:0:0:0:
256,192,340829,1,0,0:0:0:0:
256,192,340892,1,2,0:0:0:0:
256,192,340954,1,0,0:0:0:0:
256,192,341017,1,0,0:0:0:0:
256,192,341079,1,2,0:0:0:0:
256,192,341142,1,0,0:0:0:0:
256,192,341204,1,2,0:0:0:0:
256,192,341267,1,2,0:0:0:0:
256,192,341329,1,0,0:0:0:0:
256,192,341392,1,2,0:0:0:0:
256,192,341454,1,2,0:0:0:0:
256,192,341517,1,0,0:0:0:0:
256,192,341579,1,0,0:0:0:0:
256,192,341642,1,2,0:0:0:0:
256,192,341767,1,2,0:0:0:0:
256,192,341829,1,2,0:0:0:0:
256,192,341892,1,2,0:0:0:0:
256,192,342017,1,2,0:0:0:0:
256,192,342142,1,0,0:0:0:0:
256,192,342267,1,2,0:0:0:0:
256,192,342392,1,0,0:0:0:0:
256,192,342454,1,0,0:0:0:0:
256,192,342517,1,2,0:0:0:0:
256,192,342642,1,0,0:0:0:0:
256,192,342767,1,2,0:0:0:0:
256,192,342892,1,0,0:0:0:0:
256,192,342954,1,2,0:0:0:0:
256,192,343017,1,2,0:0:0:0:
256,192,343142,1,0,0:0:0:0:
256,192,343267,1,2,0:0:0:0:
256,192,343329,1,2,0:0:0:0:
256,192,343392,1,0,0:0:0:0:
256,192,343454,1,0,0:0:0:0:
256,192,343517,1,2,0:0:0:0:
256,192,343642,1,0,0:0:0:0:
256,192,343704,1,0,0:0:0:0:
256,192,343767,1,0,0:0:0:0:
256,192,343829,1,0,0:0:0:0:
256,192,343892,1,2,0:0:0:0:
256,192,344017,1,0,0:0:0:0:
256,192,344142,1,2,0:0:0:0:
256,192,344267,1,0,0:0:0:0:
256,192,344329,1,2,0:0:0:0:
256,192,344392,1,0,0:0:0:0:
256,192,344517,1,2,0:0:0:0:
256,192,344642,1,0,0:0:0:0:
256,192,344767,1,2,0:0:0:0:
256,192,344829,1,0,0:0:0:0:
256,192,344892,1,2,0:0:0:0:
256,192,344954,1,2,0:0:0:0:
256,192,345017,1,0,0:0:0:0:
256,192,345079,1,0,0:0:0:0:
256,192,345142,1,2,0:0:0:0:
256,192,345204,1,0,0:0:0:0:
256,192,345267,1,0,0:0:0:0:
256,192,345329,1,0,0:0:0:0:
256,192,345392,1,0,0:0:0:0:
256,192,345454,1,0,0:0:0:0:
256,192,345517,1,2,0:0:0:0:
256,192,345579,1,0,0:0:0:0:
256,192,345642,1,0,0:0:0:0:
256,192,345704,1,0,0:0:0:0:
256,192,345767,1,0,0:0:0:0:
256,192,345829,1,0,0:0:0:0:
256,192,345892,1,2,0:0:0:0:
256,192,346142,1,4,0:0:0:0:
256,192,346392,1,0,0:0:0:0:
256,192,346454,1,0,0:0:0:0:
256,192,346517,1,0,0:0:0:0:
256,192,346579,1,2,0:0:0:0:
256,192,346642,1,0,0:0:0:0:
256,192,346704,1,2,0:0:0:0:
256,192,346767,1,2,0:0:0:0:
256,192,346829,1,0,0:0:0:0:
256,192,346892,1,2,0:0:0:0:
256,192,346954,1,2,0:0:0:0:
256,192,347017,1,2,0:0:0:0:
256,192,347079,1,0,0:0:0:0:
256,192,347142,1,2,0:0:0:0:
256,192,347204,1,2,0:0:0:0:
256,192,347267,1,0,0:0:0:0:
256,192,347329,1,2,0:0:0:0:
256,192,347392,1,0,0:0:0:0:
256,192,347454,1,0,0:0:0:0:
256,192,347517,1,2,0:0:0:0:
256,192,347579,1,2,0:0:0:0:
256,192,347642,1,0,0:0:0:0:
256,192,347704,1,0,0:0:0:0:
256,192,347767,1,0,0:0:0:0:
256,192,347829,1,0,0:0:0:0:
256,192,347892,1,2,0:0:0:0:
256,192,348142,1,0,0:0:0:0:
256,192,348267,1,0,0:0:0:0:
256,192,348329,1,0,0:0:0:0:
256,192,348392,1,0,0:0:0:0:
256,192,348517,1,0,0:0:0:0:
256,192,348642,1,2,0:0:0:0:
256,192,348767,1,0,0:0:0:0:
256,192,348829,1,0,0:0:0:0:
256,192,348892,1,0,0:0:0:0:
256,192,349017,1,0,0:0:0:0:
256,192,349142,1,0,0:0:0:0:
256,192,349267,1,0,0:0:0:0:
256,192,349329,1,0,0:0:0:0:
256,192,349392,1,2,0:0:0:0:
256,192,349517,1,0,0:0:0:0:
256,192,349642,1,2,0:0:0:0:
256,192,349767,1,0,0:0:0:0:
256,192,349829,1,0,0:0:0:0:
256,192,349892,1,0,0:0:0:0:
256,192,350017,1,0,0:0:0:0:
256,192,350142,1,0,0:0:0:0:
256,192,350267,1,0,0:0:0:0:
256,192,350329,1,2,0:0:0:0:
256,192,350392,1,2,0:0:0:0:
256,192,350517,1,0,0:0:0:0:
256,192,350642,1,2,0:0:0:0:
256,192,350767,1,0,0:0:0:0:
256,192,350892,1,2,0:0:0:0:
256,192,350954,1,2,0:0:0:0:
256,192,351017,1,0,0:0:0:0:
256,192,351079,1,0,0:0:0:0:
256,192,351142,1,2,0:0:0:0:
256,192,351267,1,2,0:0:0:0:
256,192,351329,1,2,0:0:0:0:
256,192,351392,1,0,0:0:0:0:
256,192,351454,1,0,0:0:0:0:
256,192,351517,1,0,0:0:0:0:
256,192,351579,1,0,0:0:0:0:
256,192,351642,1,2,0:0:0:0:
256,192,351704,1,2,0:0:0:0:
256,192,351767,1,0,0:0:0:0:
256,192,351829,1,0,0:0:0:0:
256,192,351892,1,2,0:0:0:0:
256,192,352017,1,0,0:0:0:0:
256,192,352142,1,2,0:0:0:0:
256,192,352267,1,0,0:0:0:0:
256,192,352392,1,2,0:0:0:0:
256,192,352517,1,0,0:0:0:0:
256,192,352579,1,0,0:0:0:0:
256,192,352642,1,2,0:0:0:0:
256,192,352767,1,0,0:0:0:0:
256,192,352892,1,2,0:0:0:0:
256,192,353017,1,0,0:0:0:0:
256,192,353079,1,0,0:0:0:0:
256,192,353142,1,2,0:0:0:0:
256,192,353204,1,0,0:0:0:0:
256,192,353267,1,0,0:0:0:0:
256,192,353329,1,0,0:0:0:0:
256,192,353392,1,2,0:0:0:0:
256,192,353454,1,2,0:0:0:0:
256,192,353517,1,0,0:0:0:0:
256,192,353579,1,0,0:0:0:0:
256,192,353642,1,2,0:0:0:0:
256,192,353767,1,0,0:0:0:0:
256,192,353892,1,2,0:0:0:0:
256,192,354142,1,2,0:0:0:0:
256,192,354392,1,0,0:0:0:0:
256,192,354454,1,2,0:0:0:0:
256,192,354517,1,0,0:0:0:0:
256,192,354579,1,2,0:0:0:0:
256,192,354642,1,0,0:0:0:0:
256,192,354704,1,2,0:0:0:0:
256,192,354767,1,0,0:0:0:0:
256,192,354829,1,2,0:0:0:0:
256,192,354892,1,0,0:0:0:0:
256,192,354954,1,2,0:0:0:0:
256,192,355017,1,0,0:0:0:0:
256,192,355079,1,2,0:0:0:0:
256,192,355142,1,0,0:0:0:0:
256,192,355204,1,2,0:0:0:0:
256,192,355267,1,0,0:0:0:0:
256,192,355329,1,2,0:0:0:0:
256,192,355392,1,0,0:0:0:0:
256,192,355454,1,2,0:0:0:0:
256,192,355517,1,0,0:0:0:0:
256,192,355579,1,2,0:0:0:0:
256,192,355642,1,0,0:0:0:0:
256,192,355704,1,2,0:0:0:0:
256,192,355767,1,0,0:0:0:0:
256,192,355829,1,0,0:0:0:0:
256,192,355892,1,2,0:0:0:0:
256,192,356017,1,0,0:0:0:0:
256,192,356142,1,2,0:0:0:0:
256,192,356204,1,0,0:0:0:0:
256,192,356267,1,2,0:0:0:0:
256,192,356329,1,0,0:0:0:0:
256,192,356392,1,2,0:0:0:0:
256,192,356454,1,0,0:0:0:0:
256,192,356517,1,2,0:0:0:0:
256,192,356579,1,0,0:0:0:0:
256,192,356642,1,2,0:0:0:0:
256,192,356704,1,2,0:0:0:0:
256,192,356767,1,0,0:0:0:0:
256,192,356829,1,0,0:0:0:0:
256,192,356892,1,2,0:0:0:0:
256,192,356954,1,0,0:0:0:0:
256,192,357017,1,0,0:0:0:0:
256,192,357079,1,0,0:0:0:0:
256,192,357142,1,2,0:0:0:0:
256,192,357642,1,0,0:0:0:0:
256,192,357704,1,2,0:0:0:0:
256,192,357767,1,2,0:0:0:0:
256,192,357829,1,2,0:0:0:0:
256,192,357892,1,0,0:0:0:0:
256,192,358142,5,4,0:0:0:0:
256,192,358267,1,0,0:0:0:0:
256,192,358329,1,0,0:0:0:0:
256,192,358392,1,2,0:0:0:0:
256,192,358517,1,2,0:0:0:0:
256,192,358642,1,0,0:0:0:0:
256,192,358704,1,0,0:0:0:0:
256,192,358767,1,2,0:0:0:0:
256,192,358829,1,2,0:0:0:0:
256,192,358892,1,0,0:0:0:0:
256,192,358954,1,0,0:0:0:0:
256,192,359017,1,2,0:0:0:0:
256,192,359142,1,0,0:0:0:0:
256,192,359267,1,2,0:0:0:0:
256,192,359329,1,0,0:0:0:0:
256,192,359392,1,0,0:0:0:0:
256,192,359517,1,2,0:0:0:0:
256,192,359642,1,0,0:0:0:0:
256,192,359704,1,0,0:0:0:0:
256,192,359767,1,2,0:0:0:0:
256,192,359829,1,2,0:0:0:0:
256,192,359892,1,0,0:0:0:0:
256,192,359954,1,2,0:0:0:0:
256,192,360017,1,0,0:0:0:0:
256,192,360142,1,0,0:0:0:0:
256,192,360267,1,0,0:0:0:0:
256,192,360329,1,0,0:0:0:0:
256,192,360392,1,2,0:0:0:0:
256,192,360517,1,2,0:0:0:0:
256,192,360642,1,0,0:0:0:0:
256,192,360704,1,0,0:0:0:0:
256,192,360767,1,2,0:0:0:0:
256,192,360829,1,2,0:0:0:0:
256,192,360892,1,0,0:0:0:0:
256,192,360954,1,2,0:0:0:0:
256,192,361017,1,2,0:0:0:0:
256,192,361142,1,0,0:0:0:0:
256,192,361267,1,2,0:0:0:0:
256,192,361329,1,2,0:0:0:0:
256,192,361392,1,0,0:0:0:0:
256,192,361517,1,2,0:0:0:0:
256,192,361642,1,0,0:0:0:0:
256,192,361704,1,2,0:0:0:0:
256,192,361767,1,2,0:0:0:0:
256,192,361829,1,2,0:0:0:0:
256,192,361892,1,0,0:0:0:0:
256,192,362017,1,2,0:0:0:0:
256,192,362142,1,0,0:0:0:0:
256,192,362267,1,0,0:0:0:0:
256,192,362329,1,0,0:0:0:0:
256,192,362392,1,2,0:0:0:0:
256,192,362517,1,2,0:0:0:0:
256,192,362642,1,0,0:0:0:0:
256,192,362704,1,0,0:0:0:0:
256,192,362767,1,2,0:0:0:0:
256,192,362829,1,2,0:0:0:0:
256,192,362892,1,0,0:0:0:0:
256,192,362954,1,0,0:0:0:0:
256,192,363017,1,2,0:0:0:0:
256,192,363142,1,0,0:0:0:0:
256,192,363267,1,2,0:0:0:0:
256,192,363329,1,0,0:0:0:0:
256,192,363392,1,0,0:0:0:0:
256,192,363517,1,2,0:0:0:0:
256,192,363642,1,0,0:0:0:0:
256,192,363704,1,0,0:0:0:0:
256,192,363767,1,2,0:0:0:0:
256,192,363829,1,2,0:0:0:0:
256,192,363892,1,0,0:0:0:0:
256,192,363954,1,2,0:0:0:0:
256,192,364017,1,0,0:0:0:0:
256,192,364142,1,2,0:0:0:0:
256,192,364204,1,2,0:0:0:0:
256,192,364267,1,2,0:0:0:0:
256,192,364329,1,2,0:0:0:0:
256,192,364392,1,0,0:0:0:0:
256,192,364454,1,0,0:0:0:0:
256,192,364517,1,0,0:0:0:0:
256,192,364579,1,0,0:0:0:0:
256,192,364642,1,2,0:0:0:0:
256,192,364704,1,2,0:0:0:0:
256,192,364767,1,0,0:0:0:0:
256,192,364829,1,0,0:0:0:0:
256,192,364892,1,2,0:0:0:0:
256,192,364954,1,2,0:0:0:0:
256,192,365017,1,2,0:0:0:0:
256,192,365079,1,2,0:0:0:0:
256,192,365142,1,0,0:0:0:0:
256,192,365204,1,2,0:0:0:0:
256,192,365267,1,0,0:0:0:0:
256,192,365329,1,0,0:0:0:0:
256,192,365392,1,2,0:0:0:0:
256,192,365454,1,2,0:0:0:0:
256,192,365517,1,0,0:0:0:0:
256,192,365579,1,0,0:0:0:0:
256,192,365642,1,2,0:0:0:0:
256,192,365704,1,0,0:0:0:0:
256,192,365767,1,0,0:0:0:0:
256,192,365829,1,0,0:0:0:0:
256,192,365892,1,2,0:0:0:0:
256,192,366017,1,2,0:0:0:0:
256,192,366142,5,0,0:0:0:0:
256,192,366204,1,0,0:0:0:0:
256,192,366267,1,0,0:0:0:0:
256,192,366329,1,0,0:0:0:0:
256,192,366392,1,2,0:0:0:0:
256,192,366454,1,0,0:0:0:0:
256,192,366517,1,0,0:0:0:0:
256,192,366579,1,0,0:0:0:0:
256,192,366642,1,2,0:0:0:0:
256,192,366704,1,0,0:0:0:0:
256,192,366767,1,0,0:0:0:0:
256,192,366829,1,0,0:0:0:0:
256,192,366892,1,2,0:0:0:0:
256,192,366954,1,0,0:0:0:0:
256,192,367017,1,0,0:0:0:0:
256,192,367079,1,0,0:0:0:0:
256,192,367142,1,2,0:0:0:0:
256,192,367204,1,2,0:0:0:0:
256,192,367267,1,0,0:0:0:0:
256,192,367329,1,0,0:0:0:0:
256,192,367392,1,2,0:0:0:0:
256,192,367454,1,0,0:0:0:0:
256,192,367517,1,0,0:0:0:0:
256,192,367579,1,0,0:0:0:0:
256,192,367642,1,2,0:0:0:0:
256,192,367704,1,2,0:0:0:0:
256,192,367767,1,0,0:0:0:0:
256,192,367829,1,2,0:0:0:0:
256,192,367892,1,0,0:0:0:0:
256,192,367954,1,0,0:0:0:0:
256,192,368017,1,2,0:0:0:0:
256,192,368079,1,2,0:0:0:0:
256,192,368142,1,0,0:0:0:0:
256,192,368204,1,0,0:0:0:0:
256,192,368267,1,0,0:0:0:0:
256,192,368329,1,0,0:0:0:0:
256,192,368392,1,2,0:0:0:0:
256,192,368454,1,0,0:0:0:0:
256,192,368517,1,0,0:0:0:0:
256,192,368579,1,0,0:0:0:0:
256,192,368642,1,2,0:0:0:0:
256,192,368704,1,0,0:0:0:0:
256,192,368767,1,0,0:0:0:0:
256,192,368829,1,0,0:0:0:0:
256,192,368892,1,2,0:0:0:0:
256,192,368954,1,0,0:0:0:0:
256,192,369017,1,0,0:0:0:0:
256,192,369079,1,0,0:0:0:0:
256,192,369142,1,2,0:0:0:0:
256,192,369204,1,2,0:0:0:0:
256,192,369267,1,2,0:0:0:0:
256,192,369329,1,2,0:0:0:0:
256,192,369392,1,0,0:0:0:0:
256,192,369454,1,0,0:0:0:0:
256,192,369517,1,2,0:0:0:0:
256,192,369579,1,2,0:0:0:0:
256,192,369642,1,0,0:0:0:0:
256,192,369704,1,2,0:0:0:0:
256,192,369767,1,0,0:0:0:0:
256,192,369829,1,0,0:0:0:0:
256,192,369892,1,2,0:0:0:0:
256,192,369954,1,2,0:0:0:0:
256,192,370017,1,2,0:0:0:0:
256,192,370079,1,2,0:0:0:0:
256,192,370142,1,0,0:0:0:0:
256,192,370204,1,0,0:0:0:0:
256,192,370267,1,0,0:0:0:0:
256,192,370329,1,0,0:0:0:0:
256,192,370392,1,2,0:0:0:0:
256,192,370454,1,0,0:0:0:0:
256,192,370517,1,0,0:0:0:0:
256,192,370579,1,0,0:0:0:0:
256,192,370642,1,2,0:0:0:0:
256,192,370704,1,0,0:0:0:0:
256,192,370767,1,0,0:0:0:0:
256,192,370829,1,0,0:0:0:0:
256,192,370892,1,2,0:0:0:0:
256,192,370954,1,0,0:0:0:0:
256,192,371017,1,0,0:0:0:0:
256,192,371079,1,0,0:0:0:0:
256,192,371142,1,2,0:0:0:0:
256,192,371204,1,2,0:0:0:0:
256,192,371267,1,0,0:0:0:0:
256,192,371329,1,0,0:0:0:0:
256,192,371392,1,2,0:0:0:0:
256,192,371454,1,0,0:0:0:0:
256,192,371517,1,0,0:0:0:0:
256,192,371579,1,0,0:0:0:0:
256,192,371642,1,2,0:0:0:0:
256,192,371704,1,2,0:0:0:0:
256,192,371767,1,0,0:0:0:0:
256,192,371829,1,2,0:0:0:0:
256,192,371892,1,0,0:0:0:0:
256,192,371954,1,0,0:0:0:0:
256,192,372017,1,2,0:0:0:0:
256,192,372079,1,2,0:0:0:0:
256,192,372142,1,0,0:0:0:0:
256,192,372204,1,0,0:0:0:0:
256,192,372267,1,0,0:0:0:0:
256,192,372329,1,0,0:0:0:0:
256,192,372392,1,2,0:0:0:0:
256,192,372454,1,2,0:0:0:0:
256,192,372517,1,2,0:0:0:0:
256,192,372579,1,2,0:0:0:0:
256,192,372642,1,0,0:0:0:0:
256,192,372704,1,0,0:0:0:0:
256,192,372767,1,2,0:0:0:0:
256,192,372829,1,2,0:0:0:0:
256,192,372892,1,0,0:0:0:0:
256,192,372954,1,0,0:0:0:0:
256,192,373017,1,0,0:0:0:0:
256,192,373079,1,0,0:0:0:0:
256,192,373142,1,2,0:0:0:0:
256,192,373642,1,6,0:0:0:0:
256,192,374142,1,4,0:0:0:0:
256,192,374392,1,0,0:0:0:0:
256,192,374454,1,2,0:0:0:0:
256,192,374517,1,0,0:0:0:0:
256,192,374642,1,0,0:0:0:0:
256,192,374704,1,2,0:0:0:0:
256,192,374767,1,0,0:0:0:0:
256,192,374892,1,0,0:0:0:0:
256,192,374954,1,2,0:0:0:0:
256,192,375017,1,0,0:0:0:0:
256,192,375142,1,0,0:0:0:0:
256,192,375204,1,2,0:0:0:0:
256,192,375267,1,0,0:0:0:0:
256,192,375392,1,0,0:0:0:0:
256,192,375454,1,2,0:0:0:0:
256,192,375517,1,0,0:0:0:0:
256,192,375642,1,0,0:0:0:0:
256,192,375704,1,0,0:0:0:0:
256,192,375767,1,2,0:0:0:0:
256,192,375829,1,2,0:0:0:0:
256,192,375892,1,0,0:0:0:0:
256,192,375954,1,0,0:0:0:0:
256,192,376017,1,2,0:0:0:0:
256,192,376142,1,0,0:0:0:0:
256,192,376204,1,2,0:0:0:0:
256,192,376267,1,0,0:0:0:0:
256,192,376392,1,0,0:0:0:0:
256,192,376454,1,2,0:0:0:0:
256,192,376517,1,0,0:0:0:0:
256,192,376642,1,0,0:0:0:0:
256,192,376704,1,2,0:0:0:0:
256,192,376767,1,0,0:0:0:0:
256,192,376892,1,0,0:0:0:0:
256,192,376954,1,2,0:0:0:0:
256,192,377017,1,0,0:0:0:0:
256,192,377142,1,0,0:0:0:0:
256,192,377204,1,2,0:0:0:0:
256,192,377267,1,0,0:0:0:0:
256,192,377329,1,2,0:0:0:0:
256,192,377392,1,0,0:0:0:0:
256,192,377454,1,2,0:0:0:0:
256,192,377517,1,0,0:0:0:0:
256,192,377579,1,0,0:0:0:0:
256,192,377642,1,2,0:0:0:0:
256,192,377704,1,2,0:0:0:0:
256,192,377767,1,2,0:0:0:0:
256,192,377829,1,2,0:0:0:0:
256,192,377892,1,0,0:0:0:0:
256,192,377954,1,0,0:0:0:0:
256,192,378017,1,0,0:0:0:0:
256,192,378079,1,0,0:0:0:0:
256,192,378142,1,0,0:0:0:0:
256,192,378392,1,2,0:0:0:0:
256,192,378454,1,2,0:0:0:0:
256,192,378517,1,0,0:0:0:0:
256,192,378579,1,0,0:0:0:0:
256,192,378642,1,2,0:0:0:0:
256,192,378704,1,2,0:0:0:0:
256,192,378767,1,0,0:0:0:0:
256,192,378829,1,0,0:0:0:0:
256,192,378892,1,2,0:0:0:0:
256,192,378954,1,2,0:0:0:0:
256,192,379017,1,0,0:0:0:0:
256,192,379079,1,0,0:0:0:0:
256,192,379142,1,2,0:0:0:0:
256,192,379204,1,0,0:0:0:0:
256,192,379267,1,2,0:0:0:0:
256,192,379329,1,0,0:0:0:0:
256,192,379392,1,2,0:0:0:0:
256,192,379454,1,0,0:0:0:0:
256,192,379517,1,2,0:0:0:0:
256,192,379579,1,0,0:0:0:0:
256,192,379642,1,2,0:0:0:0:
256,192,379704,1,2,0:0:0:0:
256,192,379767,1,0,0:0:0:0:
256,192,379829,1,0,0:0:0:0:
256,192,379892,1,2,0:0:0:0:
256,192,380017,1,0,0:0:0:0:
256,192,380142,1,2,0:0:0:0:
256,192,380204,1,2,0:0:0:0:
256,192,380267,1,0,0:0:0:0:
256,192,380329,1,2,0:0:0:0:
256,192,380392,1,0,0:0:0:0:
256,192,380454,1,0,0:0:0:0:
256,192,380517,1,2,0:0:0:0:
256,192,380579,1,2,0:0:0:0:
256,192,380642,1,0,0:0:0:0:
256,192,380704,1,2,0:0:0:0:
256,192,380767,1,0,0:0:0:0:
256,192,380829,1,0,0:0:0:0:
256,192,380892,1,2,0:0:0:0:
256,192,381017,1,0,0:0:0:0:
256,192,381142,1,2,0:0:0:0:
256,192,381267,1,0,0:0:0:0:
256,192,381392,1,0,0:0:0:0:
256,192,381517,1,6,0:0:0:0:
256,192,381642,1,0,0:0:0:0:
256,192,381704,1,0,0:0:0:0:
256,192,381767,1,0,0:0:0:0:
256,192,381829,1,0,0:0:0:0:
256,192,381892,1,2,0:0:0:0:
256,192,382017,1,0,0:0:0:0:
256,192,382079,1,2,0:0:0:0:
256,192,382142,1,0,0:0:0:0:
256,192,382204,1,0,0:0:0:0:
256,192,382267,1,2,0:0:0:0:
256,192,382392,1,0,0:0:0:0:
256,192,382454,1,2,0:0:0:0:
256,192,382517,1,0,0:0:0:0:
256,192,382579,1,0,0:0:0:0:
256,192,382642,1,2,0:0:0:0:
256,192,382704,1,2,0:0:0:0:
256,192,382767,1,0,0:0:0:0:
256,192,382829,1,0,0:0:0:0:
256,192,382892,1,2,0:0:0:0:
256,192,382954,1,2,0:0:0:0:
256,192,383017,1,2,0:0:0:0:
256,192,383142,1,4,0:0:0:0:
