osu file format v14

[General]
AudioFilename: 14th-dan.mp3
AudioLeadIn: 0
PreviewTime: 74681
Countdown: 0
SampleSet: None
StackLeniency: 0.7
Mode: 1
LetterboxInBreaks: 0
WidescreenStoryboard: 1

[Editor]
Bookmarks: 237,130090,248290
DistanceSpacing: 0.5
BeatDivisor: 4
GridSize: 32
TimelineZoom: 1.8

[Metadata]
Title:osu!Taiko Dan-i Dojo (Part.3)
TitleUnicode:osu!Taiko 段位道場
Artist:Various Artists
ArtistUnicode:Various Artists
Creator:tasuke912
Version:14th Dan
Source:
Tags:danni dani doujou
BeatmapID:2295713
BeatmapSetID:912120

[Difficulty]
HPDrainRate:6
CircleSize:8
OverallDifficulty:6
ApproachRate:6.75
SliderMultiplier:1.4
SliderTickRate:1

[Events]
//Background and Video events
0,0,"bg_14.jpg",0,130
//Break Periods
2,125488,135610
2,245490,251259
//Storyboard Layer 0 (Background)
Sprite,Background,Centre,"bg_14.jpg",320,240 F,0,0,,0
Sprite,Background,Centre,"BG\14\1.jpg",320,0 S,0,-1263,,0.625 MY,0,-1263,,380 F,0,-1263,-763,0,1 F,0,128590,129090,1,0
Sprite,Background,Centre,"BG\14\2.jpg",320,0 S,0,128590,,0.625 MY,0,128590,,380 F,0,128590,129090,0,1 F,0,246790,247290,1,0
Sprite,Background,Centre,"BG\14\3.jpg",320,0 S,0,246790,,0.625 MY,0,246790,,380 F,0,246790,247290,0,1 F,0,358628,359128,1,0
//Storyboard Layer 1 (Fail)
//Storyboard Layer 2 (Pass)
//Storyboard Layer 3 (Foreground)
Sprite,Foreground,TopCentre,"BG\black.png",320,0 F,0,-1763,-1263,0,1 MY,0,-1263,,0 V,0,-1263,,3,3.2 F,0,359628,360628,1,0
Sprite,Foreground,Centre,"BG\stage.png",0,0 F,0,-1763,-1263,0,1 M,0,-1263,,680,105 V,0,-1263,,0.4,0.3 F,0,359628,360628,1,0
Sprite,Foreground,CentreLeft,"BG\stage.png",0,0 F,0,-1763,-1263,0,1 M,0,-1263,,270,272 V,0,-1263,,0.3,0.22 F,0,359628,360628,1,0
Sprite,Foreground,CentreLeft,"BG\stage.png",0,0 F,0,-1763,-1263,0,1 P,0,-1763,360628,H M,0,-1263,,420,272 V,0,-1263,,0.8,0.22 F,0,359628,360628,1,0
Sprite,Foreground,CentreLeft,"BG\line.png",0,0 C,0,-1263,,255,76,135 F,0,-763,,1 V,0,-763,128590,0,0.5,0.237,0.5 M,0,0,,597,122 P,0,0,,A F,0,127390,128590,1,0 C,0,128590,,255,233,127 F,0,129090,,1 V,0,129090,246790,0,0.5,0.237,0.5 F,0,245590,246790,1,0 C,0,246790,,0,85,255 F,0,247290,,1 V,0,247290,358628,0,0.5,0.237,0.5 F,0,357428,358628,1,0
Sprite,Foreground,TopLeft,"SB\fonts\0059.png",0,0 P,0,-263,128390,A F,0,407,1407,0,1 S,1,407,1407,0.6,0.4 MX,1,407,1407,177,390 MY,1,407,1407,171.2,264.2 F,0,127390,128390,1,0
Sprite,Foreground,TopLeft,"SB\fonts\0055.png",0,0 P,0,-263,128390,A F,0,439,1439,0,1 S,1,439,1439,0.6,0.4 MX,1,439,1439,299.8,400.8 MY,1,439,1439,171.2,264.2 F,0,127390,128390,1,0
Sprite,Foreground,TopLeft,"SB\fonts\0043.png",0,0 P,0,-263,128390,A F,0,475,1475,0,1 S,1,475,1475,0.6,0.4 MX,1,475,1475,282.8,412.8 MY,1,475,1475,532.2,264.2 F,0,127390,128390,1,0
Sprite,Foreground,TopLeft,"SB\fonts\0027.png",0,0 P,0,-263,128390,A F,0,510,1510,0,1 S,1,510,1510,0.6,0.4 MX,1,510,1510,310.4,424.4 MY,1,510,1510,507.4,263.4 F,0,127390,128390,1,0
Sprite,Foreground,TopLeft,"SB\fonts\0065.png",0,0 P,0,-263,128390,A F,0,519,1519,0,1 S,1,519,1519,0.6,0.4 MX,1,519,1519,461.5999,427.5999 MY,1,519,1519,408.8,267.8 F,0,127390,128390,1,0
Sprite,Foreground,TopLeft,"SB\fonts\002d.png",0,0 P,0,-263,128390,A F,0,559,1559,0,1 S,1,559,1559,0.6,0.4 MX,1,559,1559,458.7999,440.7999 MY,1,559,1559,374.4,271.4 F,0,127390,128390,1,0
Sprite,Foreground,TopLeft,"SB\fonts\0043.png",0,0 P,0,-263,128390,A F,0,592,1592,0,1 S,1,592,1592,0.6,0.4 MX,1,592,1592,447.9999,451.9999 MY,1,592,1592,299.2,264.2 F,0,127390,128390,1,0
Sprite,Foreground,TopLeft,"SB\fonts\0048.png",0,0 P,0,-263,128390,A F,0,621,1621,0,1 S,1,621,1621,0.6,0.4 MX,1,621,1621,566.5999,461.5999 MY,1,621,1621,205.2,264.2 F,0,127390,128390,1,0
Sprite,Foreground,TopLeft,"SB\fonts\004f.png",0,0 P,0,-263,128390,A F,0,663,1663,0,1 S,1,663,1663,0.6,0.4 MX,1,663,1663,342.5999,475.5999 MY,1,663,1663,452.2,264.2 F,0,127390,128390,1,0
Sprite,Foreground,TopLeft,"SB\fonts\0043.png",0,0 P,0,-263,128390,A F,0,699,1699,0,1 S,1,699,1699,0.6,0.4 MX,1,699,1699,623.5999,487.5999 MY,1,699,1699,209.2,264.2 F,0,127390,128390,1,0
Sprite,Foreground,TopLeft,"SB\fonts\004f.png",0,0 P,0,-263,128390,A F,0,730,1730,0,1 S,1,730,1730,0.6,0.4 MX,1,730,1730,254.9999,497.9999 MY,1,730,1730,459.2,264.2 F,0,127390,128390,1,0
Sprite,Foreground,TopLeft,"SB\fonts\004c.png",0,0 P,0,-263,128390,A F,0,764,1764,0,1 S,1,764,1764,0.6,0.4 MX,1,764,1764,255.1999,509.1999 MY,1,764,1764,480.2,264.2 F,0,127390,128390,1,0
Sprite,Foreground,TopLeft,"SB\fonts\0041.png",0,0 P,0,-263,128390,A F,0,794,1794,0,1 S,1,794,1794,0.6,0.4 MX,1,794,1794,333.1999,519.1999 MY,1,794,1794,227.2,264.2 F,0,127390,128390,1,0
Sprite,Foreground,TopLeft,"SB\fonts\0054.png",0,0 P,0,-263,128390,A F,0,834,1834,0,1 S,1,834,1834,0.6,0.4 MX,1,834,1834,777.3999,532.3999 MY,1,834,1834,455.2,264.2 F,0,127390,128390,1,0
Sprite,Foreground,TopLeft,"SB\fonts\0045.png",0,0 P,0,-263,128390,A F,0,864,1864,0,1 S,1,864,1864,0.6,0.4 MX,1,864,1864,486.3999,542.3999 MY,1,864,1864,248.2,264.2 F,0,127390,128390,1,0
Sprite,Foreground,TopLeft,"SB\fonts\0042.png",0,0 P,0,-263,128390,A F,0,910,1910,0,1 S,1,910,1910,0.6,0.4 MX,1,910,1910,357.9999,557.9999 MY,1,910,1910,346.2,264.2 F,0,127390,128390,1,0
Sprite,Foreground,TopLeft,"SB\fonts\004f.png",0,0 P,0,-263,128390,A F,0,948,1948,0,1 S,1,948,1948,0.6,0.4 MX,1,948,1948,787.3999,570.3999 MY,1,948,1948,164.2,264.2 F,0,127390,128390,1,0
Sprite,Foreground,TopLeft,"SB\fonts\004d.png",0,0 P,0,-263,128390,A F,0,981,1981,0,1 S,1,981,1981,0.6,0.4 MX,1,981,1981,676.5999,581.5999 MY,1,981,1981,431.2,264.2 F,0,127390,128390,1,0
Sprite,Foreground,TopLeft,"SB\fonts\0042.png",0,0 P,0,-263,128390,A F,0,1028,2028,0,1 S,1,1028,2028,0.6,0.4 MX,1,1028,2028,320.1999,597.1999 MY,1,1028,2028,270.2,264.2 F,0,127390,128390,1,0
Sprite,Foreground,TopLeft,"SB\fonts\0021.png",0,0 P,0,-263,128390,A F,0,1064,2064,0,1 S,1,1064,2064,0.6,0.4 MX,1,1064,2064,800.1999,609.1999 MY,1,1064,2064,382.2,264.2 F,0,127390,128390,1,0
Sprite,Foreground,TopLeft,"SB\fonts\0021.png",0,0 P,0,-263,128390,A F,0,1081,2081,0,1 S,1,1081,2081,0.6,0.4 MX,1,1081,2081,547.7999,614.7999 MY,1,1081,2081,408.2,264.2 F,0,127390,128390,1,0
Sprite,Foreground,TopLeft,"SB\fonts\0021.png",0,0 P,0,-263,128390,A F,0,1098,2098,0,1 S,1,1098,2098,0.6,0.4 MX,1,1098,2098,413.3998,620.3998 MY,1,1098,2098,314.2,264.2 F,0,127390,128390,1,0
Sprite,Foreground,TopLeft,"SB\fonts\0021.png",0,0 P,0,-263,128390,A F,0,1114,2114,0,1 S,1,1114,2114,0.6,0.4 MX,1,1114,2114,580.9998,625.9998 MY,1,1114,2114,324.2,264.2 F,0,127390,128390,1,0
Sprite,Foreground,Centre,"SB\1st.png",0,0 M,0,-263,,670,104 S,0,-263,,0.6 P,0,-263,,A F,0,-263,737,0,1 F,0,127390,128390,1,0
Sprite,Foreground,TopLeft,"SB\fonts\0041.png",0,0 P,0,129590,246590,A F,0,130323,131323,0,1 S,1,130323,131323,0.6,0.4 MX,1,130323,131323,473.2,411.2 MY,1,130323,131323,542.2,264.2 F,0,245590,246590,1,0
Sprite,Foreground,TopLeft,"SB\fonts\006e.png",0,0 P,0,129590,246590,A F,0,130360,131360,0,1 S,1,130360,131360,0.6,0.4 MX,1,130360,131360,543.6,423.6 MY,1,130360,131360,478.8,267.8 F,0,245590,246590,1,0
Sprite,Foreground,TopLeft,"SB\fonts\0063.png",0,0 P,0,129590,246590,A F,0,130392,131392,0,1 S,1,130392,131392,0.6,0.4 MX,1,130392,131392,415,434 MY,1,130392,131392,341.8,267.8 F,0,245590,246590,1,0
Sprite,Foreground,TopLeft,"SB\fonts\0072.png",0,0 P,0,129590,246590,A F,0,130417,131417,0,1 S,1,130417,131417,0.6,0.4 MX,1,130417,131417,535.4,442.4 MY,1,130417,131417,477.8,267.8 F,0,245590,246590,1,0
Sprite,Foreground,TopLeft,"SB\fonts\0061.png",0,0 P,0,129590,246590,A F,0,130441,131441,0,1 S,1,130441,131441,0.6,0.4 MX,1,130441,131441,604.4,450.4 MY,1,130441,131441,329.8,267.8 F,0,245590,246590,1,0
Sprite,Foreground,TopLeft,"SB\fonts\0066.png",0,0 P,0,129590,246590,A F,0,130470,131470,0,1 S,1,130470,131470,0.6,0.4 MX,1,130470,131470,724,460 MY,1,130470,131470,378.4,263.4 F,0,245590,246590,1,0
Sprite,Foreground,TopLeft,"SB\fonts\0074.png",0,0 P,0,129590,246590,A F,0,130491,131491,0,1 S,1,130491,131491,0.6,0.4 MX,1,130491,131491,664.2,467.2 MY,1,130491,131491,215.4,265.4 F,0,245590,246590,1,0
Sprite,Foreground,TopLeft,"SB\fonts\002d.png",0,0 P,0,129590,246590,A F,0,130524,131524,0,1 S,1,130524,131524,0.6,0.4 MX,1,130524,131524,185,478 MY,1,130524,131524,403.4,271.4 F,0,245590,246590,1,0
Sprite,Foreground,TopLeft,"SB\fonts\004a.png",0,0 P,0,129590,246590,A F,0,130554,131554,0,1 S,1,130554,131554,0.6,0.4 MX,1,130554,131554,460,488 MY,1,130554,131554,302.2,264.2 F,0,245590,246590,1,0
Sprite,Foreground,TopLeft,"SB\fonts\0061.png",0,0 P,0,129590,246590,A F,0,130574,131574,0,1 S,1,130574,131574,0.6,0.4 MX,1,130574,131574,456.8,494.8 MY,1,130574,131574,197.8,267.8 F,0,245590,246590,1,0
Sprite,Foreground,TopLeft,"SB\fonts\0063.png",0,0 P,0,129590,246590,A F,0,130605,131605,0,1 S,1,130605,131605,0.6,0.4 MX,1,130605,131605,592.2,505.2 MY,1,130605,131605,364.8,267.8 F,0,245590,246590,1,0
Sprite,Foreground,TopLeft,"SB\fonts\006b.png",0,0 P,0,129590,246590,A F,0,130629,131629,0,1 S,1,130629,131629,0.6,0.4 MX,1,130629,131629,620.2,513.2 MY,1,130629,131629,165.4,263.4 F,0,245590,246590,1,0
Sprite,Foreground,TopLeft,"SB\fonts\0069.png",0,0 P,0,129590,246590,A F,0,130672,131672,0,1 S,1,130672,131672,0.6,0.4 MX,1,130672,131672,266.6,527.6 MY,1,130672,131672,168.2,264.2 F,0,245590,246590,1,0
Sprite,Foreground,TopLeft,"SB\fonts\006e.png",0,0 P,0,129590,246590,A F,0,130689,131689,0,1 S,1,130689,131689,0.6,0.4 MX,1,130689,131689,774.2,533.2 MY,1,130689,131689,239.8,267.8 F,0,245590,246590,1,0
Sprite,Foreground,TopLeft,"SB\fonts\0074.png",0,0 P,0,129590,246590,A F,0,130735,131735,0,1 S,1,130735,131735,0.6,0.4 MX,1,130735,131735,682.4,548.4 MY,1,130735,131735,359.4,265.4 F,0,245590,246590,1,0
Sprite,Foreground,TopLeft,"SB\fonts\0068.png",0,0 P,0,129590,246590,A F,0,130753,131753,0,1 S,1,130753,131753,0.6,0.4 MX,1,130753,131753,604.4,554.4 MY,1,130753,131753,443.4,263.4 F,0,245590,246590,1,0
Sprite,Foreground,TopLeft,"SB\fonts\0065.png",0,0 P,0,129590,246590,A F,0,130785,131785,0,1 S,1,130785,131785,0.6,0.4 MX,1,130785,131785,484.2,565.2 MY,1,130785,131785,482.8,267.8 F,0,245590,246590,1,0
Sprite,Foreground,TopLeft,"SB\fonts\0042.png",0,0 P,0,129590,246590,A F,0,130824,131824,0,1 S,1,130824,131824,0.6,0.4 MX,1,130824,131824,610,578 MY,1,130824,131824,549.2,264.2 F,0,245590,246590,1,0
Sprite,Foreground,TopLeft,"SB\fonts\006f.png",0,0 P,0,129590,246590,A F,0,130860,131860,0,1 S,1,130860,131860,0.6,0.4 MX,1,130860,131860,306,590 MY,1,130860,131860,418.8,267.8 F,0,245590,246590,1,0
Sprite,Foreground,TopLeft,"SB\fonts\0078.png",0,0 P,0,129590,246590,A F,0,130887,131887,0,1 S,1,130887,131887,0.6,0.4 MX,1,130887,131887,745.2,599.2 MY,1,130887,131887,459.8,267.8 F,0,245590,246590,1,0
Sprite,Foreground,Centre,"SB\2nd.png",0,0 M,0,129590,,670,104 S,0,129590,,0.6 P,0,129590,,A F,0,129590,130590,0,1 F,0,245590,246590,1,0
Sprite,Foreground,TopLeft,"SB\fonts\0053.png",0,0 P,0,247790,358428,A F,0,248472,249472,0,1 S,1,248472,249472,0.6,0.4 MX,1,248472,249472,573.2,394.2 MY,1,248472,249472,198.2,264.2 F,0,357428,358428,1,0
Sprite,Foreground,TopLeft,"SB\fonts\0074.png",0,0 P,0,247790,358428,A F,0,248505,249505,0,1 S,1,248505,249505,0.6,0.4 MX,1,248505,249505,250,405 MY,1,248505,249505,265.4 F,0,357428,358428,1,0
Sprite,Foreground,TopLeft,"SB\fonts\0061.png",0,0 P,0,247790,358428,A F,0,248524,249524,0,1 S,1,248524,249524,0.6,0.4 MX,1,248524,249524,547.4,411.4 MY,1,248524,249524,366.8,267.8 F,0,357428,358428,1,0
Sprite,Foreground,TopLeft,"SB\fonts\002d.png",0,0 P,0,247790,358428,A F,0,248568,249568,0,1 S,1,248568,249568,0.6,0.4 MX,1,248568,249568,388.2,426.2 MY,1,248568,249568,448.4,271.4 F,0,357428,358428,1,0
Sprite,Foreground,TopLeft,"SB\fonts\0046.png",0,0 P,0,247790,358428,A F,0,248599,249599,0,1 S,1,248599,249599,0.6,0.4 MX,1,248599,249599,457.5999,436.5999 MY,1,248599,249599,487.2,264.2 F,0,357428,358428,1,0
Sprite,Foreground,TopLeft,"SB\fonts\0069.png",0,0 P,0,247790,358428,A F,0,248632,249632,0,1 S,1,248632,249632,0.6,0.4 MX,1,248632,249632,241.3999,447.3999 MY,1,248632,249632,487.2,264.2 F,0,357428,358428,1,0
Sprite,Foreground,TopLeft,"SB\fonts\006e.png",0,0 P,0,247790,358428,A F,0,248649,249649,0,1 S,1,248649,249649,0.6,0.4 MX,1,248649,249649,715.9999,452.9999 MY,1,248649,249649,307.8,267.8 F,0,357428,358428,1,0
Sprite,Foreground,TopLeft,"SB\fonts\0069.png",0,0 P,0,247790,358428,A F,0,248680,249680,0,1 S,1,248680,249680,0.6,0.4 MX,1,248680,249680,616.3999,463.3999 MY,1,248680,249680,208.2,264.2 F,0,357428,358428,1,0
Sprite,Foreground,TopLeft,"SB\fonts\0074.png",0,0 P,0,247790,358428,A F,0,248698,249698,0,1 S,1,248698,249698,0.6,0.4 MX,1,248698,249698,328.3999,469.3999 MY,1,248698,249698,442.4,265.4 F,0,357428,358428,1,0
Sprite,Foreground,TopLeft,"SB\fonts\0065.png",0,0 P,0,247790,358428,A F,0,248717,249717,0,1 S,1,248717,249717,0.6,0.4 MX,1,248717,249717,603.7999,475.7999 MY,1,248717,249717,349.8,267.8 F,0,357428,358428,1,0
Sprite,Foreground,TopLeft,"SB\fonts\0028.png",0,0 P,0,247790,358428,A F,0,248757,249757,0,1 S,1,248757,249757,0.6,0.4 MX,1,248757,249757,507.9999,488.9999 MY,1,248757,249757,353.4,263.4 F,0,357428,358428,1,0
Sprite,Foreground,TopLeft,"SB\fonts\0053.png",0,0 P,0,247790,358428,A F,0,248776,249776,0,1 S,1,248776,249776,0.6,0.4 MX,1,248776,249776,225.3999,495.3999 MY,1,248776,249776,272.2,264.2 F,0,357428,358428,1,0
Sprite,Foreground,TopLeft,"SB\fonts\006c.png",0,0 P,0,247790,358428,A F,0,248806,249806,0,1 S,1,248806,249806,0.6,0.4 MX,1,248806,249806,698.3999,505.3999 MY,1,248806,249806,259.4,263.4 F,0,357428,358428,1,0
Sprite,Foreground,TopLeft,"SB\fonts\0069.png",0,0 P,0,247790,358428,A F,0,248823,249823,0,1 S,1,248823,249823,0.6,0.4 MX,1,248823,249823,314.9999,510.9999 MY,1,248823,249823,180.2,264.2 F,0,357428,358428,1,0
Sprite,Foreground,TopLeft,"SB\fonts\0070.png",0,0 P,0,247790,358428,A F,0,248837,249837,0,1 S,1,248837,249837,0.6,0.4 MX,1,248837,249837,557.7999,515.7999 MY,1,248837,249837,186.8,267.8 F,0,357428,358428,1,0
Sprite,Foreground,TopLeft,"SB\fonts\0073.png",0,0 P,0,247790,358428,A F,0,248868,249868,0,1 S,1,248868,249868,0.6,0.4 MX,1,248868,249868,558.2,526.2 MY,1,248868,249868,497.8,267.8 F,0,357428,358428,1,0
Sprite,Foreground,TopLeft,"SB\fonts\0074.png",0,0 P,0,247790,358428,A F,0,248895,249895,0,1 S,1,248895,249895,0.6,0.4 MX,1,248895,249895,595.9999,534.9999 MY,1,248895,249895,447.4,265.4 F,0,357428,358428,1,0
Sprite,Foreground,TopLeft,"SB\fonts\0072.png",0,0 P,0,247790,358428,A F,0,248914,249914,0,1 S,1,248914,249914,0.6,0.4 MX,1,248914,249914,406.4,541.4 MY,1,248914,249914,390.8,267.8 F,0,357428,358428,1,0
Sprite,Foreground,TopLeft,"SB\fonts\0065.png",0,0 P,0,247790,358428,A F,0,248938,249938,0,1 S,1,248938,249938,0.6,0.4 MX,1,248938,249938,399.4,549.4 MY,1,248938,249938,337.8,267.8 F,0,357428,358428,1,0
Sprite,Foreground,TopLeft,"SB\fonts\0061.png",0,0 P,0,247790,358428,A F,0,248964,249964,0,1 S,1,248964,249964,0.6,0.4 MX,1,248964,249964,425.2,558.2 MY,1,248964,249964,393.8,267.8 F,0,357428,358428,1,0
Sprite,Foreground,TopLeft,"SB\fonts\006d.png",0,0 P,0,247790,358428,A F,0,248995,249995,0,1 S,1,248995,249995,0.6,0.4 MX,1,248995,249995,612.6,568.6 MY,1,248995,249995,250.8,267.8 F,0,357428,358428,1,0
Sprite,Foreground,TopLeft,"SB\fonts\006d.png",0,0 P,0,247790,358428,A F,0,249055,250055,0,1 S,1,249055,250055,0.6,0.4 MX,1,249055,250055,675.6,588.6 MY,1,249055,250055,533.8,267.8 F,0,357428,358428,1,0
Sprite,Foreground,TopLeft,"SB\fonts\0069.png",0,0 P,0,247790,358428,A F,0,249102,250102,0,1 S,1,249102,250102,0.6,0.4 MX,1,249102,250102,501.2,604.2 MY,1,249102,250102,473.2,264.2 F,0,357428,358428,1,0
Sprite,Foreground,TopLeft,"SB\fonts\0078.png",0,0 P,0,247790,358428,A F,0,249117,250117,0,1 S,1,249117,250117,0.6,0.4 MX,1,249117,250117,764.9999,608.9999 MY,1,249117,250117,173.8,267.8 F,0,357428,358428,1,0
Sprite,Foreground,TopLeft,"SB\fonts\0029.png",0,0 P,0,247790,358428,A F,0,249143,250143,0,1 S,1,249143,250143,0.6,0.4 MX,1,249143,250143,335.7999,617.7999 MY,1,249143,250143,340.4,263.4 F,0,357428,358428,1,0
Sprite,Foreground,Centre,"SB\3rd.png",0,0 M,0,247790,,670,104 S,0,247790,,0.6 P,0,247790,,A F,0,247790,248790,0,1 F,0,357428,358428,1,0
//Storyboard Layer 4 (Overlay)
//Storyboard Sound Samples

[TimingPoints]
237,315.789473684211,4,1,0,5,1,0
1421,-200,4,1,0,40,0,0
11526,-133.333333333333,4,1,0,50,0,0
16578,-113.636363636364,4,1,0,60,0,0
21710,-100,4,1,0,70,0,1
41921,-100,4,1,0,70,0,0
46973,-83.3333333333333,4,1,0,70,0,0
48236,-71.4285714285714,4,1,0,70,0,0
48868,-62.5,4,1,0,70,0,0
49500,-64.5161290322581,4,1,0,50,0,1
49605,-66.6666666666667,4,1,0,50,0,1
49710,-68.9655172413793,4,1,0,50,0,1
49815,-71.4285714285714,4,1,0,50,0,1
49921,-74.0740740740741,4,1,0,50,0,1
50026,-76.9230769230769,4,1,0,50,0,1
50131,-80,4,1,0,50,0,1
50236,-83.3333333333333,4,1,0,50,0,1
50342,-86.9565217391304,4,1,0,50,0,1
50447,-90.9090909090909,4,1,0,50,0,1
50552,-95.2380952380952,4,1,0,50,0,1
50658,-100,4,1,0,50,0,0
51315,-125,4,1,0,60,0,0
51473,-117.647058823529,4,1,0,60,0,0
51631,-111.111111111111,4,1,0,60,0,0
51789,-100,4,1,0,60,0,0
51947,-90.9090909090909,4,1,0,60,0,0
51986,-90.9090909090909,4,1,0,60,0,0
52026,-83.3333333333333,4,1,0,60,0,1
62131,-50,4,1,0,60,0,0
62447,-125,4,1,0,60,0,1
67184,-50,4,1,0,60,0,0
67500,-100,4,1,0,60,0,1
69631,-80,4,1,0,60,0,1
70894,-66.6666666666667,4,1,0,60,0,1
72237,-66.6666666666667,4,1,0,60,0,0
72315,-66.6666666666667,4,1,0,5,0,0
73500,315.789473684211,4,1,0,15,1,0
73500,-100,4,1,0,15,0,0
74131,315.789473684211,4,1,0,15,1,0
74131,-133.333333333333,4,1,0,15,0,0
74684,-133.333333333333,4,1,0,40,0,0
74763,315.789473684211,4,1,0,40,1,0
74763,-200,4,1,0,40,0,0
84789,-133.333333333333,4,1,0,50,0,0
89842,-113.636363636364,4,1,0,50,0,0
92368,-113.636363636364,4,1,0,60,0,0
93789,-113.636363636364,4,1,0,70,0,0
95052,-100,4,1,0,80,0,0
100026,-83.3333333333333,4,1,0,80,0,0
101289,-71.4285714285714,4,1,0,80,0,0
101920,-62.5,4,1,0,80,0,0
102552,-62.5,4,1,0,20,0,1
102868,315.789473684211,4,1,0,20,1,1
102868,-83.3333333333333,4,1,0,20,0,1
103184,315.789473684211,4,1,0,20,1,1
103184,-111.111111111111,4,1,0,20,0,1
103500,315.789473684211,4,1,0,20,1,0
103500,-142.857142857143,4,1,0,20,0,0
103815,315.789473684211,4,1,0,20,1,8
103815,-166.666666666667,4,1,0,5,0,0
104367,-200,4,1,0,60,0,0
104525,-172.413793103448,4,1,0,60,0,0
104604,-151.515151515152,4,1,0,60,0,0
104683,-135.135135135135,4,1,0,60,0,0
104762,-113.636363636364,4,1,0,60,0,0
104841,-104.166666666667,4,1,0,60,0,0
104920,-96.1538461538461,4,1,0,60,0,0
104999,-89.2857142857143,4,1,0,60,0,0
105078,-83.3333333333333,4,1,0,80,0,1
115183,-50,4,1,0,80,0,0
115499,-125,4,1,0,70,0,1
120236,-125,4,1,0,60,0,0
120288,-120.481927710843,4,1,0,60,0,0
120341,-116.279069767442,4,1,0,60,0,0
120393,-112.359550561798,4,1,0,60,0,0
120446,-108.695652173913,4,1,0,60,0,0
120499,-104.166666666667,4,1,0,60,0,0
120551,-100,4,1,0,70,0,1
122762,-83.3333333333333,4,1,0,70,0,1
124025,-71.4285714285714,4,1,0,70,0,1
124657,-62.5,4,1,0,70,0,1
125288,315.789473684211,7,1,0,70,1,0
125288,-62.5,50,1,0,70,0,0
125445,-62.5,50,1,0,20,0,0
130090,240,4,1,0,20,1,0
136750,-100,4,1,0,50,0,0
137710,-100,4,1,0,70,0,0
157090,-133.333333333333,4,1,0,65,0,0
172330,-100,4,1,0,65,0,0
187810,-133.333333333333,4,1,0,45,0,0
195310,-133.333333333333,4,1,0,65,0,0
203170,-131.578947368421,4,1,0,65,0,0
203290,-129.87012987013,4,1,0,65,0,0
203410,-128.205128205128,4,1,0,65,0,0
203530,-126.582278481013,4,1,0,65,0,0
203650,-125,4,1,0,65,0,0
203770,-123.456790123457,4,1,0,65,0,0
203890,-121.951219512195,4,1,0,65,0,0
204010,-120.481927710843,4,1,0,65,0,0
204130,-119.047619047619,4,1,0,65,0,0
204250,-117.647058823529,4,1,0,65,0,0
204370,-116.279069767442,4,1,0,65,0,0
204490,-114.942528735632,4,1,0,65,0,0
204610,-113.636363636364,4,1,0,65,0,0
204730,-112.359550561798,4,1,0,65,0,0
204850,-111.111111111111,4,1,0,65,0,0
204970,-109.89010989011,4,1,0,65,0,0
205090,-108.695652173913,4,1,0,65,0,0
205210,-107.52688172043,4,1,0,65,0,0
205330,-106.382978723404,4,1,0,65,0,0
205450,-105.263157894737,4,1,0,65,0,0
205570,-104.166666666667,4,1,0,65,0,0
205690,-103.092783505155,4,1,0,65,0,0
205810,-102.040816326531,4,1,0,65,0,0
205930,-101.010101010101,4,1,0,65,0,0
206050,-100,4,1,0,65,0,0
206170,-99.009900990099,4,1,0,65,0,0
206290,-98.0392156862745,4,1,0,65,0,0
206410,-97.0873786407767,4,1,0,65,0,0
206530,-96.1538461538461,4,1,0,65,0,0
206650,-95.2380952380952,4,1,0,65,0,0
206770,-94.3396226415094,4,1,0,65,0,0
206890,-93.4579439252336,4,1,0,65,0,0
207010,-92.5925925925926,4,1,0,65,0,0
207130,-91.743119266055,4,1,0,65,0,0
207250,-90.9090909090909,4,1,0,65,0,0
207370,-90.0900900900901,4,1,0,65,0,0
207490,-89.2857142857143,4,1,0,65,0,0
207610,-88.4955752212389,4,1,0,65,0,0
207730,-87.719298245614,4,1,0,65,0,0
207850,-86.9565217391304,4,1,0,65,0,0
207970,-86.2068965517241,4,1,0,65,0,0
208090,-85.4700854700855,4,1,0,65,0,0
208210,-84.7457627118644,4,1,0,65,0,0
208330,-84.0336134453781,4,1,0,65,0,0
208450,-83.3333333333333,4,1,0,65,0,0
208570,-82.6446280991736,4,1,0,65,0,0
208690,-81.9672131147541,4,1,0,65,0,0
208810,-81.3008130081301,4,1,0,65,0,0
208870,-80.9716599190283,4,1,0,65,0,0
208930,-80.6451612903226,4,1,0,65,0,0
208990,-80.3212851405623,4,1,0,65,0,0
209050,-80,4,1,0,65,0,0
209110,-79.6812749003984,4,1,0,65,0,0
209170,-79.3650793650794,4,1,0,65,0,0
209230,-79.0513833992095,4,1,0,65,0,0
209290,-78.7401574803149,4,1,0,65,0,0
209350,-78.4313725490196,4,1,0,65,0,0
209410,-78.125,4,1,0,65,0,0
209470,-77.8210116731517,4,1,0,65,0,0
209530,-77.5193798449612,4,1,0,65,0,0
209590,-77.2200772200772,4,1,0,65,0,0
209650,-76.9230769230769,4,1,0,65,0,0
209710,-76.6283524904215,4,1,0,65,0,0
209770,-76.3358778625954,4,1,0,65,0,0
209890,-78.125,4,1,0,65,0,0
210010,-80,4,1,0,65,0,0
210130,-81.9672131147541,4,1,0,65,0,0
210250,-84.0336134453781,4,1,0,65,0,0
210370,-86.2068965517241,4,1,0,65,0,0
210430,-87.3362445414847,4,1,0,65,0,0
210490,-88.4955752212389,4,1,0,65,0,0
210730,-100,4,1,0,70,0,1
217930,-100,4,1,0,70,0,0
218410,-100,4,1,0,70,0,1
225610,-100,4,1,0,70,0,0
226090,-100,4,1,0,70,0,1
226330,-133.333333333333,4,1,0,70,0,1
233290,-133.333333333333,4,1,0,70,0,0
233770,-133.333333333333,4,1,0,70,0,1
237610,-117.647058823529,4,1,0,70,0,1
238570,-108.695652173913,4,1,0,70,0,1
239530,-100,4,1,0,70,0,1
241450,240,50,1,0,20,1,0
241450,-100,50,1,0,20,0,0
251448,337.078651685393,4,1,0,20,1,0
256842,337.078651685393,5,1,0,70,1,0
258528,337.078651685393,4,1,0,80,1,0
280775,337.078651685393,4,1,0,80,1,0
281112,-111.111111111111,4,1,0,70,0,0
281196,-133.333333333333,4,1,0,70,0,0
291561,-100,4,1,0,80,0,0
302432,-133.333333333333,4,1,0,70,0,0
305044,-100,4,1,0,80,0,0
307825,-133.333333333333,4,1,0,70,0,0
310437,-100,4,1,0,80,0,0
324089,-133.333333333333,4,1,0,70,0,0
334707,-100,4,1,0,80,0,1
356280,-100,4,1,0,20,0,0

[HitObjects]
59,174,1500,5,0,0:0:0:0:
193,161,2131,1,8,0:0:0:0:
193,161,2605,1,0,0:0:0:0:
193,161,3079,1,0,0:0:0:0:
193,161,3394,1,8,0:0:0:0:
236,112,3710,1,0,0:0:0:0:
192,161,4026,1,0,0:0:0:0:
281,65,4658,1,8,0:0:0:0:
204,147,5131,1,0,0:0:0:0:
300,196,5605,1,0,0:0:0:0:
300,196,5921,1,8,0:0:0:0:
435,224,6552,1,0,0:0:0:0:
294,194,7184,1,8,0:0:0:0:
392,215,7658,1,0,0:0:0:0:
291,194,8131,1,0,0:0:0:0:
359,208,8447,1,8,0:0:0:0:
359,208,8763,1,0,0:0:0:0:
359,208,9079,1,0,0:0:0:0:
359,208,9710,1,8,0:0:0:0:
359,208,10184,1,0,0:0:0:0:
359,208,10658,1,0,0:0:0:0:
359,208,10973,1,8,0:0:0:0:
289,190,11289,1,8,0:0:0:0:
339,237,11605,1,0,0:0:0:0:
245,121,12079,1,0,0:0:0:0:
350,136,12237,1,2,0:0:0:0:
245,121,12552,1,2,0:0:0:0:
272,132,12710,1,2,0:0:0:0:
245,121,12868,1,0,0:0:0:0:
245,121,13026,1,0,0:0:0:0:
307,107,13184,1,0,0:0:0:0:
256,148,13500,1,8,0:0:0:0:
365,149,13815,1,8,0:0:0:0:
330,143,13973,1,8,0:0:0:0:
296,135,14131,1,0,0:0:0:0:
199,222,14447,1,0,0:0:0:0:
230,120,14605,1,0,0:0:0:0:
200,113,14763,1,8,0:0:0:0:
296,135,15000,1,8,0:0:0:0:
280,135,15079,1,8,0:0:0:0:
296,135,15237,1,8,0:0:0:0:
296,135,15394,1,0,0:0:0:0:
332,163,15631,1,8,0:0:0:0:
318,157,15710,1,0,0:0:0:0:
332,163,15868,1,0,0:0:0:0:
332,163,16026,1,8,0:0:0:0:
311,141,16184,1,0,0:0:0:0:
290,119,16342,1,8,0:0:0:0:
241,68,16658,1,0,0:0:0:0:
254,93,16815,1,8,0:0:0:0:
262,123,16973,1,0,0:0:0:0:
270,152,17131,1,0,0:0:0:0:
224,192,17210,1,0,0:0:0:0:
290,178,17289,1,8,0:0:0:0:
287,211,17447,1,8,0:0:0:0:
287,211,17605,1,0,0:0:0:0:
287,211,17763,1,8,0:0:0:0:
287,211,17842,1,8,0:0:0:0:
287,211,17921,1,0,0:0:0:0:
287,211,18079,1,8,0:0:0:0:
287,211,18237,1,0,0:0:0:0:
318,210,18394,1,0,0:0:0:0:
288,224,18473,1,0,0:0:0:0:
350,209,18552,1,8,0:0:0:0:
388,209,18710,1,0,0:0:0:0:
388,209,18868,1,8,0:0:0:0:
388,209,19026,1,8,0:0:0:0:
388,209,19105,1,8,0:0:0:0:
388,209,19184,1,0,0:0:0:0:
388,209,19263,1,0,0:0:0:0:
388,209,19342,1,8,0:0:0:0:
388,209,19421,1,0,0:0:0:0:
388,209,19500,1,8,0:0:0:0:
388,209,19579,1,8,0:0:0:0:
370,198,19658,1,0,0:0:0:0:
388,209,19737,1,8,0:0:0:0:
376,201,19815,1,0,0:0:0:0:
362,193,19894,1,0,0:0:0:0:
350,186,19973,1,8,0:0:0:0:
336,177,20052,1,0,0:0:0:0:
319,166,20131,1,8,0:0:0:0:
300,154,20210,1,8,0:0:0:0:
318,154,20289,1,0,0:0:0:0:
337,154,20368,1,0,0:0:0:0:
354,154,20447,1,8,0:0:0:0:
328,165,20605,1,0,0:0:0:0:
317,170,20684,1,0,0:0:0:0:
307,174,20842,1,0,0:0:0:0:
281,186,20921,1,8,0:0:0:0:
354,154,21079,1,0,0:0:0:0:
354,154,21158,1,8,0:0:0:0:
354,154,21237,1,0,0:0:0:0:
354,154,21315,1,0,0:0:0:0:
337,154,21394,1,8,0:0:0:0:
324,151,21473,1,8,0:0:0:0:
307,148,21552,1,8,0:0:0:0:
271,144,21710,1,4,0:0:0:0:
337,18,22342,1,8,0:0:0:0:
338,77,22658,1,8,0:0:0:0:
338,106,22815,1,4,0:0:0:0:
334,208,23289,1,8,0:0:0:0:
334,208,23605,1,4,0:0:0:0:
364,266,23921,1,8,0:0:0:0:
332,206,24237,1,4,0:0:0:0:
336,232,24710,1,0,0:0:0:0:
353,245,24868,1,8,0:0:0:0:
353,245,25105,1,8,0:0:0:0:
353,245,25184,1,8,0:0:0:0:
353,245,25342,1,4,0:0:0:0:
391,260,25658,1,0,0:0:0:0:
380,250,25737,1,0,0:0:0:0:
404,272,25815,1,8,0:0:0:0:
181,123,25973,1,0,0:0:0:0:
376,258,26131,1,8,0:0:0:0:
354,234,26289,1,8,0:0:0:0:
345,224,26342,1,8,0:0:0:0:
340,218,26394,1,8,0:0:0:0:
333,210,26447,1,0,0:0:0:0:
271,144,26763,1,4,0:0:0:0:
337,18,27394,1,8,0:0:0:0:
338,77,27710,1,8,0:0:0:0:
338,106,27868,1,4,0:0:0:0:
334,208,28342,1,8,0:0:0:0:
334,208,28658,1,4,0:0:0:0:
364,266,28973,1,8,0:0:0:0:
332,206,29289,1,4,0:0:0:0:
291,141,29605,1,0,0:0:0:0:
252,215,29763,1,0,0:0:0:0:
353,245,29921,1,8,0:0:0:0:
347,209,30079,1,0,0:0:0:0:
344,194,30131,1,8,0:0:0:0:
353,245,30184,1,8,0:0:0:0:
353,245,30237,1,8,0:0:0:0:
353,245,30394,1,4,0:0:0:0:
391,260,30710,1,0,0:0:0:0:
380,250,30789,1,0,0:0:0:0:
404,272,30868,1,8,0:0:0:0:
386,248,31026,1,0,0:0:0:0:
376,258,31184,1,8,0:0:0:0:
368,247,31263,1,8,0:0:0:0:
360,250,31342,1,0,0:0:0:0:
354,234,31394,1,0,0:0:0:0:
340,218,31447,1,0,0:0:0:0:
333,210,31500,1,8,0:0:0:0:
353,245,31815,1,4,0:0:0:0:
295,203,32131,1,8,0:0:0:0:
240,163,32447,1,0,0:0:0:0:
276,189,32684,1,0,0:0:0:0:
276,189,32763,1,8,0:0:0:0:
276,189,32921,1,0,0:0:0:0:
276,189,33237,1,0,0:0:0:0:
276,189,33394,1,8,0:0:0:0:
276,189,33552,1,8,0:0:0:0:
276,189,33631,1,8,0:0:0:0:
276,189,33710,1,0,0:0:0:0:
276,189,33868,1,0,0:0:0:0:
276,189,34026,1,8,0:0:0:0:
340,160,34342,1,0,0:0:0:0:
340,160,34658,1,8,0:0:0:0:
291,192,34815,1,8,0:0:0:0:
290,202,34973,1,0,0:0:0:0:
324,173,35210,1,0,0:0:0:0:
324,173,35289,1,8,0:0:0:0:
347,196,35447,1,0,0:0:0:0:
397,243,35763,1,0,0:0:0:0:
370,217,35921,1,8,0:0:0:0:
370,217,36079,1,0,0:0:0:0:
370,217,36158,1,8,0:0:0:0:
358,212,36237,1,8,0:0:0:0:
346,207,36315,1,8,0:0:0:0:
333,201,36394,1,8,0:0:0:0:
313,198,36447,1,8,0:0:0:0:
313,198,36500,1,8,0:0:0:0:
307,174,36552,1,0,0:0:0:0:
275,233,36868,1,0,0:0:0:0:
275,233,37184,1,8,0:0:0:0:
275,233,37500,1,0,0:0:0:0:
275,233,37737,1,0,0:0:0:0:
286,239,37815,1,8,0:0:0:0:
286,239,37973,1,0,0:0:0:0:
286,239,38289,1,0,0:0:0:0:
286,239,38447,1,8,0:0:0:0:
286,239,38526,1,8,0:0:0:0:
258,219,38684,1,8,0:0:0:0:
258,219,38763,1,0,0:0:0:0:
258,219,38921,1,0,0:0:0:0:
258,219,39079,1,8,0:0:0:0:
258,219,39158,1,8,0:0:0:0:
258,219,39237,1,8,0:0:0:0:
258,219,39315,1,8,0:0:0:0:
258,219,39394,1,0,0:0:0:0:
258,219,39631,1,0,0:0:0:0:
258,219,39710,1,8,0:0:0:0:
258,219,39868,1,8,0:0:0:0:
258,219,40026,1,0,0:0:0:0:
258,219,40184,1,0,0:0:0:0:
258,219,40263,1,0,0:0:0:0:
218,193,40342,1,8,0:0:0:0:
249,190,40421,1,8,0:0:0:0:
249,190,40500,1,8,0:0:0:0:
320,160,40579,1,8,0:0:0:0:
218,193,40658,1,0,0:0:0:0:
218,193,40815,1,8,0:0:0:0:
218,193,40894,1,8,0:0:0:0:
211,178,40973,1,0,0:0:0:0:
218,193,41052,1,0,0:0:0:0:
200,181,41131,1,8,0:0:0:0:
183,171,41210,1,0,0:0:0:0:
165,160,41289,1,8,0:0:0:0:
163,154,41342,1,8,0:0:0:0:
163,154,41394,1,8,0:0:0:0:
163,154,41447,1,0,0:0:0:0:
176,160,41526,1,0,0:0:0:0:
190,167,41605,1,8,0:0:0:0:
431,270,41921,1,0,0:0:0:0:
431,270,42158,1,8,0:0:0:0:
431,270,42237,1,8,0:0:0:0:
431,270,42394,1,8,0:0:0:0:
431,270,42552,1,0,0:0:0:0:
431,270,42710,1,8,0:0:0:0:
431,270,42789,1,8,0:0:0:0:
431,270,42868,1,8,0:0:0:0:
431,270,43026,1,8,0:0:0:0:
431,270,43184,1,0,0:0:0:0:
431,270,43421,1,8,0:0:0:0:
431,270,43500,1,8,0:0:0:0:
431,270,43658,1,8,0:0:0:0:
431,270,43815,1,0,0:0:0:0:
431,270,43894,1,8,0:0:0:0:
431,270,43973,1,8,0:0:0:0:
431,270,44052,1,8,0:0:0:0:
431,270,44131,1,8,0:0:0:0:
431,270,44289,1,8,0:0:0:0:
431,270,44447,1,0,0:0:0:0:
431,270,44684,1,8,0:0:0:0:
431,270,44763,1,8,0:0:0:0:
431,270,44921,1,8,0:0:0:0:
431,270,45079,1,0,0:0:0:0:
431,270,45158,1,8,0:0:0:0:
431,270,45315,1,8,0:0:0:0:
431,270,45394,1,8,0:0:0:0:
431,270,45552,1,8,0:0:0:0:
431,270,45710,1,0,0:0:0:0:
431,270,45868,1,8,0:0:0:0:
431,270,45947,1,8,0:0:0:0:
431,270,46026,1,8,0:0:0:0:
431,270,46184,1,8,0:0:0:0:
431,270,46342,1,0,0:0:0:0:
431,270,46421,1,8,0:0:0:0:
431,270,46500,1,8,0:0:0:0:
431,270,46579,1,8,0:0:0:0:
431,270,46658,1,0,0:0:0:0:
431,270,46737,1,8,0:0:0:0:
282,180,46815,1,0,0:0:0:0:
245,154,46973,5,8,0:0:0:0:
245,154,47052,1,0,0:0:0:0:
245,154,47131,1,0,0:0:0:0:
245,154,47210,1,0,0:0:0:0:
245,154,47289,1,8,0:0:0:0:
245,154,47368,1,8,0:0:0:0:
245,154,47447,1,0,0:0:0:0:
245,154,47526,1,0,0:0:0:0:
245,154,47605,1,8,0:0:0:0:
245,154,47684,1,0,0:0:0:0:
245,154,47763,1,0,0:0:0:0:
245,154,47842,1,0,0:0:0:0:
245,154,47921,1,8,0:0:0:0:
245,154,48000,1,8,0:0:0:0:
245,154,48079,1,0,0:0:0:0:
245,154,48158,1,0,0:0:0:0:
245,154,48237,1,8,0:0:0:0:
245,154,48315,1,0,0:0:0:0:
245,154,48394,1,8,0:0:0:0:
245,154,48473,1,0,0:0:0:0:
245,154,48552,1,8,0:0:0:0:
245,154,48631,1,8,0:0:0:0:
245,154,48710,1,0,0:0:0:0:
245,154,48789,1,0,0:0:0:0:
245,154,48868,1,8,0:0:0:0:
245,154,48947,1,8,0:0:0:0:
245,154,49026,1,8,0:0:0:0:
245,154,49105,1,8,0:0:0:0:
245,154,49184,1,8,0:0:0:0:
245,154,49263,1,8,0:0:0:0:
245,154,49342,1,8,0:0:0:0:
245,154,49421,1,8,0:0:0:0:
245,154,49500,1,0,0:0:0:0:
237,133,49605,1,8,0:0:0:0:
252,146,49710,1,8,0:0:0:0:
269,160,49815,1,0,0:0:0:0:
285,173,49921,1,0,0:0:0:0:
300,186,50026,1,0,0:0:0:0:
316,200,50131,1,8,0:0:0:0:
328,211,50237,1,8,0:0:0:0:
328,211,50342,1,8,0:0:0:0:
328,211,50447,1,0,0:0:0:0:
328,211,50552,1,0,0:0:0:0:
328,211,50658,1,0,0:0:0:0:
328,211,51394,1,8,0:0:0:0:
355,193,51552,1,8,0:0:0:0:
381,176,51710,1,8,0:0:0:0:
404,161,51868,1,8,0:0:0:0:
411,156,51947,1,8,0:0:0:0:
420,150,52026,1,0,0:0:0:0:
353,158,52342,1,8,0:0:0:0:
322,161,52500,1,8,0:0:0:0:
307,163,52579,1,8,0:0:0:0:
291,165,52658,1,0,0:0:0:0:
252,133,52894,1,0,0:0:0:0:
265,144,52973,1,8,0:0:0:0:
265,144,53131,1,0,0:0:0:0:
288,124,53289,1,0,0:0:0:0:
278,93,53368,1,0,0:0:0:0:
274,79,53526,1,0,0:0:0:0:
269,63,53605,1,8,0:0:0:0:
264,45,53684,1,8,0:0:0:0:
264,45,53763,1,8,0:0:0:0:
264,45,53842,1,8,0:0:0:0:
254,61,53921,1,0,0:0:0:0:
236,91,54079,1,8,0:0:0:0:
225,108,54158,1,0,0:0:0:0:
213,127,54237,1,8,0:0:0:0:
195,161,54394,1,8,0:0:0:0:
208,169,54447,1,8,0:0:0:0:
174,200,54500,1,8,0:0:0:0:
227,181,54552,1,0,0:0:0:0:
212,131,54710,1,0,0:0:0:0:
206,114,54868,1,8,0:0:0:0:
206,99,54908,1,8,0:0:0:0:
206,99,55026,1,8,0:0:0:0:
201,97,55065,1,8,0:0:0:0:
201,97,55184,1,0,0:0:0:0:
234,98,55342,1,8,0:0:0:0:
251,99,55421,1,0,0:0:0:0:
269,100,55500,1,8,0:0:0:0:
264,117,55579,1,8,0:0:0:0:
292,117,55658,1,0,0:0:0:0:
318,136,55815,1,0,0:0:0:0:
300,157,55973,1,8,0:0:0:0:
294,164,56052,1,0,0:0:0:0:
288,171,56131,1,8,0:0:0:0:
317,156,56289,1,0,0:0:0:0:
331,154,56368,1,0,0:0:0:0:
364,150,56526,1,8,0:0:0:0:
381,148,56605,1,0,0:0:0:0:
381,148,56658,1,0,0:0:0:0:
374,148,56710,1,0,0:0:0:0:
362,148,56763,1,8,0:0:0:0:
331,154,56921,1,0,0:0:0:0:
331,154,56973,1,8,0:0:0:0:
331,154,57026,1,8,0:0:0:0:
331,154,57079,1,0,0:0:0:0:
317,239,57394,1,8,0:0:0:0:
344,207,57552,1,8,0:0:0:0:
357,193,57605,1,8,0:0:0:0:
357,193,57658,1,8,0:0:0:0:
357,193,57710,1,0,0:0:0:0:
298,200,57947,1,0,0:0:0:0:
317,197,58026,1,8,0:0:0:0:
354,180,58184,1,0,0:0:0:0:
316,226,58263,1,8,0:0:0:0:
344,207,58342,1,0,0:0:0:0:
271,160,58658,1,8,0:0:0:0:
267,157,58710,1,8,0:0:0:0:
262,156,58763,1,8,0:0:0:0:
271,160,58815,1,8,0:0:0:0:
262,156,58868,1,8,0:0:0:0:
262,156,58921,1,8,0:0:0:0:
271,160,58973,1,0,0:0:0:0:
222,198,59210,1,0,0:0:0:0:
238,186,59289,1,8,0:0:0:0:
238,186,59447,1,0,0:0:0:0:
238,186,59605,1,0,0:0:0:0:
271,202,59763,1,8,0:0:0:0:
286,209,59842,1,8,0:0:0:0:
355,243,59921,1,0,0:0:0:0:
355,243,60079,1,8,0:0:0:0:
355,243,60158,1,8,0:0:0:0:
355,243,60237,1,0,0:0:0:0:
355,243,60394,1,8,0:0:0:0:
355,243,60473,1,0,0:0:0:0:
355,243,60552,1,8,0:0:0:0:
355,243,60631,1,8,0:0:0:0:
355,243,60710,1,0,0:0:0:0:
367,240,60789,1,8,0:0:0:0:
367,240,60868,1,0,0:0:0:0:
367,240,60947,1,8,0:0:0:0:
367,240,61026,1,0,0:0:0:0:
367,240,61105,1,0,0:0:0:0:
367,240,61184,1,8,0:0:0:0:
367,240,61263,1,8,0:0:0:0:
367,240,61342,1,0,0:0:0:0:
367,240,61421,1,0,0:0:0:0:
354,229,61500,1,8,0:0:0:0:
338,215,61579,1,0,0:0:0:0:
324,202,61658,1,8,0:0:0:0:
310,190,61737,1,8,0:0:0:0:
294,176,61815,1,0,0:0:0:0:
277,162,61894,1,8,0:0:0:0:
277,162,61973,1,8,0:0:0:0:
277,162,62052,1,8,0:0:0:0:
201,130,62447,1,12,0:0:0:0:
277,162,62763,1,8,0:0:0:0:
314,178,62921,1,0,0:0:0:0:
314,178,63079,1,8,0:0:0:0:
314,178,63237,1,8,0:0:0:0:
305,173,63315,1,8,0:0:0:0:
314,178,63394,1,0,0:0:0:0:
314,178,63552,1,8,0:0:0:0:
314,178,63710,1,8,0:0:0:0:
314,178,63868,1,0,0:0:0:0:
297,178,63947,1,0,0:0:0:0:
314,178,64026,1,8,0:0:0:0:
291,231,64263,1,8,0:0:0:0:
291,231,64342,1,0,0:0:0:0:
291,231,64500,1,8,0:0:0:0:
291,231,64658,1,0,0:0:0:0:
296,189,64815,1,8,0:0:0:0:
292,226,64973,1,8,0:0:0:0:
292,226,65131,1,0,0:0:0:0:
309,172,65210,1,0,0:0:0:0:
292,226,65289,1,8,0:0:0:0:
292,226,65526,1,8,0:0:0:0:
292,226,65605,1,0,0:0:0:0:
292,226,65763,1,8,0:0:0:0:
292,226,65921,1,8,0:0:0:0:
292,226,66079,1,0,0:0:0:0:
292,226,66158,1,0,0:0:0:0:
298,205,66237,1,8,0:0:0:0:
298,170,66394,1,0,0:0:0:0:
298,157,66447,1,0,0:0:0:0:
298,143,66500,1,0,0:0:0:0:
298,130,66552,1,8,0:0:0:0:
298,88,66710,1,0,0:0:0:0:
298,128,66868,1,8,0:0:0:0:
298,128,67026,1,8,0:0:0:0:
325,176,67500,1,12,0:0:0:0:
298,223,67815,1,8,0:0:0:0:
283,250,67973,1,0,0:0:0:0:
283,250,68131,1,8,0:0:0:0:
283,250,68289,1,8,0:0:0:0:
298,223,68368,1,8,0:0:0:0:
283,250,68447,1,0,0:0:0:0:
283,250,68605,1,8,0:0:0:0:
283,250,68763,1,8,0:0:0:0:
283,250,68921,1,0,0:0:0:0:
283,250,69000,1,0,0:0:0:0:
283,250,69079,1,8,0:0:0:0:
283,250,69315,1,8,0:0:0:0:
298,223,69394,1,0,0:0:0:0:
283,250,69552,1,8,0:0:0:0:
283,250,69710,1,0,0:0:0:0:
298,223,69789,1,8,0:0:0:0:
283,250,69868,1,8,0:0:0:0:
283,250,69947,1,8,0:0:0:0:
277,238,70026,1,8,0:0:0:0:
265,215,70184,1,0,0:0:0:0:
251,188,70342,1,8,0:0:0:0:
243,172,70421,1,8,0:0:0:0:
237,156,70500,1,8,0:0:0:0:
237,156,70579,1,8,0:0:0:0:
237,156,70658,1,0,0:0:0:0:
271,157,70815,1,8,0:0:0:0:
273,124,70973,1,0,0:0:0:0:
278,120,71026,1,0,0:0:0:0:
286,116,71079,1,0,0:0:0:0:
295,111,71131,1,8,0:0:0:0:
311,108,71210,1,8,0:0:0:0:
310,118,71289,1,0,0:0:0:0:
309,128,71342,1,0,0:0:0:0:
308,135,71394,1,0,0:0:0:0:
307,148,71447,1,8,0:0:0:0:
293,142,71526,1,8,0:0:0:0:
297,157,71605,1,0,0:0:0:0:
301,168,71684,1,8,0:0:0:0:
307,182,71763,1,8,0:0:0:0:
311,194,71842,1,8,0:0:0:0:
317,209,71921,1,0,0:0:0:0:
323,225,72000,1,8,0:0:0:0:
329,241,72079,1,8,0:0:0:0:
335,255,72158,1,8,0:0:0:0:
297,157,72237,1,0,0:0:0:0:
286,139,74763,1,0,0:0:0:0:
319,242,75394,1,8,0:0:0:0:
389,282,75868,1,8,0:0:0:0:
322,245,76341,1,8,0:0:0:0:
345,262,76973,1,8,0:0:0:0:
343,262,77289,1,0,0:0:0:0:
286,171,77920,1,8,0:0:0:0:
286,171,78394,1,8,0:0:0:0:
286,171,78868,1,8,0:0:0:0:
286,171,79184,1,8,0:0:0:0:
286,171,79815,1,0,0:0:0:0:
286,171,80447,1,8,0:0:0:0:
286,171,80920,1,8,0:0:0:0:
286,171,81394,1,8,0:0:0:0:
286,171,81710,1,8,0:0:0:0:
286,171,82026,1,8,0:0:0:0:
286,171,82341,1,0,0:0:0:0:
286,171,82973,1,8,0:0:0:0:
286,171,83447,1,8,0:0:0:0:
313,158,83605,1,8,0:0:0:0:
313,158,83920,1,8,0:0:0:0:
313,158,84236,1,8,0:0:0:0:
313,158,84552,1,8,0:0:0:0:
313,158,84631,1,8,0:0:0:0:
313,158,84710,1,8,0:0:0:0:
313,158,84868,1,0,0:0:0:0:
313,158,85341,1,0,0:0:0:0:
313,158,85499,1,8,0:0:0:0:
264,164,85815,1,0,0:0:0:0:
264,164,85973,1,8,0:0:0:0:
264,164,86131,1,8,0:0:0:0:
264,164,86289,1,0,0:0:0:0:
264,164,86605,1,0,0:0:0:0:
238,157,86763,1,8,0:0:0:0:
238,157,87078,1,0,0:0:0:0:
238,157,87236,1,8,0:0:0:0:
238,157,87394,1,0,0:0:0:0:
238,157,87868,1,0,0:0:0:0:
238,157,88026,1,8,0:0:0:0:
280,186,88341,1,0,0:0:0:0:
301,201,88499,1,8,0:0:0:0:
321,215,88657,1,8,0:0:0:0:
321,215,88815,1,0,0:0:0:0:
321,215,89131,1,0,0:0:0:0:
321,215,89289,1,8,0:0:0:0:
321,215,89605,1,0,0:0:0:0:
321,215,89763,1,8,0:0:0:0:
321,215,89920,1,0,0:0:0:0:
297,208,90078,1,8,0:0:0:0:
288,196,90157,1,8,0:0:0:0:
279,184,90236,1,0,0:0:0:0:
249,142,90552,1,8,0:0:0:0:
222,103,90789,1,8,0:0:0:0:
228,112,90868,1,0,0:0:0:0:
214,130,91026,1,8,0:0:0:0:
200,151,91184,1,0,0:0:0:0:
214,130,91263,1,0,0:0:0:0:
214,130,91341,1,8,0:0:0:0:
214,130,91499,1,0,0:0:0:0:
214,130,91815,1,8,0:0:0:0:
214,130,92052,1,8,0:0:0:0:
214,130,92131,1,0,0:0:0:0:
214,130,92289,1,8,0:0:0:0:
214,130,92447,1,0,0:0:0:0:
214,130,92526,1,8,0:0:0:0:
214,130,92605,1,0,0:0:0:0:
214,130,92684,1,8,0:0:0:0:
214,130,92763,1,0,0:0:0:0:
214,130,92841,1,0,0:0:0:0:
214,130,92920,1,8,0:0:0:0:
214,130,92999,1,8,0:0:0:0:
214,130,93078,1,0,0:0:0:0:
214,130,93157,1,8,0:0:0:0:
214,130,93236,1,0,0:0:0:0:
214,130,93315,1,0,0:0:0:0:
223,130,93394,1,8,0:0:0:0:
233,130,93473,1,8,0:0:0:0:
245,130,93552,1,0,0:0:0:0:
254,130,93631,1,0,0:0:0:0:
254,130,93710,1,8,0:0:0:0:
283,127,93868,1,0,0:0:0:0:
286,139,93947,1,0,0:0:0:0:
279,129,94105,1,0,0:0:0:0:
266,129,94184,1,8,0:0:0:0:
241,129,94341,1,0,0:0:0:0:
230,129,94420,1,8,0:0:0:0:
218,129,94499,1,0,0:0:0:0:
206,129,94578,1,0,0:0:0:0:
192,129,94657,1,8,0:0:0:0:
179,128,94736,1,8,0:0:0:0:
167,128,94815,1,0,0:0:0:0:
156,128,94894,1,0,0:0:0:0:
156,143,94973,1,8,0:0:0:0:
158,178,95210,1,8,0:0:0:0:
158,178,95289,1,8,0:0:0:0:
158,178,95447,1,8,0:0:0:0:
158,178,95605,1,0,0:0:0:0:
158,178,95684,1,8,0:0:0:0:
158,178,95763,1,8,0:0:0:0:
256,160,95920,1,8,0:0:0:0:
256,160,96236,1,8,0:0:0:0:
205,122,96394,1,8,0:0:0:0:
207,108,96473,1,8,0:0:0:0:
214,77,96552,1,8,0:0:0:0:
214,77,96710,1,8,0:0:0:0:
246,66,96868,1,0,0:0:0:0:
246,66,96947,1,8,0:0:0:0:
246,66,97026,1,8,0:0:0:0:
246,66,97184,1,8,0:0:0:0:
263,93,97341,1,8,0:0:0:0:
271,105,97394,1,8,0:0:0:0:
271,105,97447,1,8,0:0:0:0:
271,105,97499,1,8,0:0:0:0:
290,133,97736,1,8,0:0:0:0:
301,148,97815,1,8,0:0:0:0:
268,144,97973,1,8,0:0:0:0:
234,141,98131,1,0,0:0:0:0:
234,141,98210,1,8,0:0:0:0:
234,141,98289,1,8,0:0:0:0:
234,141,98447,1,8,0:0:0:0:
279,87,98763,1,8,0:0:0:0:
288,160,98920,1,8,0:0:0:0:
245,128,98999,1,8,0:0:0:0:
256,114,99078,1,8,0:0:0:0:
256,114,99236,1,8,0:0:0:0:
256,114,99394,1,0,0:0:0:0:
256,114,99473,1,8,0:0:0:0:
256,114,99552,1,8,0:0:0:0:
277,91,99710,1,0,0:0:0:0:
174,163,99749,1,0,0:0:0:0:
302,66,99868,1,0,0:0:0:0:
174,163,99907,1,0,0:0:0:0:
302,66,100026,1,8,0:0:0:0:
302,66,100184,1,0,0:0:0:0:
302,66,100263,1,0,0:0:0:0:
302,66,100341,1,8,0:0:0:0:
302,66,100499,1,0,0:0:0:0:
302,66,100578,1,0,0:0:0:0:
302,66,100657,1,8,0:0:0:0:
302,66,100815,1,0,0:0:0:0:
302,66,100894,1,0,0:0:0:0:
302,66,100973,1,8,0:0:0:0:
302,66,101131,1,0,0:0:0:0:
302,66,101210,1,0,0:0:0:0:
302,66,101289,1,8,0:0:0:0:
302,66,101368,1,0,0:0:0:0:
302,66,101447,1,8,0:0:0:0:
302,66,101526,1,0,0:0:0:0:
302,66,101605,1,8,0:0:0:0:
302,66,101684,1,8,0:0:0:0:
302,66,101763,1,0,0:0:0:0:
302,66,101841,1,0,0:0:0:0:
302,66,101920,1,8,0:0:0:0:
302,66,101999,1,8,0:0:0:0:
302,66,102078,1,8,0:0:0:0:
302,66,102157,1,8,0:0:0:0:
302,66,102236,1,8,0:0:0:0:
302,66,102315,1,8,0:0:0:0:
302,66,102394,1,8,0:0:0:0:
302,66,102473,1,8,0:0:0:0:
395,273,103500,5,12,0:0:0:0:
253,120,104446,1,8,0:0:0:0:
262,130,104525,1,8,0:0:0:0:
271,140,104604,1,8,0:0:0:0:
279,148,104683,1,8,0:0:0:0:
286,155,104762,1,8,0:0:0:0:
293,162,104841,1,8,0:0:0:0:
299,169,104920,1,8,0:0:0:0:
304,175,104999,1,8,0:0:0:0:
313,184,105078,1,0,0:0:0:0:
333,206,105236,1,8,0:0:0:0:
333,206,105315,1,8,0:0:0:0:
333,206,105393,1,0,0:0:0:0:
333,206,105551,1,8,0:0:0:0:
333,206,105630,1,8,0:0:0:0:
333,206,105709,1,8,0:0:0:0:
333,206,105788,1,8,0:0:0:0:
333,206,105867,1,0,0:0:0:0:
333,206,105946,1,0,0:0:0:0:
312,197,106025,1,8,0:0:0:0:
312,197,106183,1,0,0:0:0:0:
312,197,106262,1,8,0:0:0:0:
312,197,106341,1,8,0:0:0:0:
312,197,106420,1,8,0:0:0:0:
312,197,106499,1,8,0:0:0:0:
281,180,106657,1,0,0:0:0:0:
256,96,106696,1,0,0:0:0:0:
281,180,106815,1,0,0:0:0:0:
256,96,106854,1,0,0:0:0:0:
281,180,106972,1,8,0:0:0:0:
291,177,107025,1,8,0:0:0:0:
302,174,107078,1,0,0:0:0:0:
309,172,107130,1,8,0:0:0:0:
321,169,107183,1,8,0:0:0:0:
335,166,107236,1,0,0:0:0:0:
345,164,107288,1,8,0:0:0:0:
401,215,107604,1,0,0:0:0:0:
419,231,107683,1,8,0:0:0:0:
430,241,107762,1,8,0:0:0:0:
441,251,107841,1,8,0:0:0:0:
452,261,107920,1,0,0:0:0:0:
452,261,107999,1,8,0:0:0:0:
452,261,108078,1,8,0:0:0:0:
452,261,108157,1,8,0:0:0:0:
452,261,108236,1,0,0:0:0:0:
452,261,108315,1,8,0:0:0:0:
452,261,108393,1,8,0:0:0:0:
452,261,108472,1,8,0:0:0:0:
452,261,108551,1,0,0:0:0:0:
423,247,108709,1,0,0:0:0:0:
409,241,108762,1,0,0:0:0:0:
409,240,108815,1,0,0:0:0:0:
395,233,108867,1,8,0:0:0:0:
307,203,109104,1,0,0:0:0:0:
339,214,109183,1,8,0:0:0:0:
350,218,109341,1,0,0:0:0:0:
295,189,109499,1,8,0:0:0:0:
304,169,109657,1,0,0:0:0:0:
290,159,109709,1,0,0:0:0:0:
283,154,109762,1,0,0:0:0:0:
275,148,109815,1,8,0:0:0:0:
265,134,109893,1,8,0:0:0:0:
265,134,109972,1,0,0:0:0:0:
224,160,110051,1,8,0:0:0:0:
265,134,110130,1,0,0:0:0:0:
312,131,110341,1,0,0:0:0:0:
325,130,110393,1,0,0:0:0:0:
332,129,110446,1,8,0:0:0:0:
316,160,110604,1,8,0:0:0:0:
295,187,110762,1,0,0:0:0:0:
295,187,110841,1,0,0:0:0:0:
295,187,110920,1,0,0:0:0:0:
295,187,110999,1,8,0:0:0:0:
316,160,111236,1,8,0:0:0:0:
316,160,111315,1,8,0:0:0:0:
316,160,111393,1,0,0:0:0:0:
302,121,111551,1,8,0:0:0:0:
308,90,111709,1,0,0:0:0:0:
304,101,111762,1,8,0:0:0:0:
299,116,111815,1,8,0:0:0:0:
296,124,111867,1,8,0:0:0:0:
323,138,111946,1,8,0:0:0:0:
310,131,112025,1,0,0:0:0:0:
316,160,112262,1,0,0:0:0:0:
316,160,112341,1,8,0:0:0:0:
316,160,112499,1,0,0:0:0:0:
316,160,112657,1,8,0:0:0:0:
316,160,112736,1,8,0:0:0:0:
268,176,112893,1,8,0:0:0:0:
282,171,112972,1,0,0:0:0:0:
272,142,113130,1,8,0:0:0:0:
268,130,113209,1,8,0:0:0:0:
264,118,113288,1,0,0:0:0:0:
256,90,113446,1,8,0:0:0:0:
256,90,113525,1,0,0:0:0:0:
256,90,113604,1,8,0:0:0:0:
240,97,113683,1,8,0:0:0:0:
255,90,113762,1,0,0:0:0:0:
240,96,113841,1,8,0:0:0:0:
241,108,113920,1,0,0:0:0:0:
242,120,113999,1,8,0:0:0:0:
244,132,114078,1,0,0:0:0:0:
244,132,114157,1,0,0:0:0:0:
244,132,114236,1,8,0:0:0:0:
244,132,114315,1,8,0:0:0:0:
244,132,114393,1,0,0:0:0:0:
228,132,114472,1,0,0:0:0:0:
212,132,114551,1,8,0:0:0:0:
229,135,114630,1,0,0:0:0:0:
253,133,114709,1,8,0:0:0:0:
275,131,114788,1,8,0:0:0:0:
300,129,114867,1,0,0:0:0:0:
300,129,114946,1,0,0:0:0:0:
300,129,115025,1,8,0:0:0:0:
298,108,115104,1,8,0:0:0:0:
296,88,115499,1,12,0:0:0:0:
280,104,115657,1,0,0:0:0:0:
263,122,115815,1,8,0:0:0:0:
244,142,115972,1,0,0:0:0:0:
352,224,116051,1,8,0:0:0:0:
244,142,116130,1,0,0:0:0:0:
244,142,116288,1,8,0:0:0:0:
244,142,116446,1,0,0:0:0:0:
244,142,116604,1,8,0:0:0:0:
236,149,116657,1,0,0:0:0:0:
257,151,116709,1,0,0:0:0:0:
244,142,116762,1,8,0:0:0:0:
267,132,116920,1,0,0:0:0:0:
289,123,117078,1,8,0:0:0:0:
298,119,117157,1,8,0:0:0:0:
308,114,117236,1,0,0:0:0:0:
320,109,117315,1,0,0:0:0:0:
328,106,117393,1,8,0:0:0:0:
300,103,117551,1,8,0:0:0:0:
275,100,117709,1,0,0:0:0:0:
271,110,117762,1,8,0:0:0:0:
266,122,117815,1,8,0:0:0:0:
249,96,117867,1,0,0:0:0:0:
235,94,117946,1,8,0:0:0:0:
235,94,118104,1,8,0:0:0:0:
235,94,118183,1,0,0:0:0:0:
231,122,118341,1,8,0:0:0:0:
244,130,118420,1,0,0:0:0:0:
256,137,118499,1,0,0:0:0:0:
243,139,118578,1,8,0:0:0:0:
231,141,118657,1,0,0:0:0:0:
215,143,118736,1,0,0:0:0:0:
224,144,118815,1,8,0:0:0:0:
233,145,118893,1,0,0:0:0:0:
242,146,118972,1,8,0:0:0:0:
228,138,119051,1,8,0:0:0:0:
214,130,119130,1,0,0:0:0:0:
204,124,119209,1,8,0:0:0:0:
191,117,119288,1,0,0:0:0:0:
191,117,119446,1,0,0:0:0:0:
207,135,119525,1,0,0:0:0:0:
194,90,119604,1,8,0:0:0:0:
206,137,119762,1,0,0:0:0:0:
231,127,119920,1,8,0:0:0:0:
245,122,119999,1,8,0:0:0:0:
245,122,120078,1,0,0:0:0:0:
258,134,120157,1,8,0:0:0:0:
260,146,120236,1,0,0:0:0:0:
260,146,120288,1,0,0:0:0:0:
260,146,120341,1,0,0:0:0:0:
260,146,120393,1,8,0:0:0:0:
260,146,120446,1,8,0:0:0:0:
260,146,120499,1,8,0:0:0:0:
260,146,120551,1,0,0:0:0:0:
284,155,120709,1,0,0:0:0:0:
303,162,120867,1,8,0:0:0:0:
325,171,121025,1,0,0:0:0:0:
256,192,121104,1,8,0:0:0:0:
325,171,121183,1,0,0:0:0:0:
325,171,121341,1,8,0:0:0:0:
325,171,121499,1,0,0:0:0:0:
307,154,121657,1,8,0:0:0:0:
299,146,121709,1,0,0:0:0:0:
290,137,121762,1,0,0:0:0:0:
286,131,121815,1,8,0:0:0:0:
308,144,121972,1,0,0:0:0:0:
320,166,122130,1,8,0:0:0:0:
327,179,122209,1,8,0:0:0:0:
314,177,122288,1,0,0:0:0:0:
299,175,122367,1,0,0:0:0:0:
283,173,122446,1,8,0:0:0:0:
267,171,122604,1,8,0:0:0:0:
290,137,122762,1,0,0:0:0:0:
308,144,122815,1,8,0:0:0:0:
308,144,122867,1,8,0:0:0:0:
308,144,122920,1,0,0:0:0:0:
297,150,122999,1,0,0:0:0:0:
283,157,123078,1,8,0:0:0:0:
302,140,123236,1,0,0:0:0:0:
290,137,123288,1,0,0:0:0:0:
290,137,123341,1,0,0:0:0:0:
290,137,123393,1,8,0:0:0:0:
308,144,123472,1,0,0:0:0:0:
308,144,123551,1,8,0:0:0:0:
294,143,123630,1,8,0:0:0:0:
285,155,123709,1,0,0:0:0:0:
287,142,123788,1,8,0:0:0:0:
289,128,123867,1,8,0:0:0:0:
291,116,123946,1,8,0:0:0:0:
293,104,124025,1,0,0:0:0:0:
293,104,124183,1,2,0:0:0:0:
293,104,124262,1,8,0:0:0:0:
305,104,124341,1,0,0:0:0:0:
324,123,124393,1,8,0:0:0:0:
324,123,124446,1,8,0:0:0:0:
324,123,124499,1,2,0:0:0:0:
334,131,124578,1,2,0:0:0:0:
343,138,124657,1,0,0:0:0:0:
334,131,124736,1,0,0:0:0:0:
334,131,124815,1,2,0:0:0:0:
334,131,124893,1,8,0:0:0:0:
334,131,124972,1,0,0:0:0:0:
334,131,125051,1,2,0:0:0:0:
334,131,125130,1,2,0:0:0:0:
334,131,125209,1,2,0:0:0:0:
334,131,125288,1,0,0:0:0:0:
256,192,136810,5,2,0:0:0:0:
256,192,137050,1,2,0:0:0:0:
256,192,137290,1,2,0:0:0:0:
256,192,137530,1,6,0:0:0:0:
256,192,137770,1,4,0:0:0:0:
256,192,138250,1,4,0:0:0:0:
256,192,138610,1,6,0:0:0:0:
256,192,138970,1,6,0:0:0:0:
256,192,139210,1,4,0:0:0:0:
256,192,139450,1,6,0:0:0:0:
256,192,139690,1,4,0:0:0:0:
256,192,140170,1,6,0:0:0:0:
256,192,140530,1,4,0:0:0:0:
256,192,140890,1,6,0:0:0:0:
256,192,141130,1,6,0:0:0:0:
256,192,141370,1,6,0:0:0:0:
256,192,141610,1,4,0:0:0:0:
256,192,142090,1,4,0:0:0:0:
256,192,142450,1,6,0:0:0:0:
256,192,142810,1,6,0:0:0:0:
256,192,143050,1,4,0:0:0:0:
256,192,143290,1,6,0:0:0:0:
256,192,143530,1,4,0:0:0:0:
256,192,144010,1,6,0:0:0:0:
256,192,144370,1,2,0:0:0:0:
256,192,144430,1,2,0:0:0:0:
256,192,144490,1,2,0:0:0:0:
256,192,144610,1,2,0:0:0:0:
256,192,144730,1,0,0:0:0:0:
256,192,144850,1,2,0:0:0:0:
256,192,144970,1,0,0:0:0:0:
256,192,145090,1,0,0:0:0:0:
256,192,145150,1,0,0:0:0:0:
256,192,145210,1,2,0:0:0:0:
256,192,145330,1,2,0:0:0:0:
256,192,145450,1,0,0:0:0:0:
256,192,145690,1,2,0:0:0:0:
256,192,145930,1,0,0:0:0:0:
256,192,146170,1,2,0:0:0:0:
256,192,146290,1,0,0:0:0:0:
256,192,146530,1,0,0:0:0:0:
256,192,146650,1,2,0:0:0:0:
256,192,146770,1,2,0:0:0:0:
256,192,146890,1,0,0:0:0:0:
256,192,147010,1,0,0:0:0:0:
256,192,147130,1,2,0:0:0:0:
256,192,147370,1,0,0:0:0:0:
256,192,147610,1,2,0:0:0:0:
256,192,147850,1,0,0:0:0:0:
256,192,147970,1,0,0:0:0:0:
256,192,148090,1,2,0:0:0:0:
256,192,148210,1,0,0:0:0:0:
256,192,148450,1,0,0:0:0:0:
256,192,148570,1,2,0:0:0:0:
256,192,148690,1,2,0:0:0:0:
256,192,148810,1,0,0:0:0:0:
256,192,148930,1,2,0:0:0:0:
256,192,148990,1,2,0:0:0:0:
256,192,149050,1,0,0:0:0:0:
256,192,149170,1,2,0:0:0:0:
256,192,149290,1,0,0:0:0:0:
256,192,149530,1,2,0:0:0:0:
256,192,149770,1,0,0:0:0:0:
256,192,150010,1,2,0:0:0:0:
256,192,150130,1,0,0:0:0:0:
256,192,150370,1,0,0:0:0:0:
256,192,150490,1,2,0:0:0:0:
256,192,150610,1,2,0:0:0:0:
256,192,150730,1,0,0:0:0:0:
256,192,150850,1,0,0:0:0:0:
256,192,150970,1,2,0:0:0:0:
256,192,151090,1,0,0:0:0:0:
256,192,151210,1,0,0:0:0:0:
256,192,151450,1,2,0:0:0:0:
256,192,151570,1,0,0:0:0:0:
256,192,151690,1,2,0:0:0:0:
256,192,151750,1,2,0:0:0:0:
256,192,151810,1,0,0:0:0:0:
256,192,151930,1,2,0:0:0:0:
256,192,152050,1,0,0:0:0:0:
256,192,152170,1,2,0:0:0:0:
256,192,152290,1,0,0:0:0:0:
256,192,152350,1,0,0:0:0:0:
256,192,152410,1,2,0:0:0:0:
256,192,152530,1,0,0:0:0:0:
256,192,152650,1,2,0:0:0:0:
256,192,152710,1,2,0:0:0:0:
256,192,152770,1,0,0:0:0:0:
256,192,152830,1,0,0:0:0:0:
256,192,152890,1,2,0:0:0:0:
256,192,153010,1,2,0:0:0:0:
256,192,153130,5,4,0:0:0:0:
256,192,153370,1,2,0:0:0:0:
256,192,153530,1,2,0:0:0:0:
256,192,153610,1,0,0:0:0:0:
256,192,153850,1,2,0:0:0:0:
256,192,154090,1,0,0:0:0:0:
256,192,154250,1,0,0:0:0:0:
256,192,154330,1,2,0:0:0:0:
256,192,154490,1,0,0:0:0:0:
256,192,154570,1,2,0:0:0:0:
256,192,154650,1,0,0:0:0:0:
256,192,154730,1,0,0:0:0:0:
256,192,154810,1,2,0:0:0:0:
256,192,154970,1,2,0:0:0:0:
256,192,155050,1,0,0:0:0:0:
256,192,155230,1,2,0:0:0:0:
256,192,155290,1,0,0:0:0:0:
256,192,155410,1,2,0:0:0:0:
256,192,155530,1,0,0:0:0:0:
256,192,155710,1,2,0:0:0:0:
256,192,155770,1,0,0:0:0:0:
256,192,155850,1,2,0:0:0:0:
256,192,155930,1,2,0:0:0:0:
256,192,156010,1,0,0:0:0:0:
256,192,156130,1,0,0:0:0:0:
256,192,156190,1,2,0:0:0:0:
256,192,156250,1,0,0:0:0:0:
256,192,156370,1,2,0:0:0:0:
256,192,156430,1,2,0:0:0:0:
256,192,156490,1,0,0:0:0:0:
256,192,156550,1,2,0:0:0:0:
256,192,156610,1,0,0:0:0:0:
256,192,156670,1,0,0:0:0:0:
256,192,156730,1,2,0:0:0:0:
256,192,156810,1,2,0:0:0:0:
256,192,156890,1,2,0:0:0:0:
256,192,156970,1,0,0:0:0:0:
256,192,157210,1,2,0:0:0:0:
256,192,157450,1,0,0:0:0:0:
256,192,157570,1,2,0:0:0:0:
256,192,157810,1,2,0:0:0:0:
256,192,157930,1,0,0:0:0:0:
256,192,158170,1,2,0:0:0:0:
256,192,158290,1,0,0:0:0:0:
256,192,158410,1,2,0:0:0:0:
256,192,158530,1,2,0:0:0:0:
256,192,158650,1,0,0:0:0:0:
256,192,158770,1,2,0:0:0:0:
256,192,158890,1,0,0:0:0:0:
256,192,159010,1,2,0:0:0:0:
256,192,159250,1,2,0:0:0:0:
256,192,159370,1,0,0:0:0:0:
256,192,159490,1,2,0:0:0:0:
256,192,159610,1,2,0:0:0:0:
256,192,159850,1,0,0:0:0:0:
256,192,160210,1,0,0:0:0:0:
256,192,160330,1,2,0:0:0:0:
256,192,160570,1,0,0:0:0:0:
256,192,160690,1,0,0:0:0:0:
256,192,160810,1,2,0:0:0:0:
256,192,160870,1,2,0:0:0:0:
256,192,160930,1,2,0:0:0:0:
256,192,160990,1,2,0:0:0:0:
256,192,161050,1,2,0:0:0:0:
256,192,161290,1,0,0:0:0:0:
256,192,161410,1,2,0:0:0:0:
256,192,161650,1,0,0:0:0:0:
256,192,161770,1,6,0:0:0:0:
256,192,162130,1,6,0:0:0:0:
256,192,162490,1,6,0:0:0:0:
256,192,162730,1,0,0:0:0:0:
256,192,162970,1,2,0:0:0:0:
256,192,163090,1,2,0:0:0:0:
256,192,163330,1,0,0:0:0:0:
256,192,163450,1,2,0:0:0:0:
256,192,163690,1,0,0:0:0:0:
256,192,163810,1,2,0:0:0:0:
256,192,163930,1,0,0:0:0:0:
256,192,163990,1,0,0:0:0:0:
256,192,164050,1,0,0:0:0:0:
256,192,164110,1,0,0:0:0:0:
256,192,164170,1,2,0:0:0:0:
256,192,164290,1,0,0:0:0:0:
256,192,164350,1,2,0:0:0:0:
256,192,164470,1,0,0:0:0:0:
256,192,164530,1,2,0:0:0:0:
256,192,164590,1,2,0:0:0:0:
256,192,164890,1,6,0:0:0:0:
256,192,165130,1,0,0:0:0:0:
256,192,165250,1,2,0:0:0:0:
256,192,165490,1,2,0:0:0:0:
256,192,165610,1,4,0:0:0:0:
256,192,165970,1,4,0:0:0:0:
256,192,166330,1,6,0:0:0:0:
256,192,166570,1,0,0:0:0:0:
256,192,166690,1,2,0:0:0:0:
256,192,166930,1,2,0:0:0:0:
256,192,167050,1,0,0:0:0:0:
256,192,167170,1,2,0:0:0:0:
256,192,167290,1,2,0:0:0:0:
256,192,167530,1,6,0:0:0:0:
256,192,167890,1,6,0:0:0:0:
256,192,168250,1,4,0:0:0:0:
256,192,168490,1,0,0:0:0:0:
256,192,168610,1,2,0:0:0:0:
256,192,168730,1,0,0:0:0:0:
256,192,168850,1,2,0:0:0:0:
256,192,168970,1,2,0:0:0:0:
256,192,169030,1,2,0:0:0:0:
256,192,169090,1,2,0:0:0:0:
256,192,169210,1,2,0:0:0:0:
256,192,169330,1,2,0:0:0:0:
256,192,169450,1,4,0:0:0:0:
256,192,169690,1,4,0:0:0:0:
256,192,169810,1,2,0:0:0:0:
256,192,169870,1,2,0:0:0:0:
256,192,169930,1,2,0:0:0:0:
256,192,170050,1,2,0:0:0:0:
256,192,170170,1,2,0:0:0:0:
256,192,170290,1,2,0:0:0:0:
256,192,170410,1,0,0:0:0:0:
256,192,170470,1,2,0:0:0:0:
256,192,170530,1,2,0:0:0:0:
256,192,170590,1,2,0:0:0:0:
256,192,170650,1,2,0:0:0:0:
256,192,170710,1,2,0:0:0:0:
256,192,170770,1,0,0:0:0:0:
256,192,170830,1,2,0:0:0:0:
256,192,170890,1,2,0:0:0:0:
256,192,170950,1,2,0:0:0:0:
256,192,171010,1,2,0:0:0:0:
256,192,171070,1,2,0:0:0:0:
256,192,171130,1,0,0:0:0:0:
256,192,171190,1,2,0:0:0:0:
256,192,171250,1,2,0:0:0:0:
256,192,171310,1,2,0:0:0:0:
256,192,171370,1,0,0:0:0:0:
256,192,171430,1,0,0:0:0:0:
256,192,171490,1,0,0:0:0:0:
256,192,171550,1,0,0:0:0:0:
256,192,171610,1,2,0:0:0:0:
256,192,171670,1,2,0:0:0:0:
256,192,171730,1,2,0:0:0:0:
256,192,171790,1,2,0:0:0:0:
256,192,171850,1,0,0:0:0:0:
256,192,171910,1,0,0:0:0:0:
256,192,171970,1,0,0:0:0:0:
256,192,172030,1,0,0:0:0:0:
256,192,172090,1,2,0:0:0:0:
256,192,172210,1,2,0:0:0:0:
256,192,172330,1,4,0:0:0:0:
256,192,172510,1,0,0:0:0:0:
256,192,172570,1,2,0:0:0:0:
256,192,172690,1,2,0:0:0:0:
256,192,172810,1,0,0:0:0:0:
256,192,172930,1,0,0:0:0:0:
256,192,172990,1,0,0:0:0:0:
256,192,173050,1,2,0:0:0:0:
256,192,173170,1,0,0:0:0:0:
256,192,173410,1,0,0:0:0:0:
256,192,173530,1,2,0:0:0:0:
256,192,173650,1,2,0:0:0:0:
256,192,173710,1,2,0:0:0:0:
256,192,173770,1,0,0:0:0:0:
256,192,173890,1,0,0:0:0:0:
256,192,174010,1,2,0:0:0:0:
256,192,174130,1,2,0:0:0:0:
256,192,174250,1,0,0:0:0:0:
256,192,174430,1,0,0:0:0:0:
256,192,174490,1,2,0:0:0:0:
256,192,174610,1,0,0:0:0:0:
256,192,174730,1,2,0:0:0:0:
256,192,174790,1,2,0:0:0:0:
256,192,174850,1,0,0:0:0:0:
256,192,174970,1,2,0:0:0:0:
256,192,175090,1,2,0:0:0:0:
256,192,175210,1,0,0:0:0:0:
256,192,175330,1,0,0:0:0:0:
256,192,175390,1,0,0:0:0:0:
256,192,175450,1,2,0:0:0:0:
256,192,175570,1,0,0:0:0:0:
256,192,175690,1,2,0:0:0:0:
256,192,175810,1,2,0:0:0:0:
256,192,175930,1,0,0:0:0:0:
256,192,176050,1,2,0:0:0:0:
256,192,176170,1,0,0:0:0:0:
256,192,176230,1,0,0:0:0:0:
256,192,176290,1,0,0:0:0:0:
256,192,176350,1,2,0:0:0:0:
256,192,176410,1,0,0:0:0:0:
256,192,176470,1,0,0:0:0:0:
256,192,176530,1,2,0:0:0:0:
256,192,176590,1,0,0:0:0:0:
256,192,176650,1,0,0:0:0:0:
256,192,176710,1,2,0:0:0:0:
256,192,176770,1,2,0:0:0:0:
256,192,176830,1,0,0:0:0:0:
256,192,176890,1,2,0:0:0:0:
256,192,176950,1,2,0:0:0:0:
256,192,177010,1,0,0:0:0:0:
256,192,177070,1,2,0:0:0:0:
256,192,177130,1,2,0:0:0:0:
256,192,177250,1,0,0:0:0:0:
256,192,177310,1,0,0:0:0:0:
256,192,177370,1,2,0:0:0:0:
256,192,177490,1,0,0:0:0:0:
256,192,177610,1,2,0:0:0:0:
256,192,177730,1,2,0:0:0:0:
256,192,177850,1,0,0:0:0:0:
256,192,177970,1,2,0:0:0:0:
256,192,178090,1,0,0:0:0:0:
256,192,178210,1,2,0:0:0:0:
256,192,178270,1,2,0:0:0:0:
256,192,178330,1,0,0:0:0:0:
256,192,178450,1,2,0:0:0:0:
256,192,178570,1,0,0:0:0:0:
256,192,178690,1,0,0:0:0:0:
256,192,178750,1,0,0:0:0:0:
256,192,178810,1,2,0:0:0:0:
256,192,178930,1,2,0:0:0:0:
256,192,179050,1,0,0:0:0:0:
256,192,179290,1,2,0:0:0:0:
256,192,179770,1,2,0:0:0:0:
256,192,180010,5,4,0:0:0:0:
256,192,180250,1,0,0:0:0:0:
256,192,180370,1,2,0:0:0:0:
256,192,180490,1,0,0:0:0:0:
256,192,180730,1,2,0:0:0:0:
256,192,180850,1,0,0:0:0:0:
256,192,180970,1,2,0:0:0:0:
256,192,181090,1,0,0:0:0:0:
256,192,181210,1,0,0:0:0:0:
256,192,181330,1,2,0:0:0:0:
256,192,181450,1,0,0:0:0:0:
256,192,181570,1,0,0:0:0:0:
256,192,181630,1,0,0:0:0:0:
256,192,181690,1,2,0:0:0:0:
256,192,181810,1,2,0:0:0:0:
256,192,181930,1,0,0:0:0:0:
256,192,182110,1,2,0:0:0:0:
256,192,182170,1,0,0:0:0:0:
256,192,182290,1,2,0:0:0:0:
256,192,182410,1,0,0:0:0:0:
256,192,182530,1,0,0:0:0:0:
256,192,182590,1,0,0:0:0:0:
256,192,182650,1,2,0:0:0:0:
256,192,182770,1,0,0:0:0:0:
256,192,182890,1,2,0:0:0:0:
256,192,183010,1,2,0:0:0:0:
256,192,183070,1,2,0:0:0:0:
256,192,183130,1,0,0:0:0:0:
256,192,183250,1,2,0:0:0:0:
256,192,183370,1,0,0:0:0:0:
256,192,183430,1,0,0:0:0:0:
256,192,183490,1,0,0:0:0:0:
256,192,183550,1,0,0:0:0:0:
256,192,183610,1,2,0:0:0:0:
256,192,183730,1,2,0:0:0:0:
256,192,183850,1,0,0:0:0:0:
256,192,183970,1,2,0:0:0:0:
256,192,184030,1,2,0:0:0:0:
256,192,184090,1,0,0:0:0:0:
256,192,184210,1,2,0:0:0:0:
256,192,184330,1,0,0:0:0:0:
256,192,184450,1,2,0:0:0:0:
256,192,184510,1,2,0:0:0:0:
256,192,184570,1,0,0:0:0:0:
256,192,184690,1,2,0:0:0:0:
256,192,184810,1,0,0:0:0:0:
256,192,184930,1,0,0:0:0:0:
256,192,184990,1,0,0:0:0:0:
256,192,185050,1,2,0:0:0:0:
256,192,185170,1,2,0:0:0:0:
256,192,185290,1,0,0:0:0:0:
256,192,185410,1,0,0:0:0:0:
256,192,185470,1,2,0:0:0:0:
256,192,185530,1,2,0:0:0:0:
256,192,185650,1,2,0:0:0:0:
256,192,185770,1,0,0:0:0:0:
256,192,185830,1,2,0:0:0:0:
256,192,185890,1,2,0:0:0:0:
256,192,185950,1,2,0:0:0:0:
256,192,186010,1,0,0:0:0:0:
256,192,186070,1,2,0:0:0:0:
256,192,186130,1,2,0:0:0:0:
256,192,186190,1,2,0:0:0:0:
256,192,186250,1,0,0:0:0:0:
256,192,186310,1,0,0:0:0:0:
256,192,186370,1,2,0:0:0:0:
256,192,186430,1,2,0:0:0:0:
256,192,186490,1,0,0:0:0:0:
256,192,186550,1,0,0:0:0:0:
256,192,186610,1,2,0:0:0:0:
256,192,186670,1,2,0:0:0:0:
256,192,186730,1,0,0:0:0:0:
256,192,186790,1,2,0:0:0:0:
256,192,186850,1,2,0:0:0:0:
256,192,186910,1,0,0:0:0:0:
256,192,186970,1,2,0:0:0:0:
256,192,187030,1,2,0:0:0:0:
256,192,187090,1,0,0:0:0:0:
256,192,187150,1,0,0:0:0:0:
256,192,187210,1,2,0:0:0:0:
256,192,187270,1,2,0:0:0:0:
256,192,187330,1,0,0:0:0:0:
256,192,187390,1,2,0:0:0:0:
256,192,187450,1,0,0:0:0:0:
256,192,187510,1,0,0:0:0:0:
256,192,187570,1,2,0:0:0:0:
256,192,187630,1,2,0:0:0:0:
256,192,187690,1,0,0:0:0:0:
256,192,188170,1,2,0:0:0:0:
256,192,188530,1,2,0:0:0:0:
256,192,188890,1,0,0:0:0:0:
256,192,189130,1,2,0:0:0:0:
256,192,189370,1,0,0:0:0:0:
256,192,189610,1,0,0:0:0:0:
256,192,190090,1,2,0:0:0:0:
256,192,190450,1,2,0:0:0:0:
256,192,190810,1,0,0:0:0:0:
256,192,191050,1,2,0:0:0:0:
256,192,191290,1,0,0:0:0:0:
256,192,191530,1,0,0:0:0:0:
256,192,192010,1,2,0:0:0:0:
256,192,192370,1,2,0:0:0:0:
256,192,192730,1,0,0:0:0:0:
256,192,192970,1,2,0:0:0:0:
256,192,193210,1,0,0:0:0:0:
256,192,193450,1,0,0:0:0:0:
256,192,193810,1,2,0:0:0:0:
256,192,194170,1,0,0:0:0:0:
256,192,194410,1,0,0:0:0:0:
256,192,194530,1,2,0:0:0:0:
256,192,194650,1,0,0:0:0:0:
256,192,194890,1,2,0:0:0:0:
256,192,195010,1,0,0:0:0:0:
256,192,195130,1,0,0:0:0:0:
256,192,195190,1,0,0:0:0:0:
256,192,195250,1,0,0:0:0:0:
256,192,195370,5,4,0:0:0:0:
256,192,195610,1,0,0:0:0:0:
256,192,195850,1,2,0:0:0:0:
256,192,196090,1,2,0:0:0:0:
256,192,196210,1,0,0:0:0:0:
256,192,196450,1,2,0:0:0:0:
256,192,196510,1,2,0:0:0:0:
256,192,196570,1,0,0:0:0:0:
256,192,196690,1,0,0:0:0:0:
256,192,196810,1,2,0:0:0:0:
256,192,197050,1,0,0:0:0:0:
256,192,197170,1,2,0:0:0:0:
256,192,197290,1,0,0:0:0:0:
256,192,197530,1,0,0:0:0:0:
256,192,197770,1,2,0:0:0:0:
256,192,197890,1,0,0:0:0:0:
256,192,198130,5,0,0:0:0:0:
256,192,198370,1,2,0:0:0:0:
256,192,198430,1,2,0:0:0:0:
256,192,198490,1,0,0:0:0:0:
256,192,198610,1,2,0:0:0:0:
256,192,198730,1,0,0:0:0:0:
256,192,198850,1,0,0:0:0:0:
256,192,198970,1,2,0:0:0:0:
256,192,199010,1,2,0:0:0:0:
256,192,199050,1,2,0:0:0:0:
256,192,199090,1,0,0:0:0:0:
256,192,199150,1,0,0:0:0:0:
256,192,199210,1,0,0:0:0:0:
256,192,199450,1,0,0:0:0:0:
256,192,199690,1,2,0:0:0:0:
256,192,199930,1,2,0:0:0:0:
256,192,200050,1,0,0:0:0:0:
256,192,200170,1,2,0:0:0:0:
256,192,200230,1,2,0:0:0:0:
256,192,200290,1,2,0:0:0:0:
256,192,200350,1,2,0:0:0:0:
256,192,200410,1,0,0:0:0:0:
256,192,200470,1,0,0:0:0:0:
256,192,200530,1,2,0:0:0:0:
256,192,200650,1,0,0:0:0:0:
256,192,200770,1,0,0:0:0:0:
256,192,200890,1,2,0:0:0:0:
256,192,201010,1,2,0:0:0:0:
256,192,201130,1,0,0:0:0:0:
256,192,201370,1,0,0:0:0:0:
256,192,201610,1,2,0:0:0:0:
256,192,201730,1,0,0:0:0:0:
256,192,201970,1,0,0:0:0:0:
256,192,202090,1,2,0:0:0:0:
256,192,202210,1,2,0:0:0:0:
256,192,202270,1,2,0:0:0:0:
256,192,202330,1,0,0:0:0:0:
256,192,202450,1,0,0:0:0:0:
256,192,202510,1,0,0:0:0:0:
256,192,202570,1,2,0:0:0:0:
256,192,202690,1,0,0:0:0:0:
256,192,202810,1,2,0:0:0:0:
256,192,202930,1,2,0:0:0:0:
256,192,203050,1,4,0:0:0:0:
256,192,203170,1,2,0:0:0:0:
256,192,203290,1,2,0:0:0:0:
256,192,203410,1,2,0:0:0:0:
256,192,203530,1,0,0:0:0:0:
256,192,203650,1,0,0:0:0:0:
256,192,203770,1,2,0:0:0:0:
256,192,203890,1,2,0:0:0:0:
256,192,204010,1,0,0:0:0:0:
256,192,204130,1,2,0:0:0:0:
256,192,204250,1,0,0:0:0:0:
256,192,204370,1,0,0:0:0:0:
256,192,204490,1,2,0:0:0:0:
256,192,204610,1,2,0:0:0:0:
256,192,204730,1,2,0:0:0:0:
256,192,204850,1,2,0:0:0:0:
256,192,204970,1,0,0:0:0:0:
256,192,205090,1,2,0:0:0:0:
256,192,205210,1,2,0:0:0:0:
256,192,205330,1,2,0:0:0:0:
256,192,205450,1,0,0:0:0:0:
256,192,205570,1,2,0:0:0:0:
256,192,205690,1,2,0:0:0:0:
256,192,205810,1,0,0:0:0:0:
256,192,205930,1,2,0:0:0:0:
256,192,206050,1,2,0:0:0:0:
256,192,206170,1,0,0:0:0:0:
256,192,206290,1,0,0:0:0:0:
256,192,206410,1,2,0:0:0:0:
256,192,206530,1,0,0:0:0:0:
256,192,206650,1,2,0:0:0:0:
256,192,206770,1,2,0:0:0:0:
256,192,206890,1,0,0:0:0:0:
256,192,207010,1,0,0:0:0:0:
256,192,207130,1,0,0:0:0:0:
256,192,207250,1,2,0:0:0:0:
256,192,207370,1,0,0:0:0:0:
256,192,207490,1,0,0:0:0:0:
256,192,207610,1,2,0:0:0:0:
256,192,207730,1,2,0:0:0:0:
256,192,207850,1,0,0:0:0:0:
256,192,207970,1,2,0:0:0:0:
256,192,208090,1,0,0:0:0:0:
256,192,208210,1,0,0:0:0:0:
256,192,208330,1,2,0:0:0:0:
256,192,208450,1,0,0:0:0:0:
256,192,208570,1,2,0:0:0:0:
256,192,208690,1,2,0:0:0:0:
256,192,208810,1,0,0:0:0:0:
256,192,208870,1,0,0:0:0:0:
256,192,208930,1,0,0:0:0:0:
256,192,208990,1,0,0:0:0:0:
256,192,209050,1,2,0:0:0:0:
256,192,209110,1,2,0:0:0:0:
256,192,209170,1,2,0:0:0:0:
256,192,209230,1,2,0:0:0:0:
256,192,209290,1,0,0:0:0:0:
256,192,209350,1,0,0:0:0:0:
256,192,209410,1,2,0:0:0:0:
256,192,209470,1,2,0:0:0:0:
256,192,209530,1,0,0:0:0:0:
256,192,209590,1,2,0:0:0:0:
256,192,209650,1,2,0:0:0:0:
256,192,209710,1,2,0:0:0:0:
256,192,209770,1,0,0:0:0:0:
256,192,209890,1,2,0:0:0:0:
256,192,210010,1,0,0:0:0:0:
256,192,210130,1,2,0:0:0:0:
256,192,210250,1,2,0:0:0:0:
256,192,210370,1,0,0:0:0:0:
256,192,210430,1,0,0:0:0:0:
256,192,210490,1,2,0:0:0:0:
256,192,210730,5,4,0:0:0:0:
256,192,210970,1,2,0:0:0:0:
256,192,211150,1,2,0:0:0:0:
256,192,211210,1,0,0:0:0:0:
256,192,211330,1,0,0:0:0:0:
256,192,211450,1,2,0:0:0:0:
256,192,211570,1,2,0:0:0:0:
256,192,211630,1,2,0:0:0:0:
256,192,211690,1,0,0:0:0:0:
256,192,211810,1,2,0:0:0:0:
256,192,211930,1,0,0:0:0:0:
256,192,212050,1,0,0:0:0:0:
256,192,212110,1,0,0:0:0:0:
256,192,212170,1,2,0:0:0:0:
256,192,212290,1,0,0:0:0:0:
256,192,212410,1,2,0:0:0:0:
256,192,212530,1,2,0:0:0:0:
256,192,212650,1,0,0:0:0:0:
256,192,212890,1,2,0:0:0:0:
256,192,213070,1,2,0:0:0:0:
256,192,213130,1,0,0:0:0:0:
256,192,213250,1,0,0:0:0:0:
256,192,213370,1,2,0:0:0:0:
256,192,213490,1,0,0:0:0:0:
256,192,213550,1,2,0:0:0:0:
256,192,213610,1,2,0:0:0:0:
256,192,213730,1,0,0:0:0:0:
256,192,213850,1,2,0:0:0:0:
256,192,213970,1,0,0:0:0:0:
256,192,214030,1,0,0:0:0:0:
256,192,214090,1,2,0:0:0:0:
256,192,214210,1,0,0:0:0:0:
256,192,214330,1,2,0:0:0:0:
256,192,214450,1,2,0:0:0:0:
256,192,214510,1,2,0:0:0:0:
256,192,214570,1,0,0:0:0:0:
256,192,214810,1,2,0:0:0:0:
256,192,214990,1,2,0:0:0:0:
256,192,215050,1,0,0:0:0:0:
256,192,215170,1,0,0:0:0:0:
256,192,215290,1,2,0:0:0:0:
256,192,215410,1,2,0:0:0:0:
256,192,215470,1,2,0:0:0:0:
256,192,215530,1,0,0:0:0:0:
256,192,215650,1,2,0:0:0:0:
256,192,215770,1,0,0:0:0:0:
256,192,215890,1,0,0:0:0:0:
256,192,215950,1,0,0:0:0:0:
256,192,216010,1,2,0:0:0:0:
256,192,216130,1,0,0:0:0:0:
256,192,216250,1,2,0:0:0:0:
256,192,216370,1,2,0:0:0:0:
256,192,216490,1,0,0:0:0:0:
256,192,216670,1,0,0:0:0:0:
256,192,216730,1,2,0:0:0:0:
256,192,216850,1,0,0:0:0:0:
256,192,216970,1,2,0:0:0:0:
256,192,217030,1,2,0:0:0:0:
256,192,217090,1,0,0:0:0:0:
256,192,217150,1,0,0:0:0:0:
256,192,217210,1,2,0:0:0:0:
256,192,217330,1,0,0:0:0:0:
256,192,217390,1,2,0:0:0:0:
256,192,217450,1,2,0:0:0:0:
256,192,217570,1,0,0:0:0:0:
256,192,217690,1,2,0:0:0:0:
256,192,217730,1,2,0:0:0:0:
256,192,217770,1,2,0:0:0:0:
256,192,217810,1,0,0:0:0:0:
256,192,217930,1,2,0:0:0:0:
256,192,217960,1,2,0:0:0:0:
256,192,218170,1,2,0:0:0:0:
256,192,218200,1,2,0:0:0:0:
256,192,218410,5,4,0:0:0:0:
256,192,218650,1,2,0:0:0:0:
256,192,218830,1,2,0:0:0:0:
256,192,218890,1,0,0:0:0:0:
256,192,219010,1,0,0:0:0:0:
256,192,219130,1,2,0:0:0:0:
256,192,219250,1,2,0:0:0:0:
256,192,219310,1,2,0:0:0:0:
256,192,219370,1,0,0:0:0:0:
256,192,219490,1,2,0:0:0:0:
256,192,219610,1,0,0:0:0:0:
256,192,219670,1,0,0:0:0:0:
256,192,219730,1,0,0:0:0:0:
256,192,219790,1,0,0:0:0:0:
256,192,219850,1,2,0:0:0:0:
256,192,219970,1,0,0:0:0:0:
256,192,220090,1,2,0:0:0:0:
256,192,220210,1,2,0:0:0:0:
256,192,220270,1,2,0:0:0:0:
256,192,220330,1,0,0:0:0:0:
256,192,220570,1,2,0:0:0:0:
256,192,220750,1,2,0:0:0:0:
256,192,220810,1,0,0:0:0:0:
256,192,220930,1,0,0:0:0:0:
256,192,221050,1,2,0:0:0:0:
256,192,221170,1,0,0:0:0:0:
256,192,221230,1,2,0:0:0:0:
256,192,221290,1,2,0:0:0:0:
256,192,221410,1,0,0:0:0:0:
256,192,221530,1,2,0:0:0:0:
256,192,221590,1,2,0:0:0:0:
256,192,221650,1,0,0:0:0:0:
256,192,221710,1,0,0:0:0:0:
256,192,221770,1,2,0:0:0:0:
256,192,221890,1,0,0:0:0:0:
256,192,222010,1,2,0:0:0:0:
256,192,222130,1,2,0:0:0:0:
256,192,222190,1,2,0:0:0:0:
256,192,222250,1,0,0:0:0:0:
256,192,222490,1,2,0:0:0:0:
256,192,222670,1,2,0:0:0:0:
256,192,222730,1,0,0:0:0:0:
256,192,222850,1,0,0:0:0:0:
256,192,222970,1,2,0:0:0:0:
256,192,223090,1,2,0:0:0:0:
256,192,223150,1,2,0:0:0:0:
256,192,223210,1,0,0:0:0:0:
256,192,223330,1,2,0:0:0:0:
256,192,223450,1,0,0:0:0:0:
256,192,223510,1,0,0:0:0:0:
256,192,223570,1,0,0:0:0:0:
256,192,223630,1,0,0:0:0:0:
256,192,223690,1,2,0:0:0:0:
256,192,223810,1,0,0:0:0:0:
256,192,223930,1,2,0:0:0:0:
256,192,224050,1,2,0:0:0:0:
256,192,224170,1,0,0:0:0:0:
256,192,224350,1,0,0:0:0:0:
256,192,224410,1,2,0:0:0:0:
256,192,224530,1,0,0:0:0:0:
256,192,224650,1,2,0:0:0:0:
256,192,224770,1,0,0:0:0:0:
256,192,224830,1,0,0:0:0:0:
256,192,224890,1,2,0:0:0:0:
256,192,225010,1,2,0:0:0:0:
256,192,225130,1,0,0:0:0:0:
256,192,225190,1,2,0:0:0:0:
256,192,225250,1,0,0:0:0:0:
256,192,225370,1,2,0:0:0:0:
256,192,225490,1,0,0:0:0:0:
256,192,225550,1,0,0:0:0:0:
256,192,225610,1,2,0:0:0:0:
256,192,225730,1,0,0:0:0:0:
256,192,225850,1,2,0:0:0:0:
256,192,225970,1,2,0:0:0:0:
256,192,226090,1,4,0:0:0:0:
256,192,226330,1,2,0:0:0:0:
256,192,226450,1,2,0:0:0:0:
256,192,226510,1,2,0:0:0:0:
256,192,226570,1,0,0:0:0:0:
256,192,226690,1,0,0:0:0:0:
256,192,226810,1,2,0:0:0:0:
256,192,226930,1,0,0:0:0:0:
256,192,227170,1,2,0:0:0:0:
256,192,227290,1,0,0:0:0:0:
256,192,227410,1,0,0:0:0:0:
256,192,227470,1,0,0:0:0:0:
256,192,227530,1,2,0:0:0:0:
256,192,227650,1,0,0:0:0:0:
256,192,227770,1,2,0:0:0:0:
256,192,227890,1,2,0:0:0:0:
256,192,228010,1,0,0:0:0:0:
256,192,228130,1,2,0:0:0:0:
256,192,228250,1,2,0:0:0:0:
256,192,228370,1,2,0:0:0:0:
256,192,228430,1,2,0:0:0:0:
256,192,228490,1,0,0:0:0:0:
256,192,228610,1,0,0:0:0:0:
256,192,228730,1,2,0:0:0:0:
256,192,228850,1,0,0:0:0:0:
256,192,228970,1,2,0:0:0:0:
256,192,229090,1,2,0:0:0:0:
256,192,229210,1,0,0:0:0:0:
256,192,229270,1,0,0:0:0:0:
256,192,229330,1,2,0:0:0:0:
256,192,229370,1,2,0:0:0:0:
256,192,229410,1,2,0:0:0:0:
256,192,229450,1,0,0:0:0:0:
256,192,229510,1,2,0:0:0:0:
256,192,229570,1,0,0:0:0:0:
256,192,229690,1,2,0:0:0:0:
256,192,229810,1,2,0:0:0:0:
256,192,229930,1,0,0:0:0:0:
256,192,230050,1,0,0:0:0:0:
256,192,230170,1,2,0:0:0:0:
256,192,230290,1,2,0:0:0:0:
256,192,230350,1,2,0:0:0:0:
256,192,230410,1,0,0:0:0:0:
256,192,230530,1,0,0:0:0:0:
256,192,230650,1,2,0:0:0:0:
256,192,230770,1,0,0:0:0:0:
256,192,231010,1,2,0:0:0:0:
256,192,231130,1,0,0:0:0:0:
256,192,231190,1,0,0:0:0:0:
256,192,231250,1,2,0:0:0:0:
256,192,231310,1,2,0:0:0:0:
256,192,231370,1,0,0:0:0:0:
256,192,231490,1,0,0:0:0:0:
256,192,231610,1,2,0:0:0:0:
256,192,231730,1,2,0:0:0:0:
256,192,231850,1,0,0:0:0:0:
256,192,231970,1,2,0:0:0:0:
256,192,232090,1,2,0:0:0:0:
256,192,232210,1,0,0:0:0:0:
256,192,232270,1,2,0:0:0:0:
256,192,232330,1,2,0:0:0:0:
256,192,232450,1,0,0:0:0:0:
256,192,232570,1,2,0:0:0:0:
256,192,232630,1,2,0:0:0:0:
256,192,232690,1,0,0:0:0:0:
256,192,233050,1,0,0:0:0:0:
256,192,233290,1,2,0:0:0:0:
256,192,233320,1,2,0:0:0:0:
256,192,233530,1,2,0:0:0:0:
256,192,233560,1,2,0:0:0:0:
256,192,233770,1,4,0:0:0:0:
256,192,233890,1,0,0:0:0:0:
256,192,234010,1,2,0:0:0:0:
256,192,234130,1,2,0:0:0:0:
256,192,234190,1,2,0:0:0:0:
256,192,234250,1,0,0:0:0:0:
256,192,234370,1,0,0:0:0:0:
256,192,234490,1,2,0:0:0:0:
256,192,234610,1,0,0:0:0:0:
256,192,234850,1,2,0:0:0:0:
256,192,234970,1,0,0:0:0:0:
256,192,235030,1,0,0:0:0:0:
256,192,235090,1,2,0:0:0:0:
256,192,235150,1,2,0:0:0:0:
256,192,235210,1,0,0:0:0:0:
256,192,235330,1,2,0:0:0:0:
256,192,235450,1,2,0:0:0:0:
256,192,235510,1,0,0:0:0:0:
256,192,235570,1,2,0:0:0:0:
256,192,235630,1,2,0:0:0:0:
256,192,235690,1,0,0:0:0:0:
256,192,235810,1,0,0:0:0:0:
256,192,235930,1,2,0:0:0:0:
256,192,236050,1,0,0:0:0:0:
256,192,236110,1,2,0:0:0:0:
256,192,236170,1,2,0:0:0:0:
256,192,236290,1,0,0:0:0:0:
256,192,236410,1,2,0:0:0:0:
256,192,236530,1,0,0:0:0:0:
256,192,236650,1,2,0:0:0:0:
256,192,236770,1,2,0:0:0:0:
256,192,236890,1,0,0:0:0:0:
256,192,236950,1,2,0:0:0:0:
256,192,237010,1,2,0:0:0:0:
256,192,237070,1,2,0:0:0:0:
256,192,237130,1,0,0:0:0:0:
256,192,237170,1,0,0:0:0:0:
256,192,237210,1,0,0:0:0:0:
256,192,237250,1,2,0:0:0:0:
256,192,237310,1,2,0:0:0:0:
256,192,237370,1,0,0:0:0:0:
256,192,237490,1,2,0:0:0:0:
256,192,237610,1,0,0:0:0:0:
256,192,237730,1,2,0:0:0:0:
256,192,237790,1,2,0:0:0:0:
256,192,237850,1,0,0:0:0:0:
256,192,237910,1,0,0:0:0:0:
256,192,237970,1,2,0:0:0:0:
256,192,238090,1,0,0:0:0:0:
256,192,238150,1,2,0:0:0:0:
256,192,238210,1,2,0:0:0:0:
256,192,238330,1,2,0:0:0:0:
256,192,238450,1,0,0:0:0:0:
256,192,238570,1,2,0:0:0:0:
256,192,238690,1,2,0:0:0:0:
256,192,238810,1,0,0:0:0:0:
256,192,238870,1,0,0:0:0:0:
256,192,238930,1,2,0:0:0:0:
256,192,238990,1,2,0:0:0:0:
256,192,239050,1,0,0:0:0:0:
256,192,239110,1,2,0:0:0:0:
256,192,239170,1,0,0:0:0:0:
256,192,239290,1,2,0:0:0:0:
256,192,239410,1,2,0:0:0:0:
256,192,239530,1,0,0:0:0:0:
256,192,239590,1,0,0:0:0:0:
256,192,239650,1,0,0:0:0:0:
256,192,239710,1,0,0:0:0:0:
256,192,239770,1,2,0:0:0:0:
256,192,239830,1,2,0:0:0:0:
256,192,239890,1,0,0:0:0:0:
256,192,239950,1,0,0:0:0:0:
256,192,240010,1,2,0:0:0:0:
256,192,240070,1,2,0:0:0:0:
256,192,240130,1,0,0:0:0:0:
256,192,240190,1,2,0:0:0:0:
256,192,240250,1,0,0:0:0:0:
256,192,240310,1,0,0:0:0:0:
256,192,240370,1,2,0:0:0:0:
256,192,240430,1,2,0:0:0:0:
256,192,240490,1,0,0:0:0:0:
256,192,240610,1,0,0:0:0:0:
256,192,240730,1,2,0:0:0:0:
256,192,240850,1,0,0:0:0:0:
256,192,240970,1,2,0:0:0:0:
256,192,241030,1,2,0:0:0:0:
256,192,241090,1,0,0:0:0:0:
256,192,241210,1,6,0:0:0:0:
256,192,241450,12,0,245290,0:0:0:0:
256,192,252459,12,0,256504,0:0:0:0:
256,192,256842,5,2,0:0:0:0:
256,192,257010,1,0,0:0:0:0:
256,192,257094,1,0,0:0:0:0:
256,192,257179,1,2,0:0:0:0:
256,192,257263,1,0,0:0:0:0:
256,192,257347,1,2,0:0:0:0:
256,192,257516,1,2,0:0:0:0:
256,192,257600,1,2,0:0:0:0:
256,192,257642,1,2,0:0:0:0:
256,192,257684,1,0,0:0:0:0:
256,192,257768,1,2,0:0:0:0:
256,192,257853,1,0,0:0:0:0:
256,192,257909,1,0,0:0:0:0:
256,192,257965,1,0,0:0:0:0:
256,192,258021,1,2,0:0:0:0:
256,192,258106,1,2,0:0:0:0:
256,192,258190,1,0,0:0:0:0:
256,192,258528,5,4,0:0:0:0:
256,192,258696,1,0,0:0:0:0:
256,192,258865,1,2,0:0:0:0:
256,192,259033,1,0,0:0:0:0:
256,192,259117,1,0,0:0:0:0:
256,192,259202,1,2,0:0:0:0:
256,192,259370,1,0,0:0:0:0:
256,192,259539,1,2,0:0:0:0:
256,192,259707,1,2,0:0:0:0:
256,192,259792,1,2,0:0:0:0:
256,192,259876,1,0,0:0:0:0:
256,192,260044,1,2,0:0:0:0:
256,192,260129,1,0,0:0:0:0:
256,192,260213,1,2,0:0:0:0:
256,192,260381,1,0,0:0:0:0:
256,192,260466,1,2,0:0:0:0:
256,192,260719,1,0,0:0:0:0:
256,192,260887,1,2,0:0:0:0:
256,192,261056,1,2,0:0:0:0:
256,192,261140,1,2,0:0:0:0:
256,192,261224,1,0,0:0:0:0:
256,192,261393,1,2,0:0:0:0:
256,192,261561,1,2,0:0:0:0:
256,192,261730,1,0,0:0:0:0:
256,192,261814,1,0,0:0:0:0:
256,192,261898,1,2,0:0:0:0:
256,192,262067,1,0,0:0:0:0:
256,192,262235,1,2,0:0:0:0:
256,192,262404,1,2,0:0:0:0:
256,192,262488,1,2,0:0:0:0:
256,192,262572,1,0,0:0:0:0:
256,192,262657,1,2,0:0:0:0:
256,192,262741,1,0,0:0:0:0:
256,192,262910,1,2,0:0:0:0:
256,192,263078,1,0,0:0:0:0:
256,192,263162,1,2,0:0:0:0:
256,192,263331,1,2,0:0:0:0:
256,192,263415,1,0,0:0:0:0:
256,192,263584,1,2,0:0:0:0:
256,192,263626,1,2,0:0:0:0:
256,192,263668,1,2,0:0:0:0:
256,192,263752,1,2,0:0:0:0:
256,192,263836,1,2,0:0:0:0:
256,192,263921,1,0,0:0:0:0:
256,192,264089,1,2,0:0:0:0:
256,192,264258,1,2,0:0:0:0:
256,192,264426,1,0,0:0:0:0:
256,192,264511,1,0,0:0:0:0:
256,192,264595,1,2,0:0:0:0:
256,192,264763,1,0,0:0:0:0:
256,192,264932,1,2,0:0:0:0:
256,192,265101,1,2,0:0:0:0:
256,192,265185,1,2,0:0:0:0:
256,192,265269,1,0,0:0:0:0:
256,192,265438,1,0,0:0:0:0:
256,192,265522,1,0,0:0:0:0:
256,192,265606,1,2,0:0:0:0:
256,192,265775,1,0,0:0:0:0:
256,192,265859,1,2,0:0:0:0:
256,192,266112,1,0,0:0:0:0:
256,192,266280,1,2,0:0:0:0:
256,192,266449,1,2,0:0:0:0:
256,192,266533,1,2,0:0:0:0:
256,192,266617,1,0,0:0:0:0:
256,192,266786,1,0,0:0:0:0:
256,192,266870,1,0,0:0:0:0:
256,192,266954,1,2,0:0:0:0:
256,192,267123,1,2,0:0:0:0:
256,192,267207,1,0,0:0:0:0:
256,192,267292,1,2,0:0:0:0:
256,192,267376,1,2,0:0:0:0:
256,192,267460,1,0,0:0:0:0:
256,192,267629,1,2,0:0:0:0:
256,192,267797,1,0,0:0:0:0:
256,192,267881,1,2,0:0:0:0:
256,192,268050,1,2,0:0:0:0:
256,192,268134,1,0,0:0:0:0:
256,192,268303,1,2,0:0:0:0:
256,192,268387,1,2,0:0:0:0:
256,192,268471,1,0,0:0:0:0:
256,192,268556,1,2,0:0:0:0:
256,192,268724,1,2,0:0:0:0:
256,192,268808,1,0,0:0:0:0:
256,192,268893,1,0,0:0:0:0:
256,192,268977,1,2,0:0:0:0:
256,192,269033,1,2,0:0:0:0:
256,192,269089,1,2,0:0:0:0:
256,192,269145,1,0,0:0:0:0:
256,192,269230,1,2,0:0:0:0:
256,192,269314,5,0,0:0:0:0:
256,192,269483,1,0,0:0:0:0:
256,192,269567,1,0,0:0:0:0:
256,192,269651,1,2,0:0:0:0:
256,192,269820,1,0,0:0:0:0:
256,192,269988,1,2,0:0:0:0:
256,192,270072,1,2,0:0:0:0:
256,192,270157,1,0,0:0:0:0:
256,192,270325,1,2,0:0:0:0:
256,192,270494,1,0,0:0:0:0:
256,192,270578,1,2,0:0:0:0:
256,192,270662,1,0,0:0:0:0:
256,192,270831,1,2,0:0:0:0:
256,192,270915,1,0,0:0:0:0:
256,192,270999,1,2,0:0:0:0:
256,192,271168,1,0,0:0:0:0:
256,192,271252,1,2,0:0:0:0:
256,192,271505,1,0,0:0:0:0:
256,192,271674,1,2,0:0:0:0:
256,192,271758,1,0,0:0:0:0:
256,192,271926,1,2,0:0:0:0:
256,192,272011,1,0,0:0:0:0:
256,192,272179,1,2,0:0:0:0:
256,192,272348,1,2,0:0:0:0:
256,192,272516,1,0,0:0:0:0:
256,192,272601,1,0,0:0:0:0:
256,192,272685,1,2,0:0:0:0:
256,192,272769,1,2,0:0:0:0:
256,192,272853,1,0,0:0:0:0:
256,192,273022,1,2,0:0:0:0:
256,192,273190,1,2,0:0:0:0:
256,192,273275,1,2,0:0:0:0:
256,192,273359,1,0,0:0:0:0:
256,192,273443,1,2,0:0:0:0:
256,192,273527,1,2,0:0:0:0:
256,192,273612,1,0,0:0:0:0:
256,192,273696,1,2,0:0:0:0:
256,192,273865,1,0,0:0:0:0:
256,192,273949,1,2,0:0:0:0:
256,192,274117,1,2,0:0:0:0:
256,192,274202,1,0,0:0:0:0:
256,192,274286,1,0,0:0:0:0:
256,192,274370,1,2,0:0:0:0:
256,192,274412,1,2,0:0:0:0:
256,192,274454,1,2,0:0:0:0:
256,192,274539,1,0,0:0:0:0:
256,192,274623,1,0,0:0:0:0:
256,192,274707,1,0,0:0:0:0:
256,192,274876,1,0,0:0:0:0:
256,192,275044,1,2,0:0:0:0:
256,192,275213,1,0,0:0:0:0:
256,192,275297,1,0,0:0:0:0:
256,192,275381,1,2,0:0:0:0:
256,192,275550,1,0,0:0:0:0:
256,192,275719,1,2,0:0:0:0:
256,192,275887,1,2,0:0:0:0:
256,192,275971,1,2,0:0:0:0:
256,192,276056,1,0,0:0:0:0:
256,192,276224,1,0,0:0:0:0:
256,192,276308,1,0,0:0:0:0:
256,192,276393,1,2,0:0:0:0:
256,192,276561,1,0,0:0:0:0:
256,192,276645,1,2,0:0:0:0:
256,192,276898,1,0,0:0:0:0:
256,192,277067,1,2,0:0:0:0:
256,192,277235,1,2,0:0:0:0:
256,192,277320,1,2,0:0:0:0:
256,192,277404,1,0,0:0:0:0:
256,192,277572,1,2,0:0:0:0:
256,192,277657,1,0,0:0:0:0:
256,192,277741,1,2,0:0:0:0:
256,192,277825,1,2,0:0:0:0:
256,192,277910,1,0,0:0:0:0:
256,192,278078,1,2,0:0:0:0:
256,192,278247,1,0,0:0:0:0:
256,192,278331,1,0,0:0:0:0:
256,192,278415,1,2,0:0:0:0:
256,192,278584,1,2,0:0:0:0:
256,192,278668,1,2,0:0:0:0:
256,192,278921,1,0,0:0:0:0:
256,192,279174,1,0,0:0:0:0:
256,192,279300,1,2,0:0:0:0:
256,192,279426,1,0,0:0:0:0:
256,192,279679,1,0,0:0:0:0:
256,192,279763,1,2,0:0:0:0:
256,192,279932,1,2,0:0:0:0:
256,192,280016,1,2,0:0:0:0:
256,192,280101,1,2,0:0:0:0:
256,192,280185,1,0,0:0:0:0:
256,192,280269,1,2,0:0:0:0:
256,192,280438,1,2,0:0:0:0:
256,192,280522,1,2,0:0:0:0:
256,192,280564,1,2,0:0:0:0:
256,192,280606,1,0,0:0:0:0:
256,192,280690,1,2,0:0:0:0:
256,192,280775,1,0,0:0:0:0:
256,192,281112,5,2,0:0:0:0:
256,192,283640,1,2,0:0:0:0:
256,192,284820,1,0,0:0:0:0:
256,192,284988,1,0,0:0:0:0:
256,192,285044,1,0,0:0:0:0:
256,192,285157,1,2,0:0:0:0:
256,192,285269,1,0,0:0:0:0:
256,192,285438,1,0,0:0:0:0:
256,192,285494,1,0,0:0:0:0:
256,192,285606,1,0,0:0:0:0:
256,192,285662,1,2,0:0:0:0:
256,192,285719,1,0,0:0:0:0:
256,192,285831,1,2,0:0:0:0:
256,192,285915,1,0,0:0:0:0:
256,192,285999,1,2,0:0:0:0:
256,192,286084,1,2,0:0:0:0:
256,192,286168,1,0,0:0:0:0:
256,192,286505,1,2,0:0:0:0:
256,192,289033,1,2,0:0:0:0:
256,192,289876,1,2,0:0:0:0:
256,192,290044,1,0,0:0:0:0:
256,192,290129,1,0,0:0:0:0:
256,192,290213,1,2,0:0:0:0:
256,192,290297,1,0,0:0:0:0:
256,192,290381,1,2,0:0:0:0:
256,192,290550,1,2,0:0:0:0:
256,192,290634,1,2,0:0:0:0:
256,192,290676,1,2,0:0:0:0:
256,192,290719,1,0,0:0:0:0:
256,192,290803,1,2,0:0:0:0:
256,192,290887,1,2,0:0:0:0:
256,192,290971,1,2,0:0:0:0:
256,192,291056,1,0,0:0:0:0:
256,192,291140,1,0,0:0:0:0:
256,192,291224,1,2,0:0:0:0:
256,192,291393,1,2,0:0:0:0:
256,192,291477,1,0,0:0:0:0:
256,192,291561,5,0,0:0:0:0:
256,192,291730,1,0,0:0:0:0:
256,192,291898,1,2,0:0:0:0:
256,192,292067,1,2,0:0:0:0:
256,192,292151,1,2,0:0:0:0:
256,192,292319,1,2,0:0:0:0:
256,192,292404,1,0,0:0:0:0:
256,192,292488,1,0,0:0:0:0:
256,192,292572,1,2,0:0:0:0:
256,192,292741,1,0,0:0:0:0:
256,192,292825,1,2,0:0:0:0:
256,192,292909,1,0,0:0:0:0:
256,192,293078,1,2,0:0:0:0:
256,192,293162,1,0,0:0:0:0:
256,192,293246,1,2,0:0:0:0:
256,192,293415,1,0,0:0:0:0:
256,192,293499,1,2,0:0:0:0:
256,192,293752,1,0,0:0:0:0:
256,192,293921,1,2,0:0:0:0:
256,192,294089,1,2,0:0:0:0:
256,192,294173,1,2,0:0:0:0:
256,192,294258,1,0,0:0:0:0:
256,192,294426,1,0,0:0:0:0:
256,192,294595,1,2,0:0:0:0:
256,192,294763,1,0,0:0:0:0:
256,192,294848,1,2,0:0:0:0:
256,192,294932,1,2,0:0:0:0:
256,192,295016,1,2,0:0:0:0:
256,192,295100,1,0,0:0:0:0:
256,192,295269,1,2,0:0:0:0:
256,192,295437,1,0,0:0:0:0:
256,192,295522,1,2,0:0:0:0:
256,192,295606,1,0,0:0:0:0:
256,192,295774,1,0,0:0:0:0:
256,192,295859,1,0,0:0:0:0:
256,192,295943,1,2,0:0:0:0:
256,192,296112,1,0,0:0:0:0:
256,192,296196,1,2,0:0:0:0:
256,192,296364,1,2,0:0:0:0:
256,192,296449,1,0,0:0:0:0:
256,192,296617,1,2,0:0:0:0:
256,192,296786,1,2,0:0:0:0:
256,192,296870,1,2,0:0:0:0:
256,192,296954,1,0,0:0:0:0:
256,192,297123,1,0,0:0:0:0:
256,192,297291,1,2,0:0:0:0:
256,192,297460,1,0,0:0:0:0:
256,192,297544,1,0,0:0:0:0:
256,192,297628,1,2,0:0:0:0:
256,192,297713,1,2,0:0:0:0:
256,192,297797,1,0,0:0:0:0:
256,192,297966,1,2,0:0:0:0:
256,192,298134,1,0,0:0:0:0:
256,192,298218,1,2,0:0:0:0:
256,192,298303,1,0,0:0:0:0:
256,192,298471,1,2,0:0:0:0:
256,192,298555,1,0,0:0:0:0:
256,192,298640,1,2,0:0:0:0:
256,192,298808,1,0,0:0:0:0:
256,192,298892,1,2,0:0:0:0:
256,192,299145,1,0,0:0:0:0:
256,192,299314,1,2,0:0:0:0:
256,192,299482,1,2,0:0:0:0:
256,192,299567,1,2,0:0:0:0:
256,192,299651,1,0,0:0:0:0:
256,192,299819,1,0,0:0:0:0:
256,192,299988,1,2,0:0:0:0:
256,192,300157,1,0,0:0:0:0:
256,192,300241,1,2,0:0:0:0:
256,192,300409,1,2,0:0:0:0:
256,192,300494,1,0,0:0:0:0:
256,192,300578,1,0,0:0:0:0:
256,192,300662,1,2,0:0:0:0:
256,192,300746,1,0,0:0:0:0:
256,192,300831,1,0,0:0:0:0:
256,192,300915,1,2,0:0:0:0:
256,192,301083,1,2,0:0:0:0:
256,192,301168,1,0,0:0:0:0:
256,192,301336,1,2,0:0:0:0:
256,192,301421,1,2,0:0:0:0:
256,192,301505,1,0,0:0:0:0:
256,192,301589,1,2,0:0:0:0:
256,192,301758,1,0,0:0:0:0:
256,192,302010,1,2,0:0:0:0:
256,192,302179,1,2,0:0:0:0:
256,192,302263,1,2,0:0:0:0:
256,192,302348,5,0,0:0:0:0:
256,192,302853,1,0,0:0:0:0:
256,192,303022,1,2,0:0:0:0:
256,192,303359,1,2,0:0:0:0:
256,192,303696,1,0,0:0:0:0:
256,192,304033,1,2,0:0:0:0:
256,192,304201,1,0,0:0:0:0:
256,192,304539,1,0,0:0:0:0:
256,192,304707,1,2,0:0:0:0:
256,192,304749,1,2,0:0:0:0:
256,192,304791,1,2,0:0:0:0:
256,192,304876,1,2,0:0:0:0:
256,192,304960,1,2,0:0:0:0:
256,192,305044,1,0,0:0:0:0:
256,192,305213,1,0,0:0:0:0:
256,192,305381,1,2,0:0:0:0:
256,192,305550,1,0,0:0:0:0:
256,192,305803,1,2,0:0:0:0:
256,192,305887,1,0,0:0:0:0:
256,192,306055,1,2,0:0:0:0:
256,192,306224,1,2,0:0:0:0:
256,192,306308,1,2,0:0:0:0:
256,192,306392,1,0,0:0:0:0:
256,192,306561,1,0,0:0:0:0:
256,192,306645,1,0,0:0:0:0:
256,192,306730,1,2,0:0:0:0:
256,192,306898,1,0,0:0:0:0:
256,192,306982,1,2,0:0:0:0:
256,192,307235,1,0,0:0:0:0:
256,192,307404,1,2,0:0:0:0:
256,192,307572,1,2,0:0:0:0:
256,192,307657,1,2,0:0:0:0:
256,192,307741,1,0,0:0:0:0:
256,192,308246,1,0,0:0:0:0:
256,192,308583,1,0,0:0:0:0:
256,192,308752,1,2,0:0:0:0:
256,192,309089,1,0,0:0:0:0:
256,192,309426,1,2,0:0:0:0:
256,192,309595,1,0,0:0:0:0:
256,192,309932,1,0,0:0:0:0:
256,192,310100,1,2,0:0:0:0:
256,192,310185,1,2,0:0:0:0:
256,192,310269,1,2,0:0:0:0:
256,192,310353,1,2,0:0:0:0:
256,192,310437,5,0,0:0:0:0:
256,192,310606,1,0,0:0:0:0:
256,192,310774,1,2,0:0:0:0:
256,192,310943,1,0,0:0:0:0:
256,192,311280,1,0,0:0:0:0:
256,192,311449,1,2,0:0:0:0:
256,192,311617,1,2,0:0:0:0:
256,192,311701,1,2,0:0:0:0:
256,192,311870,1,2,0:0:0:0:
256,192,311954,1,0,0:0:0:0:
256,192,312123,1,2,0:0:0:0:
256,192,312291,1,0,0:0:0:0:
256,192,312376,1,2,0:0:0:0:
256,192,312460,1,0,0:0:0:0:
256,192,312544,1,2,0:0:0:0:
256,192,312685,1,0,0:0:0:0:
256,192,312909,1,0,0:0:0:0:
256,192,313134,5,4,0:0:0:0:
256,192,313387,1,2,0:0:0:0:
256,192,313471,1,2,0:0:0:0:
256,192,313640,1,2,0:0:0:0:
256,192,313892,1,2,0:0:0:0:
256,192,313977,1,0,0:0:0:0:
256,192,314145,1,2,0:0:0:0:
256,192,314314,1,2,0:0:0:0:
256,192,314398,1,2,0:0:0:0:
256,192,314482,1,0,0:0:0:0:
256,192,314651,1,2,0:0:0:0:
256,192,314735,1,0,0:0:0:0:
256,192,314988,1,0,0:0:0:0:
256,192,315072,1,2,0:0:0:0:
256,192,315157,1,0,0:0:0:0:
256,192,315199,1,0,0:0:0:0:
256,192,315241,1,0,0:0:0:0:
256,192,315325,1,0,0:0:0:0:
256,192,315409,1,2,0:0:0:0:
256,192,315494,1,0,0:0:0:0:
256,192,315578,1,0,0:0:0:0:
256,192,315662,1,2,0:0:0:0:
256,192,315746,1,2,0:0:0:0:
256,192,315831,1,0,0:0:0:0:
256,192,316083,1,2,0:0:0:0:
256,192,316168,1,2,0:0:0:0:
256,192,316336,1,0,0:0:0:0:
256,192,316421,1,2,0:0:0:0:
256,192,316673,1,0,0:0:0:0:
256,192,316842,1,2,0:0:0:0:
256,192,317010,1,2,0:0:0:0:
256,192,317095,1,2,0:0:0:0:
256,192,317179,1,0,0:0:0:0:
256,192,317348,1,2,0:0:0:0:
256,192,317516,1,2,0:0:0:0:
256,192,317600,1,0,0:0:0:0:
256,192,317685,1,0,0:0:0:0:
256,192,317769,1,2,0:0:0:0:
256,192,317937,1,2,0:0:0:0:
256,192,318022,1,0,0:0:0:0:
256,192,318190,1,2,0:0:0:0:
256,192,318359,1,2,0:0:0:0:
256,192,318443,1,2,0:0:0:0:
256,192,318527,1,0,0:0:0:0:
256,192,318780,1,2,0:0:0:0:
256,192,318864,1,2,0:0:0:0:
256,192,319033,1,2,0:0:0:0:
256,192,319286,1,2,0:0:0:0:
256,192,319370,1,0,0:0:0:0:
256,192,319539,1,2,0:0:0:0:
256,192,319707,1,0,0:0:0:0:
256,192,319791,1,2,0:0:0:0:
256,192,319876,1,0,0:0:0:0:
256,192,320044,1,2,0:0:0:0:
256,192,320128,1,0,0:0:0:0:
256,192,320213,1,2,0:0:0:0:
256,192,320381,1,0,0:0:0:0:
256,192,320550,1,0,0:0:0:0:
256,192,320592,1,0,0:0:0:0:
256,192,320634,1,0,0:0:0:0:
256,192,320718,1,0,0:0:0:0:
256,192,320803,1,2,0:0:0:0:
256,192,320887,1,0,0:0:0:0:
256,192,320971,1,0,0:0:0:0:
256,192,321055,1,0,0:0:0:0:
256,192,321140,1,2,0:0:0:0:
256,192,321224,1,0,0:0:0:0:
256,192,321477,1,2,0:0:0:0:
256,192,321561,1,2,0:0:0:0:
256,192,321730,1,2,0:0:0:0:
256,192,321898,1,0,0:0:0:0:
256,192,321982,1,2,0:0:0:0:
256,192,322067,1,0,0:0:0:0:
256,192,322235,1,2,0:0:0:0:
256,192,322404,1,0,0:0:0:0:
256,192,322488,1,2,0:0:0:0:
256,192,322657,1,2,0:0:0:0:
256,192,322741,1,0,0:0:0:0:
256,192,322797,1,0,0:0:0:0:
256,192,322853,1,0,0:0:0:0:
256,192,322909,1,2,0:0:0:0:
256,192,322994,1,2,0:0:0:0:
256,192,323078,1,0,0:0:0:0:
256,192,323162,1,2,0:0:0:0:
256,192,323246,1,2,0:0:0:0:
256,192,323331,1,0,0:0:0:0:
256,192,323415,1,0,0:0:0:0:
256,192,323499,1,2,0:0:0:0:
256,192,323583,1,0,0:0:0:0:
256,192,323668,1,2,0:0:0:0:
256,192,323710,1,2,0:0:0:0:
256,192,323752,1,2,0:0:0:0:
256,192,323836,1,2,0:0:0:0:
256,192,323921,5,0,0:0:0:0:
256,192,324595,1,2,0:0:0:0:
256,192,325016,1,0,0:0:0:0:
256,192,325269,1,0,0:0:0:0:
256,192,325606,1,0,0:0:0:0:
256,192,325943,1,2,0:0:0:0:
256,192,326196,1,0,0:0:0:0:
256,192,326617,1,0,0:0:0:0:
256,192,327123,1,0,0:0:0:0:
256,192,327291,1,2,0:0:0:0:
256,192,327544,1,2,0:0:0:0:
256,192,327797,1,2,0:0:0:0:
256,192,327966,1,0,0:0:0:0:
256,192,328471,1,0,0:0:0:0:
256,192,328640,1,2,0:0:0:0:
256,192,328892,1,2,0:0:0:0:
256,192,328977,1,0,0:0:0:0:
256,192,329019,1,0,0:0:0:0:
256,192,329061,1,0,0:0:0:0:
256,192,329145,1,2,0:0:0:0:
256,192,329230,1,2,0:0:0:0:
256,192,329314,1,0,0:0:0:0:
256,192,329567,1,0,0:0:0:0:
256,192,329651,1,2,0:0:0:0:
256,192,329988,1,2,0:0:0:0:
256,192,330409,1,0,0:0:0:0:
256,192,330662,1,0,0:0:0:0:
256,192,330718,1,0,0:0:0:0:
256,192,330774,1,0,0:0:0:0:
256,192,330831,1,0,0:0:0:0:
256,192,330887,1,0,0:0:0:0:
256,192,330999,1,2,0:0:0:0:
256,192,331055,1,2,0:0:0:0:
256,192,331112,1,2,0:0:0:0:
256,192,331168,1,2,0:0:0:0:
256,192,331224,1,2,0:0:0:0:
256,192,331336,1,2,0:0:0:0:
256,192,331392,1,2,0:0:0:0:
256,192,331449,1,2,0:0:0:0:
256,192,331673,1,0,0:0:0:0:
256,192,331730,1,0,0:0:0:0:
256,192,331786,1,0,0:0:0:0:
256,192,332010,1,0,0:0:0:0:
256,192,332516,1,0,0:0:0:0:
256,192,332685,1,2,0:0:0:0:
256,192,332937,1,2,0:0:0:0:
256,192,333022,1,0,0:0:0:0:
256,192,333106,1,0,0:0:0:0:
256,192,333190,1,2,0:0:0:0:
256,192,333274,1,2,0:0:0:0:
256,192,333359,1,0,0:0:0:0:
256,192,333443,1,2,0:0:0:0:
256,192,333527,1,2,0:0:0:0:
256,192,333612,1,0,0:0:0:0:
256,192,333696,1,2,0:0:0:0:
256,192,333864,1,0,0:0:0:0:
256,192,333921,1,2,0:0:0:0:
256,192,333977,1,2,0:0:0:0:
256,192,334033,1,0,0:0:0:0:
256,192,334117,1,2,0:0:0:0:
256,192,334201,1,0,0:0:0:0:
256,192,334286,1,0,0:0:0:0:
256,192,334370,1,2,0:0:0:0:
256,192,334707,1,4,0:0:0:0:
256,192,334876,1,0,0:0:0:0:
256,192,335044,1,2,0:0:0:0:
256,192,335213,1,0,0:0:0:0:
256,192,335466,1,2,0:0:0:0:
256,192,335550,1,0,0:0:0:0:
256,192,335718,1,2,0:0:0:0:
256,192,335887,1,0,0:0:0:0:
256,192,335971,1,2,0:0:0:0:
256,192,336055,1,0,0:0:0:0:
256,192,336224,1,2,0:0:0:0:
256,192,336308,1,0,0:0:0:0:
256,192,336392,1,2,0:0:0:0:
256,192,336477,1,2,0:0:0:0:
256,192,336561,1,0,0:0:0:0:
256,192,336645,1,2,0:0:0:0:
256,192,336814,1,2,0:0:0:0:
256,192,336898,1,0,0:0:0:0:
256,192,336982,1,0,0:0:0:0:
256,192,337067,1,2,0:0:0:0:
256,192,337235,1,2,0:0:0:0:
256,192,337319,1,2,0:0:0:0:
256,192,337404,1,0,0:0:0:0:
256,192,337572,1,2,0:0:0:0:
256,192,337657,1,0,0:0:0:0:
256,192,337741,1,2,0:0:0:0:
256,192,337825,1,2,0:0:0:0:
256,192,337909,1,0,0:0:0:0:
256,192,337994,1,2,0:0:0:0:
256,192,338078,1,2,0:0:0:0:
256,192,338162,1,2,0:0:0:0:
256,192,338246,1,0,0:0:0:0:
256,192,338331,1,0,0:0:0:0:
256,192,338415,1,2,0:0:0:0:
256,192,338471,1,2,0:0:0:0:
256,192,338527,1,2,0:0:0:0:
256,192,338583,1,0,0:0:0:0:
256,192,338668,1,0,0:0:0:0:
256,192,338752,1,2,0:0:0:0:
256,192,338836,1,0,0:0:0:0:
256,192,338921,1,0,0:0:0:0:
256,192,339005,1,2,0:0:0:0:
256,192,339089,1,0,0:0:0:0:
256,192,339173,1,2,0:0:0:0:
256,192,339258,1,2,0:0:0:0:
256,192,339342,1,0,0:0:0:0:
256,192,339426,1,2,0:0:0:0:
256,192,339510,1,2,0:0:0:0:
256,192,339595,1,0,0:0:0:0:
256,192,339763,1,2,0:0:0:0:
256,192,339805,1,2,0:0:0:0:
256,192,339848,1,2,0:0:0:0:
256,192,339932,1,2,0:0:0:0:
256,192,340016,1,2,0:0:0:0:
256,192,340100,5,0,0:1:0:0:
256,192,340269,1,0,0:0:0:0:
256,192,340353,1,0,0:0:0:0:
256,192,340437,1,2,0:0:0:0:
256,192,340606,1,0,0:0:0:0:
256,192,340774,1,2,0:0:0:0:
256,192,340859,1,2,0:0:0:0:
256,192,340943,1,0,0:0:0:0:
256,192,341027,1,0,0:0:0:0:
256,192,341112,1,2,0:0:0:0:
256,192,341280,1,2,0:0:0:0:
256,192,341364,1,2,0:0:0:0:
256,192,341449,1,0,0:0:0:0:
256,192,341617,1,2,0:0:0:0:
256,192,341701,1,0,0:0:0:0:
256,192,341786,1,2,0:0:0:0:
256,192,341870,1,2,0:0:0:0:
256,192,341954,1,0,0:0:0:0:
256,192,342039,1,2,0:0:0:0:
256,192,342207,1,2,0:0:0:0:
256,192,342291,1,0,0:0:0:0:
256,192,342460,1,2,0:0:0:0:
256,192,342628,1,2,0:0:0:0:
256,192,342713,1,2,0:0:0:0:
256,192,342797,1,0,0:0:0:0:
256,192,342966,1,2,0:0:0:0:
256,192,343134,1,0,0:0:0:0:
256,192,343218,1,2,0:0:0:0:
256,192,343387,1,2,0:0:0:0:
256,192,343471,1,0,0:0:0:0:
256,192,343555,1,2,0:0:0:0:
256,192,343640,1,0,0:0:0:0:
256,192,343808,1,2,0:0:0:0:
256,192,343977,1,2,0:0:0:0:
256,192,344061,1,2,0:0:0:0:
256,192,344145,1,0,0:0:0:0:
256,192,344230,1,2,0:0:0:0:
256,192,344314,1,0,0:0:0:0:
256,192,344398,1,0,0:0:0:0:
256,192,344482,1,2,0:0:0:0:
256,192,344567,1,0,0:0:0:0:
256,192,344651,1,0,0:0:0:0:
256,192,344735,1,2,0:0:0:0:
256,192,344819,1,0,0:0:0:0:
256,192,344904,1,2,0:0:0:0:
256,192,344988,1,0,0:0:0:0:
256,192,345072,1,0,0:0:0:0:
256,192,345157,1,2,0:0:0:0:
256,192,345213,1,2,0:0:0:0:
256,192,345269,1,2,0:0:0:0:
256,192,345325,1,2,0:0:0:0:
256,192,345409,1,2,0:0:0:0:
256,192,345494,5,0,0:0:0:0:
256,192,345662,1,0,0:0:0:0:
256,192,345746,1,0,0:0:0:0:
256,192,345831,1,2,0:0:0:0:
256,192,345999,1,0,0:0:0:0:
256,192,346252,1,2,0:0:0:0:
256,192,346336,1,0,0:0:0:0:
256,192,346505,1,2,0:0:0:0:
256,192,346673,1,2,0:0:0:0:
256,192,346758,1,2,0:0:0:0:
256,192,346842,1,0,0:0:0:0:
256,192,347010,1,2,0:0:0:0:
256,192,347095,1,0,0:0:0:0:
256,192,347179,1,2,0:0:0:0:
256,192,347348,1,0,0:0:0:0:
256,192,347432,1,2,0:0:0:0:
256,192,347600,1,2,0:0:0:0:
256,192,347685,1,0,0:0:0:0:
256,192,347769,1,0,0:0:0:0:
256,192,347853,1,2,0:0:0:0:
256,192,347895,1,2,0:0:0:0:
256,192,347937,1,2,0:0:0:0:
256,192,348022,1,0,0:0:0:0:
256,192,348106,1,2,0:0:0:0:
256,192,348190,1,0,0:0:0:0:
256,192,348274,1,0,0:0:0:0:
256,192,348359,1,2,0:0:0:0:
256,192,348415,1,2,0:0:0:0:
256,192,348471,1,2,0:0:0:0:
256,192,348527,1,0,0:0:0:0:
256,192,348612,1,0,0:0:0:0:
256,192,348696,1,2,0:0:0:0:
256,192,348752,1,0,0:0:0:0:
256,192,348808,1,0,0:0:0:0:
256,192,348864,1,2,0:0:0:0:
256,192,348949,1,2,0:0:0:0:
256,192,349033,1,0,0:0:0:0:
256,192,349117,1,0,0:0:0:0:
256,192,349201,1,2,0:0:0:0:
256,192,349286,1,0,0:0:0:0:
256,192,349370,1,2,0:0:0:0:
256,192,349426,1,2,0:0:0:0:
256,192,349482,1,2,0:0:0:0:
256,192,349539,1,0,0:0:0:0:
256,192,349623,1,0,0:0:0:0:
256,192,349707,1,2,0:0:0:0:
256,192,349791,1,0,0:0:0:0:
256,192,349876,1,0,0:0:0:0:
256,192,349960,1,2,0:0:0:0:
256,192,350044,1,2,0:0:0:0:
256,192,350128,1,0,0:0:0:0:
256,192,350213,1,2,0:0:0:0:
256,192,350255,1,2,0:0:0:0:
256,192,350297,1,2,0:0:0:0:
256,192,350381,1,0,0:0:0:0:
256,192,350466,1,0,0:0:0:0:
256,192,350550,1,2,0:0:0:0:
256,192,350634,1,0,0:0:0:0:
256,192,350718,1,2,0:0:0:0:
256,192,350803,1,2,0:0:0:0:
256,192,350887,1,0,0:0:0:0:
256,192,351055,1,2,0:0:0:0:
256,192,351140,1,0,0:0:0:0:
256,192,351224,1,2,0:0:0:0:
256,192,351392,1,0,0:0:0:0:
256,192,351477,1,2,0:0:0:0:
256,192,351561,1,2,0:0:0:0:
256,192,351645,1,2,0:0:0:0:
256,192,351730,1,0,0:0:0:0:
256,192,351898,5,2,0:0:0:0:
256,192,352067,1,0,0:0:0:0:
256,192,352151,1,2,0:0:0:0:
256,192,352235,1,0,0:0:0:0:
256,192,352319,1,0,0:0:0:0:
256,192,352404,1,2,0:0:0:0:
256,192,352488,1,0,0:0:0:0:
256,192,352572,1,2,0:0:0:0:
256,192,352657,1,2,0:0:0:0:
256,192,352741,1,0,0:0:0:0:
256,192,352825,1,2,0:0:0:0:
256,192,352909,5,0,0:0:0:0:
256,192,352966,1,0,0:0:0:0:
256,192,353022,1,0,0:0:0:0:
256,192,353078,1,0,0:0:0:0:
256,192,353134,1,0,0:0:0:0:
256,192,353246,1,2,0:0:0:0:
256,192,353303,1,2,0:0:0:0:
256,192,353359,1,2,0:0:0:0:
256,192,353415,1,2,0:0:0:0:
256,192,353471,1,2,0:0:0:0:
256,192,353583,1,0,0:0:0:0:
256,192,353836,5,0,0:0:0:0:
256,192,353963,1,2,0:0:0:0:
256,192,354089,1,0,0:0:0:0:
256,192,354152,1,0,0:0:0:0:
256,192,354216,1,0,0:0:0:0:
256,192,354342,1,2,0:0:0:0:
256,192,354510,1,0,0:0:0:0:
256,192,354595,1,2,0:0:0:0:
256,192,354763,1,2,0:0:0:0:
256,192,354848,1,0,0:0:0:0:
256,192,354932,1,2,0:0:0:0:
256,192,355016,1,2,0:0:0:0:
256,192,355100,1,0,0:0:0:0:
256,192,355185,1,0,0:0:0:0:
256,192,355269,1,2,0:0:0:0:
256,192,355437,1,2,0:0:0:0:
256,192,355522,1,2,0:0:0:0:
256,192,355606,1,0,0:0:0:0:
256,192,355690,1,2,0:0:0:0:
256,192,355774,1,0,0:0:0:0:
256,192,355859,1,0,0:0:0:0:
256,192,355943,1,2,0:0:0:0:
256,192,355999,1,2,0:0:0:0:
256,192,356055,1,2,0:0:0:0:
256,192,356112,1,0,0:0:0:0:
256,192,356168,1,0,0:0:0:0:
256,192,356224,1,0,0:0:0:0:
256,192,356280,12,0,357628,0:0:0:0:
