osu file format v14

[General]
AudioFilename: 13th-dan.mp3
AudioLeadIn: 0
PreviewTime: 86164
Countdown: 0
SampleSet: None
StackLeniency: 0.7
Mode: 1
LetterboxInBreaks: 0
WidescreenStoryboard: 1

[Editor]
Bookmarks: 831,122830,213313
DistanceSpacing: 0.5
BeatDivisor: 4
GridSize: 32
TimelineZoom: 1.8

[Metadata]
Title:osu!Taiko Dan-i Dojo (Part.3)
TitleUnicode:osu!Taiko 段位道場
Artist:Various Artists
ArtistUnicode:Various Artists
Creator:tasuke912
Version:13th Dan
Source:
Tags:danni dani doujou
BeatmapID:2295712
BeatmapSetID:912120

[Difficulty]
HPDrainRate:5
CircleSize:7
OverallDifficulty:6
ApproachRate:6.3
SliderMultiplier:1.4
SliderTickRate:1

[Events]
//Background and Video events
0,0,"bg_13.jpg",0,130
//Break Periods
2,75697,79630
2,118030,122502
2,210852,223147
//Storyboard Layer 0 (Background)
Sprite,Background,Centre,"bg_13.jpg",320,240 F,0,0,,0
Sprite,Background,Centre,"BG\13\1.jpg",320,0 S,0,-669,,0.625 MY,0,-669,,380 F,0,-669,-169,0,1 F,0,121330,121830,1,0
Sprite,Background,Centre,"BG\13\2.jpg",320,0 S,0,121330,,0.625 MY,0,121330,,380 F,0,121330,121830,0,1 F,0,211813,212313,1,0
Sprite,Background,Centre,"BG\13\3.jpg",320,0 S,0,211813,,0.625 MY,0,211813,,380 F,0,211813,212313,0,1 F,0,335692,336192,1,0
//Storyboard Layer 1 (Fail)
//Storyboard Layer 2 (Pass)
//Storyboard Layer 3 (Foreground)
Sprite,Foreground,TopCentre,"BG\black.png",320,0 F,0,-1169,-669,0,1 MY,0,-669,,0 V,0,-669,,3,3.2 F,0,336692,337692,1,0
Sprite,Foreground,Centre,"BG\stage.png",0,0 F,0,-1169,-669,0,1 M,0,-669,,680,105 V,0,-669,,0.4,0.3 F,0,336692,337692,1,0
Sprite,Foreground,CentreLeft,"BG\stage.png",0,0 F,0,-1169,-669,0,1 M,0,-669,,270,272 V,0,-669,,0.3,0.22 F,0,336692,337692,1,0
Sprite,Foreground,CentreLeft,"BG\stage.png",0,0 F,0,-1169,-669,0,1 P,0,-1169,337692,H M,0,-669,,420,272 V,0,-669,,0.8,0.22 F,0,336692,337692,1,0
Sprite,Foreground,CentreLeft,"BG\line.png",0,0 C,0,-669,,0,127,255 F,0,-169,,1 V,0,-169,121330,0,0.5,0.237,0.5 M,0,0,,597,122 P,0,0,,A F,0,120130,121330,1,0 C,0,121330,,255,127,169 F,0,121830,,1 V,0,121830,211813,0,0.5,0.237,0.5 F,0,210613,211813,1,0 C,0,211813,,127,170,255 F,0,212313,,1 V,0,212313,335692,0,0.5,0.237,0.5 F,0,334492,335692,1,0
Sprite,Foreground,TopLeft,"SB\fonts\0073.png",0,0 P,0,331,121130,A F,0,946,1946,0,1 S,1,946,1946,0.6,0.4 MX,1,946,1946,184.8,371.8 MY,1,946,1946,452.8,267.8 F,0,120130,121130,1,0
Sprite,Foreground,TopLeft,"SB\fonts\006b.png",0,0 P,0,331,121130,A F,0,970,1970,0,1 S,1,970,1970,0.6,0.4 MX,1,970,1970,456.8,379.8 MY,1,970,1970,196.4,263.4 F,0,120130,121130,1,0
Sprite,Foreground,TopLeft,"SB\fonts\0079.png",0,0 P,0,331,121130,A F,0,998,1998,0,1 S,1,998,1998,0.6,0.4 MX,1,998,1998,649,389 MY,1,998,1998,546.8,267.8 F,0,120130,121130,1,0
Sprite,Foreground,TopLeft,"SB\fonts\005f.png",0,0 P,0,331,121130,A F,0,1025,2025,0,1 S,1,1025,2025,0.6,0.4 MX,1,1025,2025,163.2,398.2 MY,1,1025,2025,543.2,278.2 F,0,120130,121130,1,0
Sprite,Foreground,TopLeft,"SB\fonts\0064.png",0,0 P,0,331,121130,A F,0,1049,2049,0,1 S,1,1049,2049,0.6,0.4 MX,1,1049,2049,389.2,406.2 MY,1,1049,2049,504.4,263.4 F,0,120130,121130,1,0
Sprite,Foreground,TopLeft,"SB\fonts\0065.png",0,0 P,0,331,121130,A F,0,1080,2080,0,1 S,1,1080,2080,0.6,0.4 MX,1,1080,2080,570.6,416.6 MY,1,1080,2080,366.8,267.8 F,0,120130,121130,1,0
Sprite,Foreground,TopLeft,"SB\fonts\006c.png",0,0 P,0,331,121130,A F,0,1106,2106,0,1 S,1,1106,2106,0.6,0.4 MX,1,1106,2106,200,425 MY,1,1106,2106,527.4,263.4 F,0,120130,121130,1,0
Sprite,Foreground,TopLeft,"SB\fonts\0074.png",0,0 P,0,331,121130,A F,0,1124,2124,0,1 S,1,1124,2124,0.6,0.4 MX,1,1124,2124,464,431 MY,1,1124,2124,362.4,265.4 F,0,120130,121130,1,0
Sprite,Foreground,TopLeft,"SB\fonts\0061.png",0,0 P,0,331,121130,A F,0,1143,2143,0,1 S,1,1143,2143,0.6,0.4 MX,1,1143,2143,220.4,437.4 MY,1,1143,2143,311.8,267.8 F,0,120130,121130,1,0
Sprite,Foreground,TopLeft,"SB\fonts\002d.png",0,0 P,0,331,121130,A F,0,1187,2187,0,1 S,1,1187,2187,0.6,0.4 MX,1,1187,2187,278.2,452.2 MY,1,1187,2187,280.4,271.4 F,0,120130,121130,1,0
Sprite,Foreground,TopLeft,"SB\fonts\004d.png",0,0 P,0,331,121130,A F,0,1218,2218,0,1 S,1,1218,2218,0.6,0.4 MX,1,1218,2218,498.6,462.6 MY,1,1218,2218,281.2,264.2 F,0,120130,121130,1,0
Sprite,Foreground,TopLeft,"SB\fonts\0069.png",0,0 P,0,331,121130,A F,0,1266,2266,0,1 S,1,1266,2266,0.6,0.4 MX,1,1266,2266,773.6,478.6 MY,1,1266,2266,389.2,264.2 F,0,120130,121130,1,0
Sprite,Foreground,TopLeft,"SB\fonts\0064.png",0,0 P,0,331,121130,A F,0,1283,2283,0,1 S,1,1283,2283,0.6,0.4 MX,1,1283,2283,584.2,484.2 MY,1,1283,2283,390.4,263.4 F,0,120130,121130,1,0
Sprite,Foreground,TopLeft,"SB\fonts\006e.png",0,0 P,0,331,121130,A F,0,1314,2314,0,1 S,1,1314,2314,0.6,0.4 MX,1,1314,2314,770.6,494.6 MY,1,1314,2314,436.8,267.8 F,0,120130,121130,1,0
Sprite,Foreground,TopLeft,"SB\fonts\0069.png",0,0 P,0,331,121130,A F,0,1346,2346,0,1 S,1,1346,2346,0.6,0.4 MX,1,1346,2346,538,505 MY,1,1346,2346,526.2,264.2 F,0,120130,121130,1,0
Sprite,Foreground,TopLeft,"SB\fonts\0067.png",0,0 P,0,331,121130,A F,0,1360,2360,0,1 S,1,1360,2360,0.6,0.4 MX,1,1360,2360,554.8,509.8 MY,1,1360,2360,287.8,267.8 F,0,120130,121130,1,0
Sprite,Foreground,TopLeft,"SB\fonts\0068.png",0,0 P,0,331,121130,A F,0,1392,2392,0,1 S,1,1392,2392,0.6,0.4 MX,1,1392,2392,370.6,520.6 MY,1,1392,2392,380.4,263.4 F,0,120130,121130,1,0
Sprite,Foreground,TopLeft,"SB\fonts\0074.png",0,0 P,0,331,121130,A F,0,1426,2426,0,1 S,1,1426,2426,0.6,0.4 MX,1,1426,2426,756.8,531.8 MY,1,1426,2426,472.4,265.4 F,0,120130,121130,1,0
Sprite,Foreground,TopLeft,"SB\fonts\0043.png",0,0 P,0,331,121130,A F,0,1460,2460,0,1 S,1,1460,2460,0.6,0.4 MX,1,1460,2460,580.0001,543.0001 MY,1,1460,2460,263.2,264.2 F,0,120130,121130,1,0
Sprite,Foreground,TopLeft,"SB\fonts\0069.png",0,0 P,0,331,121130,A F,0,1490,2490,0,1 S,1,1490,2490,0.6,0.4 MX,1,1490,2490,378.0001,553.0001 MY,1,1490,2490,460.2,264.2 F,0,120130,121130,1,0
Sprite,Foreground,TopLeft,"SB\fonts\0074.png",0,0 P,0,331,121130,A F,0,1508,2508,0,1 S,1,1508,2508,0.6,0.4 MX,1,1508,2508,748.0001,559.0001 MY,1,1508,2508,282.4,265.4 F,0,120130,121130,1,0
Sprite,Foreground,TopLeft,"SB\fonts\0079.png",0,0 P,0,331,121130,A F,0,1524,2524,0,1 S,1,1524,2524,0.6,0.4 MX,1,1524,2524,510.6,564.6 MY,1,1524,2524,247.8,267.8 F,0,120130,121130,1,0
Sprite,Foreground,TopLeft,"SB\fonts\0057.png",0,0 P,0,331,121130,A F,0,1570,2570,0,1 S,1,1570,2570,0.6,0.4 MX,1,1570,2570,797.8001,579.8001 MY,1,1570,2570,261.2,264.2 F,0,120130,121130,1,0
Sprite,Foreground,TopLeft,"SB\fonts\0061.png",0,0 P,0,331,121130,A F,0,1620,2620,0,1 S,1,1620,2620,0.6,0.4 MX,1,1620,2620,468.6001,596.6001 MY,1,1620,2620,206.8,267.8 F,0,120130,121130,1,0
Sprite,Foreground,TopLeft,"SB\fonts\0072.png",0,0 P,0,331,121130,A F,0,1652,2652,0,1 S,1,1652,2652,0.6,0.4 MX,1,1652,2652,784.0001,607.0001 MY,1,1652,2652,346.8,267.8 F,0,120130,121130,1,0
Sprite,Foreground,TopLeft,"SB\fonts\0066.png",0,0 P,0,331,121130,A F,0,1673,2673,0,1 S,1,1673,2673,0.6,0.4 MX,1,1673,2673,723.2001,614.2001 MY,1,1673,2673,557.4,263.4 F,0,120130,121130,1,0
Sprite,Foreground,TopLeft,"SB\fonts\0061.png",0,0 P,0,331,121130,A F,0,1694,2694,0,1 S,1,1694,2694,0.6,0.4 MX,1,1694,2694,720.0001,621.0001 MY,1,1694,2694,314.8,267.8 F,0,120130,121130,1,0
Sprite,Foreground,TopLeft,"SB\fonts\0072.png",0,0 P,0,331,121130,A F,0,1725,2725,0,1 S,1,1725,2725,0.6,0.4 MX,1,1725,2725,464.4001,631.4001 MY,1,1725,2725,525.8,267.8 F,0,120130,121130,1,0
Sprite,Foreground,TopLeft,"SB\fonts\0065.png",0,0 P,0,331,121130,A F,0,1749,2749,0,1 S,1,1749,2749,0.6,0.4 MX,1,1749,2749,771.4001,639.4001 MY,1,1749,2749,193.8,267.8 F,0,120130,121130,1,0
Sprite,Foreground,Centre,"SB\1st.png",0,0 M,0,331,,670,104 S,0,331,,0.6 P,0,331,,A F,0,331,1331,0,1 F,0,120130,121130,1,0
Sprite,Foreground,TopLeft,"SB\fonts\0047.png",0,0 P,0,122330,211613,A F,0,122941,123941,0,1 S,1,122941,123941,0.6,0.4 MX,1,122941,123941,319.4,370.4 MY,1,122941,123941,309.2,264.2 F,0,210613,211613,1,0
Sprite,Foreground,TopLeft,"SB\fonts\0065.png",0,0 P,0,122330,211613,A F,0,122974,123974,0,1 S,1,122974,123974,0.6,0.4 MX,1,122974,123974,673.6,381.6 MY,1,122974,123974,341.8,267.8 F,0,210613,211613,1,0
Sprite,Foreground,TopLeft,"SB\fonts\006b.png",0,0 P,0,122330,211613,A F,0,123000,124000,0,1 S,1,123000,124000,0.6,0.4 MX,1,123000,124000,304,390 MY,1,123000,124000,389.4,263.4 F,0,210613,211613,1,0
Sprite,Foreground,TopLeft,"SB\fonts\0069.png",0,0 P,0,122330,211613,A F,0,123030,124030,0,1 S,1,123030,124030,0.6,0.4 MX,1,123030,124030,267,400 MY,1,123030,124030,346.2,264.2 F,0,210613,211613,1,0
Sprite,Foreground,TopLeft,"SB\fonts\0064.png",0,0 P,0,122330,211613,A F,0,123046,124046,0,1 S,1,123046,124046,0.6,0.4 MX,1,123046,124046,254.6,405.6 MY,1,123046,124046,395.4,263.4 F,0,210613,211613,1,0
Sprite,Foreground,TopLeft,"SB\fonts\0061.png",0,0 P,0,122330,211613,A F,0,123078,124078,0,1 S,1,123078,124078,0.6,0.4 MX,1,123078,124078,136,416 MY,1,123078,124078,481.8,267.8 F,0,210613,211613,1,0
Sprite,Foreground,TopLeft,"SB\fonts\006e.png",0,0 P,0,122330,211613,A F,0,123109,124109,0,1 S,1,123109,124109,0.6,0.4 MX,1,123109,124109,685.4,426.4 MY,1,123109,124109,523.8,267.8 F,0,210613,211613,1,0
Sprite,Foreground,TopLeft,"SB\fonts\0048.png",0,0 P,0,122330,211613,A F,0,123152,124152,0,1 S,1,123152,124152,0.6,0.4 MX,1,123152,124152,231.8,440.8 MY,1,123152,124152,351.2,264.2 F,0,210613,211613,1,0
Sprite,Foreground,TopLeft,"SB\fonts\0069.png",0,0 P,0,122330,211613,A F,0,123193,124193,0,1 S,1,123193,124193,0.6,0.4 MX,1,123193,124193,428.4,454.4 MY,1,123193,124193,270.2,264.2 F,0,210613,211613,1,0
Sprite,Foreground,TopLeft,"SB\fonts\0074.png",0,0 P,0,122330,211613,A F,0,123211,124211,0,1 S,1,123211,124211,0.6,0.4 MX,1,123211,124211,689.4,460.4 MY,1,123211,124211,481.4,265.4 F,0,210613,211613,1,0
Sprite,Foreground,TopLeft,"SB\fonts\006f.png",0,0 P,0,122330,211613,A F,0,123230,124230,0,1 S,1,123230,124230,0.6,0.4 MX,1,123230,124230,584.8,466.8 MY,1,123230,124230,336.8,267.8 F,0,210613,211613,1,0
Sprite,Foreground,TopLeft,"SB\fonts\0074.png",0,0 P,0,122330,211613,A F,0,123261,124261,0,1 S,1,123261,124261,0.6,0.4 MX,1,123261,124261,346.2,477.2 MY,1,123261,124261,509.4,265.4 F,0,210613,211613,1,0
Sprite,Foreground,TopLeft,"SB\fonts\006f.png",0,0 P,0,122330,211613,A F,0,123280,124280,0,1 S,1,123280,124280,0.6,0.4 MX,1,123280,124280,709.6,483.6 MY,1,123280,124280,209.8,267.8 F,0,210613,211613,1,0
Sprite,Foreground,TopLeft,"SB\fonts\0073.png",0,0 P,0,122330,211613,A F,0,123308,124308,0,1 S,1,123308,124308,0.6,0.4 MX,1,123308,124308,326.8,492.8 MY,1,123308,124308,402.8,267.8 F,0,210613,211613,1,0
Sprite,Foreground,TopLeft,"SB\fonts\0065.png",0,0 P,0,122330,211613,A F,0,123333,124333,0,1 S,1,123333,124333,0.6,0.4 MX,1,123333,124333,581.2,501.2 MY,1,123333,124333,519.8,267.8 F,0,210613,211613,1,0
Sprite,Foreground,TopLeft,"SB\fonts\002d.png",0,0 P,0,122330,211613,A F,0,123373,124373,0,1 S,1,123373,124373,0.6,0.4 MX,1,123373,124373,407.4,514.4 MY,1,123373,124373,563.4,271.4 F,0,210613,211613,1,0
Sprite,Foreground,TopLeft,"SB\fonts\0043.png",0,0 P,0,122330,211613,A F,0,123406,124406,0,1 S,1,123406,124406,0.6,0.4 MX,1,123406,124406,253.6,525.6 MY,1,123406,124406,361.2,264.2 F,0,210613,211613,1,0
Sprite,Foreground,TopLeft,"SB\fonts\0075.png",0,0 P,0,122330,211613,A F,0,123438,124438,0,1 S,1,123438,124438,0.6,0.4 MX,1,123438,124438,735.0001,536.0001 MY,1,123438,124438,504.8,267.8 F,0,210613,211613,1,0
Sprite,Foreground,TopLeft,"SB\fonts\0072.png",0,0 P,0,122330,211613,A F,0,123468,124468,0,1 S,1,123468,124468,0.6,0.4 MX,1,123468,124468,697.0001,546.0001 MY,1,123468,124468,319.8,267.8 F,0,210613,211613,1,0
Sprite,Foreground,TopLeft,"SB\fonts\0074.png",0,0 P,0,122330,211613,A F,0,123493,124493,0,1 S,1,123493,124493,0.6,0.4 MX,1,123493,124493,816.4001,554.4001 MY,1,123493,124493,502.4,265.4 F,0,210613,211613,1,0
Sprite,Foreground,TopLeft,"SB\fonts\0061.png",0,0 P,0,122330,211613,A F,0,123512,124512,0,1 S,1,123512,124512,0.6,0.4 MX,1,123512,124512,812.8001,560.8001 MY,1,123512,124512,330.8,267.8 F,0,210613,211613,1,0
Sprite,Foreground,TopLeft,"SB\fonts\0069.png",0,0 P,0,122330,211613,A F,0,123543,124543,0,1 S,1,123543,124543,0.6,0.4 MX,1,123543,124543,867.2001,571.2001 MY,1,123543,124543,446.2,264.2 F,0,210613,211613,1,0
Sprite,Foreground,TopLeft,"SB\fonts\006e.png",0,0 P,0,122330,211613,A F,0,123560,124560,0,1 S,1,123560,124560,0.6,0.4 MX,1,123560,124560,315.8001,576.8001 MY,1,123560,124560,170.8,267.8 F,0,210613,211613,1,0
Sprite,Foreground,TopLeft,"SB\fonts\0043.png",0,0 P,0,122330,211613,A F,0,123606,124606,0,1 S,1,123606,124606,0.6,0.4 MX,1,123606,124606,602.0001,592.0001 MY,1,123606,124606,480.2,264.2 F,0,210613,211613,1,0
Sprite,Foreground,TopLeft,"SB\fonts\0061.png",0,0 P,0,122330,211613,A F,0,123636,124636,0,1 S,1,123636,124636,0.6,0.4 MX,1,123636,124636,802.0002,602.0002 MY,1,123636,124636,245.8,267.8 F,0,210613,211613,1,0
Sprite,Foreground,TopLeft,"SB\fonts\006c.png",0,0 P,0,122330,211613,A F,0,123666,124666,0,1 S,1,123666,124666,0.6,0.4 MX,1,123666,124666,859.0002,612.0002 MY,1,123666,124666,545.4,263.4 F,0,210613,211613,1,0
Sprite,Foreground,TopLeft,"SB\fonts\006c.png",0,0 P,0,122330,211613,A F,0,123681,124681,0,1 S,1,123681,124681,0.6,0.4 MX,1,123681,124681,324.2002,617.2002 MY,1,123681,124681,534.4,263.4 F,0,210613,211613,1,0
Sprite,Foreground,TopLeft,"SB\fonts\0021.png",0,0 P,0,122330,211613,A F,0,123698,124698,0,1 S,1,123698,124698,0.6,0.4 MX,1,123698,124698,543.8002,622.8002 MY,1,123698,124698,560.2,264.2 F,0,210613,211613,1,0
Sprite,Foreground,TopLeft,"SB\fonts\0021.png",0,0 P,0,122330,211613,A F,0,123715,124715,0,1 S,1,123715,124715,0.6,0.4 MX,1,123715,124715,376.4002,628.4002 MY,1,123715,124715,214.2,264.2 F,0,210613,211613,1,0
Sprite,Foreground,TopLeft,"SB\fonts\0021.png",0,0 P,0,122330,211613,A F,0,123732,124732,0,1 S,1,123732,124732,0.6,0.4 MX,1,123732,124732,668.0002,634.0002 MY,1,123732,124732,264.2 F,0,210613,211613,1,0
Sprite,Foreground,TopLeft,"SB\fonts\0021.png",0,0 P,0,122330,211613,A F,0,123748,124748,0,1 S,1,123748,124748,0.6,0.4 MX,1,123748,124748,544.6002,639.6002 MY,1,123748,124748,439.2,264.2 F,0,210613,211613,1,0
Sprite,Foreground,TopLeft,"SB\fonts\0021.png",0,0 P,0,122330,211613,A F,0,123765,124765,0,1 S,1,123765,124765,0.6,0.4 MX,1,123765,124765,838.2001,645.2001 MY,1,123765,124765,311.2,264.2 F,0,210613,211613,1,0
Sprite,Foreground,Centre,"SB\2nd.png",0,0 M,0,122330,,670,104 S,0,122330,,0.6 P,0,122330,,A F,0,122330,123330,0,1 F,0,210613,211613,1,0
Sprite,Foreground,TopLeft,"SB\fonts\0043.png",0,0 P,0,212813,335492,A F,0,213570,214570,0,1 S,1,213570,214570,0.6,0.4 MX,1,213570,214570,274.2,419.2 MY,1,213570,214570,185.2,264.2 F,0,334492,335492,1,0
Sprite,Foreground,TopLeft,"SB\fonts\0061.png",0,0 P,0,212813,335492,A F,0,213600,214600,0,1 S,1,213600,214600,0.6,0.4 MX,1,213600,214600,572.2,429.2 MY,1,213600,214600,341.8,267.8 F,0,334492,335492,1,0
Sprite,Foreground,TopLeft,"SB\fonts\006d.png",0,0 P,0,212813,335492,A F,0,213631,214631,0,1 S,1,213631,214631,0.6,0.4 MX,1,213631,214631,174.6,439.6 MY,1,213631,214631,289.8,267.8 F,0,334492,335492,1,0
Sprite,Foreground,TopLeft,"SB\fonts\0065.png",0,0 P,0,212813,335492,A F,0,213678,214678,0,1 S,1,213678,214678,0.6,0.4 MX,1,213678,214678,585.2,455.2 MY,1,213678,214678,197.8,267.8 F,0,334492,335492,1,0
Sprite,Foreground,TopLeft,"SB\fonts\006c.png",0,0 P,0,212813,335492,A F,0,213703,214703,0,1 S,1,213703,214703,0.6,0.4 MX,1,213703,214703,360.6,463.6 MY,1,213703,214703,178.4,263.4 F,0,334492,335492,1,0
Sprite,Foreground,TopLeft,"SB\fonts\006c.png",0,0 P,0,212813,335492,A F,0,213719,214719,0,1 S,1,213719,214719,0.6,0.4 MX,1,213719,214719,690.8,468.8 MY,1,213719,214719,279.4,263.4 F,0,334492,335492,1,0
Sprite,Foreground,TopLeft,"SB\fonts\0069.png",0,0 P,0,212813,335492,A F,0,213736,214736,0,1 S,1,213736,214736,0.6,0.4 MX,1,213736,214736,431.4,474.4 MY,1,213736,214736,395.2,264.2 F,0,334492,335492,1,0
Sprite,Foreground,TopLeft,"SB\fonts\0061.png",0,0 P,0,212813,335492,A F,0,213753,214753,0,1 S,1,213753,214753,0.6,0.4 MX,1,213753,214753,657,480 MY,1,213753,214753,515.8,267.8 F,0,334492,335492,1,0
Sprite,Foreground,TopLeft,"SB\fonts\002d.png",0,0 P,0,212813,335492,A F,0,213797,214797,0,1 S,1,213797,214797,0.6,0.4 MX,1,213797,214797,546.8,494.8 MY,1,213797,214797,344.4,271.4 F,0,334492,335492,1,0
Sprite,Foreground,TopLeft,"SB\fonts\0043.png",0,0 P,0,212813,335492,A F,0,213831,214831,0,1 S,1,213831,214831,0.6,0.4 MX,1,213831,214831,659,506 MY,1,213831,214831,339.2,264.2 F,0,334492,335492,1,0
Sprite,Foreground,TopLeft,"SB\fonts\0072.png",0,0 P,0,212813,335492,A F,0,213861,214861,0,1 S,1,213861,214861,0.6,0.4 MX,1,213861,214861,797,516 MY,1,213861,214861,313.8,267.8 F,0,334492,335492,1,0
Sprite,Foreground,TopLeft,"SB\fonts\0079.png",0,0 P,0,212813,335492,A F,0,213882,214882,0,1 S,1,213882,214882,0.6,0.4 MX,1,213882,214882,803.2,523.2 MY,1,213882,214882,214.8,267.8 F,0,334492,335492,1,0
Sprite,Foreground,TopLeft,"SB\fonts\0073.png",0,0 P,0,212813,335492,A F,0,213910,214910,0,1 S,1,213910,214910,0.6,0.4 MX,1,213910,214910,307.4,532.4 MY,1,213910,214910,503.8,267.8 F,0,334492,335492,1,0
Sprite,Foreground,TopLeft,"SB\fonts\0074.png",0,0 P,0,212813,335492,A F,0,213936,214936,0,1 S,1,213936,214936,0.6,0.4 MX,1,213936,214936,698.2,541.2 MY,1,213936,214936,414.4,265.4 F,0,334492,335492,1,0
Sprite,Foreground,TopLeft,"SB\fonts\0061.png",0,0 P,0,212813,335492,A F,0,213955,214955,0,1 S,1,213955,214955,0.6,0.4 MX,1,213955,214955,741.6,547.6 MY,1,213955,214955,441.8,267.8 F,0,334492,335492,1,0
Sprite,Foreground,TopLeft,"SB\fonts\006c.png",0,0 P,0,212813,335492,A F,0,213985,214985,0,1 S,1,213985,214985,0.6,0.4 MX,1,213985,214985,558.6,557.6 MY,1,213985,214985,256.4,263.4 F,0,334492,335492,1,0
Sprite,Foreground,TopLeft,"SB\fonts\006c.png",0,0 P,0,212813,335492,A F,0,214001,215001,0,1 S,1,214001,215001,0.6,0.4 MX,1,214001,215001,612.8,562.8 MY,1,214001,215001,413.4,263.4 F,0,334492,335492,1,0
Sprite,Foreground,TopLeft,"SB\fonts\0069.png",0,0 P,0,212813,335492,A F,0,214018,215018,0,1 S,1,214018,215018,0.6,0.4 MX,1,214018,215018,535.4,568.4 MY,1,214018,215018,168.2,264.2 F,0,334492,335492,1,0
Sprite,Foreground,TopLeft,"SB\fonts\007a.png",0,0 P,0,212813,335492,A F,0,214032,215032,0,1 S,1,214032,215032,0.6,0.4 MX,1,214032,215032,433.2,573.2 MY,1,214032,215032,199.8,267.8 F,0,334492,335492,1,0
Sprite,Foreground,TopLeft,"SB\fonts\0065.png",0,0 P,0,212813,335492,A F,0,214061,215061,0,1 S,1,214061,215061,0.6,0.4 MX,1,214061,215061,720.8,582.8 MY,1,214061,215061,377.8,267.8 F,0,334492,335492,1,0
Sprite,Foreground,TopLeft,"SB\fonts\0064.png",0,0 P,0,212813,335492,A F,0,214087,215087,0,1 S,1,214087,215087,0.6,0.4 MX,1,214087,215087,578.6,591.6 MY,1,214087,215087,496.4,263.4 F,0,334492,335492,1,0
Sprite,Foreground,Centre,"SB\3rd.png",0,0 M,0,212813,,670,104 S,0,212813,,0.6 P,0,212813,,A F,0,212813,213813,0,1 F,0,334492,335492,1,0
//Storyboard Layer 4 (Overlay)
//Storyboard Sound Samples

[TimingPoints]
831,333.333333333333,4,1,0,100,1,0
831,-100,4,1,0,100,0,0
34164,-133.333333333333,4,1,0,100,0,0
37664,-111.111111111111,4,1,0,100,0,0
38164,-100,4,1,0,100,0,0
39497,-80,4,1,0,100,0,0
40830,-66.6666666666667,4,1,0,100,0,0
42247,-100,4,1,0,100,0,0
43497,-88.8888888888889,4,1,0,100,0,0
43830,-80,4,1,0,100,0,1
48830,-80,4,1,0,100,0,0
49164,-80,4,1,0,100,0,1
54164,-80,4,1,0,100,0,0
54497,-80,4,1,0,100,0,1
59497,-80,4,1,0,100,0,0
59997,-100,4,1,0,100,0,0
61664,-94.1176470588235,4,1,0,100,0,0
61830,-88.8888888888889,4,1,0,100,0,0
61997,-84.2105263157895,4,1,0,100,0,0
62164,-80,4,1,0,100,0,0
64164,-100,4,1,0,100,0,0
64831,-85.4700854700855,4,1,0,100,0,0
65164,-80,4,1,0,100,0,1
66164,-80,4,1,0,100,0,0
66497,-80,4,1,0,100,0,1
67497,-80,4,1,0,100,0,0
67830,-80,4,1,0,100,0,1
68830,-80,4,1,0,100,0,0
70497,-75.187969924812,4,1,0,100,0,1
72830,-100,4,1,0,100,0,0
73164,-66.6666666666667,4,1,0,100,0,1
74164,-57.1428571428571,4,1,0,100,0,1
75497,-57.1428571428571,4,1,0,100,0,0
76830,-100,4,1,0,100,0,0
86497,-75.187969924812,4,1,0,100,0,1
96830,-75.187969924812,4,1,0,100,0,0
97164,-100,4,1,0,100,0,1
102164,-100,4,1,0,100,0,0
106830,-108.108108108108,4,1,0,100,0,0
107164,-117.647058823529,4,1,0,100,0,0
107497,-133.333333333333,4,1,0,100,0,1
114997,-119.760479041916,4,1,0,100,0,1
115164,-112.359550561798,4,1,0,100,0,1
115330,-105.820105820106,4,1,0,100,0,1
115497,-100,4,1,0,100,0,1
115525,-98.9472017731339,4,1,0,100,0,1
115553,-97.9163402788657,4,1,0,100,0,1
115580,-96.9076760570205,4,1,0,100,0,1
115608,-95.9186609754928,4,1,0,100,0,1
115636,-94.9496292216979,4,1,0,100,0,1
115664,-93.9999812000038,4,1,0,100,0,1
115692,-93.0691410648971,4,1,0,100,0,1
115719,-92.1565555565795,4,1,0,100,0,1
115747,-91.2625257816635,4,1,0,100,0,1
115775,-90.3848587284658,4,1,0,100,0,1
115803,-89.5239118368516,4,1,0,100,0,1
115830,-88.6792118191653,4,1,0,100,0,1
115858,-87.8503030835456,4,1,0,100,0,1
115886,-87.0367469145473,4,1,0,100,0,1
115914,-86.2388644066335,4,1,0,100,0,1
115942,-85.454747438494,4,1,0,100,0,1
115969,-84.6847609772621,4,1,0,100,0,1
115997,-83.9285264668608,4,1,0,100,0,1
116025,-83.1856787535458,4,1,0,100,0,1
116053,-82.4558654979922,4,1,0,100,0,1
116080,-81.7394147457904,4,1,0,100,0,1
116108,-81.0346504165181,4,1,0,100,0,1
116136,-80.3419352765369,4,1,0,100,0,1
116164,-79.66096294172,4,1,0,100,0,1
116192,-78.9914373281936,4,1,0,100,0,1
116219,-78.3330722230926,4,1,0,100,0,1
116247,-77.6861943863956,4,1,0,100,0,1
116275,-77.0493192692642,4,1,0,100,0,1
116303,-76.4228015070576,4,1,0,100,0,1
116330,-75.8063904787173,4,1,0,100,0,1
116358,-75.1998435843253,4,1,0,100,0,1
116386,-74.6029259267548,4,1,0,100,0,1
116414,-74.0159578405104,4,1,0,100,0,1
116442,-73.437614746273,4,1,0,100,0,1
116469,-72.8682396490666,4,1,0,100,0,1
116497,-72.3076255621918,4,1,0,100,0,1
116525,-71.7555718201518,4,1,0,100,0,1
116553,-71.2118838391751,4,1,0,100,0,1
116580,-70.6768724070422,4,1,0,100,0,1
116608,-70.1493479618107,4,1,0,100,0,1
116636,-69.6296399451318,4,1,0,100,0,1
116664,-69.1175759083777,4,1,0,100,0,1
116692,-68.6129884387115,4,1,0,100,0,1
116719,-68.1157149766023,4,1,0,100,0,1
116747,-67.6260549664575,4,1,0,100,0,1
116775,-67.1429338776387,4,1,0,100,0,1
116803,-66.6666666666667,4,1,0,100,0,1
116830,-66.6666666666667,4,1,0,100,0,0
117830,-50,4,1,0,100,0,1
118164,333.333333333333,20,1,0,40,1,8
123702,202.702702702703,4,1,0,90,1,0
139918,292.682926829268,4,1,0,90,1,0
168015,292.682926829268,6,1,0,90,1,0
168307,-111.111111111111,6,1,0,90,0,0
175039,292.682926829268,4,1,0,90,1,0
179648,-100,4,1,0,70,0,0
182063,201.342281879195,4,1,0,70,1,0
182063,-125,4,1,0,70,0,0
182264,-117.647058823529,4,1,0,70,0,0
182465,-111.111111111111,4,1,0,70,0,0
182667,-105.263157894737,4,1,0,70,0,0
182868,-100,4,1,0,70,0,0
183673,201.342281879195,4,1,0,90,1,1
196558,-100,4,1,0,90,0,0
211055,201.342281879195,20,1,0,40,1,0
213313,344.827586206897,4,1,0,40,1,0
213313,-133.333333333333,4,1,0,40,0,0
229778,-133.333333333333,4,1,0,50,0,0
230037,-125,4,1,0,50,0,0
232537,-125,4,1,0,55,0,0
233140,-117.647058823529,4,1,0,55,0,0
233916,-117.647058823529,4,1,0,60,0,0
235338,-117.647058823529,4,1,0,70,0,0
235468,-111.111111111111,4,1,0,70,0,0
252106,-107.52688172043,4,1,0,70,0,0
253140,-103.092783505155,4,1,0,70,0,0
254606,-100,4,1,0,75,0,0
256028,-98.0392156862745,4,1,0,80,0,0
256100,-96.1538461538461,4,1,0,80,0,0
256157,-94.3396226415094,4,1,0,80,0,0
256215,-92.5925925925926,4,1,0,80,0,0
256272,-90.9090909090909,4,1,0,80,0,0
256330,-89.2857142857143,4,1,0,80,0,0
256387,-87.719298245614,4,1,0,80,0,0
256445,-86.2068965517241,4,1,0,80,0,0
256502,-84.7457627118644,4,1,0,80,0,0
256560,-83.3333333333333,4,1,0,80,0,0
256617,-81.9672131147541,4,1,0,80,0,0
256675,-80.6451612903226,4,1,0,80,0,0
256732,-76.9230769230769,4,1,0,70,0,0
256761,-76.9230769230769,4,1,0,30,0,0
257364,-80,4,1,0,90,0,0
258054,-100,4,1,0,90,0,0
276761,-100,4,1,0,90,0,0
279606,-100,4,1,0,85,0,0
284950,-100,4,1,0,90,0,0
290554,-100,4,1,0,90,0,1
307106,-100,4,1,0,90,0,0
307450,-100,4,1,0,90,0,1
311330,-97.0873786407767,4,1,0,90,0,1
311502,-94.3396226415094,4,1,0,90,0,1
311675,-91.743119266055,4,1,0,90,0,1
311847,-89.2857142857143,4,1,0,90,0,1
312019,-86.9565217391304,4,1,0,30,0,0
312537,-80,4,1,0,90,0,0
312623,-80,4,1,0,90,0,1
312838,-83.3333333333333,4,1,0,90,0,1
312925,-84.7457627118644,4,1,0,90,0,1
313011,-86.2068965517241,4,1,0,90,0,1
313097,-87.719298245614,4,1,0,90,0,1
313269,-80,4,1,0,90,0,1
313356,-81.9672131147541,4,1,0,90,0,1
313442,-84.7457627118644,4,1,0,90,0,1
313528,-86.9565217391304,4,1,0,90,0,1
313614,-89.2857142857143,4,1,0,90,0,1
313700,-92.5925925925926,4,1,0,90,0,1
313787,-80,4,1,0,90,0,1
313873,-81.9672131147541,4,1,0,90,0,1
313959,-84.7457627118644,4,1,0,90,0,1
314045,-86.9565217391304,4,1,0,90,0,1
314131,-89.2857142857143,4,1,0,90,0,1
314218,-92.5925925925926,4,1,0,90,0,1
314304,-80,4,1,0,90,0,1
314390,-81.9672131147541,4,1,0,90,0,1
314476,-84.7457627118644,4,1,0,90,0,1
314563,-86.9565217391304,4,1,0,90,0,1
314656,-89.2857142857143,4,1,0,90,0,1
314907,-100,4,1,0,90,0,1
315726,-100,4,1,0,90,0,0
316071,-100,4,1,0,90,0,1
317925,-95.2380952380952,4,1,0,90,0,1
318097,-90.9090909090909,4,1,0,90,0,1
318356,-92.5925925925926,4,1,0,90,0,1
318442,-94.3396226415094,4,1,0,90,0,1
318528,-96.1538461538461,4,1,0,90,0,1
318628,-98.0392156862745,4,1,0,90,0,1
318787,-80,4,1,0,90,0,1
318873,-81.9672131147541,4,1,0,90,0,1
318959,-84.7457627118644,4,1,0,90,0,1
319045,-86.9565217391304,4,1,0,90,0,1
319131,-89.2857142857143,4,1,0,90,0,1
319218,-92.5925925925926,4,1,0,90,0,1
319304,-80,4,1,0,90,0,1
319390,-81.9672131147541,4,1,0,90,0,1
319476,-84.7457627118644,4,1,0,90,0,1
319563,-86.9565217391304,4,1,0,90,0,1
319649,-89.2857142857143,4,1,0,90,0,1
319735,-92.5925925925926,4,1,0,90,0,1
319821,-80,4,1,0,90,0,1
319907,-81.9672131147541,4,1,0,90,0,1
319994,-84.7457627118644,4,1,0,90,0,1
320080,-86.9565217391304,4,1,0,90,0,1
320166,-89.2857142857143,4,1,0,90,0,1
320425,-100,4,1,0,90,0,1
323657,-100,4,1,0,90,0,0
323959,-94.3396226415094,4,1,0,90,0,0
324002,-94.3396226415094,4,1,0,90,0,1
324031,-89.2857142857143,4,1,0,90,0,1
324088,-84.7457627118644,4,1,0,90,0,1
324146,-80.6451612903226,4,1,0,90,0,1
324304,-80,4,1,0,90,0,1
324390,-81.9672131147541,4,1,0,90,0,1
324476,-84.7457627118644,4,1,0,90,0,1
324563,-86.9565217391304,4,1,0,90,0,1
324649,-89.2857142857143,4,1,0,90,0,1
324735,-92.5925925925926,4,1,0,90,0,1
324821,-80,4,1,0,90,0,1
324907,-81.9672131147541,4,1,0,90,0,1
324994,-84.7457627118644,4,1,0,90,0,1
325080,-86.9565217391304,4,1,0,90,0,1
325166,-89.2857142857143,4,1,0,90,0,1
325252,-92.5925925925926,4,1,0,90,0,1
325338,-80,4,1,0,90,0,1
325425,-81.9672131147541,4,1,0,90,0,1
325511,-84.7457627118644,4,1,0,90,0,1
325597,-86.9565217391304,4,1,0,90,0,1
325683,-89.2857142857143,4,1,0,90,0,1
325856,-94.3396226415094,4,1,0,90,0,1
326028,-100,4,1,0,90,0,1
328959,-95.2380952380952,4,1,0,90,0,1
329131,-90.9090909090909,4,1,0,90,0,1
329390,-92.5925925925926,4,1,0,90,0,1
329476,-94.3396226415094,4,1,0,90,0,1
329563,-96.1538461538461,4,1,0,90,0,1
329649,-98.0392156862745,4,1,0,90,0,1
329821,-80,4,1,0,90,0,1
329907,-81.9672131147541,4,1,0,90,0,1
329994,-84.7457627118644,4,1,0,90,0,1
330080,-86.9565217391304,4,1,0,90,0,1
330166,-89.2857142857143,4,1,0,90,0,1
330252,-92.5925925925926,4,1,0,90,0,1
330338,-80,4,1,0,90,0,1
330425,-81.9672131147541,4,1,0,90,0,1
330511,-84.7457627118644,4,1,0,90,0,1
330597,-86.9565217391304,4,1,0,90,0,1
330683,-89.2857142857143,4,1,0,90,0,1
330769,-92.5925925925926,4,1,0,90,0,1
330856,-80,4,1,0,90,0,1
330942,-81.9672131147541,4,1,0,90,0,1
331028,-84.7457627118644,4,1,0,90,0,1
331114,-86.9565217391304,4,1,0,90,0,1
331200,-89.2857142857143,4,1,0,90,0,1
331373,-94.3396226415094,4,1,0,90,0,1
331459,-97.0873786407767,4,1,0,90,0,1
331545,-100,4,1,0,90,0,1
334692,-100,4,1,0,90,0,0

[HitObjects]
128,128,831,5,4,0:0:0:0:
128,128,5830,5,0,0:0:0:0:
128,128,6164,1,2,0:0:0:0:
128,128,6664,1,2,0:0:0:0:
128,128,6830,1,2,0:0:0:0:
128,128,7164,1,2,0:0:0:0:
128,128,7664,1,2,0:0:0:0:
128,128,7830,1,2,0:0:0:0:
128,128,8164,1,2,0:0:0:0:
128,128,8497,1,2,0:0:0:0:
128,128,8664,1,2,0:0:0:0:
128,128,8747,1,2,0:0:0:0:
128,128,8830,1,0,0:0:0:0:
128,128,9330,1,2,0:0:0:0:
128,128,9497,1,0,0:0:0:0:
128,128,9830,1,2,0:0:0:0:
128,128,10164,1,0,0:0:0:0:
128,128,10330,1,2,0:0:0:0:
128,128,10497,1,2,0:0:0:0:
128,128,10664,1,0,0:0:0:0:
128,128,10747,1,2,0:0:0:0:
128,128,10830,1,2,0:0:0:0:
128,128,10914,1,2,0:0:0:0:
128,128,10997,1,0,0:0:0:0:
128,128,11164,1,6,0:0:0:0:
128,128,11497,1,4,0:0:0:0:
128,128,11830,1,2,0:0:0:0:
128,128,11997,1,2,0:0:0:0:
128,128,12330,1,0,0:0:0:0:
128,128,12497,1,2,0:0:0:0:
128,128,12830,1,0,0:0:0:0:
128,128,12997,1,2,0:0:0:0:
128,128,13164,1,2,0:0:0:0:
128,128,13414,1,0,0:0:0:0:
128,128,13497,1,2,0:0:0:0:
128,128,13580,1,2,0:0:0:0:
128,128,13664,1,0,0:0:0:0:
128,128,13830,1,2,0:0:0:0:
128,128,13997,1,2,0:0:0:0:
128,128,14080,1,2,0:0:0:0:
128,128,14164,1,0,0:0:0:0:
128,128,14497,1,2,0:0:0:0:
128,128,14664,1,0,0:0:0:0:
128,128,14997,1,0,0:0:0:0:
128,128,15164,1,2,0:0:0:0:
128,128,15414,1,2,0:0:0:0:
128,128,15497,1,0,0:0:0:0:
128,128,15664,1,0,0:0:0:0:
128,128,15830,1,2,0:0:0:0:
128,128,16080,1,2,0:0:0:0:
128,128,16164,1,0,0:0:0:0:
128,128,16330,1,2,0:0:0:0:
128,128,16414,1,2,0:0:0:0:
128,128,16497,1,2,0:0:0:0:
128,128,16664,1,2,0:0:0:0:
128,128,16830,1,0,0:0:0:0:
128,128,17164,1,2,0:0:0:0:
128,128,17330,1,2,0:0:0:0:
128,128,17414,1,2,0:0:0:0:
128,128,17580,1,2,0:0:0:0:
128,128,17664,1,0,0:0:0:0:
128,128,17830,1,2,0:0:0:0:
128,128,18164,1,0,0:0:0:0:
128,128,18330,1,0,0:0:0:0:
128,128,18497,1,2,0:0:0:0:
128,128,18664,1,2,0:0:0:0:
128,128,18747,1,0,0:0:0:0:
128,128,18830,1,2,0:0:0:0:
128,128,18914,1,2,0:0:0:0:
128,128,18997,1,0,0:0:0:0:
128,128,19164,1,2,0:0:0:0:
128,128,19330,1,0,0:0:0:0:
128,128,19414,1,2,0:0:0:0:
128,128,19497,1,0,0:0:0:0:
128,128,19830,1,2,0:0:0:0:
128,128,19997,1,0,0:0:0:0:
128,128,20080,1,2,0:0:0:0:
128,128,20247,1,2,0:0:0:0:
128,128,20330,1,0,0:0:0:0:
128,128,20497,1,6,0:0:0:0:
128,128,20830,1,2,0:0:0:0:
128,128,20997,1,4,0:0:0:0:
128,128,21330,1,0,0:0:0:0:
128,128,21497,1,2,0:0:0:0:
128,128,21664,1,0,0:0:0:0:
128,128,21747,1,2,0:0:0:0:
128,128,21830,1,2,0:0:0:0:
128,128,21914,1,0,0:0:0:0:
128,128,21997,1,2,0:0:0:0:
128,128,22080,1,2,0:0:0:0:
128,128,22164,1,0,0:0:0:0:
128,128,22497,1,2,0:0:0:0:
128,128,22664,1,2,0:0:0:0:
128,128,22914,1,2,0:0:0:0:
128,128,22997,1,0,0:0:0:0:
128,128,23164,1,2,0:0:0:0:
128,128,23330,1,0,0:0:0:0:
128,128,23414,1,2,0:0:0:0:
128,128,23497,1,0,0:0:0:0:
128,128,23747,1,0,0:0:0:0:
128,128,23830,1,2,0:0:0:0:
128,128,23997,1,0,0:0:0:0:
128,128,24080,1,2,0:0:0:0:
128,128,24164,1,2,0:0:0:0:
128,128,24247,1,2,0:0:0:0:
128,128,24330,1,0,0:0:0:0:
128,128,24497,1,2,0:0:0:0:
128,128,24664,1,2,0:0:0:0:
128,128,24747,1,2,0:0:0:0:
128,128,24830,1,0,0:0:0:0:
128,128,25164,1,2,0:0:0:0:
128,128,25330,1,0,0:0:0:0:
128,128,25414,1,2,0:0:0:0:
128,128,25580,1,2,0:0:0:0:
128,128,25664,1,0,0:0:0:0:
128,128,25830,1,2,0:0:0:0:
128,128,26080,1,2,0:0:0:0:
128,128,26164,1,0,0:0:0:0:
128,128,26330,1,2,0:0:0:0:
128,128,26414,1,0,0:0:0:0:
128,128,26497,1,2,0:0:0:0:
128,128,26664,1,0,0:0:0:0:
128,128,26747,1,0,0:0:0:0:
128,128,26830,1,2,0:0:0:0:
128,128,26914,1,2,0:0:0:0:
128,128,26997,1,0,0:0:0:0:
128,128,27164,1,2,0:0:0:0:
128,128,27247,1,2,0:0:0:0:
128,128,27414,1,2,0:0:0:0:
128,128,27497,1,0,0:0:0:0:
128,128,27830,1,2,0:0:0:0:
128,128,27997,1,0,0:0:0:0:
128,128,28247,1,2,0:0:0:0:
128,128,28330,1,0,0:0:0:0:
128,128,28497,1,2,0:0:0:0:
128,128,28664,1,0,0:0:0:0:
128,128,28747,1,2,0:0:0:0:
128,128,28830,1,2,0:0:0:0:
128,128,28997,1,0,0:0:0:0:
128,128,29164,1,2,0:0:0:0:
128,128,29247,1,2,0:0:0:0:
128,128,29414,1,0,0:0:0:0:
128,128,29497,1,2,0:0:0:0:
128,128,29580,1,2,0:0:0:0:
128,128,29664,1,0,0:0:0:0:
128,128,29830,1,2,0:0:0:0:
128,128,29997,1,2,0:0:0:0:
128,128,30164,1,4,0:0:0:0:
128,128,30497,1,0,0:0:0:0:
128,128,30664,1,6,0:0:0:0:
128,128,30997,1,2,0:0:0:0:
128,128,31164,1,4,0:0:0:0:
128,128,31330,1,2,0:0:0:0:
128,128,31414,1,0,0:0:0:0:
128,128,31497,1,2,0:0:0:0:
128,128,31664,1,0,0:0:0:0:
128,128,31747,1,2,0:0:0:0:
128,128,31914,1,2,0:0:0:0:
128,128,31997,1,0,0:0:0:0:
128,128,32164,1,2,0:0:0:0:
128,128,32330,1,0,0:0:0:0:
128,128,32414,1,2,0:0:0:0:
128,128,32497,1,2,0:0:0:0:
128,128,32580,1,0,0:0:0:0:
128,128,32664,1,2,0:0:0:0:
128,128,32747,1,2,0:0:0:0:
128,128,32830,1,0,0:0:0:0:
128,128,34830,1,2,0:0:0:0:
128,128,34997,1,2,0:0:0:0:
128,128,35164,1,2,0:0:0:0:
128,128,35830,1,2,0:0:0:0:
128,128,36330,1,2,0:0:0:0:
128,128,36830,1,2,0:0:0:0:
128,128,37330,1,2,0:0:0:0:
128,128,37664,1,0,0:0:0:0:
128,128,37830,1,2,0:0:0:0:
128,128,37914,1,2,0:0:0:0:
128,128,37997,1,0,0:0:0:0:
128,128,38164,1,4,0:0:0:0:
128,128,38497,1,0,0:0:0:0:
128,128,38830,1,0,0:0:0:0:
128,128,39164,1,0,0:0:0:0:
128,128,39330,1,2,0:0:0:0:
128,128,39497,1,0,0:0:0:0:
128,128,39664,1,2,0:0:0:0:
128,128,39830,1,0,0:0:0:0:
128,128,39997,1,2,0:0:0:0:
128,128,40080,1,2,0:0:0:0:
128,128,40164,1,0,0:0:0:0:
128,128,40330,1,2,0:0:0:0:
128,128,40414,1,2,0:0:0:0:
128,128,40497,1,0,0:0:0:0:
128,128,40580,1,2,0:0:0:0:
128,128,40747,1,2,0:0:0:0:
128,128,40830,1,0,0:0:0:0:
128,128,40914,1,0,0:0:0:0:
128,128,40997,1,0,0:0:0:0:
128,128,41080,1,2,0:0:0:0:
128,128,41164,1,0,0:0:0:0:
128,128,41247,1,0,0:0:0:0:
128,128,41330,1,2,0:0:0:0:
128,128,41414,1,2,0:0:0:0:
128,128,41497,1,0,0:0:0:0:
128,128,41580,1,2,0:0:0:0:
128,128,41664,1,0,0:0:0:0:
128,128,41747,1,2,0:0:0:0:
128,128,41830,1,0,0:0:0:0:
128,128,41914,1,2,0:0:0:0:
128,128,41997,1,2,0:0:0:0:
128,128,42080,1,2,0:0:0:0:
128,128,42164,1,0,0:0:0:0:
128,128,42830,1,2,0:0:0:0:
128,128,42914,1,2,0:0:0:0:
128,128,42997,1,0,0:0:0:0:
128,128,43164,1,6,0:0:0:0:
128,128,43497,1,0,0:0:0:0:
128,128,43553,1,0,0:0:0:0:
128,128,43608,1,0,0:0:0:0:
128,128,43664,1,2,0:0:0:0:
128,128,43830,1,4,0:0:0:0:
128,128,44080,1,2,0:0:0:0:
128,128,44164,1,0,0:0:0:0:
128,128,44247,1,2,0:0:0:0:
128,128,44414,1,2,0:0:0:0:
128,128,44497,1,0,0:0:0:0:
128,128,44580,1,0,0:0:0:0:
128,128,44664,1,2,0:0:0:0:
128,128,44830,1,0,0:0:0:0:
128,128,44914,1,2,0:0:0:0:
128,128,44997,1,2,0:0:0:0:
128,128,45080,1,2,0:0:0:0:
128,128,45164,1,0,0:0:0:0:
128,128,45330,1,2,0:0:0:0:
128,128,45414,1,2,0:0:0:0:
128,128,45497,1,0,0:0:0:0:
128,128,45580,1,2,0:0:0:0:
128,128,45664,1,0,0:0:0:0:
128,128,45830,1,2,0:0:0:0:
128,128,45914,1,0,0:0:0:0:
128,128,45997,1,0,0:0:0:0:
128,128,46080,1,2,0:0:0:0:
128,128,46164,1,0,0:0:0:0:
128,128,46219,1,2,0:0:0:0:
128,128,46275,1,2,0:0:0:0:
128,128,46330,1,0,0:0:0:0:
128,128,46497,1,2,0:0:0:0:
128,128,46664,1,0,0:0:0:0:
128,128,46747,1,0,0:0:0:0:
128,128,46830,1,2,0:0:0:0:
128,128,47080,1,0,0:0:0:0:
128,128,47164,1,2,0:0:0:0:
128,128,47330,1,2,0:0:0:0:
128,128,47414,1,2,0:0:0:0:
128,128,47497,1,0,0:0:0:0:
128,128,47664,1,2,0:0:0:0:
128,128,47830,1,0,0:0:0:0:
128,128,47997,1,2,0:0:0:0:
128,128,48080,1,0,0:0:0:0:
128,128,48164,1,2,0:0:0:0:
128,128,48247,1,2,0:0:0:0:
128,128,48330,1,0,0:0:0:0:
128,128,48497,1,6,0:0:0:0:
128,128,48830,1,0,0:0:0:0:
128,128,49164,1,6,0:0:0:0:
128,128,49414,1,0,0:0:0:0:
128,128,49497,1,2,0:0:0:0:
128,128,49580,1,2,0:0:0:0:
128,128,49664,1,0,0:0:0:0:
128,128,49830,1,2,0:0:0:0:
128,128,49914,1,0,0:0:0:0:
128,128,49997,1,0,0:0:0:0:
128,128,50080,1,2,0:0:0:0:
128,128,50164,1,0,0:0:0:0:
128,128,50247,1,0,0:0:0:0:
128,128,50330,1,2,0:0:0:0:
128,128,50414,1,2,0:0:0:0:
128,128,50497,1,0,0:0:0:0:
128,128,50580,1,2,0:0:0:0:
128,128,50664,1,2,0:0:0:0:
128,128,50747,1,2,0:0:0:0:
128,128,50830,1,0,0:0:0:0:
128,128,50997,1,2,0:0:0:0:
128,128,51080,1,0,0:0:0:0:
128,128,51164,1,2,0:0:0:0:
128,128,51219,1,0,0:0:0:0:
128,128,51275,1,0,0:0:0:0:
128,128,51330,1,2,0:0:0:0:
128,128,51497,1,0,0:0:0:0:
128,128,51553,1,2,0:0:0:0:
128,128,51608,1,2,0:0:0:0:
128,128,51747,1,2,0:0:0:0:
128,128,51830,1,0,0:0:0:0:
128,128,51914,1,2,0:0:0:0:
128,128,51997,1,2,0:0:0:0:
128,128,52080,1,0,0:0:0:0:
128,128,52164,1,2,0:0:0:0:
128,128,52247,1,2,0:0:0:0:
128,128,52330,1,0,0:0:0:0:
128,128,52414,1,2,0:0:0:0:
128,128,52497,1,0,0:0:0:0:
128,128,52580,1,0,0:0:0:0:
128,128,52664,1,2,0:0:0:0:
128,128,52830,1,4,0:0:0:0:
128,128,53080,1,6,0:0:0:0:
128,128,53330,1,4,0:0:0:0:
128,128,53830,1,6,0:0:0:0:
128,128,54164,1,0,0:0:0:0:
128,128,54219,1,0,0:0:0:0:
128,128,54275,1,0,0:0:0:0:
128,128,54330,1,2,0:0:0:0:
128,128,54497,1,4,0:0:0:0:
128,128,54664,1,2,0:0:0:0:
128,128,54747,1,2,0:0:0:0:
128,128,54830,1,0,0:0:0:0:
128,128,54914,1,2,0:0:0:0:
128,128,55080,1,2,0:0:0:0:
128,128,55164,1,0,0:0:0:0:
128,128,55247,1,0,0:0:0:0:
128,128,55330,1,2,0:0:0:0:
128,128,55414,1,2,0:0:0:0:
128,128,55497,1,0,0:0:0:0:
128,128,55664,1,2,0:0:0:0:
128,128,55747,1,0,0:0:0:0:
128,128,55830,1,2,0:0:0:0:
128,128,55997,1,0,0:0:0:0:
128,128,56080,1,2,0:0:0:0:
128,128,56247,1,2,0:0:0:0:
128,128,56330,1,0,0:0:0:0:
128,128,56497,1,6,0:0:0:0:
128,128,56664,1,2,0:0:0:0:
128,128,56747,1,2,0:0:0:0:
128,128,56830,1,0,0:0:0:0:
128,128,56914,1,2,0:0:0:0:
128,128,56997,1,0,0:0:0:0:
128,128,57164,1,2,0:0:0:0:
128,128,57330,1,0,0:0:0:0:
128,128,57414,1,0,0:0:0:0:
128,128,57497,1,2,0:0:0:0:
128,128,57580,1,0,0:0:0:0:
128,128,57747,1,0,0:0:0:0:
128,128,57830,1,2,0:0:0:0:
128,128,57914,1,2,0:0:0:0:
128,128,57997,1,0,0:0:0:0:
128,128,58080,1,0,0:0:0:0:
128,128,58164,1,2,0:0:0:0:
128,128,58247,1,2,0:0:0:0:
128,128,58330,1,0,0:0:0:0:
128,128,58414,1,0,0:0:0:0:
128,128,58497,1,2,0:0:0:0:
128,128,58580,1,2,0:0:0:0:
128,128,58664,1,0,0:0:0:0:
128,128,58747,1,2,0:0:0:0:
128,128,58830,1,0,0:0:0:0:
128,128,58914,1,2,0:0:0:0:
128,128,58997,1,2,0:0:0:0:
128,128,59080,1,0,0:0:0:0:
128,128,59164,1,2,0:0:0:0:
128,128,59247,1,2,0:0:0:0:
128,128,59330,1,2,0:0:0:0:
128,128,59497,1,0,0:0:0:0:
128,128,59997,1,2,0:0:0:0:
128,128,60164,1,2,0:0:0:0:
128,128,60497,1,2,0:0:0:0:
128,128,60997,1,2,0:0:0:0:
128,128,61164,1,2,0:0:0:0:
128,128,61497,1,2,0:0:0:0:
128,128,61664,1,2,0:0:0:0:
128,128,61830,1,2,0:0:0:0:
128,128,61997,1,2,0:0:0:0:
128,128,62164,1,0,0:0:0:0:
128,128,62330,1,0,0:0:0:0:
128,128,62414,1,2,0:0:0:0:
128,128,62497,1,0,0:0:0:0:
128,128,62664,1,0,0:0:0:0:
128,128,62747,1,0,0:0:0:0:
128,128,62830,1,2,0:0:0:0:
128,128,62914,1,0,0:0:0:0:
128,128,62997,1,0,0:0:0:0:
128,128,63080,1,2,0:0:0:0:
128,128,63164,1,2,0:0:0:0:
128,128,63247,1,0,0:0:0:0:
128,128,63330,1,2,0:0:0:0:
128,128,63414,1,2,0:0:0:0:
128,128,63497,1,0,0:0:0:0:
128,128,64164,1,2,0:0:0:0:
128,128,64247,1,2,0:0:0:0:
128,128,64330,1,0,0:0:0:0:
128,128,64497,1,6,0:0:0:0:
128,128,64830,1,0,0:0:0:0:
128,128,65164,1,6,0:0:0:0:
128,128,65330,1,0,0:0:0:0:
128,128,65414,1,2,0:0:0:0:
128,128,65580,1,0,0:0:0:0:
128,128,65664,1,2,0:0:0:0:
128,128,65747,1,2,0:0:0:0:
128,128,65830,1,0,0:0:0:0:
128,128,65914,1,2,0:0:0:0:
128,128,66080,1,0,0:0:0:0:
128,128,66164,1,2,0:0:0:0:
128,128,66247,1,0,0:0:0:0:
128,128,66330,1,0,0:0:0:0:
128,128,66497,1,2,0:0:0:0:
128,128,66580,1,0,0:0:0:0:
128,128,66664,1,0,0:0:0:0:
128,128,66747,1,2,0:0:0:0:
128,128,66914,1,0,0:0:0:0:
128,128,66997,1,2,0:0:0:0:
128,128,67080,1,2,0:0:0:0:
128,128,67164,1,0,0:0:0:0:
128,128,67247,1,2,0:0:0:0:
128,128,67330,1,0,0:0:0:0:
128,128,67414,1,0,0:0:0:0:
128,128,67497,1,2,0:0:0:0:
128,128,67553,1,2,0:0:0:0:
128,128,67608,1,2,0:0:0:0:
128,128,67664,1,0,0:0:0:0:
128,128,67830,1,2,0:0:0:0:
128,128,67914,1,0,0:0:0:0:
128,128,67997,1,0,0:0:0:0:
128,128,68080,1,2,0:0:0:0:
128,128,68164,1,2,0:0:0:0:
128,128,68247,1,0,0:0:0:0:
128,128,68330,1,2,0:0:0:0:
128,128,68414,1,0,0:0:0:0:
128,128,68497,1,0,0:0:0:0:
128,128,68580,1,2,0:0:0:0:
128,128,68664,1,2,0:0:0:0:
128,128,68747,1,0,0:0:0:0:
128,128,68830,1,2,0:0:0:0:
128,128,68997,1,0,0:0:0:0:
128,128,69164,1,2,0:0:0:0:
128,128,69205,1,2,0:0:0:0:
128,128,69247,1,2,0:0:0:0:
128,128,69330,1,0,0:0:0:0:
128,128,69414,1,2,0:0:0:0:
128,128,69497,1,0,0:0:0:0:
128,128,69747,1,0,0:0:0:0:
128,128,69830,1,2,0:0:0:0:
128,128,70164,1,0,0:0:0:0:
128,128,70219,1,2,0:0:0:0:
128,128,70275,1,2,0:0:0:0:
128,128,70330,1,0,0:0:0:0:
128,128,70497,1,6,0:0:0:0:
128,128,70664,1,0,0:0:0:0:
128,128,70747,1,2,0:0:0:0:
128,128,70830,1,0,0:0:0:0:
128,128,70914,1,0,0:0:0:0:
128,128,70997,1,2,0:0:0:0:
128,128,71164,1,0,0:0:0:0:
128,128,71247,1,2,0:0:0:0:
128,128,71330,1,2,0:0:0:0:
128,128,71414,1,0,0:0:0:0:
128,128,71497,1,2,0:0:0:0:
128,128,71580,1,2,0:0:0:0:
128,128,71747,1,0,0:0:0:0:
128,128,71830,1,2,0:0:0:0:
128,128,71914,1,2,0:0:0:0:
128,128,71997,1,0,0:0:0:0:
128,128,72164,1,2,0:0:0:0:
128,128,72247,1,2,0:0:0:0:
128,128,72330,1,0,0:0:0:0:
128,128,72414,1,0,0:0:0:0:
128,128,72497,1,2,0:0:0:0:
128,128,72830,1,0,0:0:0:0:
128,128,73164,1,2,0:0:0:0:
128,128,73247,1,2,0:0:0:0:
128,128,73330,1,0,0:0:0:0:
128,128,73414,1,2,0:0:0:0:
128,128,73497,1,0,0:0:0:0:
128,128,73580,1,2,0:0:0:0:
128,128,73664,1,0,0:0:0:0:
128,128,73747,1,0,0:0:0:0:
128,128,73830,1,2,0:0:0:0:
128,128,73914,1,0,0:0:0:0:
128,128,73997,1,0,0:0:0:0:
128,128,74080,1,2,0:0:0:0:
128,128,74164,1,0,0:0:0:0:
128,128,74247,1,2,0:0:0:0:
128,128,74330,1,2,0:0:0:0:
128,128,74414,1,0,0:0:0:0:
128,128,74497,1,2,0:0:0:0:
128,128,74580,1,2,0:0:0:0:
128,128,74664,1,0,0:0:0:0:
128,128,74747,1,0,0:0:0:0:
128,128,74830,1,2,0:0:0:0:
128,128,74886,1,2,0:0:0:0:
128,128,74942,1,2,0:0:0:0:
128,128,74997,1,0,0:0:0:0:
128,128,75053,1,0,0:0:0:0:
128,128,75108,1,0,0:0:0:0:
128,128,75164,1,2,0:0:0:0:
128,128,75497,1,4,0:0:0:0:
128,128,80830,5,2,0:0:0:0:
128,128,81164,1,2,0:0:0:0:
128,128,81414,1,0,0:0:0:0:
128,128,81497,1,2,0:0:0:0:
128,128,81580,1,2,0:0:0:0:
128,128,81664,1,0,0:0:0:0:
128,128,81830,1,2,0:0:0:0:
128,128,81997,1,0,0:0:0:0:
128,128,82164,1,2,0:0:0:0:
128,128,82414,1,0,0:0:0:0:
128,128,82497,1,2,0:0:0:0:
128,128,82664,1,0,0:0:0:0:
128,128,82747,1,2,0:0:0:0:
128,128,82830,1,2,0:0:0:0:
128,128,82914,1,2,0:0:0:0:
128,128,82997,1,0,0:0:0:0:
128,128,83164,1,2,0:0:0:0:
128,128,83330,1,0,0:0:0:0:
128,128,83414,1,0,0:0:0:0:
128,128,83497,1,2,0:0:0:0:
128,128,83580,1,2,0:0:0:0:
128,128,83664,1,0,0:0:0:0:
128,128,83747,1,2,0:0:0:0:
128,128,83830,1,0,0:0:0:0:
128,128,83914,1,0,0:0:0:0:
128,128,83997,1,2,0:0:0:0:
128,128,84080,1,2,0:0:0:0:
128,128,84164,1,0,0:0:0:0:
128,128,84247,1,0,0:0:0:0:
128,128,84330,1,2,0:0:0:0:
128,128,84414,1,0,0:0:0:0:
128,128,84497,1,2,0:0:0:0:
128,128,84580,1,2,0:0:0:0:
128,128,84664,1,0,0:0:0:0:
128,128,84747,1,2,0:0:0:0:
128,128,84830,1,0,0:0:0:0:
128,128,85830,1,6,0:0:0:0:
128,128,86164,1,0,0:0:0:0:
128,128,86497,1,6,0:0:0:0:
128,128,86664,1,0,0:0:0:0:
128,128,86747,1,2,0:0:0:0:
128,128,86914,1,2,0:0:0:0:
128,128,86997,1,0,0:0:0:0:
128,128,87164,1,2,0:0:0:0:
128,128,87330,1,0,0:0:0:0:
128,128,87414,1,0,0:0:0:0:
128,128,87497,1,2,0:0:0:0:
128,128,87664,1,0,0:0:0:0:
128,128,87747,1,2,0:0:0:0:
128,128,87830,1,0,0:0:0:0:
128,128,87997,1,2,0:0:0:0:
128,128,88164,1,0,0:0:0:0:
128,128,88247,1,2,0:0:0:0:
128,128,88330,1,0,0:0:0:0:
128,128,88414,1,0,0:0:0:0:
128,128,88497,1,2,0:0:0:0:
128,128,88580,1,0,0:0:0:0:
128,128,88664,1,2,0:0:0:0:
128,128,88747,1,2,0:0:0:0:
128,128,88830,1,0,0:0:0:0:
128,128,88997,1,2,0:0:0:0:
128,128,89080,1,2,0:0:0:0:
128,128,89164,1,0,0:0:0:0:
128,128,89330,1,2,0:0:0:0:
128,128,89414,1,0,0:0:0:0:
128,128,89580,1,0,0:0:0:0:
128,128,89664,1,2,0:0:0:0:
128,128,89830,1,0,0:0:0:0:
128,128,89997,1,2,0:0:0:0:
128,128,90080,1,2,0:0:0:0:
128,128,90164,1,0,0:0:0:0:
128,128,90330,1,2,0:0:0:0:
128,128,90414,1,0,0:0:0:0:
128,128,90497,1,2,0:0:0:0:
128,128,90580,1,2,0:0:0:0:
128,128,90664,1,0,0:0:0:0:
128,128,90747,1,2,0:0:0:0:
128,128,90914,1,0,0:0:0:0:
128,128,90997,1,2,0:0:0:0:
128,128,91080,1,0,0:0:0:0:
128,128,91164,1,2,0:0:0:0:
128,128,91247,1,2,0:0:0:0:
128,128,91330,1,0,0:0:0:0:
128,128,91414,1,2,0:0:0:0:
128,128,91497,1,0,0:0:0:0:
128,128,91747,1,2,0:0:0:0:
128,128,91830,1,0,0:0:0:0:
128,128,91997,1,2,0:0:0:0:
128,128,92080,1,2,0:0:0:0:
128,128,92164,1,0,0:0:0:0:
128,128,92247,1,2,0:0:0:0:
128,128,92330,1,0,0:0:0:0:
128,128,92414,1,0,0:0:0:0:
128,128,92497,1,2,0:0:0:0:
128,128,92664,1,0,0:0:0:0:
128,128,92747,1,0,0:0:0:0:
128,128,92830,1,2,0:0:0:0:
128,128,92914,1,0,0:0:0:0:
128,128,92997,1,0,0:0:0:0:
128,128,93080,1,2,0:0:0:0:
128,128,93247,1,0,0:0:0:0:
128,128,93330,1,2,0:0:0:0:
128,128,93414,1,0,0:0:0:0:
128,128,93580,1,2,0:0:0:0:
128,128,93664,1,2,0:0:0:0:
128,128,93830,1,0,0:0:0:0:
128,128,93997,1,2,0:0:0:0:
128,128,94080,1,2,0:0:0:0:
128,128,94164,1,0,0:0:0:0:
128,128,94247,1,2,0:0:0:0:
128,128,94414,1,2,0:0:0:0:
128,128,94497,1,0,0:0:0:0:
128,128,94664,1,2,0:0:0:0:
128,128,94747,1,2,0:0:0:0:
128,128,94830,1,0,0:0:0:0:
128,128,94914,1,0,0:0:0:0:
128,128,94997,1,2,0:0:0:0:
128,128,95164,1,0,0:0:0:0:
128,128,95330,1,2,0:0:0:0:
128,128,95414,1,0,0:0:0:0:
128,128,95497,1,2,0:0:0:0:
128,128,95747,1,0,0:0:0:0:
128,128,95830,1,2,0:0:0:0:
128,128,95997,1,0,0:0:0:0:
128,128,96080,1,0,0:0:0:0:
128,128,96164,1,2,0:0:0:0:
128,128,96219,1,0,0:0:0:0:
128,128,96275,1,0,0:0:0:0:
128,128,96330,1,2,0:0:0:0:
128,128,96414,1,0,0:0:0:0:
128,128,96497,1,2,0:0:0:0:
128,128,96553,1,2,0:0:0:0:
128,128,96608,1,2,0:0:0:0:
128,128,96664,1,0,0:0:0:0:
128,128,96747,1,2,0:0:0:0:
128,128,96830,1,0,0:0:0:0:
128,128,97164,1,6,0:0:0:0:
128,128,97414,1,2,0:0:0:0:
128,128,97497,1,0,0:0:0:0:
128,128,97664,1,2,0:0:0:0:
128,128,97830,1,0,0:0:0:0:
128,128,97914,1,2,0:0:0:0:
128,128,98164,1,0,0:0:0:0:
128,128,98414,1,2,0:0:0:0:
128,128,98497,1,0,0:0:0:0:
128,128,98580,1,0,0:0:0:0:
128,128,98664,1,2,0:0:0:0:
128,128,98830,1,0,0:0:0:0:
128,128,98914,1,2,0:0:0:0:
128,128,98997,1,2,0:0:0:0:
128,128,99164,1,0,0:0:0:0:
128,128,99330,1,2,0:0:0:0:
128,128,99414,1,2,0:0:0:0:
128,128,99497,1,0,0:0:0:0:
128,128,99664,1,2,0:0:0:0:
128,128,99830,1,0,0:0:0:0:
128,128,99914,1,2,0:0:0:0:
128,128,100080,1,2,0:0:0:0:
128,128,100164,1,0,0:0:0:0:
128,128,100247,1,2,0:0:0:0:
128,128,100414,1,2,0:0:0:0:
128,128,100497,1,0,0:0:0:0:
128,128,100664,1,2,0:0:0:0:
128,128,100747,1,2,0:0:0:0:
128,128,100830,1,0,0:0:0:0:
128,128,100914,1,0,0:0:0:0:
128,128,100997,1,2,0:0:0:0:
128,128,101164,1,0,0:0:0:0:
128,128,101330,1,2,0:0:0:0:
128,128,101414,1,2,0:0:0:0:
128,128,101497,1,0,0:0:0:0:
128,128,101580,1,2,0:0:0:0:
128,128,101664,1,0,0:0:0:0:
128,128,101830,1,2,0:0:0:0:
128,128,101914,1,2,0:0:0:0:
128,128,101997,1,2,0:0:0:0:
128,128,102164,1,0,0:0:0:0:
128,128,102664,1,0,0:0:0:0:
128,128,102830,1,2,0:0:0:0:
128,128,103164,1,0,0:0:0:0:
128,128,103330,1,0,0:0:0:0:
128,128,103664,1,2,0:0:0:0:
128,128,103830,1,0,0:0:0:0:
128,128,103997,1,0,0:0:0:0:
128,128,104164,1,2,0:0:0:0:
128,128,104330,1,0,0:0:0:0:
128,128,104414,1,0,0:0:0:0:
128,128,104497,1,2,0:0:0:0:
128,128,104664,1,2,0:0:0:0:
128,128,104830,1,0,0:0:0:0:
128,128,104997,1,0,0:0:0:0:
128,128,105080,1,2,0:0:0:0:
128,128,105164,1,0,0:0:0:0:
128,128,105330,1,0,0:0:0:0:
128,128,105414,1,0,0:0:0:0:
128,128,105497,1,2,0:0:0:0:
128,128,105580,1,0,0:0:0:0:
128,128,105664,1,2,0:0:0:0:
128,128,105747,1,2,0:0:0:0:
128,128,105830,1,0,0:0:0:0:
128,128,105914,1,2,0:0:0:0:
128,128,105997,1,2,0:0:0:0:
128,128,106080,1,2,0:0:0:0:
128,128,106164,1,0,0:0:0:0:
128,128,106830,1,2,0:0:0:0:
128,128,107164,1,2,0:0:0:0:
128,128,107497,1,0,0:0:0:0:
128,128,107747,1,0,0:0:0:0:
128,128,107830,1,2,0:0:0:0:
128,128,107997,1,0,0:0:0:0:
128,128,108164,1,2,0:0:0:0:
128,128,108414,1,2,0:0:0:0:
128,128,108497,1,0,0:0:0:0:
128,128,108580,1,0,0:0:0:0:
128,128,108664,1,2,0:0:0:0:
128,128,108830,1,0,0:0:0:0:
128,128,108914,1,2,0:0:0:0:
128,128,108997,1,2,0:0:0:0:
128,128,109080,1,2,0:0:0:0:
128,128,109164,1,2,0:0:0:0:
128,128,109247,1,0,0:0:0:0:
128,128,109330,1,2,0:0:0:0:
128,128,109414,1,2,0:0:0:0:
128,128,109497,1,2,0:0:0:0:
128,128,109580,1,2,0:0:0:0:
128,128,109664,1,0,0:0:0:0:
128,128,109830,1,2,0:0:0:0:
128,128,110164,1,4,0:0:0:0:
128,128,110497,1,2,0:0:0:0:
128,128,110664,1,0,0:0:0:0:
128,128,110830,1,2,0:0:0:0:
128,128,111080,1,0,0:0:0:0:
128,128,111164,1,2,0:0:0:0:
128,128,111247,1,2,0:0:0:0:
128,128,111330,1,2,0:0:0:0:
128,128,111414,1,2,0:0:0:0:
128,128,111580,1,2,0:0:0:0:
128,128,111664,1,0,0:0:0:0:
128,128,111830,1,0,0:0:0:0:
128,128,112164,1,2,0:0:0:0:
128,128,112330,1,0,0:0:0:0:
128,128,112497,1,2,0:0:0:0:
128,128,112580,1,2,0:0:0:0:
128,128,112664,1,0,0:0:0:0:
128,128,112830,1,6,0:0:0:0:
128,128,113164,1,2,0:0:0:0:
128,128,113330,1,0,0:0:0:0:
128,128,113497,1,2,0:0:0:0:
128,128,113664,1,2,0:0:0:0:
128,128,113747,1,2,0:0:0:0:
128,128,113830,1,0,0:0:0:0:
128,128,113914,1,2,0:0:0:0:
128,128,113997,1,2,0:0:0:0:
128,128,114080,1,0,0:0:0:0:
128,128,114247,1,2,0:0:0:0:
128,128,114330,1,0,0:0:0:0:
128,128,114414,1,0,0:0:0:0:
128,128,114497,1,2,0:0:0:0:
128,128,114580,1,2,0:0:0:0:
128,128,114664,1,0,0:0:0:0:
128,128,114747,1,0,0:0:0:0:
128,128,114830,1,2,0:0:0:0:
128,128,114997,1,0,0:0:0:0:
128,128,115164,1,2,0:0:0:0:
128,128,115330,1,2,0:0:0:0:
128,128,115497,1,0,0:0:0:0:
128,128,115664,1,2,0:0:0:0:
128,128,115747,1,0,0:0:0:0:
128,128,115830,1,2,0:0:0:0:
128,128,115997,1,0,0:0:0:0:
128,128,116080,1,0,0:0:0:0:
128,128,116164,1,2,0:0:0:0:
128,128,116219,1,2,0:0:0:0:
128,128,116275,1,2,0:0:0:0:
128,128,116330,1,0,0:0:0:0:
128,128,116414,1,2,0:0:0:0:
128,128,116497,1,0,0:0:0:0:
128,128,116553,1,2,0:0:0:0:
128,128,116608,1,2,0:0:0:0:
128,128,116664,1,0,0:0:0:0:
128,128,116747,1,2,0:0:0:0:
128,128,116830,1,0,0:0:0:0:
128,128,117080,1,2,0:0:0:0:
128,128,117330,1,2,0:0:0:0:
128,128,117830,1,4,0:0:0:0:
240,188,123702,5,8,0:0:0:0:
240,188,123753,1,8,0:0:0:0:
240,188,123804,1,0,0:0:0:0:
240,188,123905,1,8,0:0:0:0:
240,188,124006,1,8,0:0:0:0:
240,188,124057,1,8,0:0:0:0:
240,188,124108,1,0,0:0:0:0:
240,188,124209,1,8,0:0:0:0:
240,188,124310,1,8,0:0:0:0:
240,188,124513,1,8,0:0:0:0:
240,188,124564,1,8,0:0:0:0:
240,188,124614,1,0,0:0:0:0:
240,188,124716,1,8,0:0:0:0:
216,184,124817,1,8,0:0:0:0:
216,184,124868,1,8,0:0:0:0:
216,184,124919,1,0,0:0:0:0:
216,184,125020,1,8,0:0:0:0:
216,184,125121,1,8,0:0:0:0:
216,184,125324,1,8,0:0:0:0:
216,184,125375,1,8,0:0:0:0:
216,184,125425,1,0,0:0:0:0:
216,184,125527,1,8,0:0:0:0:
216,184,125628,1,8,0:0:0:0:
216,184,125679,1,8,0:0:0:0:
216,184,125729,1,0,0:0:0:0:
216,184,125831,1,8,0:0:0:0:
216,184,125932,1,8,0:0:0:0:
296,136,126135,1,8,0:0:0:0:
296,136,126202,1,0,0:0:0:0:
296,136,126270,1,0,0:0:0:0:
296,136,126337,1,8,0:0:0:0:
296,136,126405,1,0,0:0:0:0:
296,136,126473,1,0,0:0:0:0:
296,136,126540,1,8,0:0:0:0:
372,144,126642,1,0,0:0:0:0:
372,144,126743,1,8,0:0:0:0:
372,144,126844,1,8,0:0:0:0:
372,144,126946,1,4,0:0:0:0:
352,144,127148,1,8,0:0:0:0:
336,148,127250,1,0,0:0:0:0:
332,148,127300,1,0,0:0:0:0:
332,148,127351,1,8,0:0:0:0:
332,148,127452,1,0,0:0:0:0:
332,148,127554,1,8,0:0:0:0:
332,148,127655,1,8,0:0:0:0:
332,148,127756,1,0,0:0:0:0:
336,148,127959,1,8,0:0:0:0:
332,148,128060,1,0,0:0:0:0:
332,148,128111,1,0,0:0:0:0:
332,112,128162,1,0,0:0:0:0:
336,140,128263,1,0,0:0:0:0:
336,140,128364,1,8,0:0:0:0:
336,140,128567,1,0,0:0:0:0:
336,140,128770,1,8,0:0:0:0:
336,140,128871,1,0,0:0:0:0:
336,140,128922,1,0,0:0:0:0:
336,140,128973,1,8,0:0:0:0:
336,140,129074,1,0,0:0:0:0:
336,140,129175,1,8,0:0:0:0:
340,140,129277,1,8,0:0:0:0:
344,140,129378,1,0,0:0:0:0:
348,144,129581,1,8,0:0:0:0:
348,144,129682,1,0,0:0:0:0:
348,144,129733,1,0,0:0:0:0:
348,144,129783,1,0,0:0:0:0:
348,144,129885,1,0,0:0:0:0:
348,144,129986,1,8,0:0:0:0:
216,144,130189,1,0,0:0:0:0:
216,144,130392,1,8,0:0:0:0:
216,144,130493,1,0,0:0:0:0:
216,144,130544,1,0,0:0:0:0:
216,144,130594,1,8,0:0:0:0:
216,144,130696,1,0,0:0:0:0:
216,144,130797,1,8,0:0:0:0:
216,144,130898,1,8,0:0:0:0:
228,128,131000,1,0,0:0:0:0:
196,128,131202,1,8,0:0:0:0:
196,128,131304,1,0,0:0:0:0:
196,128,131354,1,0,0:0:0:0:
196,128,131405,1,0,0:0:0:0:
200,128,131506,1,0,0:0:0:0:
196,128,131608,1,8,0:0:0:0:
196,128,131709,1,0,0:0:0:0:
196,128,131810,1,8,0:0:0:0:
196,112,131912,1,0,0:0:0:0:
196,112,131962,1,0,0:0:0:0:
196,112,132013,1,8,0:0:0:0:
196,112,132114,1,0,0:0:0:0:
196,112,132216,1,8,0:0:0:0:
196,112,132267,1,0,0:0:0:0:
196,112,132317,1,0,0:0:0:0:
196,112,132368,1,0,0:0:0:0:
196,112,132419,1,8,0:0:0:0:
196,112,132520,1,8,0:0:0:0:
196,112,132621,1,0,0:0:0:0:
196,112,132723,1,8,0:0:0:0:
196,112,132773,1,8,0:0:0:0:
196,112,132824,1,8,0:0:0:0:
196,112,132925,1,0,0:0:0:0:
196,112,133027,1,8,0:0:0:0:
196,112,133077,1,8,0:0:0:0:
196,112,133128,1,8,0:0:0:0:
196,112,133179,1,8,0:0:0:0:
196,112,133229,1,0,0:0:0:0:
196,112,133331,1,8,0:0:0:0:
196,112,133432,1,4,0:0:0:0:
192,124,133533,1,0,0:0:0:0:
192,124,133635,1,8,0:0:0:0:
192,128,133736,1,0,0:0:0:0:
192,128,133837,1,8,0:0:0:0:
188,128,134040,1,8,0:0:0:0:
188,128,134142,1,8,0:0:0:0:
188,128,134192,1,8,0:0:0:0:
188,128,134243,1,0,0:0:0:0:
188,128,134344,1,0,0:0:0:0:
188,132,134446,1,8,0:0:0:0:
188,136,134547,1,0,0:0:0:0:
184,136,134750,1,0,0:0:0:0:
184,136,134851,1,8,0:0:0:0:
192,136,134952,1,0,0:0:0:0:
192,140,135054,1,8,0:0:0:0:
192,140,135155,1,0,0:0:0:0:
192,140,135206,1,0,0:0:0:0:
192,140,135256,1,8,0:0:0:0:
192,140,135358,1,0,0:0:0:0:
192,140,135459,1,8,0:0:0:0:
192,140,135560,1,8,0:0:0:0:
192,136,135662,1,0,0:0:0:0:
192,140,135864,1,0,0:0:0:0:
176,120,135966,1,8,0:0:0:0:
176,120,136067,1,0,0:0:0:0:
176,120,136169,1,0,0:0:0:0:
176,120,136270,1,8,0:0:0:0:
192,144,136371,1,0,0:0:0:0:
196,144,136422,1,0,0:0:0:0:
196,144,136473,1,8,0:0:0:0:
196,144,136574,1,0,0:0:0:0:
196,144,136675,1,8,0:0:0:0:
196,144,136777,1,8,0:0:0:0:
196,144,136878,1,0,0:0:0:0:
196,144,136979,1,0,0:0:0:0:
192,144,137081,1,8,0:0:0:0:
208,132,137283,1,8,0:0:0:0:
208,132,137385,1,0,0:0:0:0:
208,132,137435,1,0,0:0:0:0:
208,132,137486,1,0,0:0:0:0:
208,132,137587,1,0,0:0:0:0:
208,116,137689,1,8,0:0:0:0:
208,116,137790,1,0,0:0:0:0:
208,116,137841,1,0,0:0:0:0:
208,116,137892,1,8,0:0:0:0:
208,116,137993,1,0,0:0:0:0:
208,116,138094,1,8,0:0:0:0:
208,116,138196,1,0,0:0:0:0:
280,180,138297,1,8,0:0:0:0:
280,180,138348,1,8,0:0:0:0:
280,180,138398,1,8,0:0:0:0:
280,180,138500,1,0,0:0:0:0:
280,180,138601,1,0,0:0:0:0:
280,180,138702,1,8,0:0:0:0:
280,180,138753,1,8,0:0:0:0:
280,180,138804,1,0,0:0:0:0:
280,180,138854,1,0,0:0:0:0:
280,180,138905,1,0,0:0:0:0:
280,180,139006,1,0,0:0:0:0:
280,180,139108,1,4,0:0:0:0:
280,180,139209,1,12,0:0:0:0:
280,180,139412,1,4,0:0:0:0:
264,168,139918,1,4,0:0:0:0:
264,168,140064,1,0,0:0:0:0:
264,168,140137,1,0,0:0:0:0:
264,168,140210,1,8,0:0:0:0:
264,168,140357,1,0,0:0:0:0:
264,168,140503,1,8,0:0:0:0:
264,168,140576,1,0,0:0:0:0:
264,168,140649,1,0,0:0:0:0:
264,168,140722,1,0,0:0:0:0:
264,168,140796,1,8,0:0:0:0:
264,168,140942,1,0,0:0:0:0:
264,168,141015,1,0,0:0:0:0:
264,172,141088,1,8,0:0:0:0:
264,172,141235,1,0,0:0:0:0:
264,172,141381,1,8,0:0:0:0:
264,172,141527,1,0,0:0:0:0:
264,172,141600,1,0,0:0:0:0:
264,172,141674,1,8,0:0:0:0:
264,172,141820,1,8,0:0:0:0:
264,172,141893,1,0,0:0:0:0:
264,172,141966,1,8,0:0:0:0:
264,172,142039,1,8,0:0:0:0:
264,172,142113,1,0,0:0:0:0:
264,172,142186,1,0,0:0:0:0:
264,172,142259,1,8,0:0:0:0:
272,176,142405,1,0,0:0:0:0:
272,176,142478,1,0,0:0:0:0:
272,176,142552,1,8,0:0:0:0:
272,176,142698,1,0,0:0:0:0:
272,176,142844,1,8,0:0:0:0:
264,172,142991,1,8,0:0:0:0:
260,168,143064,1,8,0:0:0:0:
260,168,143137,1,0,0:0:0:0:
260,168,143210,1,0,0:0:0:0:
260,168,143283,1,8,0:0:0:0:
260,168,143357,1,0,0:0:0:0:
260,168,143430,1,8,0:0:0:0:
260,168,143576,1,0,0:0:0:0:
260,168,143649,1,0,0:0:0:0:
260,168,143722,1,8,0:0:0:0:
260,168,143869,1,0,0:0:0:0:
260,168,143942,1,8,0:0:0:0:
260,168,144015,1,0,0:0:0:0:
260,168,144088,1,0,0:0:0:0:
260,168,144161,1,8,0:0:0:0:
260,168,144235,1,0,0:0:0:0:
260,168,144308,1,8,0:0:0:0:
264,168,144381,1,8,0:0:0:0:
264,168,144454,1,0,0:0:0:0:
268,168,144527,1,0,0:0:0:0:
200,192,144600,1,0,0:0:0:0:
200,192,144747,1,8,0:0:0:0:
200,192,144820,1,8,0:0:0:0:
200,192,144893,1,8,0:0:0:0:
200,192,145039,1,0,0:0:0:0:
200,192,145186,1,0,0:0:0:0:
200,192,145332,1,12,0:0:0:0:
200,192,145478,1,0,0:0:0:0:
200,192,145552,1,0,0:0:0:0:
200,192,145625,1,8,0:0:0:0:
200,192,145771,1,0,0:0:0:0:
200,192,145917,1,8,0:0:0:0:
200,192,145991,1,8,0:0:0:0:
200,192,146064,1,8,0:0:0:0:
200,192,146210,1,0,0:0:0:0:
200,192,146357,1,0,0:0:0:0:
200,192,146503,1,12,0:0:0:0:
200,192,146649,1,0,0:0:0:0:
200,192,146722,1,0,0:0:0:0:
204,200,146796,1,8,0:0:0:0:
204,200,146942,1,0,0:0:0:0:
240,160,147088,1,8,0:0:0:0:
240,164,147161,1,8,0:0:0:0:
236,184,147235,1,8,0:0:0:0:
236,184,147381,1,0,0:0:0:0:
236,184,147527,1,0,0:0:0:0:
236,184,147674,1,12,0:0:0:0:
236,184,147820,1,0,0:0:0:0:
236,184,147893,1,0,0:0:0:0:
236,184,147966,1,8,0:0:0:0:
224,184,148113,1,8,0:0:0:0:
228,188,148259,1,8,0:0:0:0:
228,188,148332,1,8,0:0:0:0:
228,188,148405,1,0,0:0:0:0:
228,188,148552,1,12,0:0:0:0:
232,192,148698,1,8,0:0:0:0:
232,192,148771,1,8,0:0:0:0:
232,192,148844,1,0,0:0:0:0:
240,196,148917,1,0,0:0:0:0:
232,196,148991,1,0,0:0:0:0:
256,180,149137,1,0,0:0:0:0:
252,172,149283,1,0,0:0:0:0:
252,172,149430,1,0,0:0:0:0:
252,172,149503,1,0,0:0:0:0:
252,172,149576,1,8,0:0:0:0:
252,172,149722,1,0,0:0:0:0:
252,172,149869,1,0,0:0:0:0:
252,172,149942,1,0,0:0:0:0:
252,172,150015,1,8,0:0:0:0:
252,172,150161,1,0,0:0:0:0:
252,172,150308,1,8,0:0:0:0:
252,172,150381,1,8,0:0:0:0:
252,172,150454,1,0,0:0:0:0:
252,172,150600,1,0,0:0:0:0:
252,172,150747,1,8,0:0:0:0:
248,168,150893,1,0,0:0:0:0:
248,168,150966,1,0,0:0:0:0:
248,168,151039,1,0,0:0:0:0:
248,168,151186,1,0,0:0:0:0:
248,168,151332,1,8,0:0:0:0:
248,168,151405,1,8,0:0:0:0:
248,168,151478,1,0,0:0:0:0:
248,168,151552,1,0,0:0:0:0:
248,168,151625,1,0,0:0:0:0:
248,168,151771,1,0,0:0:0:0:
248,168,151844,1,0,0:0:0:0:
248,168,151917,1,8,0:0:0:0:
248,168,152064,1,8,0:0:0:0:
248,168,152210,1,0,0:0:0:0:
248,168,152357,1,8,0:0:0:0:
248,168,152430,1,8,0:0:0:0:
248,168,152503,1,0,0:0:0:0:
248,168,152576,1,0,0:0:0:0:
248,168,152649,1,8,0:0:0:0:
248,168,152796,1,0,0:0:0:0:
248,168,152942,1,0,0:0:0:0:
248,168,153015,1,0,0:0:0:0:
248,168,153088,1,8,0:0:0:0:
248,168,153235,1,0,0:0:0:0:
248,168,153381,1,8,0:0:0:0:
248,168,153454,1,0,0:0:0:0:
248,168,153527,1,0,0:0:0:0:
248,168,153600,1,0,0:0:0:0:
248,168,153674,1,8,0:0:0:0:
300,176,153820,1,0,0:0:0:0:
300,176,153966,1,0,0:0:0:0:
300,176,154113,1,0,0:0:0:0:
300,176,154186,1,0,0:0:0:0:
300,176,154259,1,8,0:0:0:0:
300,176,154405,1,0,0:0:0:0:
292,168,154552,1,0,0:0:0:0:
296,196,154625,1,0,0:0:0:0:
296,196,154698,1,8,0:0:0:0:
296,196,154844,1,0,0:0:0:0:
296,196,154991,1,8,0:0:0:0:
296,196,155064,1,8,0:0:0:0:
296,196,155137,1,0,0:0:0:0:
296,196,155283,1,0,0:0:0:0:
256,132,155430,1,8,0:0:0:0:
256,172,155576,1,0,0:0:0:0:
256,172,155649,1,0,0:0:0:0:
256,172,155722,1,0,0:0:0:0:
256,172,155869,1,0,0:0:0:0:
256,172,156015,1,8,0:0:0:0:
256,172,156088,1,8,0:0:0:0:
256,172,156161,1,0,0:0:0:0:
256,172,156235,1,0,0:0:0:0:
256,176,156308,1,8,0:0:0:0:
256,176,156454,1,8,0:0:0:0:
256,176,156527,1,8,0:0:0:0:
256,176,156600,1,0,0:0:0:0:
256,176,156747,1,8,0:0:0:0:
256,176,156893,1,0,0:0:0:0:
228,152,157039,1,0,0:0:0:0:
228,152,157113,1,0,0:0:0:0:
228,152,157186,1,8,0:0:0:0:
228,152,157332,1,0,0:0:0:0:
256,144,157478,1,8,0:0:0:0:
256,144,157552,1,0,0:0:0:0:
260,152,157625,1,0,0:0:0:0:
260,152,157698,1,0,0:0:0:0:
260,152,157771,1,8,0:0:0:0:
260,152,157844,1,8,0:0:0:0:
260,160,157917,1,0,0:0:0:0:
260,164,158064,1,8,0:0:0:0:
260,164,158210,1,0,0:0:0:0:
260,164,158283,1,0,0:0:0:0:
260,164,158357,1,8,0:0:0:0:
260,164,158430,1,8,0:0:0:0:
260,164,158503,1,0,0:0:0:0:
292,200,158649,1,0,0:0:0:0:
272,216,158796,1,0,0:0:0:0:
272,216,158942,1,0,0:0:0:0:
272,216,159015,1,0,0:0:0:0:
272,216,159088,1,8,0:0:0:0:
272,216,159235,1,0,0:0:0:0:
272,236,159381,1,8,0:0:0:0:
264,228,159454,1,8,0:0:0:0:
264,228,159527,1,0,0:0:0:0:
264,228,159600,1,0,0:0:0:0:
264,228,159674,1,8,0:0:0:0:
264,228,159820,1,0,0:0:0:0:
264,228,159966,1,0,0:0:0:0:
268,228,160039,1,0,0:0:0:0:
268,228,160113,1,8,0:0:0:0:
268,228,160259,1,8,0:0:0:0:
272,224,160405,1,0,0:0:0:0:
276,224,160552,1,8,0:0:0:0:
276,224,160625,1,8,0:0:0:0:
276,224,160698,1,0,0:0:0:0:
276,228,160844,1,8,0:0:0:0:
276,228,160991,1,0,0:0:0:0:
276,228,161137,1,0,0:0:0:0:
276,224,161283,1,8,0:0:0:0:
276,224,161430,1,0,0:0:0:0:
276,228,161503,1,0,0:0:0:0:
276,228,161576,1,0,0:0:0:0:
276,228,161722,1,0,0:0:0:0:
276,228,161869,1,8,0:0:0:0:
276,224,161942,1,8,0:0:0:0:
276,228,162015,1,0,0:0:0:0:
276,228,162088,1,0,0:0:0:0:
276,228,162161,1,8,0:0:0:0:
304,224,162308,1,8,0:0:0:0:
304,224,162381,1,8,0:0:0:0:
304,224,162454,1,0,0:0:0:0:
304,224,162600,1,8,0:0:0:0:
312,228,162747,1,0,0:0:0:0:
312,228,162893,1,0,0:0:0:0:
312,228,162966,1,0,0:0:0:0:
312,228,163039,1,8,0:0:0:0:
312,228,163113,1,8,0:0:0:0:
312,228,163186,1,0,0:0:0:0:
312,228,163332,1,0,0:0:0:0:
312,228,163478,1,0,0:0:0:0:
312,228,163552,1,0,0:0:0:0:
312,228,163625,1,8,0:0:0:0:
312,228,163771,1,0,0:0:0:0:
312,228,163917,1,0,0:0:0:0:
312,228,163991,1,0,0:0:0:0:
312,228,164064,1,8,0:0:0:0:
312,228,164210,1,0,0:0:0:0:
312,228,164283,1,0,0:0:0:0:
312,228,164357,1,8,0:0:0:0:
312,228,164430,1,8,0:0:0:0:
312,228,164503,1,0,0:0:0:0:
320,208,164649,1,0,0:0:0:0:
320,208,164796,1,8,0:0:0:0:
320,208,164942,1,0,0:0:0:0:
320,208,165015,1,0,0:0:0:0:
320,208,165088,1,0,0:0:0:0:
320,208,165235,1,0,0:0:0:0:
320,208,165381,1,8,0:0:0:0:
320,212,165454,1,8,0:0:0:0:
320,212,165527,1,0,0:0:0:0:
320,212,165600,1,0,0:0:0:0:
320,212,165674,1,8,0:0:0:0:
320,212,165820,1,0,0:0:0:0:
320,212,165893,1,0,0:0:0:0:
320,212,165966,1,8,0:0:0:0:
320,212,166113,1,0,0:0:0:0:
320,212,166186,1,0,0:0:0:0:
320,212,166259,1,8,0:0:0:0:
320,212,166332,1,0,0:0:0:0:
320,212,166405,1,0,0:0:0:0:
320,212,166478,1,0,0:0:0:0:
320,212,166552,1,8,0:0:0:0:
320,212,166698,1,0,0:0:0:0:
320,212,166844,1,8,0:0:0:0:
320,212,166991,1,8,0:0:0:0:
320,212,167064,1,8,0:0:0:0:
320,212,167137,1,0,0:0:0:0:
320,212,167283,1,8,0:0:0:0:
320,212,167430,1,0,0:0:0:0:
320,212,167503,1,0,0:0:0:0:
320,212,167576,1,8,0:0:0:0:
320,212,167649,1,8,0:0:0:0:
320,212,167722,1,8,0:0:0:0:
320,212,167869,1,8,0:0:0:0:
320,212,168015,1,4,0:0:0:0:
224,204,168307,1,0,0:0:0:0:
228,208,168454,1,0,0:0:0:0:
228,208,168600,1,8,0:0:0:0:
212,204,168893,1,8,0:0:0:0:
212,204,169039,1,8,0:0:0:0:
212,204,169185,1,0,0:0:0:0:
156,192,169332,1,8,0:0:0:0:
156,192,169478,1,0,0:0:0:0:
156,192,169771,1,0,0:0:0:0:
156,192,170063,1,0,0:0:0:0:
156,192,170210,1,0,0:0:0:0:
220,196,170356,1,8,0:0:0:0:
220,196,170649,1,8,0:0:0:0:
220,196,170795,1,0,0:0:0:0:
220,196,170941,1,8,0:0:0:0:
220,196,171088,1,8,0:0:0:0:
220,196,171234,1,0,0:0:0:0:
220,196,171380,1,0,0:0:0:0:
220,196,171527,1,8,0:0:0:0:
220,196,171819,1,0,0:0:0:0:
220,196,171966,1,0,0:0:0:0:
220,196,172112,1,8,0:0:0:0:
208,168,172405,1,8,0:0:0:0:
208,168,172551,1,8,0:0:0:0:
208,168,172697,1,0,0:0:0:0:
208,168,172844,1,0,0:0:0:0:
208,168,172990,1,8,0:0:0:0:
204,176,173283,1,0,0:0:0:0:
204,176,173575,1,0,0:0:0:0:
204,176,173722,1,0,0:0:0:0:
204,176,173868,1,8,0:0:0:0:
204,176,174014,1,0,0:0:0:0:
204,176,174161,1,8,0:0:0:0:
204,176,174454,1,8,0:0:0:0:
204,176,174600,1,0,0:0:0:0:
216,136,174746,1,8,0:0:0:0:
212,148,174893,1,0,0:0:0:0:
212,148,175039,1,0,0:0:0:0:
212,148,175185,1,0,0:0:0:0:
212,148,175331,1,8,0:0:0:0:
196,160,175624,1,0,0:0:0:0:
196,160,175770,1,0,0:0:0:0:
196,160,175917,1,8,0:0:0:0:
196,160,176063,1,0,0:0:0:0:
196,160,176356,1,0,0:0:0:0:
196,160,176502,1,8,0:0:0:0:
196,160,176648,1,0,0:0:0:0:
196,160,176795,1,0,0:0:0:0:
196,160,176941,1,0,0:0:0:0:
196,160,177087,1,8,0:0:0:0:
200,156,177380,1,0,0:0:0:0:
200,156,177526,1,0,0:0:0:0:
200,156,177673,1,8,0:0:0:0:
200,156,177965,1,0,0:0:0:0:
200,160,178112,1,0,0:0:0:0:
200,160,178258,1,8,0:0:0:0:
200,160,178404,1,0,0:0:0:0:
224,132,178697,1,0,0:0:0:0:
224,144,178843,1,8,0:0:0:0:
224,144,178990,1,8,0:0:0:0:
224,144,179136,1,0,0:0:0:0:
224,144,179282,1,0,0:0:0:0:
224,144,179429,1,8,0:0:0:0:
200,128,179721,1,0,0:0:0:0:
200,128,179868,1,8,0:0:0:0:
200,128,180014,1,0,0:0:0:0:
220,116,180160,1,0,0:0:0:0:
200,120,180307,1,8,0:0:0:0:
200,120,180453,1,0,0:0:0:0:
200,120,180599,1,8,0:0:0:0:
200,120,180746,1,8,0:0:0:0:
200,120,180892,1,0,0:0:0:0:
200,120,181038,1,0,0:0:0:0:
200,120,181185,1,8,0:0:0:0:
196,128,181331,1,0,0:0:0:0:
200,128,181478,1,8,0:0:0:0:
184,104,181770,1,8,0:0:0:0:
208,136,182063,1,8,0:0:0:0:
224,160,182264,1,8,0:0:0:0:
224,160,182465,1,8,0:0:0:0:
224,160,182667,1,0,0:0:0:0:
224,160,182868,1,0,0:0:0:0:
188,108,183069,1,8,0:0:0:0:
224,160,183271,1,8,0:0:0:0:
224,160,183472,1,8,0:0:0:0:
224,160,183673,1,4,0:0:0:0:
224,160,183874,1,8,0:0:0:0:
224,160,183975,1,0,0:0:0:0:
224,160,184025,1,0,0:0:0:0:
224,160,184075,1,0,0:0:0:0:
224,160,184176,1,0,0:0:0:0:
208,148,184277,1,8,0:0:0:0:
316,212,184478,1,0,0:0:0:0:
316,212,184579,1,0,0:0:0:0:
316,212,184679,1,8,0:0:0:0:
312,216,184780,1,0,0:0:0:0:
312,216,184830,1,0,0:0:0:0:
308,224,184881,1,8,0:0:0:0:
308,224,184981,1,0,0:0:0:0:
308,224,185082,1,8,0:0:0:0:
308,224,185183,1,8,0:0:0:0:
308,224,185283,1,0,0:0:0:0:
308,224,185485,1,8,0:0:0:0:
308,224,185585,1,0,0:0:0:0:
308,224,185636,1,0,0:0:0:0:
308,224,185686,1,8,0:0:0:0:
308,224,185787,1,0,0:0:0:0:
308,224,185887,1,8,0:0:0:0:
308,224,185988,1,8,0:0:0:0:
308,224,186038,1,8,0:0:0:0:
308,224,186089,1,0,0:0:0:0:
308,224,186189,1,0,0:0:0:0:
312,228,186290,1,8,0:0:0:0:
312,228,186391,1,0,0:0:0:0:
312,232,186441,1,0,0:0:0:0:
312,232,186491,1,0,0:0:0:0:
312,232,186592,1,0,0:0:0:0:
312,232,186693,1,8,0:0:0:0:
108,188,186894,1,0,0:0:0:0:
216,192,186995,1,0,0:0:0:0:
216,200,187095,1,8,0:0:0:0:
216,200,187196,1,0,0:0:0:0:
216,200,187297,1,8,0:0:0:0:
216,200,187397,1,0,0:0:0:0:
216,200,187448,1,0,0:0:0:0:
216,200,187498,1,0,0:0:0:0:
216,200,187599,1,0,0:0:0:0:
216,192,187699,1,8,0:0:0:0:
216,192,187800,1,0,0:0:0:0:
216,192,187901,1,8,0:0:0:0:
216,192,188001,1,8,0:0:0:0:
216,192,188052,1,8,0:0:0:0:
216,192,188102,1,0,0:0:0:0:
216,192,188203,1,0,0:0:0:0:
216,192,188303,1,8,0:0:0:0:
216,192,188404,1,0,0:0:0:0:
216,192,188505,1,0,0:0:0:0:
216,192,188706,1,12,0:0:0:0:
228,176,188907,1,0,0:0:0:0:
224,180,189109,1,12,0:0:0:0:
224,180,189310,1,0,0:0:0:0:
228,176,189511,1,12,0:0:0:0:
224,180,189713,1,0,0:0:0:0:
224,180,189914,1,12,0:0:0:0:
228,176,190115,1,4,0:0:0:0:
224,180,190317,1,8,0:0:0:0:
224,180,190417,1,0,0:0:0:0:
224,180,190468,1,0,0:0:0:0:
224,180,190518,1,8,0:0:0:0:
224,180,190619,1,0,0:0:0:0:
224,180,190719,1,8,0:0:0:0:
224,180,190820,1,8,0:0:0:0:
224,180,190921,1,0,0:0:0:0:
224,180,191122,1,8,0:0:0:0:
208,136,191223,1,0,0:0:0:0:
200,168,191273,1,0,0:0:0:0:
200,168,191324,1,0,0:0:0:0:
204,172,191424,1,0,0:0:0:0:
204,172,191525,1,8,0:0:0:0:
200,172,191626,1,8,0:0:0:0:
200,172,191676,1,8,0:0:0:0:
200,172,191726,1,0,0:0:0:0:
200,172,191827,1,0,0:0:0:0:
200,172,191928,1,8,0:0:0:0:
200,172,192028,1,0,0:0:0:0:
200,172,192079,1,0,0:0:0:0:
200,172,192129,1,8,0:0:0:0:
204,172,192230,1,0,0:0:0:0:
200,172,192330,1,8,0:0:0:0:
184,180,192431,1,8,0:0:0:0:
184,180,192532,1,0,0:0:0:0:
184,180,192733,1,8,0:0:0:0:
184,184,192834,1,0,0:0:0:0:
184,184,192884,1,0,0:0:0:0:
188,184,192934,1,8,0:0:0:0:
200,144,193035,1,0,0:0:0:0:
192,156,193136,1,8,0:0:0:0:
192,156,193236,1,8,0:0:0:0:
184,164,193337,1,0,0:0:0:0:
188,168,193538,1,0,0:0:0:0:
188,168,193639,1,0,0:0:0:0:
188,168,193740,1,8,0:0:0:0:
188,168,193840,1,0,0:0:0:0:
188,168,193891,1,0,0:0:0:0:
188,168,193941,1,0,0:0:0:0:
188,168,194042,1,0,0:0:0:0:
188,168,194142,1,8,0:0:0:0:
188,168,194193,1,8,0:0:0:0:
188,168,194243,1,0,0:0:0:0:
188,168,194293,1,0,0:0:0:0:
188,168,194344,1,8,0:0:0:0:
180,168,194444,1,8,0:0:0:0:
180,168,194545,1,0,0:0:0:0:
180,168,194646,1,0,0:0:0:0:
188,136,194746,1,8,0:0:0:0:
176,160,194847,1,0,0:0:0:0:
176,160,194948,1,12,0:0:0:0:
176,160,195149,1,0,0:0:0:0:
176,160,195350,1,12,0:0:0:0:
176,160,195552,1,0,0:0:0:0:
176,160,195753,1,12,0:0:0:0:
176,160,195954,1,0,0:0:0:0:
152,200,196156,1,8,0:0:0:0:
156,204,196256,1,8,0:0:0:0:
156,208,196357,1,8,0:0:0:0:
152,208,196407,1,8,0:0:0:0:
152,208,196458,1,8,0:0:0:0:
156,208,196508,1,8,0:0:0:0:
156,208,196558,1,0,0:0:0:0:
224,196,196760,1,8,0:0:0:0:
224,196,196860,1,0,0:0:0:0:
224,196,196911,1,0,0:0:0:0:
224,196,196961,1,8,0:0:0:0:
224,196,197062,1,0,0:0:0:0:
224,196,197162,1,8,0:0:0:0:
224,196,197263,1,8,0:0:0:0:
224,196,197364,1,0,0:0:0:0:
216,236,197464,1,0,0:0:0:0:
180,116,197565,1,8,0:0:0:0:
256,208,197666,1,0,0:0:0:0:
256,208,197716,1,0,0:0:0:0:
252,212,197766,1,0,0:0:0:0:
252,212,197867,1,0,0:0:0:0:
252,212,197968,1,8,0:0:0:0:
232,220,198169,1,0,0:0:0:0:
232,224,198270,1,0,0:0:0:0:
232,224,198370,1,8,0:0:0:0:
232,224,198471,1,0,0:0:0:0:
232,228,198521,1,0,0:0:0:0:
232,228,198572,1,8,0:0:0:0:
232,228,198673,1,0,0:0:0:0:
232,228,198773,1,8,0:0:0:0:
232,228,198874,1,8,0:0:0:0:
232,224,198975,1,0,0:0:0:0:
180,260,199075,1,0,0:0:0:0:
232,224,199176,1,8,0:0:0:0:
232,228,199277,1,0,0:0:0:0:
232,228,199327,1,0,0:0:0:0:
232,228,199377,1,0,0:0:0:0:
232,228,199478,1,0,0:0:0:0:
232,228,199579,1,8,0:0:0:0:
192,236,199780,1,0,0:0:0:0:
192,236,199881,1,0,0:0:0:0:
192,236,199981,1,8,0:0:0:0:
192,236,200082,1,0,0:0:0:0:
192,236,200132,1,0,0:0:0:0:
192,236,200183,1,8,0:0:0:0:
192,236,200283,1,0,0:0:0:0:
192,236,200384,1,8,0:0:0:0:
192,236,200485,1,8,0:0:0:0:
192,236,200585,1,0,0:0:0:0:
192,236,200686,1,0,0:0:0:0:
192,236,200787,1,8,0:0:0:0:
192,236,200887,1,0,0:0:0:0:
192,236,200938,1,0,0:0:0:0:
192,236,200988,1,0,0:0:0:0:
184,236,201089,1,0,0:0:0:0:
184,240,201189,1,8,0:0:0:0:
184,240,201290,1,0,0:0:0:0:
184,240,201391,1,8,0:0:0:0:
184,240,201441,1,8,0:0:0:0:
184,240,201491,1,0,0:0:0:0:
184,240,201542,1,0,0:0:0:0:
184,240,201592,1,8,0:0:0:0:
184,240,201693,1,0,0:0:0:0:
188,244,201793,1,8,0:0:0:0:
188,244,201894,1,8,0:0:0:0:
188,244,201944,1,8,0:0:0:0:
188,244,201995,1,0,0:0:0:0:
188,244,202095,1,8,0:0:0:0:
188,244,202196,1,0,0:0:0:0:
184,248,202297,1,0,0:0:0:0:
184,248,202397,1,8,0:0:0:0:
188,244,202498,1,0,0:0:0:0:
188,244,202599,1,8,0:0:0:0:
184,248,202649,1,8,0:0:0:0:
184,248,202699,1,8,0:0:0:0:
184,248,202750,1,8,0:0:0:0:
184,248,202800,1,0,0:0:0:0:
184,248,202901,1,8,0:0:0:0:
184,248,203001,1,4,0:0:0:0:
176,276,203203,1,8,0:0:0:0:
176,276,203303,1,0,0:0:0:0:
176,276,203354,1,0,0:0:0:0:
176,276,203404,1,8,0:0:0:0:
176,276,203505,1,0,0:0:0:0:
176,276,203605,1,8,0:0:0:0:
176,276,203706,1,8,0:0:0:0:
176,276,203807,1,0,0:0:0:0:
176,276,203907,1,0,0:0:0:0:
176,276,204008,1,8,0:0:0:0:
176,276,204109,1,0,0:0:0:0:
176,276,204159,1,0,0:0:0:0:
176,276,204209,1,8,0:0:0:0:
176,276,204310,1,0,0:0:0:0:
176,276,204411,1,8,0:0:0:0:
176,276,204511,1,8,0:0:0:0:
176,276,204612,1,0,0:0:0:0:
176,276,204813,1,8,0:0:0:0:
176,276,204914,1,0,0:0:0:0:
176,276,204964,1,0,0:0:0:0:
176,276,205015,1,8,0:0:0:0:
176,276,205115,1,0,0:0:0:0:
176,276,205216,1,8,0:0:0:0:
176,276,205317,1,8,0:0:0:0:
176,276,205417,1,0,0:0:0:0:
176,276,205518,1,0,0:0:0:0:
176,276,205619,1,8,0:0:0:0:
176,276,205719,1,0,0:0:0:0:
176,276,205820,1,8,0:0:0:0:
172,276,205921,1,8,0:0:0:0:
168,276,206021,1,0,0:0:0:0:
168,276,206122,1,0,0:0:0:0:
168,280,206223,1,8,0:0:0:0:
172,280,206324,1,0,0:0:0:0:
216,280,206374,1,0,0:0:0:0:
216,280,206424,1,8,0:0:0:0:
216,280,206525,1,8,0:0:0:0:
216,280,206626,1,0,0:0:0:0:
216,280,206726,1,0,0:0:0:0:
216,280,206827,1,8,0:0:0:0:
216,280,206928,1,0,0:0:0:0:
216,280,207028,1,8,0:0:0:0:
216,280,207129,1,0,0:0:0:0:
216,280,207179,1,0,0:0:0:0:
216,280,207230,1,8,0:0:0:0:
216,280,207330,1,8,0:0:0:0:
216,280,207431,1,0,0:0:0:0:
216,280,207532,1,0,0:0:0:0:
188,288,207632,1,8,0:0:0:0:
216,280,207733,1,0,0:0:0:0:
216,280,207834,1,8,0:0:0:0:
216,280,207884,1,8,0:0:0:0:
216,280,207934,1,8,0:0:0:0:
216,280,208035,1,0,0:0:0:0:
216,280,208136,1,0,0:0:0:0:
216,280,208236,1,8,0:0:0:0:
216,280,208287,1,8,0:0:0:0:
216,280,208337,1,8,0:0:0:0:
216,280,208387,1,8,0:0:0:0:
216,280,208438,1,0,0:0:0:0:
216,280,208538,1,0,0:0:0:0:
216,280,208639,1,4,0:0:0:0:
240,244,209444,1,8,0:0:0:0:
188,288,209495,1,8,0:0:0:0:
188,288,209545,1,8,0:0:0:0:
188,288,209595,1,8,0:0:0:0:
240,244,209646,1,0,0:0:0:0:
188,288,209746,1,8,0:0:0:0:
188,288,209847,1,0,0:0:0:0:
188,288,209897,1,0,0:0:0:0:
188,288,209948,1,8,0:0:0:0:
188,288,209998,1,0,0:0:0:0:
188,288,210048,1,8,0:0:0:0:
188,288,210099,1,8,0:0:0:0:
188,288,210149,1,8,0:0:0:0:
188,288,210199,1,8,0:0:0:0:
188,288,210250,1,0,0:0:0:0:
232,248,210652,1,4,0:0:0:0:
256,192,224347,5,2,0:0:0:0:
256,192,224692,1,2,0:0:0:0:
256,192,225037,1,2,0:0:0:0:
256,192,225381,1,2,0:0:0:0:
256,192,225726,1,2,0:0:0:0:
256,192,225899,1,2,0:0:0:0:
256,192,226071,1,2,0:0:0:0:
256,192,226416,1,2,0:0:0:0:
256,192,226761,1,2,0:0:0:0:
256,192,227106,1,2,0:0:0:0:
256,192,227450,1,2,0:0:0:0:
256,192,227795,1,2,0:0:0:0:
256,192,227968,1,2,0:0:0:0:
256,192,228140,1,2,0:0:0:0:
256,192,228485,1,2,0:0:0:0:
256,192,228830,1,2,0:0:0:0:
256,192,229088,1,2,0:0:0:0:
256,192,229347,1,0,0:0:0:0:
256,192,229519,1,2,0:0:0:0:
256,192,229692,1,0,0:0:0:0:
256,192,229864,1,0,0:0:0:0:
256,192,230209,1,2,0:0:0:0:
256,192,230726,1,0,0:0:0:0:
256,192,230899,1,2,0:0:0:0:
256,192,231244,1,0,0:0:0:0:
256,192,231416,1,0,0:0:0:0:
256,192,231761,1,2,0:0:0:0:
256,192,232106,1,0,0:0:0:0:
256,192,232278,1,2,0:0:0:0:
256,192,232450,1,0,0:0:0:0:
256,192,232623,1,0,0:0:0:0:
256,192,232795,1,0,0:0:0:0:
256,192,232968,1,2,0:0:0:0:
256,192,233485,1,0,0:0:0:0:
256,192,233657,1,2,0:0:0:0:
256,192,234002,1,2,0:0:0:0:
256,192,234175,1,0,0:0:0:0:
256,192,234347,1,0,0:0:0:0:
256,192,234519,1,2,0:0:0:0:
256,192,234778,1,2,0:0:0:0:
256,192,234864,1,0,0:0:0:0:
256,192,235037,1,2,0:0:0:0:
256,192,235209,1,0,0:0:0:0:
256,192,235295,1,2,0:0:0:0:
256,192,235381,1,0,0:0:0:0:
256,192,235726,1,2,0:0:0:0:
256,192,236244,1,0,0:0:0:0:
256,192,236416,1,2,0:0:0:0:
256,192,236761,1,0,0:0:0:0:
256,192,236933,1,0,0:0:0:0:
256,192,237278,1,2,0:0:0:0:
256,192,237537,1,2,0:0:0:0:
256,192,237623,1,0,0:0:0:0:
256,192,237795,1,2,0:0:0:0:
256,192,237968,1,0,0:0:0:0:
256,192,238140,1,0,0:0:0:0:
256,192,238313,1,0,0:0:0:0:
256,192,238485,1,2,0:0:0:0:
256,192,239002,1,0,0:0:0:0:
256,192,239175,1,2,0:0:0:0:
256,192,239519,1,0,0:0:0:0:
256,192,239692,1,0,0:0:0:0:
256,192,239864,1,2,0:0:0:0:
256,192,240123,1,0,0:0:0:0:
256,192,240295,1,2,0:0:0:0:
256,192,240381,1,0,0:0:0:0:
256,192,240554,1,2,0:0:0:0:
256,192,240726,1,0,0:0:0:0:
256,192,240813,1,0,0:0:0:0:
256,192,240899,1,0,0:0:0:0:
256,192,241244,1,2,0:0:0:0:
256,192,241761,1,0,0:0:0:0:
256,192,241933,1,2,0:0:0:0:
256,192,242278,1,0,0:0:0:0:
256,192,242450,1,0,0:0:0:0:
256,192,242795,1,2,0:0:0:0:
256,192,243054,1,2,0:0:0:0:
256,192,243140,1,0,0:0:0:0:
256,192,243313,1,2,0:0:0:0:
256,192,243485,1,0,0:0:0:0:
256,192,243657,1,0,0:0:0:0:
256,192,243830,1,0,0:0:0:0:
256,192,244002,1,2,0:0:0:0:
256,192,244519,1,0,0:0:0:0:
256,192,244692,1,2,0:0:0:0:
256,192,245037,1,2,0:0:0:0:
256,192,245209,1,0,0:0:0:0:
256,192,245381,1,0,0:0:0:0:
256,192,245554,1,2,0:0:0:0:
256,192,245640,1,0,0:0:0:0:
256,192,245813,1,2,0:0:0:0:
256,192,245899,1,0,0:0:0:0:
256,192,246071,1,2,0:0:0:0:
256,192,246157,1,2,0:0:0:0:
256,192,246244,1,0,0:0:0:0:
256,192,246330,1,2,0:0:0:0:
256,192,246416,1,0,0:0:0:0:
256,192,246761,1,2,0:0:0:0:
256,192,247279,1,0,0:0:0:0:
256,192,247451,1,2,0:0:0:0:
256,192,247796,1,0,0:0:0:0:
256,192,247968,1,0,0:0:0:0:
256,192,248313,1,2,0:0:0:0:
256,192,248572,1,2,0:0:0:0:
256,192,248658,1,0,0:0:0:0:
256,192,248830,1,2,0:0:0:0:
256,192,249003,1,0,0:0:0:0:
256,192,249175,1,0,0:0:0:0:
256,192,249348,1,0,0:0:0:0:
256,192,249520,1,2,0:0:0:0:
256,192,250037,1,0,0:0:0:0:
256,192,250210,1,2,0:0:0:0:
256,192,250554,1,0,0:0:0:0:
256,192,250727,1,0,0:0:0:0:
256,192,250899,1,2,0:0:0:0:
256,192,251158,1,0,0:0:0:0:
256,192,251330,1,2,0:0:0:0:
256,192,251416,1,0,0:0:0:0:
256,192,251589,1,2,0:0:0:0:
256,192,251761,1,0,0:0:0:0:
256,192,251848,1,0,0:0:0:0:
256,192,251934,1,0,0:0:0:0:
256,192,252279,1,2,0:0:0:0:
256,192,252796,1,0,0:0:0:0:
256,192,252968,1,2,0:0:0:0:
256,192,253313,1,0,0:0:0:0:
256,192,253485,1,0,0:0:0:0:
256,192,253571,1,0,0:0:0:0:
256,192,253657,1,2,0:0:0:0:
256,192,253830,1,2,0:0:0:0:
256,192,254088,1,2,0:0:0:0:
256,192,254175,1,0,0:0:0:0:
256,192,254347,1,2,0:0:0:0:
256,192,254519,1,0,0:0:0:0:
256,192,254692,1,0,0:0:0:0:
256,192,254778,1,0,0:0:0:0:
256,192,254864,1,0,0:0:0:0:
256,192,254950,1,0,0:0:0:0:
256,192,255037,1,2,0:0:0:0:
256,192,255123,1,2,0:0:0:0:
256,192,255209,1,0,0:0:0:0:
256,192,255295,1,0,0:0:0:0:
256,192,255381,1,0,0:0:0:0:
256,192,255468,1,2,0:0:0:0:
256,192,255554,1,0,0:0:0:0:
256,192,255640,1,0,0:0:0:0:
256,192,255726,1,2,0:0:0:0:
256,192,255813,1,0,0:0:0:0:
256,192,255899,1,2,0:0:0:0:
256,192,255985,1,2,0:0:0:0:
256,192,256071,1,0,0:0:0:0:
256,192,256129,1,0,0:0:0:0:
256,192,256186,1,0,0:0:0:0:
256,192,256244,1,0,0:0:0:0:
256,192,256301,1,0,0:0:0:0:
256,192,256358,1,0,0:0:0:0:
256,192,256416,1,2,0:0:0:0:
256,192,256473,1,2,0:0:0:0:
256,192,256531,1,2,0:0:0:0:
256,192,256588,1,2,0:0:0:0:
256,192,256646,1,2,0:0:0:0:
256,192,256703,1,2,0:0:0:0:
256,192,256761,12,0,257278,0:0:0:0:
256,192,257450,5,4,0:0:0:0:
256,192,258140,1,0,0:0:0:0:
256,192,258226,1,0,0:0:0:0:
256,192,258313,1,2,0:0:0:0:
256,192,258370,1,2,0:0:0:0:
256,192,258427,1,2,0:0:0:0:
256,192,258485,1,0,0:0:0:0:
256,192,258571,1,2,0:0:0:0:
256,192,258657,1,0,0:0:0:0:
256,192,258830,1,4,0:0:0:0:
256,192,259347,1,6,0:0:0:0:
256,192,259864,1,4,0:0:0:0:
256,192,260554,1,2,0:0:0:0:
256,192,260597,1,2,0:0:0:0:
256,192,260726,1,2,0:0:0:0:
256,192,260769,1,2,0:0:0:0:
256,192,260899,1,0,0:0:0:0:
256,192,260942,1,0,0:0:0:0:
256,192,261071,1,0,0:0:0:0:
256,192,261114,1,0,0:0:0:0:
256,192,261244,1,0,0:0:0:0:
256,192,261287,1,0,0:0:0:0:
256,192,261588,1,6,0:0:0:0:
256,192,262106,1,6,0:0:0:0:
256,192,262623,1,4,0:0:0:0:
256,192,263313,1,0,0:0:0:0:
256,192,263399,1,2,0:0:0:0:
256,192,263485,1,0,0:0:0:0:
256,192,263571,1,0,0:0:0:0:
256,192,263657,1,2,0:0:0:0:
256,192,263700,1,2,0:0:0:0:
256,192,263830,1,2,0:0:0:0:
256,192,263873,1,2,0:0:0:0:
256,192,264002,1,0,0:0:0:0:
256,192,264347,1,6,0:0:0:0:
256,192,264864,1,4,0:0:0:0:
256,192,265381,1,6,0:0:0:0:
256,192,266071,1,2,0:0:0:0:
256,192,266129,1,2,0:0:0:0:
256,192,266186,1,2,0:0:0:0:
256,192,266244,1,0,0:0:0:0:
256,192,266330,1,0,0:0:0:0:
256,192,266416,1,2,0:0:0:0:
256,192,266588,1,0,0:0:0:0:
256,192,266761,1,2,0:0:0:0:
256,192,266933,1,0,0:0:0:0:
256,192,267019,1,0,0:0:0:0:
256,192,267106,1,0,0:0:0:0:
256,192,267450,1,2,0:0:0:0:
256,192,267709,1,0,0:0:0:0:
256,192,267795,1,2,0:0:0:0:
256,192,267968,1,0,0:0:0:0:
256,192,268140,1,2,0:0:0:0:
256,192,268226,1,2,0:0:0:0:
256,192,268313,1,0,0:0:0:0:
256,192,268485,1,4,0:0:0:0:
256,192,269175,1,2,0:0:0:0:
256,192,269261,1,2,0:0:0:0:
256,192,269347,1,0,0:0:0:0:
256,192,269433,1,0,0:0:0:0:
256,192,269519,1,2,0:0:0:0:
256,192,269563,1,2,0:0:0:0:
256,192,269692,1,2,0:0:0:0:
256,192,269735,1,2,0:0:0:0:
256,192,269864,1,4,0:0:0:0:
256,192,270381,1,6,0:0:0:0:
256,192,270899,1,4,0:0:0:0:
256,192,271588,1,0,0:0:0:0:
256,192,271646,1,2,0:0:0:0:
256,192,271703,1,2,0:0:0:0:
256,192,271761,1,0,0:0:0:0:
256,192,271818,1,2,0:0:0:0:
256,192,271876,1,2,0:0:0:0:
256,192,271933,1,0,0:0:0:0:
256,192,272019,1,2,0:0:0:0:
256,192,272106,1,0,0:0:0:0:
256,192,272192,1,0,0:0:0:0:
256,192,272278,1,2,0:0:0:0:
256,192,272321,1,0,0:0:0:0:
256,192,272450,1,2,0:0:0:0:
256,192,272494,1,0,0:0:0:0:
256,192,272623,1,6,0:0:0:0:
256,192,273140,1,6,0:0:0:0:
256,192,273657,1,4,0:0:0:0:
256,192,274347,1,0,0:0:0:0:
256,192,274433,1,2,0:0:0:0:
256,192,274519,1,0,0:0:0:0:
256,192,274606,1,0,0:0:0:0:
256,192,274692,1,2,0:0:0:0:
256,192,274749,1,0,0:0:0:0:
256,192,274807,1,0,0:0:0:0:
256,192,274864,1,2,0:0:0:0:
256,192,274922,1,0,0:0:0:0:
256,192,274979,1,0,0:0:0:0:
256,192,275037,1,2,0:0:0:0:
256,192,275094,1,2,0:0:0:0:
256,192,275152,1,0,0:0:0:0:
256,192,275209,1,2,0:0:0:0:
256,192,275267,1,0,0:0:0:0:
256,192,275381,1,6,0:0:0:0:
256,192,275899,1,4,0:0:0:0:
256,192,276416,1,6,0:0:0:0:
256,192,276933,1,0,0:0:0:0:
256,192,277106,1,2,0:0:0:0:
256,192,277623,1,0,0:0:0:0:
256,192,277795,1,2,0:0:0:0:
256,192,278313,1,0,0:0:0:0:
256,192,278485,1,2,0:0:0:0:
256,192,279002,1,0,0:0:0:0:
256,192,279175,1,2,0:0:0:0:
256,192,279261,1,2,0:0:0:0:
256,192,279347,1,0,0:0:0:0:
256,192,279519,1,4,0:0:0:0:
256,192,279864,1,2,0:0:0:0:
256,192,280037,1,2,0:0:0:0:
256,192,280209,1,0,0:0:0:0:
256,192,280381,1,0,0:0:0:0:
256,192,280554,1,2,0:0:0:0:
256,192,280726,1,0,0:0:0:0:
256,192,280899,1,2,0:0:0:0:
256,192,281071,1,0,0:0:0:0:
256,192,281244,1,0,0:0:0:0:
256,192,281416,1,2,0:0:0:0:
256,192,281588,1,2,0:0:0:0:
256,192,281761,1,0,0:0:0:0:
256,192,281933,1,2,0:0:0:0:
256,192,282106,1,2,0:0:0:0:
256,192,282278,1,0,0:0:0:0:
256,192,282623,1,2,0:0:0:0:
256,192,282795,1,2,0:0:0:0:
256,192,282968,1,0,0:0:0:0:
256,192,283140,1,0,0:0:0:0:
256,192,283313,1,2,0:0:0:0:
256,192,283485,1,0,0:0:0:0:
256,192,283657,1,2,0:0:0:0:
256,192,283830,1,0,0:0:0:0:
256,192,283916,1,0,0:0:0:0:
256,192,284002,1,2,0:0:0:0:
256,192,284175,1,2,0:0:0:0:
256,192,284347,1,0,0:0:0:0:
256,192,284519,1,2,0:0:0:0:
256,192,284606,1,0,0:0:0:0:
256,192,284692,1,2,0:0:0:0:
256,192,284778,1,2,0:0:0:0:
256,192,284864,1,0,0:0:0:0:
256,192,285037,1,2,0:0:0:0:
256,192,285209,1,0,0:0:0:0:
256,192,285295,1,0,0:0:0:0:
256,192,285381,1,2,0:0:0:0:
256,192,285554,1,0,0:0:0:0:
256,192,285726,1,2,0:0:0:0:
256,192,285899,1,0,0:0:0:0:
256,192,285985,1,0,0:0:0:0:
256,192,286071,1,2,0:0:0:0:
256,192,286244,1,0,0:0:0:0:
256,192,286416,1,2,0:0:0:0:
256,192,286502,1,2,0:0:0:0:
256,192,286588,1,0,0:0:0:0:
256,192,286675,1,0,0:0:0:0:
256,192,286761,1,2,0:0:0:0:
256,192,286933,1,0,0:0:0:0:
256,192,287106,1,2,0:0:0:0:
256,192,287192,1,2,0:0:0:0:
256,192,287278,1,2,0:0:0:0:
256,192,287364,1,0,0:0:0:0:
256,192,287450,1,2,0:0:0:0:
256,192,287623,1,0,0:0:0:0:
256,192,287795,1,0,0:0:0:0:
256,192,287881,1,0,0:0:0:0:
256,192,287968,1,2,0:0:0:0:
256,192,288054,1,0,0:0:0:0:
256,192,288140,1,2,0:0:0:0:
256,192,288226,1,2,0:0:0:0:
256,192,288313,1,0,0:0:0:0:
256,192,288399,1,2,0:0:0:0:
256,192,288485,1,0,0:0:0:0:
256,192,288542,1,0,0:0:0:0:
256,192,288600,1,0,0:0:0:0:
224,192,288657,1,2,0:0:0:0:
224,192,288744,1,2,0:0:0:0:
256,192,288830,1,0,0:0:0:0:
256,192,288887,1,2,0:0:0:0:
256,192,288945,1,2,0:0:0:0:
256,192,289002,1,0,0:0:0:0:
256,192,289088,1,0,0:0:0:0:
256,192,289175,1,2,0:0:0:0:
256,192,290037,1,2,0:0:0:0:
256,192,290123,1,0,0:0:0:0:
256,192,290209,1,2,0:0:0:0:
256,192,290295,1,2,0:0:0:0:
256,192,290381,1,0,0:0:0:0:
256,192,290554,1,4,0:0:0:0:
256,192,290899,1,2,0:0:0:0:
256,192,291071,1,2,0:0:0:0:
256,192,291157,1,2,0:0:0:0:
256,192,291244,1,0,0:0:0:0:
256,192,291416,1,0,0:0:0:0:
256,192,291588,1,2,0:0:0:0:
256,192,291761,1,2,0:0:0:0:
256,192,291847,1,2,0:0:0:0:
256,192,291933,1,0,0:0:0:0:
256,192,292019,1,2,0:0:0:0:
256,192,292106,1,0,0:0:0:0:
256,192,292192,1,0,0:0:0:0:
256,192,292278,1,2,0:0:0:0:
256,192,292450,1,0,0:0:0:0:
256,192,292623,1,2,0:0:0:0:
256,192,292795,1,0,0:0:0:0:
256,192,292881,1,0,0:0:0:0:
256,192,292968,1,2,0:0:0:0:
256,192,293054,1,0,0:0:0:0:
256,192,293140,1,2,0:0:0:0:
256,192,293313,1,0,0:0:0:0:
256,192,293485,1,0,0:0:0:0:
256,192,293571,1,0,0:0:0:0:
256,192,293657,1,2,0:0:0:0:
256,192,293744,1,0,0:0:0:0:
256,192,293830,1,2,0:0:0:0:
256,192,293916,1,2,0:0:0:0:
256,192,294002,1,0,0:0:0:0:
256,192,294175,1,0,0:0:0:0:
256,192,294261,1,0,0:0:0:0:
256,192,294347,1,2,0:0:0:0:
256,192,294519,1,2,0:0:0:0:
256,192,294692,1,0,0:0:0:0:
256,192,294778,1,2,0:0:0:0:
256,192,294864,1,0,0:0:0:0:
256,192,295037,1,2,0:0:0:0:
256,192,295123,1,2,0:0:0:0:
256,192,295209,1,2,0:0:0:0:
256,192,295295,1,0,0:0:0:0:
256,192,295381,1,2,0:0:0:0:
256,192,295468,1,2,0:0:0:0:
256,192,295554,1,0,0:0:0:0:
256,192,295640,1,0,0:0:0:0:
256,192,295726,1,2,0:0:0:0:
256,192,295784,1,2,0:0:0:0:
256,192,295841,1,2,0:0:0:0:
256,192,295899,1,0,0:0:0:0:
256,192,296071,1,0,0:0:0:0:
256,192,296416,1,2,0:0:0:0:
256,192,296588,1,0,0:0:0:0:
256,192,296675,1,2,0:0:0:0:
256,192,296761,1,0,0:0:0:0:
256,192,296933,1,0,0:0:0:0:
256,192,297106,1,2,0:0:0:0:
256,192,297278,1,0,0:0:0:0:
256,192,297364,1,2,0:0:0:0:
256,192,297450,1,0,0:0:0:0:
256,192,297537,1,2,0:0:0:0:
256,192,297623,1,0,0:0:0:0:
256,192,297709,1,0,0:0:0:0:
256,192,297795,1,2,0:0:0:0:
256,192,297968,1,0,0:0:0:0:
256,192,298140,1,2,0:0:0:0:
256,192,298313,1,0,0:0:0:0:
256,192,298399,1,0,0:0:0:0:
256,192,298485,1,2,0:0:0:0:
256,192,298571,1,2,0:0:0:0:
256,192,298657,1,0,0:0:0:0:
256,192,298830,1,0,0:0:0:0:
256,192,299002,1,0,0:0:0:0:
256,192,299088,1,0,0:0:0:0:
256,192,299175,1,2,0:0:0:0:
256,192,299232,1,2,0:0:0:0:
256,192,299290,1,2,0:0:0:0:
256,192,299347,1,0,0:0:0:0:
256,192,299433,1,0,0:0:0:0:
256,192,299519,1,2,0:0:0:0:
256,192,299563,1,0,0:0:0:0:
256,192,299692,1,2,0:0:0:0:
256,192,299735,1,0,0:0:0:0:
256,192,299864,1,2,0:0:0:0:
256,192,299950,1,0,0:0:0:0:
256,192,300037,1,2,0:0:0:0:
256,192,300209,1,2,0:0:0:0:
256,192,300381,1,0,0:0:0:0:
256,192,300554,1,0,0:0:0:0:
256,192,300611,1,2,0:0:0:0:
256,192,300669,1,2,0:0:0:0:
256,192,300726,1,0,0:0:0:0:
256,192,300899,1,2,0:0:0:0:
256,192,300956,1,2,0:0:0:0:
256,192,301014,1,2,0:0:0:0:
256,192,301071,1,0,0:0:0:0:
256,192,301157,1,2,0:0:0:0:
256,192,301244,1,0,0:0:0:0:
256,192,301330,1,0,0:0:0:0:
256,192,301416,1,2,0:0:0:0:
256,192,301502,1,2,0:0:0:0:
256,192,301588,1,0,0:0:0:0:
256,192,301933,1,2,0:0:0:0:
256,192,302105,1,2,0:0:0:0:
256,192,302191,1,2,0:0:0:0:
256,192,302278,1,0,0:0:0:0:
256,192,302450,1,0,0:0:0:0:
256,192,302622,1,2,0:0:0:0:
256,192,302795,1,2,0:0:0:0:
256,192,302881,1,2,0:0:0:0:
256,192,302967,1,0,0:0:0:0:
256,192,303053,1,2,0:0:0:0:
256,192,303140,1,0,0:0:0:0:
256,192,303226,1,0,0:0:0:0:
256,192,303312,1,2,0:0:0:0:
256,192,303484,1,0,0:0:0:0:
256,192,303657,1,2,0:0:0:0:
256,192,303829,1,0,0:0:0:0:
256,192,303915,1,2,0:0:0:0:
256,192,304002,1,2,0:0:0:0:
256,192,304088,1,0,0:0:0:0:
256,192,304174,1,2,0:0:0:0:
256,192,304347,1,0,0:0:0:0:
256,192,304519,1,0,0:0:0:0:
256,192,304606,1,0,0:0:0:0:
256,192,304692,1,2,0:0:0:0:
256,192,304778,1,2,0:0:0:0:
256,192,304864,1,0,0:0:0:0:
256,192,304950,1,0,0:0:0:0:
256,192,305037,1,2,0:0:0:0:
256,192,305123,1,0,0:0:0:0:
256,192,305209,1,2,0:0:0:0:
256,192,305295,1,2,0:0:0:0:
256,192,305381,1,2,0:0:0:0:
256,192,305554,1,2,0:0:0:0:
256,192,305726,1,0,0:0:0:0:
256,192,305813,1,2,0:0:0:0:
256,192,305899,1,0,0:0:0:0:
256,192,306071,1,2,0:0:0:0:
256,192,306157,1,2,0:0:0:0:
256,192,306244,1,0,0:0:0:0:
256,192,306330,1,0,0:0:0:0:
256,192,306416,1,2,0:0:0:0:
256,192,306502,1,0,0:0:0:0:
256,192,306588,1,0,0:0:0:0:
256,192,306675,1,0,0:0:0:0:
256,192,306761,1,2,0:0:0:0:
256,192,306818,1,0,0:0:0:0:
256,192,306876,1,2,0:0:0:0:
256,192,306933,1,2,0:0:0:0:
256,192,306991,1,0,0:0:0:0:
256,192,307048,1,0,0:0:0:0:
256,192,307106,1,2,0:0:0:0:
256,192,307450,1,6,0:0:0:0:
256,192,307622,1,0,0:0:0:0:
256,192,307709,1,2,0:0:0:0:
256,192,307795,1,0,0:0:0:0:
256,192,307967,1,0,0:0:0:0:
256,192,308140,1,2,0:0:0:0:
256,192,308312,1,0,0:0:0:0:
256,192,308398,1,2,0:0:0:0:
256,192,308484,1,0,0:0:0:0:
256,192,308571,1,2,0:0:0:0:
256,192,308657,1,0,0:0:0:0:
256,192,308743,1,0,0:0:0:0:
256,192,308829,1,2,0:0:0:0:
256,192,309002,1,0,0:0:0:0:
256,192,309175,1,0,0:0:0:0:
256,192,309232,1,2,0:0:0:0:
256,192,309290,1,2,0:0:0:0:
256,192,309347,1,0,0:0:0:0:
256,192,309433,1,0,0:0:0:0:
256,192,309519,1,2,0:0:0:0:
256,192,309606,1,0,0:0:0:0:
256,192,309691,1,0,0:0:0:0:
256,192,309864,1,0,0:0:0:0:
256,192,310037,1,0,0:0:0:0:
256,192,310123,1,0,0:0:0:0:
256,192,310209,1,2,0:0:0:0:
256,192,310267,1,2,0:0:0:0:
256,192,310324,1,2,0:0:0:0:
256,192,310381,1,0,0:0:0:0:
256,192,310468,1,0,0:0:0:0:
288,160,310554,1,2,0:0:0:0:
247,181,310640,1,0,0:0:0:0:
256,185,310726,1,0,0:0:0:0:
256,192,310899,1,2,0:0:0:0:
256,192,311071,1,2,0:0:0:0:
256,192,311157,1,2,0:0:0:0:
256,192,311244,1,0,0:0:0:0:
256,192,311416,1,0,0:0:0:0:
256,192,311588,1,2,0:0:0:0:
256,192,311761,1,0,0:0:0:0:
256,192,311933,1,2,0:0:0:0:
256,192,312106,12,0,312450,0:0:0:0:
256,192,312623,5,4,0:0:0:0:
256,192,312881,1,2,0:0:0:0:
256,192,312968,1,2,0:0:0:0:
256,192,313054,1,0,0:0:0:0:
256,192,313140,1,0,0:0:0:0:
256,192,313313,1,2,0:0:0:0:
256,192,313399,1,2,0:0:0:0:
256,192,313485,1,2,0:0:0:0:
256,192,313571,1,0,0:0:0:0:
256,192,313657,1,2,0:0:0:0:
256,192,313744,1,0,0:0:0:0:
256,192,313830,1,0,0:0:0:0:
256,192,313916,1,2,0:0:0:0:
256,192,314002,1,2,0:0:0:0:
256,192,314088,1,0,0:0:0:0:
256,192,314175,1,2,0:0:0:0:
256,192,314261,1,0,0:0:0:0:
256,192,314347,1,0,0:0:0:0:
256,192,314433,1,2,0:0:0:0:
256,192,314519,1,2,0:0:0:0:
256,192,314606,1,0,0:0:0:0:
256,192,314692,1,2,0:0:0:0:
256,192,314950,1,0,0:0:0:0:
256,192,315037,1,2,0:0:0:0:
256,192,315209,1,2,0:0:0:0:
256,192,315295,1,2,0:0:0:0:
256,192,315381,1,0,0:0:0:0:
256,192,315468,1,2,0:0:0:0:
256,192,315554,1,0,0:0:0:0:
256,192,315611,1,0,0:0:0:0:
256,192,315669,1,0,0:0:0:0:
256,192,315726,1,2,0:0:0:0:
256,192,316071,1,4,0:0:0:0:
256,192,316244,1,0,0:0:0:0:
256,192,316330,1,0,0:0:0:0:
256,192,316416,1,2,0:0:0:0:
256,192,316502,1,0,0:0:0:0:
256,192,316588,1,2,0:0:0:0:
256,192,316675,1,2,0:0:0:0:
256,192,316761,1,0,0:0:0:0:
256,192,316847,1,0,0:0:0:0:
256,192,317019,1,0,0:0:0:0:
256,192,317106,1,2,0:0:0:0:
256,192,317278,1,0,0:0:0:0:
256,192,317364,1,0,0:0:0:0:
256,192,317450,1,2,0:0:0:0:
256,192,317537,1,2,0:0:0:0:
256,192,317623,1,0,0:0:0:0:
256,192,317709,1,0,0:0:0:0:
256,192,317795,1,2,0:0:0:0:
256,192,317968,1,0,0:0:0:0:
256,192,318140,1,4,0:0:0:0:
256,192,318399,1,0,0:0:0:0:
256,192,318485,1,2,0:0:0:0:
256,192,318571,1,0,0:0:0:0:
256,192,318657,1,0,0:0:0:0:
256,192,318830,1,2,0:0:0:0:
256,192,318916,1,2,0:0:0:0:
256,192,319002,1,2,0:0:0:0:
256,192,319088,1,0,0:0:0:0:
256,192,319175,1,2,0:0:0:0:
256,192,319261,1,0,0:0:0:0:
256,192,319347,1,0,0:0:0:0:
256,192,319433,1,2,0:0:0:0:
256,192,319519,1,2,0:0:0:0:
256,192,319606,1,0,0:0:0:0:
256,192,319692,1,2,0:0:0:0:
256,192,319778,1,0,0:0:0:0:
256,192,319864,1,0,0:0:0:0:
256,192,319950,1,2,0:0:0:0:
256,192,320037,1,2,0:0:0:0:
256,192,320123,1,0,0:0:0:0:
256,192,320209,1,2,0:0:0:0:
256,192,320468,1,0,0:0:0:0:
256,192,320554,1,2,0:0:0:0:
256,192,320726,1,2,0:0:0:0:
256,192,320813,1,2,0:0:0:0:
256,192,320899,1,0,0:0:0:0:
256,192,321244,1,0,0:0:0:0:
256,192,321416,1,0,0:0:0:0:
256,192,321502,1,0,0:0:0:0:
256,192,321588,1,2,0:0:0:0:
256,192,321761,1,0,0:0:0:0:
256,192,321847,1,2,0:0:0:0:
256,192,321933,1,2,0:0:0:0:
256,192,321991,1,0,0:0:0:0:
256,192,322048,1,0,0:0:0:0:
256,192,322106,1,2,0:0:0:0:
256,192,322278,1,2,0:0:0:0:
256,192,322450,1,0,0:0:0:0:
256,192,322537,1,0,0:0:0:0:
256,192,322623,1,0,0:0:0:0:
256,192,322795,1,2,0:0:0:0:
256,192,322968,1,0,0:0:0:0:
256,192,323054,1,2,0:0:0:0:
256,192,323140,1,0,0:0:0:0:
256,192,323226,1,0,0:0:0:0:
256,192,323313,1,2,0:0:0:0:
256,192,323399,1,2,0:0:0:0:
256,192,323485,1,0,0:0:0:0:
256,192,323571,1,0,0:0:0:0:
256,192,323657,1,0,0:0:0:0:
256,192,323916,1,0,0:0:0:0:
256,192,324002,1,0,0:0:0:0:
256,192,324060,1,0,0:0:0:0:
256,192,324117,1,0,0:0:0:0:
256,192,324175,1,2,0:0:0:0:
256,192,324347,1,2,0:0:0:0:
256,192,324433,1,2,0:0:0:0:
256,192,324519,1,2,0:0:0:0:
256,192,324606,1,0,0:0:0:0:
256,192,324692,1,2,0:0:0:0:
256,192,324778,1,0,0:0:0:0:
256,192,324864,1,2,0:0:0:0:
256,192,324950,1,2,0:0:0:0:
256,192,325037,1,0,0:0:0:0:
256,192,325123,1,2,0:0:0:0:
256,192,325209,1,0,0:0:0:0:
256,192,325295,1,0,0:0:0:0:
256,192,325381,1,2,0:0:0:0:
256,192,325468,1,2,0:0:0:0:
256,192,325554,1,0,0:0:0:0:
256,192,325640,1,0,0:0:0:0:
256,192,325726,1,2,0:0:0:0:
256,192,325899,1,0,0:0:0:0:
256,192,326071,1,2,0:0:0:0:
256,192,326157,1,0,0:0:0:0:
256,192,326416,1,0,0:0:0:0:
256,192,326473,1,2,0:0:0:0:
256,192,326531,1,0,0:0:0:0:
256,192,326588,1,2,0:0:0:0:
288,192,326675,1,0,0:0:0:0:
256,192,326761,1,2,0:0:0:0:
256,192,326933,1,0,0:0:0:0:
256,192,327019,1,0,0:0:0:0:
256,192,327106,1,2,0:0:0:0:
256,192,327149,1,2,0:0:0:0:
256,192,327278,1,2,0:0:0:0:
256,192,327321,1,2,0:0:0:0:
256,192,327450,1,2,0:0:0:0:
256,192,327494,1,2,0:0:0:0:
256,192,327623,1,2,0:0:0:0:
256,192,327666,1,2,0:0:0:0:
256,192,327795,1,0,0:0:0:0:
256,192,328054,1,2,0:0:0:0:
256,192,328140,1,0,0:0:0:0:
256,192,328313,1,0,0:0:0:0:
256,192,328399,1,0,0:0:0:0:
256,192,328485,1,2,0:0:0:0:
256,192,328571,1,2,0:0:0:0:
256,192,328657,1,0,0:0:0:0:
256,192,328744,1,0,0:0:0:0:
256,192,328830,1,2,0:0:0:0:
256,192,329002,1,0,0:0:0:0:
256,192,329175,1,4,0:0:0:0:
256,192,329433,1,0,0:0:0:0:
256,192,329519,1,2,0:0:0:0:
256,192,329606,1,0,0:0:0:0:
256,192,329692,1,0,0:0:0:0:
256,192,329864,1,2,0:0:0:0:
256,192,329950,1,2,0:0:0:0:
256,192,330037,1,2,0:0:0:0:
256,192,330123,1,0,0:0:0:0:
256,192,330209,1,2,0:0:0:0:
256,192,330295,1,0,0:0:0:0:
256,192,330381,1,0,0:0:0:0:
256,192,330468,1,2,0:0:0:0:
256,192,330554,1,2,0:0:0:0:
256,192,330640,1,0,0:0:0:0:
256,192,330726,1,2,0:0:0:0:
256,192,330813,1,0,0:0:0:0:
256,192,330899,1,0,0:0:0:0:
256,192,330985,1,2,0:0:0:0:
256,192,331071,1,2,0:0:0:0:
256,192,331157,1,0,0:0:0:0:
256,192,331244,1,2,0:0:0:0:
256,192,331416,1,0,0:0:0:0:
256,192,331502,1,2,0:0:0:0:
256,192,331588,1,0,0:0:0:0:
256,192,331646,1,0,0:0:0:0:
256,192,331703,1,0,0:0:0:0:
256,192,331761,1,0,0:0:0:0:
256,192,331933,1,0,0:0:0:0:
256,192,332106,1,0,0:0:0:0:
256,192,332278,1,2,0:0:0:0:
256,192,332450,1,2,0:0:0:0:
256,192,332537,1,2,0:0:0:0:
256,192,332623,1,0,0:0:0:0:
256,192,332709,1,2,0:0:0:0:
256,192,332795,1,0,0:0:0:0:
256,192,332881,1,0,0:0:0:0:
256,192,332968,1,2,0:0:0:0:
256,192,333054,1,0,0:0:0:0:
256,192,333140,1,2,0:0:0:0:
256,192,333313,1,0,0:0:0:0:
256,192,333399,1,0,0:0:0:0:
256,192,333485,1,2,0:0:0:0:
256,192,333571,1,0,0:0:0:0:
256,192,333657,1,2,0:0:0:0:
256,192,333744,1,2,0:0:0:0:
256,192,333830,1,0,0:0:0:0:
256,192,333916,1,0,0:0:0:0:
256,192,334002,1,2,0:0:0:0:
256,192,334088,1,2,0:0:0:0:
256,192,334175,1,2,0:0:0:0:
256,192,334261,1,0,0:0:0:0:
256,192,334347,1,2,0:0:0:0:
256,192,334433,1,2,0:0:0:0:
256,192,334519,1,0,0:0:0:0:
256,192,334606,1,0,0:0:0:0:
256,192,334692,1,0,0:0:0:0:
