osu file format v14

[General]
AudioFilename: 12th-dan.mp3
AudioLeadIn: 0
PreviewTime: 90971
Countdown: 0
SampleSet: Normal
StackLeniency: 0.7
Mode: 1
LetterboxInBreaks: 0
WidescreenStoryboard: 1

[Editor]
Bookmarks: 228,121359,231447
DistanceSpacing: 0.5
BeatDivisor: 6
GridSize: 32
TimelineZoom: 1.8

[Metadata]
Title:osu!Taiko Dan-i Dojo (Part.3)
TitleUnicode:osu!Taiko 段位道場
Artist:Various Artists
ArtistUnicode:Various Artists
Creator:tasuke912
Version:12th Dan
Source:
Tags:danni dani doujou
BeatmapID:1905443
BeatmapSetID:912120

[Difficulty]
HPDrainRate:5
CircleSize:7.5
OverallDifficulty:5
ApproachRate:5.88
SliderMultiplier:1.4
SliderTickRate:1

[Events]
//Background and Video events
0,0,"bg_12.jpg",0,130
//Break Periods
2,226589,230247
//Storyboard Layer 0 (Background)
Sprite,Background,Centre,"bg_12.jpg",320,240 F,0,0,,0
Sprite,Background,Centre,"BG\12\1.jpg",320,0 S,0,-1272,,0.625 MY,0,-1272,,380 F,0,-1272,-772,0,1 F,0,119859,120359,1,0
Sprite,Background,Centre,"BG\12\2.jpg",320,0 S,0,119859,,0.625 MY,0,119859,,380 F,0,119859,120359,0,1 F,0,229947,230447,1,0
Sprite,Background,Centre,"BG\12\3.jpg",320,0 S,0,229947,,0.625 MY,0,229947,,380 F,0,229947,230447,0,1 F,0,363446,363946,1,0
//Storyboard Layer 1 (Fail)
//Storyboard Layer 2 (Pass)
//Storyboard Layer 3 (Foreground)
Sprite,Foreground,TopCentre,"BG\black.png",320,0 F,0,-1772,-1272,0,1 MY,0,-1272,,0 V,0,-1272,,3,3.2 F,0,364446,365446,1,0
Sprite,Foreground,Centre,"BG\stage.png",0,0 F,0,-1772,-1272,0,1 M,0,-1272,,680,105 V,0,-1272,,0.4,0.3 F,0,364446,365446,1,0
Sprite,Foreground,CentreLeft,"BG\stage.png",0,0 F,0,-1772,-1272,0,1 M,0,-1272,,270,272 V,0,-1272,,0.3,0.22 F,0,364446,365446,1,0
Sprite,Foreground,CentreLeft,"BG\stage.png",0,0 F,0,-1772,-1272,0,1 P,0,-1772,365446,H M,0,-1272,,420,272 V,0,-1272,,0.8,0.22 F,0,364446,365446,1,0
Sprite,Foreground,CentreLeft,"BG\line.png",0,0 C,0,-1272,,153,255,187 F,0,-772,,1 V,0,-772,119859,0,0.5,0.237,0.5 M,0,0,,597,122 P,0,0,,A F,0,118659,119859,1,0 C,0,119859,,255,12,93 F,0,120359,,1 V,0,120359,229947,0,0.5,0.237,0.5 F,0,228747,229947,1,0 C,0,229947,,255,223,191 F,0,230447,,1 V,0,230447,363446,0,0.5,0.237,0.5 F,0,362246,363446,1,0
Sprite,Foreground,TopLeft,"SB\fonts\0045.png",0,0 P,0,-272,119659,A F,0,474,1474,0,1 S,1,474,1474,0.6,0.4 MX,1,474,1474,484.6,415.6 MY,1,474,1474,202.2,264.2 F,0,118659,119659,1,0
Sprite,Foreground,TopLeft,"SB\fonts\0042.png",0,0 P,0,-272,119659,A F,0,508,1508,0,1 S,1,508,1508,0.6,0.4 MX,1,508,1508,532.8,426.8 MY,1,508,1508,310.2,264.2 F,0,118659,119659,1,0
Sprite,Foreground,TopLeft,"SB\fonts\0049.png",0,0 P,0,-272,119659,A F,0,543,1543,0,1 S,1,543,1543,0.6,0.4 MX,1,543,1543,270.4,438.4 MY,1,543,1543,506.2,264.2 F,0,118659,119659,1,0
Sprite,Foreground,TopLeft,"SB\fonts\004d.png",0,0 P,0,-272,119659,A F,0,562,1562,0,1 S,1,562,1562,0.6,0.4 MX,1,562,1562,723.8,444.8 MY,1,562,1562,188.2,264.2 F,0,118659,119659,1,0
Sprite,Foreground,TopLeft,"SB\fonts\0041.png",0,0 P,0,-272,119659,A F,0,608,1608,0,1 S,1,608,1608,0.6,0.4 MX,1,608,1608,217,460 MY,1,608,1608,289.2,264.2 F,0,118659,119659,1,0
Sprite,Foreground,TopLeft,"SB\fonts\0059.png",0,0 P,0,-272,119659,A F,0,647,1647,0,1 S,1,647,1647,0.6,0.4 MX,1,647,1647,410.2,473.2 MY,1,647,1647,492.2,264.2 F,0,118659,119659,1,0
Sprite,Foreground,TopLeft,"SB\fonts\004f.png",0,0 P,0,-272,119659,A F,0,678,1678,0,1 S,1,678,1678,0.6,0.4 MX,1,678,1678,226.6,483.6 MY,1,678,1678,389.2,264.2 F,0,118659,119659,1,0
Sprite,Foreground,TopLeft,"SB\fonts\002d.png",0,0 P,0,-272,119659,A F,0,726,1726,0,1 S,1,726,1726,0.6,0.4 MX,1,726,1726,207.6,499.6 MY,1,726,1726,186.4,271.4 F,0,118659,119659,1,0
Sprite,Foreground,TopLeft,"SB\fonts\0047.png",0,0 P,0,-272,119659,A F,0,760,1760,0,1 S,1,760,1760,0.6,0.4 MX,1,760,1760,292.8,510.8 MY,1,760,1760,165.2,264.2 F,0,118659,119659,1,0
Sprite,Foreground,TopLeft,"SB\fonts\004f.png",0,0 P,0,-272,119659,A F,0,795,1795,0,1 S,1,795,1795,0.6,0.4 MX,1,795,1795,234.4,522.4 MY,1,795,1795,302.2,264.2 F,0,118659,119659,1,0
Sprite,Foreground,TopLeft,"SB\fonts\004f.png",0,0 P,0,-272,119659,A F,0,831,1831,0,1 S,1,831,1831,0.6,0.4 MX,1,831,1831,823.4,534.4 MY,1,831,1831,172.2,264.2 F,0,118659,119659,1,0
Sprite,Foreground,TopLeft,"SB\fonts\0044.png",0,0 P,0,-272,119659,A F,0,864,1864,0,1 S,1,864,1864,0.6,0.4 MX,1,864,1864,600.6,545.6 MY,1,864,1864,293.2,264.2 F,0,118659,119659,1,0
Sprite,Foreground,TopLeft,"SB\fonts\0052.png",0,0 P,0,-272,119659,A F,0,903,1903,0,1 S,1,903,1903,0.6,0.4 MX,1,903,1903,833.4,558.4 MY,1,903,1903,288.2,264.2 F,0,118659,119659,1,0
Sprite,Foreground,TopLeft,"SB\fonts\0041.png",0,0 P,0,-272,119659,A F,0,936,1936,0,1 S,1,936,1936,0.6,0.4 MX,1,936,1936,338.5999,569.5999 MY,1,936,1936,410.2,264.2 F,0,118659,119659,1,0
Sprite,Foreground,TopLeft,"SB\fonts\0047.png",0,0 P,0,-272,119659,A F,0,975,1975,0,1 S,1,975,1975,0.6,0.4 MX,1,975,1975,299.3999,582.3999 MY,1,975,1975,402.2,264.2 F,0,118659,119659,1,0
Sprite,Foreground,TopLeft,"SB\fonts\0045.png",0,0 P,0,-272,119659,A F,0,1007,2007,0,1 S,1,1007,2007,0.6,0.4 MX,1,1007,2007,776.1999,593.1999 MY,1,1007,2007,340.2,264.2 F,0,118659,119659,1,0
Sprite,Foreground,Centre,"SB\1st.png",0,0 M,0,-272,,670,104 S,0,-272,,0.6 P,0,-272,,A F,0,-272,728,0,1 F,0,118659,119659,1,0
Sprite,Foreground,TopLeft,"SB\fonts\0069.png",0,0 P,0,120859,229747,A F,0,121749,122749,0,1 S,1,121749,122749,0.6,0.4 MX,1,121749,122749,732.6,463.6 MY,1,121749,122749,499.2,264.2 F,0,228747,229747,1,0
Sprite,Foreground,TopLeft,"SB\fonts\0072.png",0,0 P,0,120859,229747,A F,0,121766,122766,0,1 S,1,121766,122766,0.6,0.4 MX,1,121766,122766,542.2,469.2 MY,1,121766,122766,520.8,267.8 F,0,228747,229747,1,0
Sprite,Foreground,TopLeft,"SB\fonts\0065.png",0,0 P,0,120859,229747,A F,0,121790,122790,0,1 S,1,121790,122790,0.6,0.4 MX,1,121790,122790,196.2,477.2 MY,1,121790,122790,290.8,267.8 F,0,228747,229747,1,0
Sprite,Foreground,TopLeft,"SB\fonts\006a.png",0,0 P,0,120859,229747,A F,0,121814,122814,0,1 S,1,121814,122814,0.6,0.4 MX,1,121814,122814,345.2,485.2 MY,1,121814,122814,528.2,264.2 F,0,228747,229747,1,0
Sprite,Foreground,TopLeft,"SB\fonts\0069.png",0,0 P,0,120859,229747,A F,0,121832,122832,0,1 S,1,121832,122832,0.6,0.4 MX,1,121832,122832,550.2,491.2 MY,1,121832,122832,317.2,264.2 F,0,228747,229747,1,0
Sprite,Foreground,TopLeft,"SB\fonts\002d.png",0,0 P,0,120859,229747,A F,0,121862,122862,0,1 S,1,121862,122862,0.6,0.4 MX,1,121862,122862,451.2,501.2 MY,1,121862,122862,303.4,271.4 F,0,228747,229747,1,0
Sprite,Foreground,TopLeft,"SB\fonts\0059.png",0,0 P,0,120859,229747,A F,0,121897,122897,0,1 S,1,121897,122897,0.6,0.4 MX,1,121897,122897,665.8,512.8 MY,1,121897,122897,273.2,264.2 F,0,228747,229747,1,0
Sprite,Foreground,TopLeft,"SB\fonts\0041.png",0,0 P,0,120859,229747,A F,0,121925,122925,0,1 S,1,121925,122925,0.6,0.4 MX,1,121925,122925,398,522 MY,1,121925,122925,216.2,264.2 F,0,228747,229747,1,0
Sprite,Foreground,TopLeft,"SB\fonts\0054.png",0,0 P,0,120859,229747,A F,0,121964,122964,0,1 S,1,121964,122964,0.6,0.4 MX,1,121964,122964,459.2,535.2 MY,1,121964,122964,225.2,264.2 F,0,228747,229747,1,0
Sprite,Foreground,TopLeft,"SB\fonts\0041.png",0,0 P,0,120859,229747,A F,0,121993,122993,0,1 S,1,121993,122993,0.6,0.4 MX,1,121993,122993,646.8,544.8 MY,1,121993,122993,524.2,264.2 F,0,228747,229747,1,0
Sprite,Foreground,Centre,"SB\2nd.png",0,0 M,0,120859,,670,104 S,0,120859,,0.6 P,0,120859,,A F,0,120859,121859,0,1 F,0,228747,229747,1,0
Sprite,Foreground,TopLeft,"SB\fonts\006b.png",0,0 P,0,230947,363246,A F,0,231757,232757,0,1 S,1,231757,232757,0.6,0.4 MX,1,231757,232757,174.8,436.8 MY,1,231757,232757,190.4,263.4 F,0,362246,363246,1,0
Sprite,Foreground,TopLeft,"SB\fonts\0065.png",0,0 P,0,230947,363246,A F,0,231787,232787,0,1 S,1,231787,232787,0.6,0.4 MX,1,231787,232787,702.8,446.8 MY,1,231787,232787,405.8,267.8 F,0,362246,363246,1,0
Sprite,Foreground,TopLeft,"SB\fonts\006d.png",0,0 P,0,230947,363246,A F,0,231813,232813,0,1 S,1,231813,232813,0.6,0.4 MX,1,231813,232813,457.6,455.6 MY,1,231813,232813,309.8,267.8 F,0,362246,363246,1,0
Sprite,Foreground,TopLeft,"SB\fonts\0075.png",0,0 P,0,230947,363246,A F,0,231861,232861,0,1 S,1,231861,232861,0.6,0.4 MX,1,231861,232861,414.6,471.6 MY,1,231861,232861,531.8,267.8 F,0,362246,363246,1,0
Sprite,Foreground,TopLeft,"SB\fonts\002d.png",0,0 P,0,230947,363246,A F,0,231905,232905,0,1 S,1,231905,232905,0.6,0.4 MX,1,231905,232905,630,486 MY,1,231905,232905,310.4,271.4 F,0,362246,363246,1,0
Sprite,Foreground,TopLeft,"SB\fonts\004d.png",0,0 P,0,230947,363246,A F,0,231936,232936,0,1 S,1,231936,232936,0.6,0.4 MX,1,231936,232936,215.4,496.4 MY,1,231936,232936,363.2,264.2 F,0,362246,363246,1,0
Sprite,Foreground,TopLeft,"SB\fonts\0079.png",0,0 P,0,230947,363246,A F,0,231981,232981,0,1 S,1,231981,232981,0.6,0.4 MX,1,231981,232981,515.6,511.6 MY,1,231981,232981,548.8,267.8 F,0,362246,363246,1,0
Sprite,Foreground,TopLeft,"SB\fonts\0074.png",0,0 P,0,230947,363246,A F,0,232013,233013,0,1 S,1,232013,233013,0.6,0.4 MX,1,232013,233013,745.9999,521.9999 MY,1,232013,233013,258.4,265.4 F,0,362246,363246,1,0
Sprite,Foreground,TopLeft,"SB\fonts\0068.png",0,0 P,0,230947,363246,A F,0,232031,233031,0,1 S,1,232031,233031,0.6,0.4 MX,1,232031,233031,791.9999,527.9999 MY,1,232031,233031,215.4,263.4 F,0,362246,363246,1,0
Sprite,Foreground,TopLeft,"SB\fonts\006f.png",0,0 P,0,230947,363246,A F,0,232063,233063,0,1 S,1,232063,233063,0.6,0.4 MX,1,232063,233063,242.8,538.8 MY,1,232063,233063,498.8,267.8 F,0,362246,363246,1,0
Sprite,Foreground,TopLeft,"SB\fonts\006c.png",0,0 P,0,230947,363246,A F,0,232092,233092,0,1 S,1,232092,233092,0.6,0.4 MX,1,232092,233092,689.4,548.4 MY,1,232092,233092,207.4,263.4 F,0,362246,363246,1,0
Sprite,Foreground,TopLeft,"SB\fonts\006f.png",0,0 P,0,230947,363246,A F,0,232109,233109,0,1 S,1,232109,233109,0.6,0.4 MX,1,232109,233109,702,554 MY,1,232109,233109,406.8,267.8 F,0,362246,363246,1,0
Sprite,Foreground,TopLeft,"SB\fonts\0067.png",0,0 P,0,230947,363246,A F,0,232136,233136,0,1 S,1,232136,233136,0.6,0.4 MX,1,232136,233136,624.2,563.2 MY,1,232136,233136,271.8,267.8 F,0,362246,363246,1,0
Sprite,Foreground,TopLeft,"SB\fonts\0079.png",0,0 P,0,230947,363246,A F,0,232167,233167,0,1 S,1,232167,233167,0.6,0.4 MX,1,232167,233167,612.6,573.6 MY,1,232167,233167,441.8,267.8 F,0,362246,363246,1,0
Sprite,Foreground,Centre,"SB\3rd.png",0,0 M,0,230947,,670,104 S,0,230947,,0.6 P,0,230947,,A F,0,230947,231947,0,1 F,0,362246,363246,1,0
//Storyboard Layer 4 (Overlay)
//Storyboard Sound Samples

[TimingPoints]
228,270.27027027027,4,1,0,80,1,0
60903,-142.857142857143,4,1,0,40,0,0
62863,-125,4,1,0,50,0,0
63876,-125,4,1,0,60,0,0
64957,-111.111111111111,4,1,0,70,0,0
66309,-105.263157894737,4,1,0,75,0,0
67187,-100,4,1,0,80,0,0
69417,-100,4,1,0,80,0,1
78065,-100,4,1,0,80,0,0
91038,-90.9090909090909,4,1,0,90,0,1
108065,-90.9090909090909,4,1,0,90,0,0
108200,-100,4,1,0,80,0,0
116984,270.27027027027,20,1,0,80,1,0
121240,-100,20,1,0,40,0,0
121359,333.333333333333,4,1,0,65,1,0
140025,-100,4,1,0,50,0,0
142692,-50,4,1,0,50,0,0
143358,-100,4,1,0,80,0,0
156025,-111.111111111111,4,1,0,80,0,0
162692,-100,4,1,0,80,0,0
170804,-100,4,1,0,30,0,0
170895,361.44578313253,4,1,0,30,1,0
170895,-100,4,1,0,30,0,0
171076,487.80487804878,4,1,0,30,1,0
171076,-80,4,1,0,30,0,0
171197,800,4,1,0,30,1,0
171197,-52.6315789473684,4,1,0,30,0,0
171297,1333.33333333333,4,1,0,30,1,0
171297,-34.4827586206897,4,1,0,30,0,0
172630,759.493670886076,4,1,0,80,1,0
172819,487.80487804878,4,1,0,80,1,0
172940,357.142857142857,4,1,0,80,1,0
173029,333.333333333333,4,1,0,80,1,0
173362,340.909090909091,4,1,0,80,1,0
173447,348.837209302326,4,1,0,80,1,0
173534,357.142857142857,4,1,0,80,1,0
173623,363.636363636364,4,1,0,80,1,0
173713,382.165605095541,4,1,0,80,1,0
173808,392.156862745098,4,1,0,80,1,0
173906,400,4,1,0,80,1,0
174006,400,4,1,0,80,1,0
174106,410.958904109589,4,1,0,80,1,0
174208,434.782608695652,4,1,0,80,1,0
174316,444.444444444444,4,1,0,80,1,0
174427,458.015267175573,4,1,0,80,1,0
174541,472.44094488189,4,1,0,80,1,0
174659,500,4,1,0,80,1,0
175034,-83.3333333333333,4,1,0,80,0,0
175578,500,4,1,0,80,1,0
176578,-79.3650793650794,4,1,0,80,0,0
176661,-78.125,4,1,0,80,0,0
176744,-76.9230769230769,4,1,0,80,0,0
176828,-75.7575757575758,4,1,0,80,0,0
176912,-74.6268656716418,4,1,0,80,0,0
176995,-73.5294117647059,4,1,0,80,0,0
177078,500,4,1,0,80,1,0
177078,-72.463768115942,4,1,0,80,0,0
177328,-71.4285714285714,4,1,0,80,0,0
191579,492.206726825267,4,1,0,80,1,8
192071,484.261501210654,4,1,0,80,1,0
192555,476.947535771065,4,1,0,80,1,0
193032,469.851213782302,4,1,0,80,1,0
193501,462.60601387818,4,1,0,80,1,0
193963,455.927051671733,4,1,0,80,1,0
194418,449.438202247191,4,1,0,80,1,0
194868,442.80442804428,4,1,0,80,1,0
195310,436.681222707424,4,1,0,80,1,0
195746,430.416068866571,4,1,0,80,1,0
196176,424.628450106157,4,1,0,80,1,0
196601,418.994413407821,4,1,0,80,1,0
197019,413.223140495868,4,1,0,80,1,0
197432,407.885791978246,4,1,0,80,1,0
197839,402.684563758389,4,1,0,80,1,0
198242,397.350993377483,4,1,0,80,1,0
198639,392.41334205363,4,1,0,80,1,0
199031,387.596899224806,4,1,0,80,1,0
199418,382.65306122449,4,1,0,80,1,0
199801,378.071833648393,4,1,0,80,1,0
200179,373.59900373599,4,1,0,80,1,0
200552,369.0036900369,4,1,0,80,1,0
200921,364.741641337386,4,1,0,80,1,0
201286,360.36036036036,4,1,0,80,1,0
201646,356.294536817102,4,1,0,80,1,0
202002,352.319436288902,4,1,0,80,1,0
202354,348.229831688915,4,1,0,80,1,0
202703,344.43168771527,4,1,0,80,1,0
203047,340.715502555366,4,1,0,80,1,0
203387,336.889387984279,4,1,0,80,1,0
203724,333.333333333333,4,1,0,80,1,0
203974,-117.647058823529,4,1,0,30,0,0
204057,333.333333333333,4,1,0,30,1,0
204057,-117.647058823529,4,1,0,30,0,0
205390,333.333333333333,4,1,0,80,1,1
205390,-100,4,1,0,80,0,1
215389,-100,4,1,0,80,0,0
216056,-100,4,1,0,80,0,1
220389,-100,4,1,0,80,0,0
221389,-100,4,1,0,80,0,1
221472,-95.2380952380952,4,1,0,80,0,1
226389,-95.2380952380952,4,1,0,80,0,0
226723,333.333333333333,20,1,0,40,1,0
226723,-100,20,1,0,40,0,0
231447,222.222222222222,5,1,0,60,1,0
231447,-200,5,1,0,60,0,0
239224,-166.666666666667,5,1,0,70,0,0
239521,-156.25,5,1,0,70,0,0
239891,-144.927536231884,5,1,0,70,0,0
239965,-142.857142857143,5,1,0,70,0,0
240039,-140.845070422535,5,1,0,70,0,0
240113,-138.888888888889,5,1,0,70,0,0
240187,-136.986301369863,5,1,0,70,0,0
240261,-135.135135135135,5,1,0,70,0,0
240335,-133.333333333333,5,1,0,90,0,0
258558,-150.15015015015,5,1,0,90,0,0
262558,-133.333333333333,5,1,0,90,0,0
267113,-150.15015015015,5,1,0,70,0,0
275891,-133.333333333333,5,1,0,90,0,1
287002,-133.333333333333,5,1,0,90,0,0
287113,-300.000030000003,5,1,0,50,0,0
291391,-300.000030000003,5,1,0,70,0,0
300335,-300.000030000003,5,1,0,80,0,1
309224,-300.000030000003,5,1,0,80,0,1
318113,-200,5,1,0,70,0,0
333780,-190.47619047619,5,1,0,70,0,0
333891,-181.818181818182,5,1,0,70,0,0
334002,-173.913043478261,5,1,0,70,0,0
334113,-166.666666666667,5,1,0,70,0,0
334224,-160,5,1,0,70,0,0
334335,-153.846153846154,5,1,0,70,0,0
334446,-148.148148148148,5,1,0,70,0,0
334558,-142.857142857143,5,1,0,70,0,0
334669,-137.931034482759,5,1,0,70,0,0
334780,-133.333333333333,5,1,0,80,0,0
335113,-121.212121212121,5,1,0,80,0,0
335446,-111.111111111111,5,1,0,80,0,0
335558,-108.108108108108,5,1,0,80,0,0
335669,-105.263157894737,5,1,0,80,0,0
335780,-102.564102564103,5,1,0,80,0,0
335891,-100,5,1,0,90,0,1
362558,-100,5,1,0,90,0,0

[HitObjects]
256,192,228,5,0,0:0:0:0:
256,192,498,1,8,0:0:0:0:
256,192,768,1,8,0:0:0:0:
256,192,903,1,8,0:0:0:0:
256,192,1038,1,0,0:0:0:0:
256,192,1309,1,4,0:0:0:0:
256,192,1714,1,4,0:0:0:0:
256,192,1984,1,8,0:0:0:0:
256,192,2119,1,8,0:0:0:0:
256,192,2255,1,8,0:0:0:0:
256,192,2390,1,0,0:0:0:0:
288,192,2660,1,8,0:0:0:0:
256,192,2930,1,8,0:0:0:0:
288,192,3065,1,8,0:0:0:0:
288,192,3200,1,0,0:0:0:0:
256,192,3471,1,4,0:0:0:0:
256,192,3876,1,4,0:0:0:0:
256,192,4146,1,12,0:0:0:0:
224,192,4417,1,8,0:0:0:0:
256,192,4552,1,0,0:0:0:0:
224,192,4822,1,8,0:0:0:0:
256,192,5092,1,8,0:0:0:0:
224,192,5227,1,8,0:0:0:0:
224,192,5363,1,0,0:0:0:0:
256,192,5633,1,4,0:0:0:0:
256,192,6038,1,4,0:0:0:0:
256,192,6309,1,8,0:0:0:0:
256,192,6444,1,8,0:0:0:0:
256,192,6579,1,8,0:0:0:0:
256,192,6714,1,0,0:0:0:0:
288,192,6984,1,8,0:0:0:0:
256,192,7255,1,0,0:0:0:0:
256,224,7390,1,0,0:0:0:0:
256,224,7525,1,8,0:0:0:0:
256,192,7795,1,0,0:0:0:0:
256,192,7930,1,0,0:0:0:0:
256,192,8065,1,8,0:0:0:0:
256,192,8200,1,8,0:0:0:0:
256,192,8336,1,0,0:0:0:0:
256,192,8403,1,0,0:0:0:0:
256,192,8471,1,8,0:0:0:0:
256,192,8606,1,8,0:0:0:0:
256,192,8741,1,8,0:0:0:0:
256,192,8876,1,4,0:0:0:0:
256,192,9146,1,8,0:0:0:0:
224,192,9417,1,8,0:0:0:0:
224,192,9484,1,8,0:0:0:0:
224,192,9552,1,0,0:0:0:0:
224,192,9619,1,0,0:0:0:0:
224,192,9687,1,0,0:0:0:0:
224,192,9822,1,8,0:0:0:0:
224,192,9957,1,4,0:0:0:0:
224,192,10227,1,8,0:0:0:0:
224,192,10363,1,4,0:0:0:0:
224,192,10633,1,8,0:0:0:0:
224,192,10768,1,8,0:0:0:0:
224,192,10903,1,8,0:0:0:0:
224,192,11038,1,0,0:0:0:0:
224,192,11309,1,8,0:0:0:0:
224,192,11579,1,8,0:0:0:0:
224,192,11646,1,8,0:0:0:0:
224,192,11714,1,8,0:0:0:0:
224,192,11782,1,0,0:0:0:0:
224,192,11849,1,0,0:0:0:0:
224,192,11984,1,8,0:0:0:0:
224,192,12119,1,4,0:0:0:0:
224,192,12390,1,8,0:0:0:0:
224,192,12525,1,4,0:0:0:0:
224,192,12795,1,12,0:0:0:0:
224,224,13065,1,8,0:0:0:0:
224,224,13200,1,0,0:0:0:0:
224,224,13471,1,8,0:0:0:0:
224,224,13741,1,8,0:0:0:0:
224,224,13809,1,8,0:0:0:0:
224,224,13876,1,8,0:0:0:0:
224,224,13944,1,8,0:0:0:0:
224,224,14011,1,0,0:0:0:0:
224,224,14146,1,8,0:0:0:0:
224,192,14282,1,0,0:0:0:0:
224,192,14552,1,8,0:0:0:0:
224,192,14687,1,4,0:0:0:0:
224,192,14957,1,8,0:0:0:0:
256,192,15092,1,0,0:0:0:0:
224,160,15227,1,8,0:0:0:0:
256,192,15295,1,8,0:0:0:0:
256,192,15363,1,0,0:0:0:0:
224,160,15633,1,8,0:0:0:0:
256,160,15903,1,0,0:0:0:0:
256,160,16173,1,8,0:0:0:0:
256,160,16444,1,0,0:0:0:0:
256,160,16579,1,0,0:0:0:0:
256,160,16714,1,8,0:0:0:0:
256,160,16849,1,8,0:0:0:0:
256,160,16984,1,0,0:0:0:0:
256,160,17052,1,0,0:0:0:0:
256,160,17119,1,0,0:0:0:0:
256,160,17187,1,0,0:0:0:0:
256,160,17255,1,8,0:0:0:0:
256,160,17525,1,4,0:0:0:0:
256,160,17660,1,8,0:0:0:0:
256,160,17795,1,0,0:0:0:0:
256,160,17930,1,8,0:0:0:0:
256,160,17998,1,8,0:0:0:0:
256,160,18065,1,0,0:0:0:0:
256,160,18200,1,0,0:0:0:0:
256,192,18268,1,0,0:0:0:0:
256,192,18336,1,8,0:0:0:0:
288,192,18471,1,8,0:0:0:0:
288,192,18606,1,0,0:0:0:0:
288,192,18741,1,8,0:0:0:0:
288,192,18809,1,8,0:0:0:0:
288,192,18876,1,0,0:0:0:0:
288,192,19011,1,0,0:0:0:0:
288,192,19079,1,8,0:0:0:0:
288,192,19146,1,0,0:0:0:0:
288,192,19282,1,0,0:0:0:0:
288,192,19417,1,8,0:0:0:0:
288,192,19552,1,8,0:0:0:0:
288,192,19687,1,0,0:0:0:0:
288,192,19822,1,8,0:0:0:0:
288,192,19957,1,0,0:0:0:0:
288,192,20092,1,8,0:0:0:0:
288,192,20160,1,8,0:0:0:0:
288,192,20227,1,0,0:0:0:0:
288,192,20363,1,0,0:0:0:0:
288,192,20430,1,0,0:0:0:0:
288,192,20498,1,8,0:0:0:0:
288,192,20633,1,8,0:0:0:0:
288,224,20768,1,0,0:0:0:0:
288,224,20903,1,8,0:0:0:0:
288,224,20971,1,8,0:0:0:0:
288,224,21038,1,0,0:0:0:0:
288,224,21173,1,0,0:0:0:0:
288,224,21241,1,8,0:0:0:0:
288,224,21309,1,0,0:0:0:0:
288,224,21444,1,0,0:0:0:0:
288,224,21579,1,8,0:0:0:0:
288,224,21849,1,4,0:0:0:0:
288,224,21984,1,8,0:0:0:0:
288,224,22119,1,8,0:0:0:0:
288,224,22255,1,8,0:0:0:0:
288,224,22390,1,0,0:0:0:0:
288,224,22525,1,0,0:0:0:0:
288,224,22660,1,8,0:0:0:0:
288,224,22795,1,8,0:0:0:0:
320,224,22930,1,0,0:0:0:0:
320,224,23065,1,8,0:0:0:0:
320,224,23200,1,0,0:0:0:0:
320,224,23336,1,0,0:0:0:0:
320,224,23471,1,8,0:0:0:0:
320,224,23606,1,0,0:0:0:0:
320,224,23741,1,8,0:0:0:0:
320,224,23876,1,8,0:0:0:0:
320,224,24011,1,0,0:0:0:0:
320,224,24079,1,0,0:0:0:0:
320,224,24146,1,0,0:0:0:0:
320,224,24214,1,0,0:0:0:0:
320,224,24282,1,8,0:0:0:0:
320,224,24349,1,8,0:0:0:0:
320,224,24417,1,8,0:0:0:0:
320,224,24484,1,8,0:0:0:0:
320,224,24552,1,0,0:0:0:0:
320,224,24619,1,8,0:0:0:0:
320,224,24687,1,0,0:0:0:0:
320,224,24755,1,0,0:0:0:0:
320,224,24822,1,8,0:0:0:0:
320,224,24890,1,8,0:0:0:0:
320,224,24957,1,8,0:0:0:0:
320,224,25025,1,8,0:0:0:0:
320,224,25092,1,0,0:0:0:0:
352,224,25273,1,8,0:0:0:0:
352,224,25363,1,0,0:0:0:0:
352,224,25543,1,8,0:0:0:0:
352,224,25633,1,0,0:0:0:0:
352,224,25723,1,0,0:0:0:0:
352,224,25813,1,0,0:0:0:0:
352,224,25903,1,8,0:0:0:0:
352,224,26173,1,4,0:0:0:0:
288,256,26444,1,8,0:0:0:0:
288,256,26579,1,0,0:0:0:0:
288,256,26714,1,8,0:0:0:0:
288,256,26782,1,8,0:0:0:0:
288,256,26849,1,8,0:0:0:0:
288,256,26984,1,8,0:0:0:0:
288,256,27119,1,8,0:0:0:0:
288,256,27255,1,0,0:0:0:0:
288,256,27525,1,8,0:0:0:0:
288,256,27660,1,0,0:0:0:0:
288,256,27930,1,8,0:0:0:0:
288,192,28065,1,8,0:0:0:0:
288,224,28200,1,8,0:0:0:0:
288,224,28336,1,0,0:0:0:0:
288,224,28403,1,0,0:0:0:0:
288,224,28471,1,0,0:0:0:0:
288,224,28606,1,8,0:0:0:0:
288,224,28741,1,0,0:0:0:0:
288,224,28876,1,8,0:0:0:0:
288,224,29011,1,8,0:0:0:0:
288,224,29146,1,8,0:0:0:0:
288,224,29282,1,8,0:0:0:0:
288,224,29417,1,0,0:0:0:0:
288,224,29552,1,0,0:0:0:0:
288,224,29619,1,0,0:0:0:0:
288,224,29687,1,8,0:0:0:0:
288,224,29822,1,0,0:0:0:0:
288,224,29957,1,8,0:0:0:0:
288,224,30092,1,0,0:0:0:0:
288,224,30227,1,8,0:0:0:0:
288,224,30498,1,4,0:0:0:0:
288,224,30768,1,8,0:0:0:0:
288,224,30903,1,0,0:0:0:0:
288,224,31038,1,8,0:0:0:0:
288,224,31106,1,8,0:0:0:0:
288,224,31173,1,8,0:0:0:0:
288,224,31309,1,8,0:0:0:0:
288,224,31444,1,8,0:0:0:0:
288,224,31579,1,0,0:0:0:0:
288,224,31849,1,8,0:0:0:0:
288,224,31984,1,0,0:0:0:0:
288,224,32119,1,8,0:0:0:0:
288,224,32255,1,8,0:0:0:0:
288,224,32390,1,0,0:0:0:0:
288,224,32660,1,8,0:0:0:0:
288,224,32795,1,0,0:0:0:0:
288,224,32930,1,0,0:0:0:0:
288,224,33065,1,8,0:0:0:0:
288,224,33200,1,0,0:0:0:0:
288,224,33336,1,0,0:0:0:0:
288,224,33471,1,8,0:0:0:0:
288,224,33606,1,0,0:0:0:0:
288,224,33741,1,8,0:0:0:0:
288,224,33876,1,8,0:0:0:0:
288,224,34011,1,0,0:0:0:0:
288,224,34146,1,0,0:0:0:0:
288,224,34282,1,8,0:0:0:0:
288,224,34417,1,8,0:0:0:0:
288,224,34552,1,0,0:0:0:0:
288,224,34687,1,8,0:0:0:0:
288,224,34822,1,4,0:0:0:0:
256,192,35092,1,8,0:0:0:0:
256,192,35227,1,0,0:0:0:0:
256,192,35363,1,8,0:0:0:0:
256,192,35430,1,8,0:0:0:0:
256,192,35498,1,8,0:0:0:0:
256,192,35633,1,8,0:0:0:0:
256,192,35768,1,8,0:0:0:0:
256,192,35903,1,0,0:0:0:0:
256,192,36173,1,8,0:0:0:0:
256,192,36309,1,0,0:0:0:0:
256,192,36444,1,0,0:0:0:0:
256,192,36579,1,8,0:0:0:0:
256,192,36714,1,8,0:0:0:0:
256,192,36849,1,8,0:0:0:0:
256,192,36984,1,0,0:0:0:0:
256,192,37052,1,0,0:0:0:0:
256,192,37119,1,0,0:0:0:0:
256,192,37255,1,0,0:0:0:0:
256,192,37390,1,8,0:0:0:0:
256,192,37525,1,0,0:0:0:0:
256,192,37592,1,0,0:0:0:0:
256,192,37660,1,8,0:0:0:0:
256,192,37795,1,8,0:0:0:0:
256,192,37930,1,0,0:0:0:0:
256,192,38065,1,8,0:0:0:0:
256,192,38200,1,8,0:0:0:0:
256,192,38268,1,8,0:0:0:0:
256,192,38336,1,8,0:0:0:0:
256,192,38471,1,0,0:0:0:0:
256,192,38606,1,8,0:0:0:0:
256,192,38741,1,0,0:0:0:0:
256,192,38876,1,8,0:0:0:0:
256,192,39011,1,0,0:0:0:0:
256,192,39079,1,0,0:0:0:0:
256,192,39146,1,0,0:0:0:0:
256,192,39417,1,8,0:0:0:0:
256,192,39552,1,0,0:0:0:0:
256,192,39687,1,8,0:0:0:0:
256,192,39755,1,8,0:0:0:0:
256,192,39822,1,8,0:0:0:0:
256,192,39957,1,8,0:0:0:0:
256,192,40092,1,8,0:0:0:0:
256,192,40227,1,0,0:0:0:0:
256,192,40498,1,8,0:0:0:0:
256,192,40633,1,8,0:0:0:0:
256,192,40768,1,0,0:0:0:0:
256,192,40903,1,0,0:0:0:0:
256,192,40971,1,0,0:0:0:0:
256,192,41038,1,8,0:0:0:0:
256,192,41173,1,8,0:0:0:0:
256,192,41309,1,0,0:0:0:0:
256,160,41444,1,0,0:0:0:0:
256,160,41579,1,8,0:0:0:0:
288,160,41714,1,8,0:0:0:0:
288,160,41782,1,8,0:0:0:0:
288,160,41849,1,0,0:0:0:0:
288,160,41984,1,0,0:0:0:0:
288,160,42119,1,8,0:0:0:0:
288,160,42255,1,0,0:0:0:0:
288,160,42322,1,0,0:0:0:0:
288,160,42390,1,8,0:0:0:0:
288,160,42525,1,8,0:0:0:0:
288,160,42592,1,0,0:0:0:0:
288,160,42660,1,8,0:0:0:0:
288,160,42795,1,8,0:0:0:0:
288,160,42930,1,0,0:0:0:0:
288,160,42998,1,0,0:0:0:0:
288,160,43065,1,0,0:0:0:0:
288,160,43200,1,8,0:0:0:0:
288,192,43471,1,4,0:0:0:0:
288,192,43741,1,8,0:0:0:0:
256,192,43876,1,0,0:0:0:0:
256,192,43944,1,0,0:0:0:0:
256,192,44011,1,8,0:0:0:0:
256,192,44079,1,8,0:0:0:0:
256,192,44146,1,8,0:0:0:0:
256,192,44282,1,8,0:0:0:0:
256,192,44417,1,8,0:0:0:0:
256,160,44552,1,0,0:0:0:0:
288,192,44822,1,8,0:0:0:0:
288,192,44957,1,8,0:0:0:0:
256,192,45025,1,8,0:0:0:0:
288,192,45092,1,0,0:0:0:0:
256,192,45227,1,0,0:0:0:0:
256,192,45363,1,8,0:0:0:0:
256,192,45498,1,8,0:0:0:0:
256,192,45633,1,0,0:0:0:0:
256,192,45700,1,0,0:0:0:0:
256,192,45768,1,0,0:0:0:0:
256,192,45836,1,0,0:0:0:0:
224,192,45903,1,8,0:0:0:0:
224,192,46038,1,0,0:0:0:0:
256,160,46173,1,8,0:0:0:0:
256,160,46309,1,8,0:0:0:0:
256,160,46444,1,8,0:0:0:0:
256,160,46579,1,8,0:0:0:0:
256,160,46714,1,0,0:0:0:0:
256,160,46849,1,0,0:0:0:0:
256,192,46917,1,0,0:0:0:0:
256,192,46984,1,8,0:0:0:0:
256,192,47119,1,0,0:0:0:0:
256,192,47187,1,8,0:0:0:0:
256,192,47255,1,0,0:0:0:0:
256,192,47390,1,0,0:0:0:0:
256,192,47525,1,8,0:0:0:0:
256,192,47660,1,8,0:0:0:0:
256,192,47727,1,8,0:0:0:0:
256,192,47795,1,0,0:0:0:0:
256,192,48065,1,8,0:0:0:0:
256,192,48200,1,0,0:0:0:0:
256,192,48268,1,0,0:0:0:0:
256,192,48336,1,8,0:0:0:0:
256,192,48403,1,8,0:0:0:0:
256,192,48471,1,8,0:0:0:0:
256,192,48606,1,8,0:0:0:0:
256,192,48741,1,8,0:0:0:0:
256,192,48876,1,0,0:0:0:0:
256,192,49146,1,8,0:0:0:0:
256,192,49282,1,0,0:0:0:0:
256,192,49349,1,0,0:0:0:0:
256,192,49417,1,0,0:0:0:0:
256,192,49552,1,0,0:0:0:0:
256,192,49619,1,0,0:0:0:0:
256,192,49687,1,8,0:0:0:0:
288,224,49822,1,0,0:0:0:0:
288,224,49957,1,8,0:0:0:0:
288,224,50092,1,0,0:0:0:0:
288,224,50227,1,0,0:0:0:0:
288,224,50363,1,8,0:0:0:0:
288,224,50430,1,8,0:0:0:0:
288,224,50498,1,0,0:0:0:0:
288,224,50633,1,0,0:0:0:0:
256,192,50768,1,8,0:0:0:0:
256,192,50903,1,0,0:0:0:0:
256,192,50971,1,0,0:0:0:0:
256,192,51038,1,8,0:0:0:0:
256,192,51173,1,8,0:0:0:0:
256,192,51241,1,0,0:0:0:0:
256,192,51309,1,8,0:0:0:0:
256,192,51444,1,0,0:0:0:0:
256,192,51579,1,8,0:0:0:0:
288,192,51646,1,8,0:0:0:0:
256,192,51714,1,8,0:0:0:0:
256,192,51849,1,0,0:0:0:0:
256,192,51984,1,8,0:0:0:0:
256,192,52119,1,0,0:0:0:0:
288,192,52390,1,0,0:0:0:0:
256,192,52525,1,8,0:0:0:0:
256,192,52660,1,0,0:0:0:0:
256,192,52727,1,0,0:0:0:0:
256,192,52795,1,8,0:0:0:0:
256,192,52930,1,8,0:0:0:0:
256,192,53065,1,8,0:0:0:0:
256,192,53200,1,0,0:0:0:0:
256,224,53471,1,8,0:0:0:0:
256,224,53606,1,0,0:0:0:0:
256,224,53741,1,8,0:0:0:0:
224,224,53876,1,0,0:0:0:0:
256,224,54011,1,8,0:0:0:0:
224,224,54146,1,8,0:0:0:0:
224,224,54282,1,0,0:0:0:0:
224,192,54552,1,0,0:0:0:0:
256,224,54687,1,8,0:0:0:0:
256,224,54822,1,0,0:0:0:0:
256,224,54957,1,8,0:0:0:0:
256,224,55092,1,8,0:0:0:0:
256,224,55227,1,8,0:0:0:0:
256,224,55363,1,0,0:0:0:0:
256,192,55498,1,0,0:0:0:0:
256,192,55565,1,0,0:0:0:0:
256,192,55633,1,0,0:0:0:0:
256,192,55768,1,0,0:0:0:0:
256,192,55903,1,8,0:0:0:0:
256,192,56038,1,0,0:0:0:0:
256,192,56173,1,8,0:0:0:0:
288,192,56444,1,4,0:0:0:0:
256,192,56579,1,0,0:0:0:0:
256,192,56714,1,8,0:0:0:0:
256,192,56849,1,8,0:0:0:0:
256,192,56984,1,0,0:0:0:0:
288,224,57052,1,0,0:0:0:0:
256,192,57119,1,0,0:0:0:0:
256,192,57255,1,8,0:0:0:0:
288,224,57390,1,8,0:0:0:0:
256,160,57525,1,0,0:0:0:0:
256,160,57660,1,8,0:0:0:0:
256,160,57795,1,8,0:0:0:0:
256,160,57930,1,8,0:0:0:0:
256,160,58065,1,0,0:0:0:0:
256,192,58200,1,0,0:0:0:0:
256,192,58336,1,8,0:0:0:0:
256,160,58471,1,0,0:0:0:0:
288,160,58606,1,0,0:0:0:0:
288,160,58673,1,0,0:0:0:0:
256,192,58741,1,0,0:0:0:0:
256,192,58876,1,8,0:0:0:0:
256,192,59011,1,8,0:0:0:0:
256,192,59146,1,0,0:0:0:0:
256,192,59214,1,0,0:0:0:0:
256,224,59282,1,0,0:0:0:0:
256,224,59349,1,0,0:0:0:0:
256,224,59417,1,8,0:0:0:0:
256,192,59552,1,8,0:0:0:0:
256,192,59687,1,0,0:0:0:0:
256,192,59755,1,0,0:0:0:0:
256,192,59822,1,8,0:0:0:0:
256,192,59890,1,0,0:0:0:0:
256,192,59957,1,8,0:0:0:0:
256,192,60025,1,8,0:0:0:0:
256,192,60092,1,0,0:0:0:0:
256,192,60160,1,8,0:0:0:0:
256,192,60227,1,0,0:0:0:0:
256,192,60295,1,0,0:0:0:0:
256,192,60363,1,8,0:0:0:0:
256,192,60430,1,0,0:0:0:0:
256,192,60498,1,8,0:0:0:0:
256,192,60565,1,8,0:0:0:0:
256,192,60633,1,8,0:0:0:0:
256,192,60700,1,8,0:0:0:0:
256,192,60768,1,0,0:0:0:0:
224,192,61038,1,8,0:0:0:0:
224,192,61309,1,0,0:0:0:0:
224,192,61444,1,8,0:0:0:0:
224,192,61579,1,8,0:0:0:0:
224,192,61849,1,0,0:0:0:0:
224,192,62119,1,8,0:0:0:0:
224,192,62255,1,0,0:0:0:0:
224,192,62525,1,0,0:0:0:0:
224,192,62660,1,8,0:0:0:0:
224,192,62795,1,8,0:0:0:0:
224,192,62930,1,0,0:0:0:0:
224,192,63200,1,8,0:0:0:0:
224,192,63606,1,0,0:0:0:0:
224,192,63741,1,8,0:0:0:0:
224,192,64011,1,0,0:0:0:0:
224,192,64146,1,0,0:0:0:0:
224,192,64282,1,8,0:0:0:0:
224,192,64417,1,0,0:0:0:0:
224,192,64687,1,8,0:0:0:0:
224,192,64822,1,8,0:0:0:0:
224,192,65092,1,0,0:0:0:0:
224,192,65363,1,8,0:0:0:0:
224,192,65498,1,0,0:0:0:0:
256,192,65768,1,0,0:0:0:0:
256,192,65903,1,8,0:0:0:0:
256,192,66038,1,8,0:0:0:0:
256,192,66173,1,0,0:0:0:0:
256,192,66444,1,8,0:0:0:0:
256,192,66579,1,0,0:0:0:0:
256,160,66646,1,0,0:0:0:0:
256,160,66714,1,8,0:0:0:0:
256,192,66849,1,8,0:0:0:0:
256,192,66917,1,0,0:0:0:0:
256,192,66984,1,8,0:0:0:0:
256,192,67119,1,0,0:0:0:0:
256,192,67255,1,8,0:0:0:0:
256,192,67390,1,0,0:0:0:0:
256,192,67525,1,0,0:0:0:0:
256,192,67660,1,8,0:0:0:0:
256,192,67795,1,0,0:0:0:0:
256,192,67930,1,0,0:0:0:0:
256,192,68065,1,8,0:0:0:0:
256,192,68200,1,0,0:0:0:0:
256,192,68336,1,8,0:0:0:0:
256,224,68381,1,8,0:0:0:0:
256,224,68426,1,8,0:0:0:0:
256,192,68471,1,8,0:0:0:0:
256,192,68538,1,8,0:0:0:0:
256,192,68606,1,8,0:0:0:0:
256,192,68741,1,8,0:0:0:0:
256,192,68876,1,8,0:0:0:0:
224,192,69011,1,0,0:0:0:0:
224,192,69146,1,8,0:0:0:0:
224,192,69214,1,8,0:0:0:0:
224,192,69282,1,8,0:0:0:0:
224,192,69349,1,8,0:0:0:0:
224,192,69417,1,0,0:0:0:0:
224,192,69687,1,8,0:0:0:0:
224,192,69822,1,0,0:0:0:0:
224,192,69890,1,0,0:0:0:0:
224,192,69957,1,0,0:0:0:0:
224,192,70092,1,0,0:0:0:0:
224,192,70227,1,8,0:0:0:0:
224,192,70363,1,8,0:0:0:0:
224,192,70430,1,8,0:0:0:0:
224,192,70498,1,0,0:0:0:0:
224,192,70633,1,0,0:0:0:0:
224,192,70768,1,8,0:0:0:0:
224,192,70836,1,0,0:0:0:0:
224,192,70903,1,8,0:0:0:0:
224,192,70971,1,8,0:0:0:0:
224,192,71038,1,0,0:0:0:0:
224,192,71173,1,8,0:0:0:0:
224,192,71309,1,8,0:0:0:0:
224,224,71444,1,0,0:0:0:0:
256,224,71511,1,0,0:0:0:0:
256,224,71579,1,8,0:0:0:0:
256,224,71714,1,0,0:0:0:0:
256,224,71984,1,0,0:0:0:0:
256,224,72119,1,8,0:0:0:0:
256,224,72255,1,0,0:0:0:0:
256,224,72322,1,8,0:0:0:0:
256,224,72390,1,8,0:0:0:0:
256,224,72525,1,8,0:0:0:0:
256,224,72660,1,0,0:0:0:0:
256,224,72727,1,0,0:0:0:0:
256,224,72795,1,0,0:0:0:0:
256,224,72863,1,0,0:0:0:0:
256,224,72930,1,8,0:0:0:0:
256,224,73065,1,0,0:0:0:0:
256,224,73200,1,0,0:0:0:0:
256,224,73336,1,8,0:0:0:0:
256,224,73403,1,8,0:0:0:0:
256,224,73471,1,8,0:0:0:0:
256,224,73606,1,8,0:0:0:0:
256,224,73741,1,0,0:0:0:0:
224,192,74011,1,8,0:0:0:0:
224,192,74146,1,0,0:0:0:0:
224,192,74214,1,0,0:0:0:0:
224,192,74282,1,0,0:0:0:0:
224,192,74417,1,0,0:0:0:0:
224,192,74552,1,8,0:0:0:0:
224,192,74687,1,8,0:0:0:0:
224,192,74755,1,8,0:0:0:0:
224,192,74822,1,0,0:0:0:0:
224,192,74957,1,0,0:0:0:0:
224,192,75092,1,8,0:0:0:0:
224,192,75160,1,0,0:0:0:0:
224,192,75227,1,0,0:0:0:0:
224,192,75295,1,8,0:0:0:0:
224,192,75363,1,8,0:0:0:0:
224,192,75498,1,8,0:0:0:0:
224,224,75565,1,0,0:0:0:0:
224,192,75633,1,8,0:0:0:0:
224,224,75768,1,0,0:0:0:0:
256,224,75836,1,0,0:0:0:0:
256,224,75903,1,8,0:0:0:0:
256,224,76038,1,0,0:0:0:0:
256,224,76173,1,8,0:0:0:0:
256,224,76309,1,8,0:0:0:0:
256,224,76376,1,8,0:0:0:0:
256,224,76444,1,0,0:0:0:0:
256,224,76579,1,0,0:0:0:0:
256,224,76646,1,8,0:0:0:0:
256,224,76714,1,0,0:0:0:0:
288,224,76849,1,0,0:0:0:0:
256,224,76984,1,8,0:0:0:0:
256,224,77052,1,8,0:0:0:0:
256,224,77119,1,8,0:0:0:0:
256,224,77187,1,8,0:0:0:0:
256,224,77255,1,0,0:0:0:0:
256,224,77390,1,8,0:0:0:0:
256,192,77525,1,0,0:0:0:0:
256,192,77660,1,8,0:0:0:0:
256,192,77795,1,8,0:0:0:0:
256,192,78065,1,4,0:0:0:0:
288,192,78336,1,8,0:0:0:0:
288,192,78471,1,0,0:0:0:0:
288,192,78606,1,8,0:0:0:0:
288,192,78673,1,8,0:0:0:0:
288,192,78741,1,8,0:0:0:0:
288,192,78876,1,8,0:0:0:0:
288,192,79011,1,8,0:0:0:0:
288,192,79146,1,0,0:0:0:0:
288,192,79282,1,8,0:0:0:0:
288,192,79417,1,8,0:0:0:0:
288,192,79552,1,0,0:0:0:0:
288,192,79619,1,8,0:0:0:0:
288,192,79687,1,0,0:0:0:0:
288,192,79822,1,8,0:0:0:0:
288,192,79957,1,8,0:0:0:0:
320,192,80092,1,8,0:0:0:0:
320,192,80227,1,4,0:0:0:0:
288,192,80498,1,8,0:0:0:0:
288,192,80633,1,0,0:0:0:0:
288,192,80768,1,8,0:0:0:0:
288,192,80903,1,8,0:0:0:0:
288,192,80971,1,8,0:0:0:0:
288,192,81038,1,8,0:0:0:0:
288,192,81173,1,8,0:0:0:0:
320,192,81309,1,0,0:0:0:0:
320,192,81444,1,0,0:0:0:0:
320,192,81511,1,0,0:0:0:0:
320,192,81579,1,8,0:0:0:0:
320,192,81714,1,0,0:0:0:0:
320,192,81782,1,0,0:0:0:0:
320,192,81849,1,0,0:0:0:0:
320,192,81984,1,0,0:0:0:0:
320,192,82119,1,8,0:0:0:0:
320,192,82255,1,8,0:0:0:0:
320,192,82390,1,4,0:0:0:0:
320,192,82660,1,8,0:0:0:0:
320,192,82795,1,0,0:0:0:0:
352,224,82863,1,0,0:0:0:0:
352,224,82930,1,8,0:0:0:0:
352,224,82998,1,8,0:0:0:0:
352,224,83065,1,8,0:0:0:0:
352,224,83200,1,8,0:0:0:0:
352,224,83336,1,8,0:0:0:0:
352,224,83471,1,0,0:0:0:0:
352,224,83606,1,8,0:0:0:0:
352,224,83741,1,8,0:0:0:0:
352,224,83876,1,0,0:0:0:0:
352,224,83944,1,8,0:0:0:0:
352,224,84011,1,0,0:0:0:0:
352,224,84146,1,0,0:0:0:0:
352,224,84214,1,0,0:0:0:0:
352,224,84282,1,8,0:0:0:0:
352,224,84417,1,8,0:0:0:0:
352,224,84552,1,4,0:0:0:0:
352,256,84822,1,8,0:0:0:0:
352,256,84957,1,0,0:0:0:0:
288,224,85025,1,0,0:0:0:0:
320,224,85092,1,8,0:0:0:0:
320,224,85160,1,8,0:0:0:0:
320,224,85227,1,8,0:0:0:0:
320,224,85363,1,8,0:0:0:0:
320,224,85498,1,8,0:0:0:0:
320,224,85565,1,8,0:0:0:0:
320,224,85633,1,0,0:0:0:0:
320,224,85768,1,0,0:0:0:0:
320,224,85836,1,0,0:0:0:0:
320,224,85903,1,8,0:0:0:0:
320,224,86038,1,8,0:0:0:0:
320,224,86173,1,0,0:0:0:0:
320,224,86309,1,0,0:0:0:0:
288,192,86444,1,0,0:0:0:0:
320,224,86714,1,4,0:0:0:0:
320,224,86849,1,8,0:0:0:0:
320,224,86984,1,0,0:0:0:0:
320,224,87119,1,8,0:0:0:0:
320,224,87255,1,0,0:0:0:0:
256,160,87390,1,0,0:0:0:0:
288,192,87525,1,8,0:0:0:0:
288,192,87660,1,0,0:0:0:0:
320,224,87727,1,0,0:0:0:0:
288,192,87795,1,8,0:0:0:0:
320,192,87930,1,8,0:0:0:0:
320,192,88065,1,0,0:0:0:0:
320,192,88200,1,8,0:0:0:0:
320,192,88336,1,0,0:0:0:0:
320,192,88471,1,8,0:0:0:0:
317,235,88538,1,0,0:0:0:0:
320,192,88606,1,8,0:0:0:0:
320,192,88741,1,8,0:0:0:0:
320,224,88876,1,0,0:0:0:0:
320,224,88944,1,0,0:0:0:0:
320,224,89011,1,0,0:0:0:0:
320,224,89079,1,0,0:0:0:0:
320,224,89146,1,8,0:0:0:0:
320,224,89214,1,8,0:0:0:0:
320,224,89282,1,0,0:0:0:0:
320,224,89349,1,0,0:0:0:0:
320,224,89417,1,8,0:0:0:0:
320,224,89484,1,0,0:0:0:0:
320,224,89552,1,8,0:0:0:0:
320,224,89619,1,8,0:0:0:0:
320,224,89687,1,0,0:0:0:0:
320,224,89755,1,8,0:0:0:0:
320,224,89822,1,0,0:0:0:0:
320,224,89890,1,0,0:0:0:0:
320,224,89957,1,8,0:0:0:0:
320,160,90025,1,8,0:0:0:0:
320,192,90092,1,8,0:0:0:0:
320,192,90160,1,8,0:0:0:0:
320,192,90227,1,0,0:0:0:0:
288,192,90363,1,8,0:0:0:0:
256,160,90430,1,8,0:0:0:0:
288,192,90498,1,0,0:0:0:0:
288,192,90565,1,8,0:0:0:0:
288,192,90700,1,8,0:0:0:0:
288,192,90768,1,0,0:0:0:0:
288,192,90903,1,8,0:0:0:0:
288,192,91038,1,4,0:0:0:0:
256,192,91309,1,8,0:0:0:0:
256,192,91444,1,0,0:0:0:0:
256,192,91579,1,0,0:0:0:0:
256,192,91646,1,0,0:0:0:0:
256,192,91714,1,0,0:0:0:0:
256,192,91782,1,0,0:0:0:0:
256,192,91849,1,8,0:0:0:0:
256,192,91984,1,8,0:0:0:0:
256,192,92119,1,0,0:0:0:0:
256,192,92255,1,0,0:0:0:0:
256,192,92390,1,8,0:0:0:0:
256,192,92525,1,0,0:0:0:0:
256,192,92592,1,0,0:0:0:0:
256,192,92660,1,8,0:0:0:0:
256,192,92795,1,0,0:0:0:0:
256,192,92863,1,8,0:0:0:0:
256,192,92930,1,0,0:0:0:0:
256,192,92998,1,0,0:0:0:0:
256,192,93065,1,8,0:0:0:0:
256,192,93133,1,0,0:0:0:0:
256,192,93200,1,8,0:0:0:0:
256,192,93336,1,0,0:0:0:0:
288,192,93606,1,0,0:0:0:0:
288,192,93741,1,8,0:0:0:0:
288,192,93876,1,0,0:0:0:0:
288,192,93944,1,8,0:0:0:0:
256,192,94011,1,0,0:0:0:0:
288,192,94146,1,8,0:0:0:0:
256,192,94282,1,0,0:0:0:0:
256,192,94349,1,0,0:0:0:0:
256,192,94417,1,0,0:0:0:0:
256,192,94484,1,0,0:0:0:0:
256,192,94552,1,8,0:0:0:0:
256,192,94687,1,8,0:0:0:0:
256,192,94755,1,0,0:0:0:0:
256,192,94822,1,8,0:0:0:0:
256,192,94957,1,0,0:0:0:0:
256,192,95092,1,8,0:0:0:0:
256,192,95160,1,8,0:0:0:0:
256,192,95227,1,8,0:0:0:0:
256,192,95295,1,8,0:0:0:0:
256,192,95363,1,0,0:0:0:0:
256,192,95633,1,0,0:0:0:0:
256,192,95768,1,8,0:0:0:0:
256,192,95903,1,0,0:0:0:0:
256,192,95971,1,0,0:0:0:0:
256,192,96038,1,8,0:0:0:0:
256,192,96106,1,8,0:0:0:0:
256,192,96173,1,8,0:0:0:0:
256,192,96309,1,8,0:0:0:0:
256,192,96444,1,0,0:0:0:0:
256,192,96579,1,0,0:0:0:0:
256,192,96646,1,8,0:0:0:0:
256,192,96714,1,8,0:0:0:0:
256,192,96849,1,8,0:0:0:0:
256,192,96917,1,0,0:0:0:0:
256,192,96984,1,8,0:0:0:0:
256,192,97119,1,0,0:0:0:0:
256,192,97187,1,0,0:0:0:0:
256,224,97255,1,8,0:0:0:0:
256,192,97322,1,0,0:0:0:0:
256,192,97390,1,0,0:0:0:0:
256,192,97457,1,0,0:0:0:0:
256,192,97525,1,8,0:0:0:0:
256,192,97660,1,0,0:0:0:0:
256,192,97795,1,0,0:0:0:0:
256,192,97930,1,8,0:0:0:0:
256,192,98065,1,0,0:0:0:0:
256,192,98200,1,0,0:0:0:0:
256,192,98336,1,8,0:0:0:0:
256,192,98471,1,0,0:0:0:0:
256,192,98606,1,8,0:0:0:0:
256,192,98673,1,8,0:0:0:0:
256,192,98741,1,8,0:0:0:0:
256,192,98809,1,8,0:0:0:0:
256,192,98876,1,0,0:0:0:0:
256,192,98944,1,0,0:0:0:0:
256,192,99011,1,8,0:0:0:0:
256,192,99079,1,8,0:0:0:0:
256,192,99146,1,0,0:0:0:0:
256,192,99214,1,0,0:0:0:0:
256,192,99282,1,8,0:0:0:0:
256,192,99349,1,0,0:0:0:0:
256,192,99417,1,0,0:0:0:0:
256,192,99484,1,8,0:0:0:0:
256,192,99552,1,8,0:0:0:0:
256,192,99619,1,8,0:0:0:0:
256,192,99687,1,0,0:0:0:0:
288,192,99957,1,0,0:0:0:0:
288,192,100092,1,8,0:0:0:0:
288,192,100227,1,0,0:0:0:0:
288,192,100295,1,0,0:0:0:0:
288,192,100363,1,0,0:0:0:0:
288,192,100430,1,0,0:0:0:0:
288,192,100498,1,8,0:0:0:0:
288,192,100633,1,8,0:0:0:0:
288,192,100768,1,0,0:0:0:0:
288,192,100903,1,8,0:0:0:0:
288,224,101038,1,0,0:0:0:0:
256,192,101173,1,8,0:0:0:0:
256,192,101241,1,8,0:0:0:0:
288,192,101309,1,0,0:0:0:0:
288,224,101444,1,0,0:0:0:0:
288,224,101511,1,0,0:0:0:0:
288,224,101579,1,8,0:0:0:0:
288,224,101646,1,8,0:0:0:0:
288,224,101714,1,0,0:0:0:0:
288,224,101782,1,0,0:0:0:0:
288,224,101849,1,8,0:0:0:0:
288,224,101984,1,0,0:0:0:0:
288,224,102255,1,0,0:0:0:0:
288,224,102390,1,8,0:0:0:0:
288,224,102525,1,8,0:0:0:0:
288,224,102592,1,8,0:0:0:0:
288,224,102660,1,0,0:0:0:0:
288,224,102795,1,0,0:0:0:0:
288,224,102863,1,8,0:0:0:0:
288,224,102930,1,0,0:0:0:0:
288,224,103065,1,0,0:0:0:0:
288,224,103200,1,8,0:0:0:0:
288,224,103336,1,8,0:0:0:0:
288,224,103471,1,0,0:0:0:0:
288,224,103606,1,8,0:0:0:0:
288,224,103741,1,0,0:0:0:0:
288,224,103809,1,8,0:0:0:0:
288,224,103876,1,0,0:0:0:0:
288,224,103944,1,0,0:0:0:0:
288,224,104011,1,8,0:0:0:0:
288,224,104282,1,8,0:0:0:0:
288,224,104417,1,0,0:0:0:0:
288,224,104484,1,0,0:0:0:0:
288,224,104552,1,8,0:0:0:0:
288,192,104687,1,0,0:0:0:0:
288,224,104822,1,0,0:0:0:0:
288,224,104890,1,0,0:0:0:0:
288,224,104957,1,8,0:0:0:0:
288,224,105092,1,0,0:0:0:0:
288,224,105227,1,8,0:0:0:0:
288,192,105498,1,8,0:0:0:0:
288,192,105633,1,0,0:0:0:0:
288,192,105768,1,8,0:0:0:0:
288,192,105836,1,8,0:0:0:0:
288,192,105903,1,8,0:0:0:0:
288,192,106038,1,8,0:0:0:0:
288,192,106173,1,4,0:0:0:0:
288,192,106309,1,0,0:0:0:0:
288,192,106444,1,8,0:0:0:0:
288,192,106579,1,8,0:0:0:0:
288,192,106714,1,0,0:0:0:0:
288,192,106849,1,0,0:0:0:0:
288,192,106984,1,8,0:0:0:0:
256,224,107119,1,8,0:0:0:0:
288,224,107255,1,0,0:0:0:0:
288,224,107322,1,0,0:0:0:0:
288,224,107390,1,0,0:0:0:0:
288,224,107457,1,0,0:0:0:0:
288,224,107525,1,8,0:0:0:0:
288,224,107592,1,8,0:0:0:0:
288,224,107660,1,8,0:0:0:0:
288,224,107727,1,8,0:0:0:0:
288,224,107795,1,0,0:0:0:0:
288,224,107930,1,8,0:0:0:0:
288,224,108065,1,0,0:0:0:0:
288,224,108336,1,4,0:0:0:0:
288,224,108606,1,8,0:0:0:0:
288,192,108741,1,0,0:0:0:0:
288,192,108876,1,8,0:0:0:0:
288,192,109011,1,0,0:0:0:0:
288,192,109079,1,0,0:0:0:0:
288,192,109146,1,8,0:0:0:0:
288,192,109282,1,8,0:0:0:0:
320,192,109417,1,4,0:0:0:0:
288,192,109687,1,8,0:0:0:0:
288,192,109822,1,4,0:0:0:0:
288,192,110092,1,8,0:0:0:0:
288,192,110227,1,8,0:0:0:0:
288,192,110363,1,8,0:0:0:0:
288,192,110498,1,0,0:0:0:0:
288,192,110768,1,8,0:0:0:0:
288,192,110903,1,0,0:0:0:0:
288,192,110971,1,0,0:0:0:0:
288,192,111038,1,0,0:0:0:0:
288,192,111173,1,0,0:0:0:0:
288,192,111309,1,8,0:0:0:0:
288,192,111444,1,8,0:0:0:0:
288,192,111579,1,4,0:0:0:0:
288,192,111849,1,8,0:0:0:0:
288,192,111984,1,4,0:0:0:0:
288,192,112255,1,8,0:0:0:0:
288,192,112322,1,8,0:0:0:0:
288,192,112390,1,8,0:0:0:0:
288,192,112525,1,8,0:0:0:0:
288,192,112660,1,4,0:0:0:0:
288,192,112795,1,8,0:0:0:0:
288,192,112930,1,8,0:0:0:0:
288,192,113065,1,8,0:0:0:0:
288,192,113200,1,0,0:0:0:0:
288,192,113336,1,0,0:0:0:0:
288,192,113471,1,8,0:0:0:0:
288,192,113606,1,8,0:0:0:0:
288,192,113741,1,0,0:0:0:0:
288,192,113876,1,8,0:0:0:0:
288,192,114011,1,0,0:0:0:0:
288,192,114146,1,0,0:0:0:0:
288,192,114282,1,8,0:0:0:0:
288,192,114417,1,0,0:0:0:0:
288,192,114552,1,8,0:0:0:0:
288,192,114687,1,8,0:0:0:0:
288,192,114822,1,0,0:0:0:0:
288,192,114890,1,0,0:0:0:0:
288,192,114957,1,0,0:0:0:0:
288,192,115025,1,0,0:0:0:0:
288,192,115092,1,8,0:0:0:0:
288,192,115160,1,0,0:0:0:0:
288,192,115227,1,8,0:0:0:0:
288,192,115295,1,8,0:0:0:0:
288,192,115363,1,0,0:0:0:0:
288,192,115430,1,8,0:0:0:0:
288,192,115498,1,0,0:0:0:0:
288,192,115565,1,0,0:0:0:0:
288,192,115633,1,8,0:0:0:0:
288,192,115700,1,8,0:0:0:0:
288,192,115768,1,8,0:0:0:0:
288,192,115836,1,8,0:0:0:0:
288,192,115903,1,0,0:0:0:0:
320,160,116083,1,8,0:0:0:0:
320,160,116173,1,0,0:0:0:0:
320,160,116354,1,8,0:0:0:0:
320,160,116444,1,0,0:0:0:0:
320,160,116534,1,0,0:0:0:0:
320,160,116624,1,0,0:0:0:0:
320,160,116714,1,8,0:0:0:0:
256,192,116984,1,4,0:0:0:0:
256,192,121359,5,4,0:0:0:0:
256,192,121859,1,2,0:0:0:0:
256,192,122109,1,2,0:0:0:0:
256,192,122192,1,0,0:0:0:0:
256,192,122359,1,2,0:0:0:0:
256,192,122609,1,2,0:0:0:0:
256,192,122692,1,0,0:0:0:0:
256,192,122859,1,2,0:0:0:0:
256,192,123025,1,0,0:0:0:0:
256,192,123109,1,2,0:0:0:0:
256,192,123275,1,2,0:0:0:0:
256,192,123359,1,0,0:0:0:0:
256,192,123442,1,2,0:0:0:0:
256,192,123525,1,0,0:0:0:0:
256,192,123609,1,0,0:0:0:0:
256,192,123692,1,2,0:0:0:0:
256,192,124025,1,4,0:0:0:0:
256,192,124359,1,0,0:0:0:0:
256,192,124525,1,2,0:0:0:0:
256,192,124692,1,0,0:0:0:0:
256,192,124859,1,0,0:0:0:0:
256,192,125025,1,2,0:0:0:0:
256,192,125192,1,0,0:0:0:0:
256,192,125275,1,0,0:0:0:0:
256,192,125359,1,0,0:0:0:0:
256,192,125525,1,2,0:0:0:0:
256,192,125692,1,0,0:0:0:0:
256,192,125859,1,2,0:0:0:0:
256,192,125942,1,2,0:0:0:0:
256,192,126025,1,0,0:0:0:0:
256,192,126109,1,2,0:0:0:0:
256,192,126192,1,2,0:0:0:0:
256,192,126275,1,0,0:0:0:0:
256,192,126359,1,2,0:0:0:0:
256,192,126692,1,4,0:0:0:0:
256,192,126859,1,0,0:0:0:0:
256,192,126942,1,2,0:0:0:0:
256,192,127025,1,0,0:0:0:0:
256,192,127192,1,2,0:0:0:0:
256,192,127359,1,2,0:0:0:0:
256,192,127442,1,2,0:0:0:0:
256,192,127525,1,2,0:0:0:0:
256,192,127609,1,2,0:0:0:0:
256,192,127692,1,0,0:0:0:0:
256,192,127775,1,2,0:0:0:0:
256,192,127859,1,2,0:0:0:0:
256,192,127942,1,2,0:0:0:0:
256,192,128025,1,0,0:0:0:0:
256,192,128192,1,0,0:0:0:0:
256,192,128358,1,2,0:0:0:0:
256,192,128608,1,0,0:0:0:0:
256,192,128692,1,0,0:0:0:0:
256,192,128775,1,0,0:0:0:0:
256,192,128858,1,0,0:0:0:0:
256,192,129025,1,0,0:0:0:0:
256,192,129192,1,0,0:0:0:0:
256,192,129358,1,0,0:0:0:0:
256,192,129525,1,2,0:0:0:0:
256,192,129608,1,2,0:0:0:0:
256,192,129692,1,2,0:0:0:0:
256,192,129858,1,0,0:0:0:0:
256,192,129942,1,2,0:0:0:0:
256,192,130025,1,0,0:0:0:0:
256,192,130192,1,2,0:0:0:0:
256,192,130275,1,2,0:0:0:0:
256,192,130358,1,0,0:0:0:0:
256,192,130525,1,2,0:0:0:0:
256,192,130608,1,2,0:0:0:0:
256,192,130775,1,2,0:0:0:0:
256,192,130858,1,0,0:0:0:0:
256,192,130942,1,2,0:0:0:0:
256,192,131025,1,2,0:0:0:0:
256,192,131109,1,0,0:0:0:0:
256,192,131192,1,2,0:0:0:0:
256,192,131275,1,2,0:0:0:0:
256,192,131359,1,0,0:0:0:0:
256,192,131442,1,2,0:0:0:0:
256,192,131525,1,0,0:0:0:0:
256,192,131609,1,0,0:0:0:0:
256,192,131692,1,2,0:0:0:0:
256,192,131775,1,0,0:0:0:0:
256,192,131859,1,0,0:0:0:0:
256,192,132025,1,2,0:0:0:0:
256,192,132081,1,2,0:0:0:0:
256,192,132136,1,2,0:0:0:0:
256,192,132192,1,2,0:0:0:0:
256,192,132275,1,2,0:0:0:0:
256,192,132359,1,2,0:0:0:0:
256,192,132692,1,2,0:0:0:0:
256,192,133192,1,2,0:0:0:0:
256,192,133359,1,2,0:0:0:0:
256,192,133692,1,2,0:0:0:0:
256,192,134359,1,0,0:0:0:0:
256,192,134692,1,0,0:0:0:0:
256,192,136692,1,0,0:0:0:0:
256,192,137025,1,0,0:0:0:0:
256,192,137358,1,0,0:0:0:0:
256,192,138692,2,0,B|448:224|352:224|352:224,3,140
256,192,140025,1,0,0:0:0:0:
256,192,140108,1,0,0:0:0:0:
256,192,140192,1,0,0:0:0:0:
256,192,140275,1,0,0:0:0:0:
256,192,140358,1,2,0:0:0:0:
256,192,140442,1,2,0:0:0:0:
256,192,140525,1,0,0:0:0:0:
256,192,140608,1,2,0:0:0:0:
256,192,140692,1,0,0:0:0:0:
256,192,140775,1,0,0:0:0:0:
256,192,140858,1,2,0:0:0:0:
256,192,140942,1,0,0:0:0:0:
256,192,141025,1,2,0:0:0:0:
256,192,141108,1,0,0:0:0:0:
256,192,141192,1,0,0:0:0:0:
256,192,141275,1,2,0:0:0:0:
256,192,141358,1,2,0:0:0:0:
256,192,141442,1,0,0:0:0:0:
256,192,141525,1,2,0:0:0:0:
256,192,141608,1,2,0:0:0:0:
256,192,141692,1,0,0:0:0:0:
256,192,141775,1,0,0:0:0:0:
256,192,141858,1,2,0:0:0:0:
256,192,141942,1,2,0:0:0:0:
256,192,142025,1,0,0:0:0:0:
256,192,142108,1,2,0:0:0:0:
256,192,142192,1,2,0:0:0:0:
256,192,142275,1,2,0:0:0:0:
256,192,142358,1,0,0:0:0:0:
256,192,142442,1,2,0:0:0:0:
256,192,142525,1,0,0:0:0:0:
256,192,142692,1,6,0:0:0:0:
256,192,143692,1,4,0:0:0:0:
256,192,144025,1,2,0:0:0:0:
256,192,144108,1,0,0:0:0:0:
256,192,144192,1,2,0:0:0:0:
256,192,144275,1,2,0:0:0:0:
256,192,144358,1,0,0:0:0:0:
256,192,144442,1,0,0:0:0:0:
256,192,144525,1,2,0:0:0:0:
256,192,144608,1,0,0:0:0:0:
256,192,144692,1,2,0:0:0:0:
256,192,144775,1,2,0:0:0:0:
256,192,144858,1,0,0:0:0:0:
256,192,145025,1,6,0:0:0:0:
256,192,145358,1,0,0:0:0:0:
256,192,145608,1,0,0:0:0:0:
256,192,145692,1,2,0:0:0:0:
256,192,145858,1,2,0:0:0:0:
256,192,145942,1,0,0:0:0:0:
256,192,146025,1,2,0:0:0:0:
256,192,146192,1,2,0:0:0:0:
256,192,146358,1,0,0:0:0:0:
256,192,146442,1,2,0:0:0:0:
256,192,146525,1,0,0:0:0:0:
256,192,146608,1,0,0:0:0:0:
256,192,146692,1,2,0:0:0:0:
256,192,146775,1,0,0:0:0:0:
256,192,146942,1,0,0:0:0:0:
256,192,147025,1,2,0:0:0:0:
256,192,147192,1,2,0:0:0:0:
256,192,147275,1,0,0:0:0:0:
256,192,147358,1,0,0:0:0:0:
256,192,147442,1,2,0:0:0:0:
256,192,147608,1,2,0:0:0:0:
256,192,147692,1,0,0:0:0:0:
256,192,147858,1,2,0:0:0:0:
256,192,147942,1,2,0:0:0:0:
256,192,148025,1,0,0:0:0:0:
256,192,148192,1,2,0:0:0:0:
256,192,148358,1,0,0:0:0:0:
256,192,148442,1,2,0:0:0:0:
256,192,148525,1,2,0:0:0:0:
256,192,148608,1,2,0:0:0:0:
256,192,148692,1,0,0:0:0:0:
256,192,148775,1,2,0:0:0:0:
256,192,148942,1,2,0:0:0:0:
256,192,149025,1,0,0:0:0:0:
256,192,149192,1,2,0:0:0:0:
256,192,149275,1,0,0:0:0:0:
256,192,149358,1,0,0:0:0:0:
256,192,149525,1,2,0:0:0:0:
256,192,149608,1,2,0:0:0:0:
256,192,149692,1,0,0:0:0:0:
256,192,149775,1,2,0:0:0:0:
256,192,149858,1,2,0:0:0:0:
256,192,149942,1,2,0:0:0:0:
256,192,150025,1,0,0:0:0:0:
256,192,150108,1,2,0:0:0:0:
256,192,150192,1,0,0:0:0:0:
256,192,150275,1,0,0:0:0:0:
256,192,150358,1,2,0:0:0:0:
256,192,150414,1,2,0:0:0:0:
256,192,150470,1,2,0:0:0:0:
256,192,150525,1,0,0:0:0:0:
256,192,150581,1,0,0:0:0:0:
256,192,150636,1,2,0:0:0:0:
256,192,150692,1,0,0:0:0:0:
256,192,150914,1,0,0:0:0:0:
256,192,151025,1,2,0:0:0:0:
256,192,151247,1,2,0:0:0:0:
256,192,151358,1,0,0:0:0:0:
256,192,151470,1,0,0:0:0:0:
256,192,151581,1,2,0:0:0:0:
256,192,151692,1,0,0:0:0:0:
256,192,151914,1,0,0:0:0:0:
256,192,152025,1,2,0:0:0:0:
256,192,152247,1,2,0:0:0:0:
256,192,152358,1,2,0:0:0:0:
256,192,152470,1,0,0:0:0:0:
256,192,152581,1,0,0:0:0:0:
256,192,152692,1,2,0:0:0:0:
256,192,152803,1,0,0:0:0:0:
256,192,153025,1,6,0:0:0:0:
256,192,153358,1,2,0:0:0:0:
256,192,153525,1,0,0:0:0:0:
256,192,153608,1,2,0:0:0:0:
256,192,153692,1,0,0:0:0:0:
256,192,153858,1,2,0:0:0:0:
256,192,154025,1,0,0:0:0:0:
256,192,154108,1,0,0:0:0:0:
256,192,154192,1,2,0:0:0:0:
256,192,154275,1,0,0:0:0:0:
256,192,154358,1,2,0:0:0:0:
256,192,154442,1,2,0:0:0:0:
256,192,154525,1,0,0:0:0:0:
256,192,154608,1,2,0:0:0:0:
256,192,154692,1,0,0:0:0:0:
256,192,154858,1,2,0:0:0:0:
256,192,154942,1,0,0:0:0:0:
256,192,155025,1,2,0:0:0:0:
256,192,155192,1,2,0:0:0:0:
256,192,155358,1,0,0:0:0:0:
256,192,155442,1,2,0:0:0:0:
256,192,155525,1,2,0:0:0:0:
256,192,155608,1,0,0:0:0:0:
256,192,155692,1,2,0:0:0:0:
256,192,156025,1,0,0:0:0:0:
256,192,156275,1,2,0:0:0:0:
256,192,156358,1,0,0:0:0:0:
256,192,156525,1,2,0:0:0:0:
256,192,156692,1,0,0:0:0:0:
256,192,157025,1,2,0:0:0:0:
256,192,157358,1,2,0:0:0:0:
256,192,157608,1,0,0:0:0:0:
256,192,157692,1,2,0:0:0:0:
256,192,157858,1,0,0:0:0:0:
256,192,158025,1,2,0:0:0:0:
256,192,158108,1,0,0:0:0:0:
256,192,158192,1,0,0:0:0:0:
256,192,158275,1,2,0:0:0:0:
256,192,158358,1,0,0:0:0:0:
256,192,158525,1,2,0:0:0:0:
256,192,158692,1,0,0:0:0:0:
256,192,158942,1,2,0:0:0:0:
256,192,159025,1,0,0:0:0:0:
256,192,159192,1,2,0:0:0:0:
256,192,159275,1,2,0:0:0:0:
256,192,159358,1,0,0:0:0:0:
256,192,159692,1,2,0:0:0:0:
256,192,159858,1,0,0:0:0:0:
256,192,160025,1,2,0:0:0:0:
256,192,160108,1,0,0:0:0:0:
256,192,160275,1,0,0:0:0:0:
256,192,160358,1,2,0:0:0:0:
256,192,160525,1,0,0:0:0:0:
256,192,160692,1,2,0:0:0:0:
256,192,160775,1,0,0:0:0:0:
256,192,160858,1,0,0:0:0:0:
256,192,160942,1,2,0:0:0:0:
256,192,161025,1,0,0:0:0:0:
256,192,161525,1,2,0:0:0:0:
256,192,161692,1,2,0:0:0:0:
256,192,162025,1,0,0:0:0:0:
256,192,162192,1,2,0:0:0:0:
256,192,162275,1,2,0:0:0:0:
256,192,162358,1,2,0:0:0:0:
256,192,162692,1,0,0:0:0:0:
256,192,162942,1,0,0:0:0:0:
256,192,163025,1,2,0:0:0:0:
256,192,163192,1,2,0:0:0:0:
256,192,163275,1,0,0:0:0:0:
256,192,163358,1,0,0:0:0:0:
256,192,163525,1,2,0:0:0:0:
256,192,163692,1,0,0:0:0:0:
256,192,163775,1,2,0:0:0:0:
256,192,163858,1,2,0:0:0:0:
256,192,163942,1,0,0:0:0:0:
256,192,164025,1,2,0:0:0:0:
256,192,164108,1,0,0:0:0:0:
256,192,164275,1,0,0:0:0:0:
256,192,164358,1,2,0:0:0:0:
256,192,164525,1,2,0:0:0:0:
256,192,164608,1,2,0:0:0:0:
256,192,164692,1,0,0:0:0:0:
256,192,164775,1,2,0:0:0:0:
256,192,164942,1,2,0:0:0:0:
256,192,165025,1,0,0:0:0:0:
256,192,165108,1,0,0:0:0:0:
256,192,165192,1,2,0:0:0:0:
256,192,165275,1,0,0:0:0:0:
256,192,165358,1,0,0:0:0:0:
256,192,165442,1,2,0:0:0:0:
256,192,165525,1,0,0:0:0:0:
256,192,165608,1,2,0:0:0:0:
256,192,165692,1,2,0:0:0:0:
256,192,165858,1,2,0:0:0:0:
256,192,165942,1,0,0:0:0:0:
256,192,166025,1,0,0:0:0:0:
256,192,166108,1,2,0:0:0:0:
256,192,166192,1,0,0:0:0:0:
256,192,166275,1,2,0:0:0:0:
256,192,166358,1,2,0:0:0:0:
256,192,166525,1,2,0:0:0:0:
256,192,166692,1,0,0:0:0:0:
256,192,166775,1,2,0:0:0:0:
256,192,166858,1,2,0:0:0:0:
256,192,166942,1,0,0:0:0:0:
256,192,167025,1,2,0:0:0:0:
256,192,167108,1,0,0:0:0:0:
256,192,167192,1,0,0:0:0:0:
256,192,167275,1,0,0:0:0:0:
256,192,167358,1,2,0:0:0:0:
256,192,167442,1,0,0:0:0:0:
256,192,167608,1,0,0:0:0:0:
256,192,167692,1,2,0:0:0:0:
256,192,167747,1,2,0:0:0:0:
256,192,167803,1,2,0:0:0:0:
256,192,167858,1,0,0:0:0:0:
256,192,167942,1,0,0:0:0:0:
256,192,168025,1,0,0:0:0:0:
256,192,168247,1,0,0:0:0:0:
256,192,168358,1,2,0:0:0:0:
256,192,168581,1,2,0:0:0:0:
256,192,168692,1,0,0:0:0:0:
256,192,168914,1,2,0:0:0:0:
256,192,169025,1,0,0:0:0:0:
256,192,169136,1,0,0:0:0:0:
256,192,169247,1,2,0:0:0:0:
256,192,169358,1,0,0:0:0:0:
256,192,169581,1,2,0:0:0:0:
256,192,169747,1,2,0:0:0:0:
256,192,169858,1,0,0:0:0:0:
256,192,169970,1,2,0:0:0:0:
256,192,170025,1,2,0:0:0:0:
256,192,170247,1,2,0:0:0:0:
256,192,170414,1,0,0:0:0:0:
256,192,170525,1,2,0:0:0:0:
256,192,170636,1,2,0:0:0:0:
256,192,170692,1,0,0:0:0:0:
256,192,170803,12,2,171636,0:0:0:0:
256,192,173362,5,6,0:0:0:0:
256,192,173623,1,0,0:0:0:0:
256,192,173873,1,2,0:0:0:0:
256,192,174106,1,2,0:0:0:0:
256,192,174427,1,0,0:0:0:0:
256,192,174742,1,2,0:0:0:0:
256,192,175075,1,4,0:0:0:0:
256,192,175578,1,0,0:0:0:0:
256,192,175703,1,2,0:0:0:0:
256,192,175953,1,2,0:0:0:0:
256,192,176078,1,0,0:0:0:0:
256,192,176203,1,0,0:0:0:0:
256,192,176328,1,2,0:0:0:0:
256,192,176453,1,2,0:0:0:0:
256,192,176578,1,0,0:0:0:0:
256,192,176661,1,0,0:0:0:0:
256,192,176744,1,0,0:0:0:0:
256,192,176828,1,2,0:0:0:0:
256,192,176911,1,2,0:0:0:0:
256,192,176994,1,2,0:0:0:0:
256,192,177078,1,0,0:0:0:0:
256,192,177328,1,2,0:0:0:0:
256,192,177494,1,2,0:0:0:0:
256,192,177578,1,2,0:0:0:0:
256,192,177744,1,2,0:0:0:0:
256,192,177994,1,2,0:0:0:0:
256,192,178078,1,0,0:0:0:0:
256,192,178244,1,0,0:0:0:0:
256,192,178328,1,2,0:0:0:0:
256,192,178494,1,2,0:0:0:0:
256,192,178578,1,2,0:0:0:0:
256,192,178661,1,0,0:0:0:0:
256,192,178744,1,0,0:0:0:0:
256,192,178828,1,2,0:0:0:0:
256,192,179078,1,0,0:0:0:0:
256,192,179328,1,2,0:0:0:0:
256,192,179578,1,2,0:0:0:0:
256,192,179703,1,2,0:0:0:0:
256,192,179953,1,0,0:0:0:0:
256,192,180078,1,2,0:0:0:0:
256,192,180328,1,0,0:0:0:0:
256,192,180578,1,2,0:0:0:0:
256,192,180703,1,2,0:0:0:0:
256,192,180828,1,0,0:0:0:0:
256,192,181078,1,2,0:0:0:0:
256,192,181203,1,2,0:0:0:0:
256,192,181328,1,0,0:0:0:0:
256,192,181453,1,0,0:0:0:0:
256,192,181578,1,2,0:0:0:0:
256,192,181828,1,0,0:0:0:0:
256,192,182078,1,2,0:0:0:0:
256,192,182203,1,0,0:0:0:0:
256,192,182328,1,0,0:0:0:0:
256,192,182453,1,0,0:0:0:0:
256,192,182578,1,2,0:0:0:0:
256,192,182661,1,0,0:0:0:0:
256,192,182744,1,0,0:0:0:0:
256,192,182828,1,2,0:0:0:0:
256,192,182911,1,2,0:0:0:0:
256,192,182994,1,2,0:0:0:0:
256,192,183078,1,0,0:0:0:0:
256,192,183244,1,2,0:0:0:0:
256,192,183328,1,0,0:0:0:0:
256,192,183411,1,2,0:0:0:0:
256,192,183578,1,0,0:0:0:0:
256,192,183744,1,0,0:0:0:0:
256,192,183828,1,2,0:0:0:0:
256,192,183911,1,2,0:0:0:0:
256,192,184078,1,0,0:0:0:0:
256,192,184244,1,2,0:0:0:0:
256,192,184328,1,0,0:0:0:0:
256,192,184411,1,0,0:0:0:0:
256,192,184494,1,2,0:0:0:0:
256,192,184578,1,0,0:0:0:0:
256,192,184661,1,2,0:0:0:0:
256,192,184744,1,2,0:0:0:0:
256,192,184828,1,0,0:0:0:0:
256,192,185078,1,2,0:0:0:0:
256,192,185161,1,0,0:0:0:0:
256,192,185244,1,2,0:0:0:0:
256,192,185328,1,2,0:0:0:0:
256,192,185411,1,0,0:0:0:0:
256,192,185494,1,0,0:0:0:0:
256,192,185578,1,2,0:0:0:0:
256,192,185661,1,0,0:0:0:0:
256,192,185744,1,2,0:0:0:0:
256,192,185828,1,2,0:0:0:0:
256,192,185911,1,0,0:0:0:0:
256,192,185994,1,0,0:0:0:0:
256,192,186078,1,2,0:0:0:0:
256,192,186161,1,2,0:0:0:0:
256,192,186244,1,0,0:0:0:0:
256,192,186328,1,2,0:0:0:0:
256,192,186411,1,2,0:0:0:0:
256,192,186494,1,0,0:0:0:0:
256,192,186578,1,2,0:0:0:0:
256,192,186828,1,2,0:0:0:0:
256,192,186994,1,2,0:0:0:0:
256,192,187078,1,2,0:0:0:0:
256,192,187244,1,2,0:0:0:0:
256,192,187328,1,0,0:0:0:0:
256,192,187578,1,2,0:0:0:0:
256,192,187828,1,0,0:0:0:0:
256,192,187994,1,0,0:0:0:0:
256,192,188078,1,2,0:0:0:0:
256,192,188328,1,0,0:0:0:0:
256,192,188578,1,2,0:0:0:0:
256,192,188828,1,2,0:0:0:0:
256,192,188953,1,2,0:0:0:0:
256,192,189078,1,0,0:0:0:0:
256,192,189244,1,2,0:0:0:0:
256,192,189328,1,0,0:0:0:0:
256,192,189578,1,2,0:0:0:0:
256,192,189828,1,0,0:0:0:0:
256,192,189994,1,0,0:0:0:0:
256,192,190078,1,2,0:0:0:0:
256,192,190244,1,2,0:0:0:0:
256,192,190328,1,0,0:0:0:0:
256,192,190578,1,2,0:0:0:0:
256,192,190828,1,2,0:0:0:0:
256,192,191078,1,4,0:0:0:0:
256,192,191579,1,0,0:0:0:0:
256,192,191825,1,0,0:0:0:0:
256,192,191948,1,0,0:0:0:0:
256,192,192071,1,2,0:0:0:0:
256,192,192434,1,2,0:0:0:0:
256,192,192555,1,0,0:0:0:0:
256,192,192793,1,2,0:0:0:0:
256,192,193032,1,0,0:0:0:0:
256,192,193149,1,2,0:0:0:0:
256,192,193384,1,2,0:0:0:0:
256,192,193501,1,0,0:0:0:0:
256,192,193616,1,0,0:0:0:0:
256,192,193732,1,2,0:0:0:0:
256,192,193847,1,2,0:0:0:0:
256,192,193963,1,0,0:0:0:0:
256,192,194190,1,0,0:0:0:0:
256,192,194304,1,2,0:0:0:0:
256,192,194418,1,0,0:0:0:0:
256,192,194642,1,2,0:0:0:0:
256,192,194868,1,0,0:0:0:0:
256,192,194978,1,0,0:0:0:0:
256,192,195200,1,2,0:0:0:0:
256,192,195310,1,0,0:0:0:0:
256,192,195528,1,2,0:0:0:0:
256,192,195637,1,2,0:0:0:0:
256,192,195746,1,0,0:0:0:0:
256,192,195853,1,0,0:0:0:0:
256,192,195961,1,2,0:0:0:0:
256,192,196068,1,0,0:0:0:0:
256,192,196176,1,0,0:0:0:0:
256,192,196388,1,0,0:0:0:0:
256,192,196601,5,2,0:0:0:0:
256,192,196670,1,2,0:0:0:0:
256,192,196740,1,2,0:0:0:0:
256,192,196810,1,0,0:0:0:0:
256,192,196915,1,0,0:0:0:0:
256,192,197019,1,2,0:0:0:0:
256,192,197087,1,2,0:0:0:0:
256,192,197156,1,2,0:0:0:0:
256,192,197225,1,0,0:0:0:0:
256,192,197328,1,0,0:0:0:0:
256,192,197432,1,2,0:0:0:0:
256,192,197533,1,2,0:0:0:0:
256,192,197635,1,0,0:0:0:0:
256,192,197737,1,0,0:0:0:0:
256,192,197839,1,2,0:0:0:0:
256,192,197906,1,2,0:0:0:0:
256,192,197973,1,2,0:0:0:0:
256,192,198040,1,0,0:0:0:0:
256,192,198107,1,0,0:0:0:0:
256,192,198174,1,0,0:0:0:0:
256,192,198242,1,2,0:0:0:0:
256,192,198540,1,0,0:0:0:0:
256,192,198639,1,2,0:0:0:0:
256,192,198835,1,0,0:0:0:0:
256,192,199031,1,2,0:0:0:0:
256,192,199127,1,0,0:0:0:0:
256,192,199321,1,0,0:0:0:0:
256,192,199418,1,2,0:0:0:0:
256,192,199609,1,0,0:0:0:0:
256,192,199704,1,0,0:0:0:0:
256,192,199801,1,2,0:0:0:0:
256,192,199927,1,0,0:0:0:0:
256,192,200053,1,0,0:0:0:0:
256,192,200179,1,2,0:0:0:0:
256,192,200303,1,0,0:0:0:0:
256,192,200428,1,0,0:0:0:0:
256,192,200552,1,2,0:0:0:0:
256,192,200675,1,2,0:0:0:0:
256,192,200798,1,0,0:0:0:0:
256,192,200921,1,2,0:0:0:0:
256,192,201042,1,0,0:0:0:0:
256,192,201164,1,0,0:0:0:0:
256,192,201286,1,2,0:0:0:0:
256,192,201376,1,2,0:0:0:0:
256,192,201466,1,0,0:0:0:0:
256,192,201556,1,0,0:0:0:0:
256,192,201646,1,2,0:0:0:0:
256,192,201735,1,2,0:0:0:0:
256,192,201824,1,0,0:0:0:0:
256,192,201913,1,2,0:0:0:0:
256,192,202002,1,0,0:0:0:0:
256,192,202090,1,0,0:0:0:0:
256,192,202178,1,2,0:0:0:0:
256,192,202266,1,0,0:0:0:0:
256,192,202354,1,0,0:0:0:0:
256,192,202441,1,2,0:0:0:0:
256,192,202528,1,2,0:0:0:0:
256,192,202615,1,2,0:0:0:0:
256,192,202703,1,0,0:0:0:0:
256,192,202789,1,2,0:0:0:0:
256,192,202875,1,0,0:0:0:0:
256,192,202961,1,0,0:0:0:0:
256,192,203047,1,2,0:0:0:0:
256,192,203132,1,0,0:0:0:0:
256,192,203217,1,2,0:0:0:0:
256,192,203302,1,2,0:0:0:0:
256,192,203387,1,0,0:0:0:0:
256,192,203471,1,2,0:0:0:0:
256,192,203555,1,0,0:0:0:0:
256,192,203724,1,6,0:0:0:0:
256,192,204057,1,2,0:0:0:0:
256,192,204307,1,0,0:0:0:0:
256,192,204390,1,2,0:0:0:0:
256,192,204557,1,0,0:0:0:0:
256,192,204640,1,0,0:0:0:0:
256,192,204724,1,2,0:0:0:0:
256,192,204807,1,0,0:0:0:0:
256,192,204890,1,0,0:0:0:0:
256,192,204974,1,2,0:0:0:0:
256,192,205057,1,0,0:0:0:0:
256,192,205390,1,4,0:0:0:0:
256,192,205640,1,0,0:0:0:0:
256,192,205723,1,2,0:0:0:0:
256,192,205890,1,0,0:0:0:0:
256,192,206056,1,2,0:0:0:0:
256,192,206140,1,2,0:0:0:0:
256,192,206223,1,0,0:0:0:0:
256,192,206390,1,2,0:0:0:0:
256,192,206556,1,0,0:0:0:0:
256,192,206640,1,0,0:0:0:0:
256,192,206723,1,2,0:0:0:0:
256,192,206973,1,2,0:0:0:0:
256,192,207056,1,0,0:0:0:0:
256,192,207223,1,2,0:0:0:0:
256,192,207390,1,0,0:0:0:0:
256,192,207473,1,2,0:0:0:0:
256,192,207556,1,2,0:0:0:0:
256,192,207723,1,0,0:0:0:0:
256,192,207890,1,2,0:0:0:0:
256,192,207973,1,2,0:0:0:0:
256,192,208056,1,0,0:0:0:0:
256,192,208306,1,0,0:0:0:0:
256,192,208390,1,2,0:0:0:0:
256,192,208556,1,0,0:0:0:0:
256,192,208723,1,2,0:0:0:0:
256,192,208806,1,2,0:0:0:0:
256,192,208890,1,0,0:0:0:0:
256,192,208973,1,0,0:0:0:0:
256,192,209056,1,2,0:0:0:0:
256,192,209223,1,0,0:0:0:0:
256,192,209390,1,2,0:0:0:0:
256,192,209473,1,0,0:0:0:0:
256,192,209640,1,0,0:0:0:0:
256,192,209723,1,2,0:0:0:0:
256,192,209890,1,0,0:0:0:0:
256,192,209973,1,0,0:0:0:0:
256,192,210056,1,2,0:0:0:0:
256,192,210140,1,0,0:0:0:0:
256,192,210223,1,0,0:0:0:0:
256,192,210390,1,2,0:0:0:0:
256,192,210723,1,0,0:0:0:0:
256,192,210890,1,0,0:0:0:0:
256,192,211056,1,2,0:0:0:0:
256,192,211223,1,2,0:0:0:0:
256,192,211306,1,0,0:0:0:0:
256,192,211390,1,0,0:0:0:0:
256,192,211640,1,0,0:0:0:0:
256,192,211723,1,2,0:0:0:0:
256,192,211806,1,2,0:0:0:0:
256,192,211890,1,2,0:0:0:0:
256,192,211973,1,2,0:0:0:0:
256,192,212056,1,0,0:0:0:0:
256,192,212223,1,0,0:0:0:0:
256,192,212390,1,2,0:0:0:0:
256,192,212556,1,2,0:0:0:0:
256,192,212640,1,0,0:0:0:0:
256,192,212890,1,0,0:0:0:0:
256,192,213056,1,2,0:0:0:0:
256,192,213223,1,0,0:0:0:0:
256,192,213306,1,0,0:0:0:0:
256,192,213390,1,2,0:0:0:0:
256,192,213556,1,0,0:0:0:0:
256,192,213723,1,2,0:0:0:0:
256,192,213806,1,0,0:0:0:0:
256,192,213973,1,0,0:0:0:0:
256,192,214056,1,2,0:0:0:0:
256,192,214390,1,2,0:0:0:0:
256,192,214473,1,2,0:0:0:0:
256,192,214556,1,2,0:0:0:0:
256,192,214640,1,2,0:0:0:0:
256,192,214723,1,0,0:0:0:0:
256,192,214890,1,0,0:0:0:0:
256,192,214973,1,2,0:0:0:0:
256,192,215056,1,0,0:0:0:0:
256,192,215223,1,2,0:0:0:0:
256,192,215390,1,0,0:0:0:0:
256,192,215473,1,2,0:0:0:0:
256,192,215556,1,0,0:0:0:0:
256,192,215640,1,0,0:0:0:0:
256,192,215723,1,2,0:0:0:0:
256,192,215778,1,2,0:0:0:0:
256,192,215834,1,2,0:0:0:0:
256,192,215890,1,2,0:0:0:0:
256,192,215945,1,2,0:0:0:0:
256,192,216001,1,2,0:0:0:0:
256,192,216056,1,0,0:0:0:0:
256,192,216306,1,2,0:0:0:0:
256,192,216390,1,0,0:0:0:0:
256,192,216556,1,2,0:0:0:0:
256,192,216723,1,0,0:0:0:0:
256,192,216806,1,0,0:0:0:0:
256,192,216890,1,2,0:0:0:0:
256,192,216973,1,0,0:0:0:0:
256,192,217056,1,2,0:0:0:0:
256,192,217223,1,0,0:0:0:0:
256,192,217306,1,0,0:0:0:0:
256,192,217390,1,2,0:0:0:0:
256,192,217473,1,0,0:0:0:0:
256,192,217640,1,0,0:0:0:0:
256,192,217723,1,2,0:0:0:0:
256,192,217890,1,2,0:0:0:0:
256,192,217973,1,0,0:0:0:0:
256,192,218056,1,2,0:0:0:0:
256,192,218140,1,2,0:0:0:0:
256,192,218223,1,0,0:0:0:0:
256,192,218306,1,2,0:0:0:0:
256,192,218390,1,0,0:0:0:0:
256,192,218556,1,2,0:0:0:0:
256,192,218723,1,0,0:0:0:0:
256,192,218806,1,2,0:0:0:0:
256,192,218973,1,2,0:0:0:0:
256,192,219056,1,0,0:0:0:0:
256,192,219223,1,2,0:0:0:0:
256,192,219306,1,2,0:0:0:0:
256,192,219389,1,0,0:0:0:0:
256,192,219473,1,2,0:0:0:0:
256,192,219556,1,2,0:0:0:0:
256,192,219639,1,0,0:0:0:0:
256,192,219723,1,0,0:0:0:0:
256,192,219889,1,2,0:0:0:0:
256,192,220056,1,0,0:0:0:0:
256,192,220139,1,2,0:0:0:0:
256,192,220223,1,2,0:0:0:0:
256,192,220306,1,2,0:0:0:0:
256,192,220389,1,0,0:0:0:0:
256,192,220445,1,2,0:0:0:0:
256,192,220501,1,2,0:0:0:0:
256,192,220556,1,0,0:0:0:0:
256,192,220639,1,2,0:0:0:0:
256,192,220723,1,0,0:0:0:0:
256,192,221056,1,2,0:0:0:0:
256,192,221139,1,2,0:0:0:0:
256,192,221223,1,2,0:0:0:0:
256,192,221306,1,2,0:0:0:0:
256,192,221389,1,0,0:0:0:0:
256,192,221639,1,2,0:0:0:0:
256,192,221723,1,0,0:0:0:0:
256,192,221889,1,2,0:0:0:0:
256,192,222056,1,0,0:0:0:0:
256,192,222223,1,2,0:0:0:0:
256,192,222306,1,2,0:0:0:0:
256,192,222389,1,0,0:0:0:0:
256,192,222473,1,2,0:0:0:0:
256,192,222639,1,2,0:0:0:0:
256,192,222723,1,0,0:0:0:0:
256,192,222889,1,0,0:0:0:0:
256,192,222973,1,2,0:0:0:0:
256,192,223056,1,2,0:0:0:0:
256,192,223139,1,0,0:0:0:0:
256,192,223223,1,0,0:0:0:0:
256,192,223306,1,2,0:0:0:0:
256,192,223389,1,0,0:0:0:0:
256,192,223501,1,2,0:0:0:0:
256,192,223612,1,2,0:0:0:0:
256,192,223723,1,0,0:0:0:0:
256,192,223834,1,2,0:0:0:0:
256,192,223945,1,2,0:0:0:0:
256,192,224056,1,0,0:0:0:0:
256,192,224139,1,2,0:0:0:0:
256,192,224223,1,0,0:0:0:0:
256,192,224306,1,0,0:0:0:0:
256,192,224389,1,2,0:0:0:0:
256,192,224473,1,0,0:0:0:0:
256,192,224556,1,2,0:0:0:0:
256,192,224639,1,2,0:0:0:0:
256,192,224723,1,0,0:0:0:0:
256,192,224806,1,2,0:0:0:0:
256,192,224889,1,2,0:0:0:0:
256,192,224973,1,2,0:0:0:0:
256,192,225056,1,0,0:0:0:0:
256,192,225139,1,0,0:0:0:0:
256,192,225223,1,2,0:0:0:0:
256,192,225306,1,0,0:0:0:0:
256,192,225389,1,2,0:0:0:0:
256,192,225473,1,2,0:0:0:0:
256,192,225556,1,0,0:0:0:0:
256,192,225639,1,2,0:0:0:0:
256,192,225723,1,2,0:0:0:0:
256,192,225806,1,0,0:0:0:0:
256,192,225889,1,2,0:0:0:0:
256,192,225973,1,0,0:0:0:0:
256,192,226056,1,2,0:0:0:0:
256,192,226139,1,2,0:0:0:0:
256,192,226223,1,0,0:0:0:0:
256,192,226389,1,6,0:0:0:0:
256,192,231447,5,0,0:0:0:0:
256,192,231780,1,0,0:0:0:0:
256,192,232002,1,2,0:0:0:0:
256,192,232113,1,2,0:0:0:0:
256,192,232335,1,2,0:0:0:0:
256,192,232446,1,2,0:0:0:0:
256,192,232558,1,0,0:0:0:0:
256,192,232780,1,2,0:0:0:0:
256,192,232891,1,0,0:0:0:0:
256,192,233224,1,0,0:0:0:0:
256,192,233298,1,0,0:0:0:0:
256,192,233372,1,0,0:0:0:0:
256,192,233446,1,2,0:0:0:0:
256,192,233558,1,2,0:0:0:0:
256,192,233669,1,0,0:0:0:0:
256,192,233891,1,2,0:0:0:0:
256,192,234002,1,0,0:0:0:0:
256,192,234224,1,2,0:0:0:0:
256,192,234335,1,0,0:0:0:0:
256,192,234502,1,2,0:0:0:0:
256,192,234558,1,2,0:0:0:0:
256,192,234669,1,2,0:0:0:0:
256,192,234780,1,2,0:0:0:0:
256,192,235002,1,0,0:0:0:0:
256,192,235113,1,2,0:0:0:0:
256,192,235335,1,2,0:0:0:0:
256,192,235446,1,0,0:0:0:0:
256,192,235521,1,0,0:0:0:0:
256,192,235595,1,0,0:0:0:0:
256,192,235669,1,2,0:0:0:0:
256,192,235780,1,2,0:0:0:0:
256,192,235891,1,0,0:0:0:0:
256,192,236113,1,2,0:0:0:0:
256,192,236224,1,0,0:0:0:0:
256,192,236446,1,2,0:0:0:0:
256,192,236558,1,2,0:0:0:0:
256,192,236780,1,2,0:0:0:0:
256,192,236891,1,2,0:0:0:0:
256,192,237002,1,0,0:0:0:0:
256,192,237224,1,0,0:0:0:0:
256,192,237335,1,2,0:0:0:0:
256,192,237446,1,0,0:0:0:0:
256,192,237558,1,0,0:0:0:0:
256,192,237669,1,2,0:0:0:0:
256,192,237891,1,2,0:0:0:0:
256,192,238002,1,0,0:0:0:0:
256,192,238113,1,2,0:0:0:0:
256,192,238187,1,2,0:0:0:0:
256,192,238261,1,2,0:0:0:0:
256,192,238335,1,0,0:0:0:0:
256,192,238446,1,2,0:0:0:0:
256,192,238669,1,2,0:0:0:0:
256,192,238780,1,0,0:0:0:0:
256,192,238891,1,2,0:0:0:0:
256,192,239002,1,2,0:0:0:0:
256,192,239113,1,2,0:0:0:0:
256,192,239224,1,4,0:0:0:0:
256,192,239558,1,6,0:0:0:0:
256,192,239891,1,2,0:0:0:0:
256,192,239965,1,2,0:0:0:0:
256,192,240039,1,2,0:0:0:0:
256,192,240113,1,2,0:0:0:0:
256,192,240187,1,2,0:0:0:0:
256,192,240261,1,2,0:0:0:0:
256,192,240335,1,0,0:0:0:0:
256,192,240669,1,0,0:0:0:0:
256,192,240891,1,0,0:0:0:0:
256,192,241002,1,2,0:0:0:0:
256,192,241335,1,2,0:0:0:0:
256,192,241446,1,0,0:0:0:0:
256,192,241780,1,0,0:0:0:0:
256,192,242002,1,0,0:0:0:0:
256,192,242113,1,2,0:0:0:0:
256,192,242224,1,0,0:0:0:0:
256,192,242335,1,2,0:0:0:0:
256,192,242446,1,2,0:0:0:0:
256,192,242558,1,0,0:0:0:0:
256,192,242891,1,0,0:0:0:0:
256,192,243113,1,0,0:0:0:0:
256,192,243224,1,2,0:0:0:0:
256,192,243558,1,2,0:0:0:0:
256,192,243669,1,0,0:0:0:0:
256,192,243780,1,2,0:0:0:0:
256,192,244002,1,2,0:0:0:0:
256,192,244224,1,2,0:0:0:0:
256,192,244335,1,0,0:0:0:0:
256,192,244446,1,0,0:0:0:0:
256,192,244558,1,2,0:0:0:0:
256,192,244669,1,2,0:0:0:0:
256,192,244780,1,0,0:0:0:0:
256,192,245002,1,2,0:0:0:0:
256,192,245113,1,0,0:0:0:0:
256,192,245335,1,0,0:0:0:0:
256,192,245446,1,2,0:0:0:0:
256,192,245780,1,2,0:0:0:0:
256,192,245891,1,0,0:0:0:0:
256,192,246224,1,0,0:0:0:0:
256,192,246446,1,0,0:0:0:0:
256,192,246558,1,2,0:0:0:0:
256,192,246669,1,2,0:0:0:0:
256,192,246780,1,0,0:0:0:0:
256,192,246891,1,2,0:0:0:0:
256,192,247002,1,0,0:0:0:0:
256,192,247335,1,0,0:0:0:0:
256,192,247558,1,0,0:0:0:0:
256,192,247669,1,6,0:0:0:0:
256,192,247891,1,2,0:0:0:0:
256,192,248002,1,0,0:0:0:0:
256,192,248113,1,2,0:0:0:0:
256,192,248169,1,2,0:0:0:0:
256,192,248224,1,2,0:0:0:0:
256,192,248335,1,0,0:0:0:0:
256,192,248446,1,2,0:0:0:0:
256,192,248669,1,0,0:0:0:0:
256,192,248780,1,0,0:0:0:0:
256,192,248891,1,2,0:0:0:0:
256,192,249002,1,2,0:0:0:0:
256,192,249113,1,2,0:0:0:0:
256,192,249224,1,0,0:0:0:0:
256,192,249558,1,0,0:0:0:0:
256,192,249780,1,0,0:0:0:0:
256,192,249891,1,2,0:0:0:0:
256,192,250224,1,2,0:0:0:0:
256,192,250335,1,0,0:0:0:0:
256,192,250669,1,0,0:0:0:0:
256,192,250891,1,0,0:0:0:0:
256,192,251002,1,2,0:0:0:0:
256,192,251113,1,0,0:0:0:0:
256,192,251224,1,2,0:0:0:0:
256,192,251335,1,2,0:0:0:0:
256,192,251446,1,0,0:0:0:0:
256,192,251780,1,0,0:0:0:0:
256,192,252002,1,0,0:0:0:0:
256,192,252113,1,2,0:0:0:0:
256,192,252335,1,2,0:0:0:0:
256,192,252446,1,2,0:0:0:0:
256,192,252558,1,0,0:0:0:0:
256,192,252669,1,2,0:0:0:0:
256,192,252891,1,2,0:0:0:0:
256,192,253113,1,2,0:0:0:0:
256,192,253224,1,0,0:0:0:0:
256,192,253335,1,0,0:0:0:0:
256,192,253446,1,2,0:0:0:0:
256,192,253558,1,2,0:0:0:0:
256,192,253669,1,4,0:0:0:0:
256,192,254002,1,4,0:0:0:0:
256,192,254335,1,6,0:0:0:0:
256,192,254669,1,2,0:0:0:0:
256,192,254780,1,0,0:0:0:0:
256,192,254891,1,2,0:0:0:0:
256,192,255113,1,0,0:0:0:0:
256,192,255335,1,0,0:0:0:0:
256,192,255446,1,2,0:0:0:0:
256,192,255669,1,2,0:0:0:0:
256,192,255780,1,2,0:0:0:0:
256,192,255891,1,0,0:0:0:0:
256,192,256002,1,2,0:0:0:0:
256,192,256224,1,2,0:0:0:0:
256,192,256446,1,2,0:0:0:0:
256,192,256558,1,0,0:0:0:0:
256,192,256780,1,0,0:0:0:0:
256,192,256891,1,2,0:0:0:0:
256,192,257002,1,0,0:0:0:0:
256,192,257113,1,2,0:0:0:0:
256,192,257169,1,2,0:0:0:0:
256,192,257224,1,2,0:0:0:0:
256,192,257335,1,2,0:0:0:0:
256,192,257446,1,0,0:0:0:0:
256,192,257558,1,2,0:0:0:0:
256,192,257669,1,0,0:0:0:0:
256,192,257724,1,0,0:0:0:0:
256,192,257780,1,0,0:0:0:0:
256,192,257891,1,0,0:0:0:0:
256,192,258002,1,2,0:0:0:0:
256,192,258113,1,0,0:0:0:0:
256,192,258446,1,0,0:0:0:0:
256,192,259780,1,2,0:0:0:0:
256,192,259891,1,2,0:0:0:0:
256,192,260113,1,2,0:0:0:0:
256,192,260335,1,0,0:0:0:0:
256,192,260669,1,0,0:0:0:0:
256,192,261780,1,0,0:0:0:0:
256,192,262002,1,2,0:0:0:0:
256,192,262058,1,2,0:0:0:0:
256,192,262113,1,0,0:0:0:0:
256,192,262335,1,0,0:0:0:0:
256,192,262446,1,0,0:0:0:0:
256,192,262558,1,0,0:0:0:0:
256,192,262669,1,2,0:0:0:0:
256,192,262780,1,2,0:0:0:0:
256,192,262891,1,0,0:0:0:0:
256,192,263002,1,2,0:0:0:0:
256,192,263113,1,2,0:0:0:0:
256,192,263224,1,0,0:0:0:0:
256,192,263446,1,2,0:0:0:0:
256,192,263669,1,0,0:0:0:0:
256,192,263780,1,2,0:0:0:0:
256,192,263891,1,2,0:0:0:0:
256,192,264002,1,0,0:0:0:0:
256,192,264113,1,0,0:0:0:0:
256,192,264224,1,2,0:0:0:0:
256,192,264335,1,0,0:0:0:0:
256,192,264558,1,2,0:0:0:0:
256,192,264780,1,0,0:0:0:0:
256,192,264891,1,0,0:0:0:0:
256,192,265002,1,2,0:0:0:0:
256,192,265113,1,0,0:0:0:0:
256,192,265224,1,2,0:0:0:0:
256,192,265335,1,2,0:0:0:0:
256,192,265446,1,0,0:0:0:0:
256,192,265502,1,0,0:0:0:0:
256,192,265558,1,0,0:0:0:0:
256,192,265613,1,0,0:0:0:0:
256,192,265669,1,2,0:0:0:0:
256,192,265780,1,2,0:0:0:0:
256,192,265891,1,4,0:0:0:0:
256,192,266113,1,0,0:0:0:0:
256,192,266224,1,6,0:0:0:0:
256,192,266446,1,0,0:0:0:0:
256,192,266558,1,2,0:0:0:0:
256,192,266613,1,2,0:0:0:0:
256,192,266669,1,2,0:0:0:0:
256,192,266780,1,0,0:0:0:0:
256,192,266891,1,0,0:0:0:0:
256,192,267002,1,4,0:0:0:0:
256,192,267335,1,2,0:0:0:0:
256,192,267669,1,2,0:0:0:0:
256,192,268113,1,2,0:0:0:0:
256,192,268446,1,2,0:0:0:0:
256,192,268669,1,2,0:0:0:0:
256,192,268780,1,2,0:0:0:0:
256,192,269002,1,2,0:0:0:0:
256,192,269113,1,2,0:0:0:0:
256,192,269224,1,2,0:0:0:0:
256,192,269558,1,2,0:0:0:0:
256,192,269891,1,2,0:0:0:0:
256,192,270224,1,2,0:0:0:0:
256,192,270335,1,2,0:0:0:0:
256,192,270669,1,2,0:0:0:0:
256,192,271002,1,2,0:0:0:0:
256,192,271224,1,2,0:0:0:0:
256,192,271335,1,0,0:0:0:0:
256,192,271446,1,0,0:0:0:0:
256,192,271669,1,2,0:0:0:0:
256,192,271780,1,2,0:0:0:0:
256,192,272002,1,2,0:0:0:0:
256,192,272113,1,2,0:0:0:0:
256,192,272558,1,2,0:0:0:0:
256,192,272891,1,2,0:0:0:0:
256,192,273113,1,2,0:0:0:0:
256,192,273224,1,2,0:0:0:0:
256,192,273446,1,2,0:0:0:0:
256,192,273558,1,2,0:0:0:0:
256,192,273669,1,0,0:0:0:0:
256,192,274002,1,2,0:0:0:0:
256,192,274224,1,2,0:0:0:0:
256,192,274335,1,2,0:0:0:0:
256,192,274446,1,0,0:0:0:0:
256,192,274558,1,0,0:0:0:0:
256,192,274613,1,0,0:0:0:0:
256,192,274669,1,0,0:0:0:0:
256,192,274780,1,2,0:0:0:0:
256,192,274891,1,2,0:0:0:0:
256,192,275002,1,2,0:0:0:0:
256,192,275113,1,0,0:0:0:0:
256,192,275224,1,0,0:0:0:0:
256,192,275335,1,0,0:0:0:0:
256,192,275446,1,2,0:0:0:0:
256,192,275558,1,2,0:0:0:0:
256,192,275669,1,0,0:0:0:0:
256,192,275780,1,0,0:0:0:0:
256,192,275891,5,4,0:0:0:0:
256,192,276224,1,0,0:0:0:0:
256,192,276446,1,0,0:0:0:0:
256,192,276558,1,2,0:0:0:0:
256,192,276891,1,2,0:0:0:0:
256,192,277002,1,0,0:0:0:0:
256,192,277113,1,2,0:0:0:0:
256,192,277224,1,2,0:0:0:0:
256,192,277335,1,0,0:0:0:0:
256,192,277558,1,0,0:0:0:0:
256,192,277669,1,2,0:0:0:0:
256,192,277891,1,2,0:0:0:0:
256,192,278002,1,2,0:0:0:0:
256,192,278113,1,0,0:0:0:0:
256,192,278446,1,0,0:0:0:0:
256,192,278669,1,0,0:0:0:0:
256,192,278780,1,2,0:0:0:0:
256,192,279002,1,2,0:0:0:0:
256,192,279113,1,2,0:0:0:0:
256,192,279224,1,0,0:0:0:0:
256,192,279446,1,2,0:0:0:0:
256,192,279558,1,0,0:0:0:0:
256,192,279780,1,0,0:0:0:0:
256,192,279891,1,2,0:0:0:0:
256,192,280113,1,2,0:0:0:0:
256,192,280224,1,2,0:0:0:0:
256,192,280335,1,0,0:0:0:0:
256,192,280446,1,0,0:0:0:0:
256,192,280669,1,0,0:0:0:0:
256,192,280891,1,0,0:0:0:0:
256,192,281002,1,2,0:0:0:0:
256,192,281335,1,2,0:0:0:0:
256,192,281446,1,0,0:0:0:0:
256,192,281558,1,2,0:0:0:0:
256,192,281780,1,0,0:0:0:0:
256,192,282002,1,0,0:0:0:0:
256,192,282113,1,2,0:0:0:0:
256,192,282335,1,2,0:0:0:0:
256,192,282446,1,2,0:0:0:0:
256,192,282558,1,0,0:0:0:0:
256,192,282669,1,2,0:0:0:0:
256,192,282891,1,0,0:0:0:0:
256,192,283113,1,0,0:0:0:0:
256,192,283224,1,2,0:0:0:0:
256,192,283446,1,2,0:0:0:0:
256,192,283558,1,2,0:0:0:0:
256,192,283669,1,0,0:0:0:0:
256,192,283780,1,2,0:0:0:0:
256,192,283891,1,2,0:0:0:0:
256,192,284002,1,0,0:0:0:0:
256,192,284113,1,2,0:0:0:0:
256,192,284224,1,0,0:0:0:0:
256,192,284280,1,0,0:0:0:0:
256,192,284335,1,2,0:0:0:0:
256,192,284446,1,2,0:0:0:0:
256,192,284558,1,0,0:0:0:0:
256,192,284613,1,0,0:0:0:0:
256,192,284669,1,0,0:0:0:0:
256,192,284780,1,2,0:0:0:0:
256,192,284891,1,0,0:0:0:0:
256,192,285002,1,2,0:0:0:0:
256,192,285058,1,2,0:0:0:0:
256,192,285113,1,0,0:0:0:0:
256,192,285335,1,2,0:0:0:0:
256,192,285391,1,2,0:0:0:0:
256,192,285446,1,2,0:0:0:0:
256,192,285558,1,2,0:0:0:0:
256,192,285669,1,0,0:0:0:0:
256,192,285780,1,0,0:0:0:0:
256,192,285891,1,4,0:0:0:0:
256,192,286113,1,2,0:0:0:0:
256,192,286224,1,4,0:0:0:0:
256,192,286446,1,2,0:0:0:0:
256,192,286502,1,2,0:0:0:0:
256,192,286558,1,0,0:0:0:0:
256,192,286669,1,2,0:0:0:0:
256,192,286780,1,2,0:0:0:0:
256,192,286891,1,0,0:0:0:0:
256,192,287002,1,6,0:0:0:0:
256,192,291446,1,0,0:0:0:0:
256,192,291780,1,0,0:0:0:0:
256,192,292113,1,2,0:0:0:0:
256,192,292446,1,0,0:0:0:0:
256,192,292558,1,0,0:0:0:0:
256,192,292891,1,0,0:0:0:0:
256,192,293113,1,0,0:0:0:0:
256,192,293224,1,2,0:0:0:0:
256,192,293446,1,2,0:0:0:0:
256,192,293558,1,2,0:0:0:0:
256,192,293669,1,0,0:0:0:0:
256,192,294002,1,0,0:0:0:0:
256,192,294224,1,0,0:0:0:0:
256,192,294335,1,2,0:0:0:0:
256,192,294669,1,2,0:0:0:0:
256,192,294780,1,0,0:0:0:0:
256,192,294891,1,2,0:0:0:0:
256,192,295113,1,0,0:0:0:0:
256,192,295335,1,0,0:0:0:0:
256,192,295446,1,2,0:0:0:0:
256,192,295558,1,0,0:0:0:0:
256,192,295669,1,2,0:0:0:0:
256,192,295780,1,2,0:0:0:0:
256,192,295891,1,0,0:0:0:0:
256,192,296224,1,0,0:0:0:0:
256,192,296558,1,2,0:0:0:0:
256,192,296891,1,0,0:0:0:0:
256,192,297002,1,0,0:0:0:0:
256,192,297335,1,0,0:0:0:0:
256,192,297558,1,0,0:0:0:0:
256,192,297669,1,2,0:0:0:0:
256,192,297891,1,2,0:0:0:0:
256,192,298002,1,2,0:0:0:0:
256,192,298113,1,0,0:0:0:0:
256,192,298446,1,0,0:0:0:0:
256,192,298669,1,0,0:0:0:0:
256,192,298780,1,2,0:0:0:0:
256,192,299113,1,0,0:0:0:0:
256,192,299224,1,0,0:0:0:0:
256,192,299335,1,2,0:0:0:0:
256,192,299558,1,2,0:0:0:0:
256,192,299669,1,0,0:0:0:0:
256,192,299780,1,2,0:0:0:0:
256,192,299891,1,2,0:0:0:0:
256,192,299946,1,2,0:0:0:0:
256,192,300002,1,2,0:0:0:0:
256,192,300113,1,0,0:0:0:0:
256,192,300169,1,0,0:0:0:0:
256,192,300224,1,2,0:0:0:0:
256,192,300280,1,2,0:0:0:0:
256,192,300335,1,0,0:0:0:0:
256,192,300558,1,2,0:0:0:0:
256,192,300669,1,0,0:0:0:0:
256,192,300780,1,2,0:0:0:0:
256,192,300891,1,2,0:0:0:0:
256,192,301002,1,0,0:0:0:0:
256,192,301058,1,0,0:0:0:0:
256,192,301113,1,0,0:0:0:0:
256,192,301224,1,2,0:0:0:0:
256,192,301335,1,2,0:0:0:0:
256,192,301446,1,0,0:0:0:0:
256,192,301558,1,2,0:0:0:0:
256,192,301669,1,2,0:0:0:0:
256,192,301780,1,0,0:0:0:0:
256,192,302002,1,2,0:0:0:0:
256,192,302113,1,0,0:0:0:0:
256,192,302224,1,0,0:0:0:0:
256,192,302280,1,0,0:0:0:0:
256,192,302335,1,2,0:0:0:0:
256,192,302446,1,2,0:0:0:0:
256,192,302558,1,0,0:0:0:0:
256,192,302780,1,2,0:0:0:0:
256,192,302891,1,0,0:0:0:0:
256,192,303113,1,2,0:0:0:0:
256,192,303169,1,2,0:0:0:0:
256,192,303224,1,0,0:0:0:0:
256,192,303335,1,0,0:0:0:0:
256,192,303446,1,2,0:0:0:0:
256,192,303558,1,2,0:0:0:0:
256,192,303669,1,0,0:0:0:0:
256,192,303780,1,2,0:0:0:0:
256,192,304002,1,0,0:0:0:0:
256,192,304224,1,0,0:0:0:0:
256,192,304335,1,2,0:0:0:0:
256,192,304391,1,2,0:0:0:0:
256,192,304446,1,0,0:0:0:0:
256,192,304502,1,0,0:0:0:0:
256,192,304558,1,2,0:0:0:0:
256,192,304669,1,2,0:0:0:0:
256,192,304724,1,2,0:0:0:0:
256,192,304780,1,0,0:0:0:0:
256,192,305002,1,2,0:0:0:0:
256,192,305113,1,0,0:0:0:0:
256,192,305224,1,2,0:0:0:0:
256,192,305335,1,2,0:0:0:0:
256,192,305446,1,0,0:0:0:0:
256,192,305502,1,0,0:0:0:0:
256,192,305558,1,0,0:0:0:0:
256,192,305669,1,2,0:0:0:0:
256,192,305780,1,2,0:0:0:0:
256,192,305891,1,0,0:0:0:0:
256,192,306002,1,2,0:0:0:0:
256,192,306224,1,0,0:0:0:0:
256,192,306446,1,2,0:0:0:0:
256,192,306502,1,2,0:0:0:0:
256,192,306558,1,0,0:0:0:0:
256,192,306669,1,0,0:0:0:0:
256,192,306780,1,2,0:0:0:0:
256,192,306891,1,2,0:0:0:0:
256,192,307002,1,0,0:0:0:0:
256,192,307113,1,0,0:0:0:0:
256,192,307224,1,0,0:0:0:0:
256,192,307335,1,2,0:0:0:0:
256,192,307446,1,2,0:0:0:0:
256,192,307558,1,2,0:0:0:0:
256,192,307613,1,2,0:0:0:0:
256,192,307669,1,2,0:0:0:0:
256,192,307780,1,0,0:0:0:0:
256,192,307891,1,2,0:0:0:0:
256,192,308002,1,2,0:0:0:0:
256,192,308113,1,0,0:0:0:0:
256,192,308224,1,2,0:0:0:0:
256,192,308335,1,2,0:0:0:0:
256,192,308446,1,0,0:0:0:0:
256,192,308669,1,2,0:0:0:0:
256,192,308724,1,2,0:0:0:0:
256,192,308780,1,0,0:0:0:0:
256,192,308835,1,0,0:0:0:0:
256,192,308891,1,2,0:0:0:0:
256,192,308946,1,2,0:0:0:0:
256,192,309002,1,2,0:0:0:0:
256,192,309113,1,2,0:0:0:0:
256,192,309224,1,4,0:0:0:0:
256,192,309446,1,2,0:0:0:0:
256,192,309558,1,0,0:0:0:0:
256,192,309780,1,0,0:0:0:0:
256,192,309835,1,0,0:0:0:0:
256,192,309891,1,2,0:0:0:0:
256,192,310002,1,0,0:0:0:0:
256,192,310113,1,2,0:0:0:0:
256,192,310224,1,2,0:0:0:0:
256,192,310335,1,0,0:0:0:0:
256,192,310446,1,2,0:0:0:0:
256,192,310558,1,2,0:0:0:0:
256,192,310669,1,0,0:0:0:0:
256,192,310891,1,2,0:0:0:0:
256,192,310946,1,2,0:0:0:0:
256,192,311002,1,0,0:0:0:0:
256,192,311058,1,0,0:0:0:0:
256,192,311113,1,0,0:0:0:0:
256,192,311224,1,2,0:0:0:0:
256,192,311335,1,2,0:0:0:0:
256,192,311446,1,0,0:0:0:0:
256,192,311669,1,2,0:0:0:0:
256,192,311780,1,2,0:0:0:0:
256,192,312002,1,2,0:0:0:0:
256,192,312058,1,2,0:0:0:0:
256,192,312113,1,0,0:0:0:0:
256,192,312224,1,2,0:0:0:0:
256,192,312335,1,2,0:0:0:0:
256,192,312446,1,0,0:0:0:0:
256,192,312558,1,0,0:0:0:0:
256,192,312669,1,2,0:0:0:0:
256,192,312891,1,0,0:0:0:0:
256,192,313113,1,0,0:0:0:0:
256,192,313169,1,0,0:0:0:0:
256,192,313224,1,2,0:0:0:0:
256,192,313280,1,2,0:0:0:0:
256,192,313335,1,0,0:0:0:0:
256,192,313391,1,0,0:0:0:0:
256,192,313446,1,2,0:0:0:0:
256,192,313558,1,2,0:0:0:0:
256,192,313669,1,0,0:0:0:0:
256,192,313835,1,2,0:0:0:0:
256,192,314002,1,2,0:0:0:0:
256,192,314224,1,2,0:0:0:0:
256,192,314280,1,2,0:0:0:0:
256,192,314335,1,0,0:0:0:0:
256,192,314446,1,0,0:0:0:0:
256,192,314558,1,2,0:0:0:0:
256,192,314669,1,2,0:0:0:0:
256,192,314780,1,0,0:0:0:0:
256,192,314835,1,0,0:0:0:0:
256,192,314891,1,2,0:0:0:0:
256,192,315002,1,2,0:0:0:0:
256,192,315113,1,0,0:0:0:0:
256,192,315169,1,2,0:0:0:0:
256,192,315224,1,2,0:0:0:0:
256,192,315335,1,2,0:0:0:0:
256,192,315446,1,0,0:0:0:0:
256,192,315502,1,0,0:0:0:0:
256,192,315558,1,0,0:0:0:0:
256,192,315613,1,0,0:0:0:0:
256,192,315669,1,2,0:0:0:0:
256,192,315780,1,2,0:0:0:0:
256,192,315891,1,0,0:0:0:0:
256,192,316002,1,2,0:0:0:0:
256,192,316224,1,2,0:0:0:0:
256,192,316446,1,2,0:0:0:0:
256,192,316502,1,2,0:0:0:0:
256,192,316558,1,0,0:0:0:0:
256,192,316669,1,0,0:0:0:0:
256,192,316780,1,2,0:0:0:0:
256,192,316891,1,2,0:0:0:0:
256,192,317002,1,0,0:0:0:0:
256,192,317113,1,2,0:0:0:0:
256,192,317169,1,2,0:0:0:0:
256,192,317224,1,2,0:0:0:0:
256,192,317335,1,0,0:0:0:0:
256,192,317446,1,0,0:0:0:0:
256,192,317558,1,0,0:0:0:0:
256,192,317613,1,0,0:0:0:0:
256,192,317669,1,2,0:0:0:0:
256,192,317780,1,2,0:0:0:0:
256,192,317891,1,2,0:0:0:0:
256,192,317946,1,2,0:0:0:0:
256,192,318002,1,0,0:0:0:0:
256,192,318058,1,0,0:0:0:0:
256,192,318113,1,0,0:0:0:0:
256,192,318446,1,0,0:0:0:0:
256,192,318669,1,2,0:0:0:0:
256,192,318780,1,0,0:0:0:0:
256,192,318835,1,2,0:0:0:0:
256,192,318891,1,2,0:0:0:0:
256,192,318946,1,2,0:0:0:0:
256,192,319002,1,2,0:0:0:0:
256,192,319113,1,2,0:0:0:0:
256,192,319335,1,0,0:0:0:0:
256,192,319558,1,0,0:0:0:0:
256,192,319780,1,2,0:0:0:0:
256,192,319891,1,0,0:0:0:0:
256,192,319946,1,2,0:0:0:0:
256,192,320002,1,2,0:0:0:0:
256,192,320058,1,2,0:0:0:0:
256,192,320113,1,2,0:0:0:0:
256,192,320224,1,2,0:0:0:0:
256,192,320335,1,0,0:0:0:0:
256,192,320558,1,2,0:0:0:0:
256,192,320669,1,0,0:0:0:0:
256,192,320891,1,2,0:0:0:0:
256,192,320946,1,2,0:0:0:0:
256,192,321002,1,0,0:0:0:0:
256,192,321224,1,2,0:0:0:0:
256,192,321335,1,2,0:0:0:0:
256,192,321446,1,0,0:0:0:0:
256,192,321558,1,2,0:0:0:0:
256,192,321780,1,0,0:0:0:0:
256,192,322002,1,0,0:0:0:0:
256,192,322113,1,2,0:0:0:0:
256,192,322169,1,2,0:0:0:0:
256,192,322224,1,2,0:0:0:0:
256,192,322280,1,2,0:0:0:0:
256,192,322335,1,0,0:0:0:0:
256,192,322558,1,0,0:0:0:0:
256,192,322891,1,0,0:0:0:0:
256,192,323113,1,2,0:0:0:0:
256,192,323224,1,0,0:0:0:0:
256,192,323280,1,2,0:0:0:0:
256,192,323335,1,2,0:0:0:0:
256,192,323391,1,2,0:0:0:0:
256,192,323446,1,2,0:0:0:0:
256,192,323558,1,2,0:0:0:0:
256,192,323669,1,0,0:0:0:0:
256,192,323780,1,2,0:0:0:0:
256,192,324002,1,0,0:0:0:0:
256,192,324224,1,0,0:0:0:0:
256,192,324335,1,0,0:0:0:0:
256,192,324391,1,2,0:0:0:0:
256,192,324446,1,2,0:0:0:0:
256,192,324502,1,2,0:0:0:0:
256,192,324558,1,2,0:0:0:0:
256,192,324669,1,2,0:0:0:0:
256,192,324780,1,0,0:0:0:0:
256,192,325002,1,2,0:0:0:0:
256,192,325113,1,0,0:0:0:0:
256,192,325335,1,2,0:0:0:0:
256,192,325391,1,2,0:0:0:0:
256,192,325446,1,2,0:0:0:0:
256,192,325669,1,2,0:0:0:0:
256,192,325780,1,2,0:0:0:0:
256,192,325891,1,0,0:0:0:0:
256,192,326002,1,2,0:0:0:0:
256,192,326224,1,2,0:0:0:0:
256,192,326446,1,2,0:0:0:0:
256,192,326558,1,0,0:0:0:0:
256,192,326669,1,0,0:0:0:0:
256,192,326724,1,0,0:0:0:0:
256,192,326780,1,2,0:0:0:0:
256,192,326835,1,2,0:0:0:0:
256,192,326891,1,0,0:0:0:0:
256,192,326946,1,0,0:0:0:0:
256,192,327002,1,0,0:0:0:0:
256,192,327335,1,0,0:0:0:0:
256,192,327669,1,2,0:0:0:0:
256,192,328002,1,0,0:0:0:0:
256,192,328113,1,0,0:0:0:0:
256,192,328446,1,0,0:0:0:0:
256,192,328780,1,2,0:0:0:0:
256,192,329002,1,2,0:0:0:0:
256,192,329113,1,0,0:0:0:0:
256,192,329224,1,0,0:0:0:0:
256,192,329558,1,0,0:0:0:0:
256,192,329835,1,2,0:0:0:0:
256,192,329891,1,2,0:0:0:0:
256,192,330113,1,2,0:0:0:0:
256,192,330224,1,2,0:0:0:0:
256,192,330335,1,0,0:0:0:0:
256,192,330446,1,2,0:0:0:0:
256,192,330669,1,2,0:0:0:0:
256,192,330891,1,0,0:0:0:0:
256,192,331002,1,2,0:0:0:0:
256,192,331224,1,2,0:0:0:0:
256,192,331335,1,0,0:0:0:0:
256,192,331446,1,0,0:0:0:0:
256,192,331558,1,2,0:0:0:0:
256,192,331669,1,2,0:0:0:0:
256,192,331780,1,0,0:0:0:0:
256,192,331891,1,0,0:0:0:0:
256,192,332002,1,2,0:0:0:0:
256,192,332113,1,0,0:0:0:0:
256,192,332187,1,0,0:0:0:0:
256,192,332261,1,0,0:0:0:0:
256,192,332335,1,2,0:0:0:0:
256,192,332446,1,2,0:0:0:0:
256,192,332558,1,0,0:0:0:0:
256,192,332669,1,0,0:0:0:0:
256,192,332780,1,2,0:0:0:0:
256,192,332891,1,0,0:0:0:0:
256,192,333113,1,0,0:0:0:0:
256,192,333224,1,2,0:0:0:0:
256,192,333280,1,2,0:0:0:0:
256,192,333335,1,0,0:0:0:0:
256,192,333446,1,2,0:0:0:0:
256,192,333558,1,0,0:0:0:0:
256,192,333613,1,0,0:0:0:0:
256,192,333669,1,2,0:0:0:0:
256,192,333780,1,0,0:0:0:0:
256,192,333891,1,2,0:0:0:0:
256,192,334002,1,0,0:0:0:0:
256,192,334113,1,2,0:0:0:0:
256,192,334224,1,2,0:0:0:0:
256,192,334335,1,2,0:0:0:0:
256,192,334446,1,2,0:0:0:0:
256,192,334558,1,0,0:0:0:0:
256,192,334669,1,0,0:0:0:0:
256,192,334780,1,6,0:0:0:0:
256,192,335113,1,6,0:0:0:0:
256,192,335446,1,0,0:0:0:0:
256,192,335558,1,0,0:0:0:0:
256,192,335669,1,2,0:0:0:0:
256,192,335780,1,2,0:0:0:0:
256,192,335891,1,4,0:0:0:0:
256,192,336224,1,0,0:0:0:0:
256,192,336446,1,0,0:0:0:0:
256,192,336558,1,2,0:0:0:0:
256,192,336891,1,2,0:0:0:0:
256,192,337002,1,0,0:0:0:0:
256,192,337113,1,2,0:0:0:0:
256,192,337224,1,2,0:0:0:0:
256,192,337335,1,0,0:0:0:0:
256,192,337558,1,0,0:0:0:0:
256,192,337669,1,2,0:0:0:0:
256,192,337780,1,0,0:0:0:0:
256,192,337891,1,2,0:0:0:0:
256,192,338002,1,2,0:0:0:0:
256,192,338113,1,0,0:0:0:0:
256,192,338446,1,0,0:0:0:0:
256,192,338669,1,0,0:0:0:0:
256,192,338780,1,2,0:0:0:0:
256,192,339113,1,2,0:0:0:0:
256,192,339224,1,0,0:0:0:0:
256,192,339335,1,0,0:0:0:0:
256,192,339558,1,2,0:0:0:0:
256,192,339780,1,2,0:0:0:0:
256,192,339891,1,0,0:0:0:0:
256,192,340002,1,0,0:0:0:0:
256,192,340058,1,0,0:0:0:0:
256,192,340113,1,2,0:0:0:0:
256,192,340224,1,2,0:0:0:0:
256,192,340335,1,0,0:0:0:0:
256,192,340446,1,2,0:0:0:0:
256,192,340558,1,2,0:0:0:0:
256,192,340669,1,0,0:0:0:0:
256,192,340891,1,0,0:0:0:0:
256,192,341002,1,2,0:0:0:0:
256,192,341224,1,0,0:0:0:0:
256,192,341335,1,2,0:0:0:0:
256,192,341446,1,0,0:0:0:0:
256,192,341558,1,0,0:0:0:0:
256,192,341780,1,0,0:0:0:0:
256,192,342002,1,0,0:0:0:0:
256,192,342113,1,2,0:0:0:0:
256,192,342224,1,2,0:0:0:0:
256,192,342335,1,0,0:0:0:0:
256,192,342446,1,0,0:0:0:0:
256,192,342558,1,0,0:0:0:0:
256,192,342891,1,2,0:0:0:0:
256,192,343113,1,0,0:0:0:0:
256,192,343224,1,2,0:0:0:0:
256,192,343446,1,2,0:0:0:0:
256,192,343558,1,0,0:0:0:0:
256,192,343669,1,2,0:0:0:0:
256,192,343724,1,2,0:0:0:0:
256,192,343780,1,0,0:0:0:0:
256,192,343891,1,0,0:0:0:0:
256,192,344002,1,2,0:0:0:0:
256,192,344058,1,0,0:0:0:0:
256,192,344113,1,0,0:0:0:0:
256,192,344224,1,0,0:0:0:0:
256,192,344335,1,2,0:0:0:0:
256,192,344446,1,0,0:0:0:0:
256,192,344558,1,2,0:0:0:0:
256,192,344669,1,2,0:0:0:0:
256,192,344780,1,0,0:0:0:0:
256,192,345002,1,0,0:0:0:0:
256,192,345113,1,2,0:0:0:0:
256,192,345224,1,0,0:0:0:0:
256,192,345298,1,0,0:0:0:0:
256,192,345372,1,0,0:0:0:0:
256,192,345446,1,2,0:0:0:0:
256,192,345669,1,2,0:0:0:0:
256,192,345780,1,2,0:0:0:0:
256,192,345891,1,0,0:0:0:0:
256,192,346002,1,2,0:0:0:0:
256,192,346058,1,2,0:0:0:0:
256,192,346113,1,2,0:0:0:0:
256,192,346224,1,0,0:0:0:0:
256,192,346335,1,2,0:0:0:0:
256,192,346446,1,2,0:0:0:0:
256,192,346558,1,0,0:0:0:0:
256,192,346613,1,0,0:0:0:0:
256,192,346669,1,0,0:0:0:0:
256,192,346780,1,2,0:0:0:0:
256,192,347002,1,0,0:0:0:0:
256,192,347113,1,0,0:0:0:0:
256,192,347224,1,2,0:0:0:0:
256,192,347280,1,2,0:0:0:0:
256,192,347335,1,0,0:0:0:0:
256,192,347446,1,0,0:0:0:0:
256,192,347558,1,0,0:0:0:0:
256,192,347613,1,0,0:0:0:0:
256,192,347669,1,2,0:0:0:0:
256,192,347780,1,0,0:0:0:0:
256,192,347891,1,2,0:0:0:0:
256,192,348002,1,0,0:0:0:0:
256,192,348113,1,0,0:0:0:0:
256,192,348224,1,2,0:0:0:0:
256,192,348446,1,2,0:0:0:0:
256,192,348558,1,0,0:0:0:0:
256,192,348669,1,2,0:0:0:0:
256,192,348780,1,0,0:0:0:0:
256,192,348835,1,0,0:0:0:0:
256,192,348891,1,0,0:0:0:0:
256,192,348946,1,0,0:0:0:0:
256,192,349002,1,2,0:0:0:0:
256,192,349113,1,2,0:0:0:0:
256,192,349224,1,0,0:0:0:0:
256,192,349335,1,2,0:0:0:0:
256,192,349446,1,2,0:0:0:0:
256,192,349558,1,0,0:0:0:0:
256,192,349613,1,0,0:0:0:0:
256,192,349669,1,0,0:0:0:0:
256,192,349780,1,0,0:0:0:0:
256,192,349891,1,6,0:0:0:0:
256,192,350224,1,2,0:0:0:0:
256,192,350335,1,0,0:0:0:0:
256,192,350446,1,2,0:0:0:0:
256,192,350669,1,0,0:0:0:0:
256,192,350891,1,0,0:0:0:0:
256,192,351002,1,2,0:0:0:0:
256,192,351224,1,2,0:0:0:0:
256,192,351335,1,2,0:0:0:0:
256,192,351446,1,0,0:0:0:0:
256,192,351558,1,0,0:0:0:0:
256,192,351613,1,0,0:0:0:0:
256,192,351669,1,2,0:0:0:0:
256,192,351780,1,0,0:0:0:0:
256,192,351891,1,2,0:0:0:0:
256,192,352002,1,2,0:0:0:0:
256,192,352113,1,0,0:0:0:0:
256,192,352224,1,2,0:0:0:0:
256,192,352280,1,2,0:0:0:0:
256,192,352335,1,2,0:0:0:0:
256,192,352446,1,2,0:0:0:0:
256,192,352558,1,0,0:0:0:0:
256,192,352669,1,2,0:0:0:0:
256,192,352780,1,0,0:0:0:0:
256,192,352854,1,0,0:0:0:0:
256,192,352928,1,0,0:0:0:0:
256,192,353002,1,2,0:0:0:0:
256,192,353076,1,2,0:0:0:0:
256,192,353150,1,2,0:0:0:0:
256,192,353224,1,0,0:0:0:0:
256,192,353335,1,0,0:0:0:0:
256,192,353446,1,2,0:0:0:0:
256,192,353558,1,2,0:0:0:0:
256,192,353669,1,4,0:0:0:0:
256,192,354002,1,2,0:0:0:0:
256,192,354224,1,2,0:0:0:0:
256,192,354335,1,0,0:0:0:0:
256,192,354391,1,0,0:0:0:0:
256,192,354446,1,0,0:0:0:0:
256,192,354558,1,2,0:0:0:0:
256,192,354669,1,2,0:0:0:0:
256,192,354780,1,0,0:0:0:0:
256,192,354891,1,0,0:0:0:0:
256,192,355002,1,0,0:0:0:0:
256,192,355113,1,2,0:0:0:0:
256,192,355224,1,0,0:0:0:0:
256,192,355335,1,0,0:0:0:0:
256,192,355446,1,2,0:0:0:0:
256,192,355521,1,2,0:0:0:0:
256,192,355595,1,2,0:0:0:0:
256,192,355669,1,2,0:0:0:0:
256,192,355743,1,2,0:0:0:0:
256,192,355817,1,2,0:0:0:0:
256,192,355891,1,0,0:0:0:0:
256,192,356113,1,2,0:0:0:0:
256,192,356224,1,4,0:0:0:0:
256,192,356446,1,0,0:0:0:0:
256,192,356502,1,0,0:0:0:0:
256,192,356558,1,2,0:0:0:0:
256,192,356669,1,2,0:0:0:0:
256,192,356780,1,2,0:0:0:0:
256,192,356891,1,2,0:0:0:0:
256,192,357002,1,0,0:0:0:0:
256,192,357076,1,2,0:0:0:0:
256,192,357150,1,2,0:0:0:0:
256,192,357224,1,2,0:0:0:0:
256,192,357335,1,0,0:0:0:0:
256,192,357409,1,2,0:0:0:0:
256,192,357484,1,2,0:0:0:0:
256,192,357558,1,2,0:0:0:0:
256,192,357669,1,0,0:0:0:0:
256,192,357780,1,0,0:0:0:0:
256,192,357891,1,2,0:0:0:0:
256,192,358002,1,2,0:0:0:0:
256,192,358113,1,0,0:0:0:0:
256,192,358169,1,0,0:0:0:0:
256,192,358224,1,0,0:0:0:0:
256,192,358335,1,0,0:0:0:0:
256,192,358446,1,2,0:0:0:0:
256,192,358669,1,2,0:0:0:0:
256,192,358780,1,0,0:0:0:0:
256,192,358891,1,0,0:0:0:0:
256,192,359002,1,2,0:0:0:0:
256,192,359113,1,2,0:0:0:0:
256,192,359224,1,0,0:0:0:0:
256,192,359298,1,2,0:0:0:0:
256,192,359372,1,2,0:0:0:0:
256,192,359446,1,0,0:0:0:0:
256,192,359558,1,6,0:0:0:0:
256,192,359780,1,0,0:0:0:0:
256,192,359891,1,2,0:0:0:0:
256,192,360002,1,2,0:0:0:0:
256,192,360113,1,0,0:0:0:0:
256,192,360224,1,0,0:0:0:0:
256,192,360335,1,6,0:0:0:0:
256,192,360558,1,2,0:0:0:0:
256,192,360669,1,0,0:0:0:0:
256,192,360891,1,0,0:0:0:0:
256,192,360946,1,0,0:0:0:0:
256,192,361002,1,2,0:0:0:0:
256,192,361076,1,2,0:0:0:0:
256,192,361150,1,2,0:0:0:0:
256,192,361224,1,0,0:0:0:0:
256,192,361298,1,0,0:0:0:0:
256,192,361372,1,0,0:0:0:0:
256,192,361446,1,2,0:0:0:0:
256,192,361521,1,0,0:0:0:0:
256,192,361595,1,0,0:0:0:0:
256,192,361669,1,2,0:0:0:0:
256,192,361743,1,2,0:0:0:0:
256,192,361817,1,2,0:0:0:0:
256,192,361891,1,0,0:0:0:0:
256,192,361965,1,0,0:0:0:0:
256,192,362039,1,0,0:0:0:0:
256,192,362113,1,2,0:0:0:0:
256,192,362224,1,2,0:0:0:0:
256,192,362335,1,2,0:0:0:0:
256,192,362446,1,2,0:0:0:0:
