osu file format v14

[General]
AudioFilename: S.I.D-Sound - Polaris.mp3
AudioLeadIn: 0
PreviewTime: 15678
Countdown: 1
SampleSet: Soft
StackLeniency: 0.7
Mode: 3
LetterboxInBreaks: 0
SpecialStyle: 0
WidescreenStoryboard: 1

[Editor]
DistanceSpacing: 0.5
BeatDivisor: 2
GridSize: 8
TimelineZoom: 1.3

[Metadata]
Title:la's 10K -SUPERMUG-
TitleUnicode:la's 10K -SUPERMUG-
Artist:Various Artists
ArtistUnicode:Various Artists
Creator:SK_la
Version:S.I.D-Sound - Polaris // HD
Source:
Tags:10k [ Reversal ] la SKla Mami Kawada portamento 川田まみ Primary yuiko ゆいこ RooM IOSYS Doutei Korose 童テイ殺セ S.I.D-Sound Polaris SID-Sound 시드 사운드 r300k Star Stream HHH×MM×ST Follow Tomorrow HHHxMMxST Ryu☆ Ryu* Starving Trancer Mayumi Morinaga 森永真由美 ウッーウッーウマウマ(゚∀゚) (Ryu☆ Remix) キャラメル Caramelldansen Caramell em9 Blue Moon Chroma Hoshi ga Furanai Machi 黑魔 星が降らない街
BeatmapID:1505226
BeatmapSetID:711991

[Difficulty]
HPDrainRate:7
CircleSize:10
OverallDifficulty:5
ApproachRate:5
SliderMultiplier:1.4
SliderTickRate:1

[Events]
//Background and Video events
0,0,"S.I.D-Sound - Polaris.jpg",0,0
//Break Periods
//Storyboard Layer 0 (Background)
//Storyboard Layer 1 (Fail)
//Storyboard Layer 2 (Pass)
//Storyboard Layer 3 (Foreground)
//Storyboard Layer 4 (Overlay)
//Storyboard Sound Samples

[TimingPoints]
1710,434.782608695652,4,2,0,0,1,0

[HitObjects]
486,192,1710,5,0,0:0:0:0:
128,192,1710,1,0,0:0:0:0:
281,192,1927,1,0,0:0:0:0:
25,192,1927,1,0,0:0:0:0:
486,192,2144,1,0,0:0:0:0:
128,192,2144,1,0,0:0:0:0:
281,192,2362,1,0,0:0:0:0:
230,192,2362,1,0,0:0:0:0:
486,192,2579,1,0,0:0:0:0:
281,192,2796,1,0,0:0:0:0:
179,192,2796,1,0,0:0:0:0:
486,192,3014,1,0,0:0:0:0:
128,192,3014,1,0,0:0:0:0:
281,192,3231,1,0,0:0:0:0:
76,192,3231,1,0,0:0:0:0:
435,192,3449,1,0,0:0:0:0:
179,192,3449,1,0,0:0:0:0:
281,192,3666,1,0,0:0:0:0:
76,192,3666,1,0,0:0:0:0:
435,192,3883,1,0,0:0:0:0:
25,192,3883,1,0,0:0:0:0:
281,192,4101,1,0,0:0:0:0:
230,192,4101,1,0,0:0:0:0:
179,192,4209,1,0,0:0:0:0:
76,192,4318,1,0,0:0:0:0:
435,192,4318,1,0,0:0:0:0:
179,192,4427,1,0,0:0:0:0:
281,192,4536,1,0,0:0:0:0:
435,192,4753,1,0,0:0:0:0:
76,192,4753,1,0,0:0:0:0:
486,192,4753,1,0,0:0:0:0:
281,192,4970,1,0,0:0:0:0:
179,192,4970,1,0,0:0:0:0:
332,192,4970,1,0,0:0:0:0:
384,192,5188,1,0,0:0:0:0:
128,192,5188,1,0,0:0:0:0:
281,192,5405,1,0,0:0:0:0:
25,192,5405,1,0,0:0:0:0:
384,192,5623,1,0,0:0:0:0:
76,192,5623,1,0,0:0:0:0:
281,192,5840,1,0,0:0:0:0:
230,192,5840,1,0,0:0:0:0:
384,192,6057,1,0,0:0:0:0:
281,192,6275,1,0,0:0:0:0:
179,192,6275,1,0,0:0:0:0:
384,192,6492,1,0,0:0:0:0:
128,192,6492,1,0,0:0:0:0:
281,192,6709,1,0,0:0:0:0:
76,192,6709,1,0,0:0:0:0:
435,192,6927,1,0,0:0:0:0:
230,192,6927,1,0,0:0:0:0:
332,192,7144,1,0,0:0:0:0:
25,192,7144,1,0,0:0:0:0:
435,192,7362,1,0,0:0:0:0:
128,192,7362,1,0,0:0:0:0:
179,192,7470,1,0,0:0:0:0:
332,192,7579,1,0,0:0:0:0:
230,192,7579,1,0,0:0:0:0:
435,192,7796,1,0,0:0:0:0:
486,192,7796,1,0,0:0:0:0:
76,192,7796,1,0,0:0:0:0:
281,192,8014,1,0,0:0:0:0:
179,192,8014,1,0,0:0:0:0:
332,192,8014,1,0,0:0:0:0:
435,192,8231,1,0,0:0:0:0:
486,192,8231,1,0,0:0:0:0:
76,192,8231,1,0,0:0:0:0:
281,192,8449,1,0,0:0:0:0:
179,192,8449,1,0,0:0:0:0:
332,192,8449,1,0,0:0:0:0:
384,192,8666,1,0,0:0:0:0:
76,192,8666,1,0,0:0:0:0:
25,192,8666,1,0,0:0:0:0:
486,192,9101,1,0,0:0:0:0:
230,192,9101,1,0,0:0:0:0:
179,192,9101,1,0,0:0:0:0:
384,192,9536,1,0,0:0:0:0:
25,192,9536,1,0,0:0:0:0:
76,192,9536,1,0,0:0:0:0:
281,192,9970,1,0,0:0:0:0:
332,192,9970,1,0,0:0:0:0:
179,192,9970,1,0,0:0:0:0:
76,192,9970,1,0,0:0:0:0:
486,192,10188,1,0,0:0:0:0:
460,192,10405,1,0,0:0:0:0:
332,192,10405,1,0,0:0:0:0:
76,192,10405,1,0,0:0:0:0:
128,192,10405,1,0,0:0:0:0:
179,192,10840,1,0,0:0:0:0:
281,192,10840,1,0,0:0:0:0:
384,192,10840,1,0,0:0:0:0:
51,192,11057,1,0,0:0:0:0:
128,192,11166,1,0,0:0:0:0:
230,192,11275,1,0,0:0:0:0:
332,192,11383,1,0,0:0:0:0:
76,192,11492,1,0,0:0:0:0:
486,192,11492,1,0,0:0:0:0:
179,192,11709,1,0,0:0:0:0:
332,192,11709,1,0,0:0:0:0:
76,192,11927,1,0,0:0:0:0:
486,192,11927,1,0,0:0:0:0:
281,192,12144,1,0,0:0:0:0:
230,192,12144,1,0,0:0:0:0:
332,192,12144,1,0,0:0:0:0:
179,192,12144,1,0,0:0:0:0:
486,192,12579,1,0,0:0:0:0:
384,192,12579,1,0,0:0:0:0:
25,192,12579,1,0,0:0:0:0:
128,192,12579,1,0,0:0:0:0:
358,192,13014,1,0,0:0:0:0:
460,192,13014,1,0,0:0:0:0:
179,192,13014,1,0,0:0:0:0:
76,192,13014,1,0,0:0:0:0:
230,192,13449,1,0,0:0:0:0:
128,192,13449,1,0,0:0:0:0:
486,192,13449,1,0,0:0:0:0:
384,192,13449,1,0,0:0:0:0:
281,192,13666,1,0,0:0:0:0:
435,192,13883,1,0,0:0:0:0:
230,192,13883,1,0,0:0:0:0:
25,192,14101,1,0,0:0:0:0:
128,192,14318,1,0,0:0:0:0:
332,192,14318,1,0,0:0:0:0:
230,192,14536,1,0,0:0:0:0:
486,192,14536,1,0,0:0:0:0:
332,192,14644,1,0,0:0:0:0:
76,192,14753,1,0,0:0:0:0:
179,192,14862,1,0,0:0:0:0:
435,192,14862,1,0,0:0:0:0:
332,192,14970,1,0,0:0:0:0:
76,192,15079,1,0,0:0:0:0:
179,192,15188,1,0,0:0:0:0:
384,192,15188,1,0,0:0:0:0:
230,192,15405,1,0,0:0:0:0:
128,192,15405,1,0,0:0:0:0:
486,192,15405,1,0,0:0:0:0:
281,192,15514,1,0,0:0:0:0:
51,192,15623,1,0,0:0:0:0:
358,192,15623,128,0,15840:0:0:0:0:
486,192,15840,128,0,16057:0:0:0:0:
153,192,16057,1,0,0:0:0:0:
384,192,16057,128,0,16275:0:0:0:0:
230,192,16057,1,0,0:0:0:0:
358,192,16275,128,0,16492:0:0:0:0:
51,192,16492,1,0,0:0:0:0:
281,192,16492,128,0,16709:0:0:0:0:
76,192,16492,1,0,0:0:0:0:
332,192,16709,128,0,16927:0:0:0:0:
384,192,16927,128,0,17144:0:0:0:0:
230,192,16927,1,0,0:0:0:0:
128,192,16927,1,0,0:0:0:0:
435,192,17144,128,0,17362:0:0:0:0:
358,192,17362,128,0,17579:0:0:0:0:
128,192,17362,1,0,0:0:0:0:
76,192,17362,1,0,0:0:0:0:
486,192,17579,128,0,17796:0:0:0:0:
230,192,17796,1,0,0:0:0:0:
435,192,17796,128,0,18014:0:0:0:0:
179,192,17796,1,0,0:0:0:0:
384,192,18014,128,0,18231:0:0:0:0:
332,192,18231,128,0,18449:0:0:0:0:
76,192,18231,1,0,0:0:0:0:
25,192,18231,1,0,0:0:0:0:
281,192,18449,128,0,18666:0:0:0:0:
332,192,18666,128,0,18883:0:0:0:0:
230,192,18666,1,0,0:0:0:0:
179,192,18666,1,0,0:0:0:0:
384,192,18883,128,0,19101:0:0:0:0:
128,192,18883,1,0,0:0:0:0:
76,192,18883,1,0,0:0:0:0:
281,192,19101,128,0,19318:0:0:0:0:
25,192,19101,1,0,0:0:0:0:
332,192,19318,128,0,19536:0:0:0:0:
128,192,19536,1,0,0:0:0:0:
384,192,19536,128,0,19753:0:0:0:0:
230,192,19536,1,0,0:0:0:0:
435,192,19753,128,0,19970:0:0:0:0:
76,192,19970,1,0,0:0:0:0:
486,192,19970,128,0,20188:0:0:0:0:
281,192,20188,128,0,20405:0:0:0:0:
230,192,20405,1,0,0:0:0:0:
332,192,20405,128,0,20623:0:0:0:0:
128,192,20405,1,0,0:0:0:0:
384,192,20623,128,0,20840:0:0:0:0:
179,192,20623,1,0,0:0:0:0:
435,192,20840,128,0,21057:0:0:0:0:
230,192,20840,1,0,0:0:0:0:
25,192,20840,1,0,0:0:0:0:
486,192,21057,128,0,21275:0:0:0:0:
384,192,21275,128,0,21492:0:0:0:0:
230,192,21275,1,0,0:0:0:0:
76,192,21275,1,0,0:0:0:0:
435,192,21492,128,0,21709:0:0:0:0:
179,192,21709,1,0,0:0:0:0:
332,192,21709,128,0,21927:0:0:0:0:
76,192,21709,1,0,0:0:0:0:
384,192,21927,128,0,22144:0:0:0:0:
230,192,21927,1,0,0:0:0:0:
51,192,22144,1,0,0:0:0:0:
281,192,22144,128,0,22362:0:0:0:0:
179,192,22362,1,0,0:0:0:0:
358,192,22362,128,0,22579:0:0:0:0:
25,192,22579,1,0,0:0:0:0:
76,192,22579,1,0,0:0:0:0:
486,192,22796,1,0,0:0:0:0:
332,192,23014,1,0,0:0:0:0:
230,192,23014,1,0,0:0:0:0:
179,192,23231,1,0,0:0:0:0:
76,192,23449,1,0,0:0:0:0:
25,192,23449,1,0,0:0:0:0:
179,192,23666,1,0,0:0:0:0:
332,192,23883,1,0,0:0:0:0:
230,192,23883,1,0,0:0:0:0:
486,192,24101,1,0,0:0:0:0:
76,192,24318,1,0,0:0:0:0:
25,192,24318,1,0,0:0:0:0:
230,192,24536,1,0,0:0:0:0:
128,192,24753,1,0,0:0:0:0:
435,192,24753,1,0,0:0:0:0:
332,192,24753,1,0,0:0:0:0:
179,192,24970,1,0,0:0:0:0:
25,192,25079,1,0,0:0:0:0:
76,192,25188,1,0,0:0:0:0:
384,192,25188,1,0,0:0:0:0:
128,192,25296,1,0,0:0:0:0:
179,192,25405,1,0,0:0:0:0:
230,192,25514,1,0,0:0:0:0:
25,192,25623,1,0,0:0:0:0:
281,192,25623,1,0,0:0:0:0:
486,192,25623,1,0,0:0:0:0:
76,192,25731,1,0,0:0:0:0:
128,192,25840,1,0,0:0:0:0:
281,192,25840,1,0,0:0:0:0:
486,192,25840,1,0,0:0:0:0:
179,192,25949,1,0,0:0:0:0:
230,192,26057,1,0,0:0:0:0:
332,192,26275,1,0,0:0:0:0:
435,192,26492,1,0,0:0:0:0:
76,192,26492,1,0,0:0:0:0:
230,192,26492,1,0,0:0:0:0:
332,192,26709,1,0,0:0:0:0:
486,192,26927,1,0,0:0:0:0:
128,192,26927,1,0,0:0:0:0:
230,192,26927,1,0,0:0:0:0:
332,192,27144,1,0,0:0:0:0:
230,192,27362,1,0,0:0:0:0:
179,192,27362,1,0,0:0:0:0:
435,192,27579,1,0,0:0:0:0:
51,192,27796,128,0,28666:0:0:0:0:
153,192,27796,128,0,28666:0:0:0:0:
332,192,27796,1,0,0:0:0:0:
256,192,28340,1,0,0:0:0:0:
358,192,28449,1,0,0:0:0:0:
435,192,28557,1,0,0:0:0:0:
384,192,28666,1,0,0:0:0:0:
332,192,28775,1,0,0:0:0:0:
179,192,28775,1,0,0:0:0:0:
281,192,28883,1,0,0:0:0:0:
486,192,28992,1,0,0:0:0:0:
76,192,29101,1,0,0:0:0:0:
435,192,29101,1,0,0:0:0:0:
179,192,29209,1,0,0:0:0:0:
384,192,29209,1,0,0:0:0:0:
332,192,29318,1,0,0:0:0:0:
76,192,29318,1,0,0:0:0:0:
179,192,29427,1,0,0:0:0:0:
230,192,29427,1,0,0:0:0:0:
435,192,29536,1,0,0:0:0:0:
486,192,29536,1,0,0:0:0:0:
358,192,29753,1,0,0:0:0:0:
76,192,29970,1,0,0:0:0:0:
25,192,29970,1,0,0:0:0:0:
358,192,30188,1,0,0:0:0:0:
76,192,30405,1,0,0:0:0:0:
25,192,30405,1,0,0:0:0:0:
332,192,30623,1,0,0:0:0:0:
179,192,30840,1,0,0:0:0:0:
76,192,30840,1,0,0:0:0:0:
25,192,30840,1,0,0:0:0:0:
332,192,31057,1,0,0:0:0:0:
25,192,31275,1,0,0:0:0:0:
76,192,31275,1,0,0:0:0:0:
435,192,31492,1,0,0:0:0:0:
25,192,31709,1,0,0:0:0:0:
230,192,31709,1,0,0:0:0:0:
76,192,31709,1,0,0:0:0:0:
435,192,31927,1,0,0:0:0:0:
25,192,32144,1,0,0:0:0:0:
76,192,32144,1,0,0:0:0:0:
332,192,32144,1,0,0:0:0:0:
179,192,32362,1,0,0:0:0:0:
435,192,32362,1,0,0:0:0:0:
25,192,32579,1,0,0:0:0:0:
76,192,32579,1,0,0:0:0:0:
332,192,32579,1,0,0:0:0:0:
128,192,32796,1,0,0:0:0:0:
435,192,32796,1,0,0:0:0:0:
179,192,33014,128,0,33231:0:0:0:0:
486,192,33014,1,0,0:0:0:0:
358,192,33231,1,0,0:0:0:0:
230,192,33231,128,0,33449:0:0:0:0:
460,192,33449,1,0,0:0:0:0:
486,192,33449,1,0,0:0:0:0:
358,192,33775,1,0,0:0:0:0:
179,192,33883,128,0,34101:0:0:0:0:
435,192,33883,1,0,0:0:0:0:
358,192,34101,1,0,0:0:0:0:
76,192,34101,128,0,34318:0:0:0:0:
256,192,34318,1,0,0:0:0:0:
25,192,34318,128,0,34536:0:0:0:0:
128,192,34536,128,0,34753:0:0:0:0:
332,192,34536,1,0,0:0:0:0:
256,192,34753,1,0,0:0:0:0:
179,192,34753,128,0,34970:0:0:0:0:
486,192,34970,1,0,0:0:0:0:
230,192,34970,128,0,35188:0:0:0:0:
332,192,35188,1,0,0:0:0:0:
384,192,35188,1,0,0:0:0:0:
435,192,35514,1,0,0:0:0:0:
332,192,35623,1,0,0:0:0:0:
25,192,35623,1,0,0:0:0:0:
179,192,35623,1,0,0:0:0:0:
332,192,35840,1,0,0:0:0:0:
179,192,36057,1,0,0:0:0:0:
486,192,36057,1,0,0:0:0:0:
128,192,36057,1,0,0:0:0:0:
281,192,36275,1,0,0:0:0:0:
76,192,36492,1,0,0:0:0:0:
25,192,36492,128,0,36709:0:0:0:0:
179,192,36709,1,0,0:0:0:0:
435,192,36927,1,0,0:0:0:0:
486,192,36927,1,0,0:0:0:0:
179,192,37144,1,0,0:0:0:0:
435,192,37362,1,0,0:0:0:0:
486,192,37362,1,0,0:0:0:0:
179,192,37579,1,0,0:0:0:0:
332,192,37796,1,0,0:0:0:0:
435,192,37796,1,0,0:0:0:0:
486,192,37796,1,0,0:0:0:0:
179,192,38014,1,0,0:0:0:0:
486,192,38231,1,0,0:0:0:0:
435,192,38231,1,0,0:0:0:0:
76,192,38449,1,0,0:0:0:0:
486,192,38666,1,0,0:0:0:0:
281,192,38666,1,0,0:0:0:0:
435,192,38666,1,0,0:0:0:0:
76,192,38883,1,0,0:0:0:0:
486,192,39101,1,0,0:0:0:0:
435,192,39101,1,0,0:0:0:0:
332,192,39318,1,0,0:0:0:0:
179,192,39318,1,0,0:0:0:0:
486,192,39536,1,0,0:0:0:0:
435,192,39536,1,0,0:0:0:0:
76,192,39536,1,0,0:0:0:0:
384,192,39753,1,0,0:0:0:0:
179,192,39753,1,0,0:0:0:0:
25,192,39970,1,0,0:0:0:0:
179,192,40188,1,0,0:0:0:0:
332,192,40405,1,0,0:0:0:0:
384,192,40405,1,0,0:0:0:0:
179,192,40731,5,0,0:0:0:0:
25,192,40840,1,0,0:0:0:0:
332,192,41057,1,0,0:0:0:0:
281,192,41275,1,0,0:0:0:0:
486,192,41275,1,0,0:0:0:0:
76,192,41275,1,0,0:0:0:0:
332,192,41492,1,0,0:0:0:0:
179,192,41709,128,0,42144:0:0:0:0:
25,192,41709,1,0,0:0:0:0:
332,192,42144,128,0,42579:0:0:0:0:
486,192,42144,1,0,0:0:0:0:
179,192,42579,128,0,43014:0:0:0:0:
76,192,42579,1,0,0:0:0:0:
332,192,43014,128,0,43449:0:0:0:0:
435,192,43014,1,0,0:0:0:0:
384,192,43449,1,0,0:0:0:0:
25,192,43449,1,0,0:0:0:0:
256,192,43666,1,0,0:0:0:0:
179,192,43666,1,0,0:0:0:0:
51,192,43883,1,0,0:0:0:0:
486,192,43883,1,0,0:0:0:0:
179,192,44101,1,0,0:0:0:0:
256,192,44101,1,0,0:0:0:0:
25,192,44318,1,0,0:0:0:0:
179,192,44536,1,0,0:0:0:0:
486,192,44536,1,0,0:0:0:0:
25,192,44753,1,0,0:0:0:0:
384,192,44753,1,0,0:0:0:0:
179,192,44970,1,0,0:0:0:0:
256,192,44970,1,0,0:0:0:0:
76,192,45188,1,0,0:0:0:0:
230,192,45405,1,0,0:0:0:0:
486,192,45405,1,0,0:0:0:0:
76,192,45623,1,0,0:0:0:0:
384,192,45623,1,0,0:0:0:0:
230,192,45840,1,0,0:0:0:0:
281,192,45840,1,0,0:0:0:0:
76,192,46057,1,0,0:0:0:0:
230,192,46275,1,0,0:0:0:0:
486,192,46275,1,0,0:0:0:0:
76,192,46492,1,0,0:0:0:0:
384,192,46492,1,0,0:0:0:0:
230,192,46709,1,0,0:0:0:0:
281,192,46709,1,0,0:0:0:0:
51,192,46927,1,0,0:0:0:0:
76,192,46927,1,0,0:0:0:0:
435,192,47144,1,0,0:0:0:0:
128,192,47362,1,0,0:0:0:0:
76,192,47362,1,0,0:0:0:0:
384,192,47362,1,0,0:0:0:0:
332,192,47579,1,0,0:0:0:0:
179,192,47796,1,0,0:0:0:0:
128,192,47796,1,0,0:0:0:0:
435,192,48014,1,0,0:0:0:0:
230,192,48231,1,0,0:0:0:0:
179,192,48231,1,0,0:0:0:0:
384,192,48231,1,0,0:0:0:0:
332,192,48449,1,0,0:0:0:0:
128,192,48666,1,0,0:0:0:0:
179,192,48666,1,0,0:0:0:0:
435,192,48883,1,0,0:0:0:0:
128,192,49101,1,0,0:0:0:0:
76,192,49101,1,0,0:0:0:0:
384,192,49101,1,0,0:0:0:0:
358,192,49318,1,0,0:0:0:0:
76,192,49536,1,0,0:0:0:0:
51,192,49536,1,0,0:0:0:0:
179,192,49753,1,0,0:0:0:0:
230,192,49753,1,0,0:0:0:0:
435,192,49753,1,0,0:0:0:0:
25,192,49970,1,0,0:0:0:0:
76,192,49970,1,0,0:0:0:0:
384,192,49970,1,0,0:0:0:0:
179,192,50188,1,0,0:0:0:0:
128,192,50188,1,0,0:0:0:0:
332,192,50188,1,0,0:0:0:0:
230,192,50405,128,0,51057:0:0:0:0:
281,192,50405,1,0,0:0:0:0:
486,192,50405,1,0,0:0:0:0:
384,192,50623,1,0,0:0:0:0:
153,192,50840,1,0,0:0:0:0:
51,192,50840,1,0,0:0:0:0:
332,192,50840,1,0,0:0:0:0:
281,192,51057,1,0,0:0:0:0:
128,192,51275,1,0,0:0:0:0:
25,192,51275,1,0,0:0:0:0:
384,192,51492,1,0,0:0:0:0:
179,192,51492,1,0,0:0:0:0:
358,192,51709,1,0,0:0:0:0:
76,192,51709,1,0,0:0:0:0:
281,192,51927,1,0,0:0:0:0:
128,192,51927,1,0,0:0:0:0:
230,192,52144,1,0,0:0:0:0:
179,192,52144,1,0,0:0:0:0:
384,192,52362,1,0,0:0:0:0:
230,192,52579,1,0,0:0:0:0:
332,192,52579,1,0,0:0:0:0:
128,192,52579,1,0,0:0:0:0:
281,192,52796,1,0,0:0:0:0:
76,192,53014,1,0,0:0:0:0:
230,192,53014,1,0,0:0:0:0:
384,192,53231,1,0,0:0:0:0:
179,192,53231,1,0,0:0:0:0:
358,192,53449,1,0,0:0:0:0:
179,192,53449,1,0,0:0:0:0:
256,192,53666,1,0,0:0:0:0:
128,192,53666,1,0,0:0:0:0:
230,192,53666,1,0,0:0:0:0:
51,192,54101,1,0,0:0:0:0:
76,192,54101,1,0,0:0:0:0:
486,192,54101,1,0,0:0:0:0:
332,192,54101,1,0,0:0:0:0:
179,192,54318,1,0,0:0:0:0:
230,192,54318,1,0,0:0:0:0:
486,192,54318,1,0,0:0:0:0:
332,192,54318,1,0,0:0:0:0:
230,192,54753,1,0,0:0:0:0:
486,192,54753,1,0,0:0:0:0:
384,192,54753,1,0,0:0:0:0:
179,192,54753,1,0,0:0:0:0:
76,192,54970,1,0,0:0:0:0:
486,192,54970,1,0,0:0:0:0:
384,192,54970,1,0,0:0:0:0:
25,192,54970,1,0,0:0:0:0:
179,192,55405,1,0,0:0:0:0:
486,192,55405,1,0,0:0:0:0:
435,192,55405,1,0,0:0:0:0:
128,192,55405,1,0,0:0:0:0:
51,192,55840,1,0,0:0:0:0:
281,192,55840,1,0,0:0:0:0:
76,192,55840,1,0,0:0:0:0:
230,192,56057,1,0,0:0:0:0:
384,192,56057,1,0,0:0:0:0:
179,192,56057,1,0,0:0:0:0:
256,192,56492,1,0,0:0:0:0:
51,192,56492,128,0,56927:0:0:0:0:
128,192,56492,1,0,0:0:0:0:
486,192,56492,1,0,0:0:0:0:
179,192,56927,1,0,0:0:0:0:
486,192,56927,128,0,57144:0:0:0:0:
332,192,57144,1,0,0:0:0:0:
486,192,57362,1,0,0:0:0:0:
281,192,57362,1,0,0:0:0:0:
128,192,57362,1,0,0:0:0:0:
25,192,57579,1,0,0:0:0:0:
281,192,57796,1,0,0:0:0:0:
384,192,57796,1,0,0:0:0:0:
128,192,57796,1,0,0:0:0:0:
230,192,58014,1,0,0:0:0:0:
486,192,58231,1,0,0:0:0:0:
179,192,58231,1,0,0:0:0:0:
281,192,58231,1,0,0:0:0:0:
76,192,58449,1,0,0:0:0:0:
384,192,58666,1,0,0:0:0:0:
179,192,58666,1,0,0:0:0:0:
281,192,58666,1,0,0:0:0:0:
230,192,58883,1,0,0:0:0:0:
128,192,59101,1,0,0:0:0:0:
435,192,59101,1,0,0:0:0:0:
332,192,59101,1,0,0:0:0:0:
25,192,59318,1,0,0:0:0:0:
384,192,59536,1,0,0:0:0:0:
332,192,59536,1,0,0:0:0:0:
128,192,59536,1,0,0:0:0:0:
230,192,59753,1,0,0:0:0:0:
435,192,59970,1,0,0:0:0:0:
179,192,59970,1,0,0:0:0:0:
384,192,60079,1,0,0:0:0:0:
76,192,60188,1,0,0:0:0:0:
332,192,60188,1,0,0:0:0:0:
435,192,60405,1,0,0:0:0:0:
179,192,60405,1,0,0:0:0:0:
384,192,60514,1,0,0:0:0:0:
332,192,60623,1,0,0:0:0:0:
128,192,60623,1,0,0:0:0:0:
486,192,60840,1,0,0:0:0:0:
230,192,60840,1,0,0:0:0:0:
435,192,60840,1,0,0:0:0:0:
128,192,60840,1,0,0:0:0:0:
332,192,61275,1,0,0:0:0:0:
435,192,61275,1,0,0:0:0:0:
25,192,61275,1,0,0:0:0:0:
179,192,61275,1,0,0:0:0:0:
230,192,61709,1,0,0:0:0:0:
128,192,61709,1,0,0:0:0:0:
281,192,61709,1,0,0:0:0:0:
384,192,61709,1,0,0:0:0:0:
435,192,61927,1,0,0:0:0:0:
179,192,61927,1,0,0:0:0:0:
384,192,62144,1,0,0:0:0:0:
128,192,62144,1,0,0:0:0:0:
76,192,62362,1,0,0:0:0:0:
332,192,62362,1,0,0:0:0:0:
486,192,62579,1,0,0:0:0:0:
230,192,62579,1,0,0:0:0:0:
25,192,62579,1,0,0:0:0:0:
332,192,62905,1,0,0:0:0:0:
179,192,63014,1,0,0:0:0:0:
332,192,63231,1,0,0:0:0:0:
435,192,63231,1,0,0:0:0:0:
76,192,63449,1,0,0:0:0:0:
179,192,63449,1,0,0:0:0:0:
332,192,63666,1,0,0:0:0:0:
230,192,63666,1,0,0:0:0:0:
25,192,63883,1,0,0:0:0:0:
384,192,63883,1,0,0:0:0:0:
486,192,63883,1,0,0:0:0:0:
128,192,63883,1,0,0:0:0:0:
332,192,64101,1,0,0:0:0:0:
230,192,64101,1,0,0:0:0:0:
76,192,64318,1,0,0:0:0:0:
179,192,64318,1,0,0:0:0:0:
281,192,64536,1,0,0:0:0:0:
76,192,64753,1,0,0:0:0:0:
25,192,64753,1,0,0:0:0:0:
332,192,64970,1,0,0:0:0:0:
230,192,65188,1,0,0:0:0:0:
128,192,65188,1,0,0:0:0:0:
486,192,65405,1,0,0:0:0:0:
179,192,65623,1,0,0:0:0:0:
76,192,65623,1,0,0:0:0:0:
435,192,65840,1,0,0:0:0:0:
51,192,66057,1,0,0:0:0:0:
230,192,66057,1,0,0:0:0:0:
332,192,66057,1,0,0:0:0:0:
281,192,66275,1,0,0:0:0:0:
51,192,66492,1,0,0:0:0:0:
486,192,66492,1,0,0:0:0:0:
128,192,66492,1,0,0:0:0:0:
281,192,66709,1,0,0:0:0:0:
486,192,66927,1,0,0:0:0:0:
179,192,66927,1,0,0:0:0:0:
128,192,67036,1,0,0:0:0:0:
281,192,67144,1,0,0:0:0:0:
76,192,67144,1,0,0:0:0:0:
486,192,67362,1,0,0:0:0:0:
179,192,67362,1,0,0:0:0:0:
435,192,67362,1,0,0:0:0:0:
128,192,67470,1,0,0:0:0:0:
76,192,67579,1,0,0:0:0:0:
281,192,67579,1,0,0:0:0:0:
332,192,67579,1,0,0:0:0:0:
384,192,67796,1,0,0:0:0:0:
179,192,67796,1,0,0:0:0:0:
486,192,67796,1,0,0:0:0:0:
25,192,68014,1,0,0:0:0:0:
179,192,68231,1,0,0:0:0:0:
332,192,68231,1,0,0:0:0:0:
281,192,68449,1,0,0:0:0:0:
25,192,68449,1,0,0:0:0:0:
230,192,68666,1,0,0:0:0:0:
486,192,68883,1,0,0:0:0:0:
25,192,68883,1,0,0:0:0:0:
281,192,69101,1,0,0:0:0:0:
179,192,69101,1,0,0:0:0:0:
332,192,69318,1,0,0:0:0:0:
76,192,69318,1,0,0:0:0:0:
179,192,69536,1,0,0:0:0:0:
435,192,69753,1,0,0:0:0:0:
25,192,69753,1,0,0:0:0:0:
128,192,69970,1,0,0:0:0:0:
25,192,70188,1,0,0:0:0:0:
435,192,70405,1,0,0:0:0:0:
230,192,70405,1,0,0:0:0:0:
384,192,70514,1,0,0:0:0:0:
332,192,70623,1,0,0:0:0:0:
76,192,70623,1,0,0:0:0:0:
435,192,70840,1,0,0:0:0:0:
179,192,70840,1,0,0:0:0:0:
384,192,70949,1,0,0:0:0:0:
332,192,71057,1,0,0:0:0:0:
230,192,71057,1,0,0:0:0:0:
486,192,71275,1,0,0:0:0:0:
25,192,71275,1,0,0:0:0:0:
281,192,71275,1,0,0:0:0:0:
179,192,71275,1,0,0:0:0:0:
76,192,71492,1,0,0:0:0:0:
332,192,71709,1,0,0:0:0:0:
435,192,71709,1,0,0:0:0:0:
179,192,71927,1,0,0:0:0:0:
384,192,72144,1,0,0:0:0:0:
281,192,72144,1,0,0:0:0:0:
76,192,72362,1,0,0:0:0:0:
384,192,72579,1,0,0:0:0:0:
281,192,72579,1,0,0:0:0:0:
179,192,72796,1,0,0:0:0:0:
486,192,72796,1,0,0:0:0:0:
384,192,72796,1,0,0:0:0:0:
332,192,73014,1,0,0:0:0:0:
230,192,73014,1,0,0:0:0:0:
25,192,73231,1,0,0:0:0:0:
179,192,73449,1,0,0:0:0:0:
281,192,73449,1,0,0:0:0:0:
76,192,73666,1,0,0:0:0:0:
384,192,73666,1,0,0:0:0:0:
179,192,73883,128,0,74318:0:0:0:0:
332,192,74101,1,0,0:0:0:0:
76,192,74318,128,0,74753:0:0:0:0:
281,192,74318,1,0,0:0:0:0:
486,192,74318,1,0,0:0:0:0:
281,192,74536,1,0,0:0:0:0:
384,192,74536,1,0,0:0:0:0:
486,192,74753,1,0,0:0:0:0:
435,192,74753,1,0,0:0:0:0:
230,192,74753,128,0,75405:0:0:0:0:
332,192,74970,1,0,0:0:0:0:
128,192,75188,1,0,0:0:0:0:
25,192,75188,1,0,0:0:0:0:
332,192,75405,1,0,0:0:0:0:
25,192,75623,1,0,0:0:0:0:
76,192,75623,1,0,0:0:0:0:
435,192,75840,1,0,0:0:0:0:
230,192,76057,1,0,0:0:0:0:
128,192,76057,1,0,0:0:0:0:
435,192,76275,1,0,0:0:0:0:
281,192,76492,1,0,0:0:0:0:
179,192,76492,1,0,0:0:0:0:
76,192,76492,1,0,0:0:0:0:
332,192,76927,1,0,0:0:0:0:
230,192,76927,1,0,0:0:0:0:
128,192,76927,1,0,0:0:0:0:
179,192,77362,1,0,0:0:0:0:
281,192,77362,1,0,0:0:0:0:
384,192,77362,1,0,0:0:0:0:
332,192,77579,1,0,0:0:0:0:
179,192,77796,1,0,0:0:0:0:
281,192,78014,1,0,0:0:0:0:
230,192,78231,1,0,0:0:0:0:
486,192,78231,1,0,0:0:0:0:
25,192,78231,1,0,0:0:0:0:
179,192,78449,1,0,0:0:0:0:
230,192,78666,1,0,0:0:0:0:
25,192,78666,1,0,0:0:0:0:
486,192,78666,1,0,0:0:0:0:
332,192,78883,1,0,0:0:0:0:
486,192,79101,1,0,0:0:0:0:
230,192,79101,1,0,0:0:0:0:
25,192,79101,1,0,0:0:0:0:
384,192,79318,1,0,0:0:0:0:
486,192,79536,1,0,0:0:0:0:
230,192,79536,1,0,0:0:0:0:
25,192,79536,1,0,0:0:0:0:
281,192,79753,1,0,0:0:0:0:
76,192,79970,1,0,0:0:0:0:
179,192,79970,1,0,0:0:0:0:
435,192,79970,1,0,0:0:0:0:
332,192,80188,1,0,0:0:0:0:
179,192,80405,1,0,0:0:0:0:
76,192,80405,1,0,0:0:0:0:
384,192,80405,1,0,0:0:0:0:
281,192,80623,1,0,0:0:0:0:
230,192,80840,1,0,0:0:0:0:
128,192,80840,1,0,0:0:0:0:
435,192,80840,1,0,0:0:0:0:
332,192,81057,1,0,0:0:0:0:
230,192,81275,1,0,0:0:0:0:
128,192,81275,1,0,0:0:0:0:
486,192,81275,1,0,0:0:0:0:
384,192,81492,1,0,0:0:0:0:
332,192,81709,128,0,81927:0:0:0:0:
25,192,81709,128,0,81927:0:0:0:0:
435,192,81709,128,0,81927:0:0:0:0:
230,192,81927,128,0,82144:0:0:0:0:
76,192,82144,128,0,82362:0:0:0:0:
384,192,82144,128,0,82362:0:0:0:0:
486,192,82144,128,0,82362:0:0:0:0:
230,192,82362,128,0,82579:0:0:0:0:
128,192,82579,128,0,82796:0:0:0:0:
435,192,82579,128,0,82796:0:0:0:0:
332,192,82579,128,0,82796:0:0:0:0:
230,192,82796,128,0,83014:0:0:0:0:
384,192,83014,128,0,83231:0:0:0:0:
281,192,83014,128,0,83231:0:0:0:0:
179,192,83231,128,0,83449:0:0:0:0:
332,192,83449,128,0,83666:0:0:0:0:
25,192,83449,128,0,83775:0:0:0:0:
486,192,83666,128,0,83883:0:0:0:0:
230,192,83883,128,0,84101:0:0:0:0:
384,192,84101,128,0,84318:0:0:0:0:
128,192,84318,128,0,84536:0:0:0:0:
281,192,84536,128,0,84753:0:0:0:0:
179,192,84753,128,0,84970:0:0:0:0:
332,192,84970,128,0,85188:0:0:0:0:
486,192,85188,1,0,0:0:0:0:
230,192,85188,1,0,0:0:0:0:
76,192,85188,1,0,0:0:0:0:
486,192,86927,1,0,0:0:0:0:
230,192,86927,1,0,0:0:0:0:
281,192,86927,1,0,0:0:0:0:
76,192,86927,1,0,0:0:0:0:
230,192,88666,1,0,0:0:0:0:
76,192,88666,1,0,0:0:0:0:
332,192,88666,1,0,0:0:0:0:
435,192,88666,1,0,0:0:0:0:
230,192,88883,1,0,0:0:0:0:
76,192,88883,1,0,0:0:0:0:
332,192,88883,1,0,0:0:0:0:
435,192,88883,1,0,0:0:0:0:
230,192,89101,1,0,0:0:0:0:
76,192,89101,1,0,0:0:0:0:
332,192,89101,1,0,0:0:0:0:
435,192,89101,1,0,0:0:0:0:
179,192,90188,1,0,0:0:0:0:
128,192,90188,1,0,0:0:0:0:
435,192,90188,1,0,0:0:0:0:
332,192,90188,1,0,0:0:0:0:
230,192,90623,1,0,0:0:0:0:
76,192,90623,1,0,0:0:0:0:
281,192,90623,1,0,0:0:0:0:
384,192,90623,1,0,0:0:0:0:
179,192,91057,1,0,0:0:0:0:
128,192,91057,1,0,0:0:0:0:
332,192,91057,1,0,0:0:0:0:
435,192,91057,1,0,0:0:0:0:
384,192,92144,1,0,0:0:0:0:
281,192,92144,1,0,0:0:0:0:
51,192,92144,1,0,0:0:0:0:
128,192,92144,1,0,0:0:0:0:
76,192,92362,1,0,0:0:0:0:
332,192,92362,1,0,0:0:0:0:
384,192,92579,1,0,0:0:0:0:
281,192,92579,1,0,0:0:0:0:
51,192,92579,1,0,0:0:0:0:
128,192,92579,1,0,0:0:0:0:
486,192,93666,1,0,0:0:0:0:
384,192,93666,1,0,0:0:0:0:
128,192,93666,1,0,0:0:0:0:
230,192,93666,1,0,0:0:0:0:
179,192,94101,1,0,0:0:0:0:
332,192,94101,1,0,0:0:0:0:
486,192,94536,1,0,0:0:0:0:
230,192,94536,1,0,0:0:0:0:
384,192,94536,1,0,0:0:0:0:
128,192,94536,1,0,0:0:0:0:
486,192,95623,128,0,96927:0:0:0:0:
179,192,95623,1,0,0:0:0:0:
76,192,95623,1,0,0:0:0:0:
51,192,95840,1,0,0:0:0:0:
179,192,96057,1,0,0:0:0:0:
76,192,96057,1,0,0:0:0:0:
230,192,96275,1,0,0:0:0:0:
179,192,96709,1,0,0:0:0:0:
332,192,96927,128,0,97362:0:0:0:0:
128,192,96927,1,0,0:0:0:0:
76,192,97144,1,0,0:0:0:0:
384,192,97362,128,0,97796:0:0:0:0:
51,192,97362,128,0,97796:0:0:0:0:
179,192,97579,1,0,0:0:0:0:
435,192,97796,128,0,98231:0:0:0:0:
76,192,97796,128,0,98231:0:0:0:0:
179,192,98014,1,0,0:0:0:0:
384,192,98231,128,0,98666:0:0:0:0:
128,192,98231,128,0,98666:0:0:0:0:
179,192,98449,1,0,0:0:0:0:
435,192,98666,128,0,99101:0:0:0:0:
51,192,98666,128,0,99101:0:0:0:0:
179,192,98883,1,0,0:0:0:0:
486,192,99101,128,0,99970:0:0:0:0:
76,192,99101,128,0,99970:0:0:0:0:
332,192,99536,1,0,0:0:0:0:
281,192,99536,1,0,0:0:0:0:
435,192,99970,128,0,100840:0:0:0:0:
179,192,99970,128,0,100840:0:0:0:0:
332,192,100405,1,0,0:0:0:0:
281,192,100405,1,0,0:0:0:0:
486,192,100840,1,0,0:0:0:0:
384,192,100840,1,0,0:0:0:0:
230,192,100840,1,0,0:0:0:0:
281,192,101057,1,0,0:0:0:0:
25,192,101057,1,0,0:0:0:0:
486,192,101275,1,0,0:0:0:0:
384,192,101275,1,0,0:0:0:0:
230,192,101275,1,0,0:0:0:0:
128,192,101275,1,0,0:0:0:0:
179,192,102579,1,0,0:0:0:0:
76,192,102579,1,0,0:0:0:0:
435,192,102579,1,0,0:0:0:0:
76,192,102905,1,0,0:0:0:0:
435,192,102905,1,0,0:0:0:0:
332,192,102905,1,0,0:0:0:0:
128,192,103014,1,0,0:0:0:0:
179,192,103231,1,0,0:0:0:0:
76,192,103231,1,0,0:0:0:0:
435,192,103231,1,0,0:0:0:0:
281,192,103557,1,0,0:0:0:0:
230,192,103666,1,0,0:0:0:0:
230,192,103883,1,0,0:0:0:0:
281,192,103992,1,0,0:0:0:0:
128,192,104318,1,0,0:0:0:0:
25,192,104318,1,0,0:0:0:0:
384,192,104427,1,0,0:0:0:0:
486,192,104427,1,0,0:0:0:0:
179,192,104644,1,0,0:0:0:0:
435,192,104753,1,0,0:0:0:0:
384,192,104862,1,0,0:0:0:0:
332,192,104970,1,0,0:0:0:0:
179,192,105079,1,0,0:0:0:0:
76,192,105079,1,0,0:0:0:0:
76,192,105296,1,0,0:0:0:0:
179,192,105296,1,0,0:0:0:0:
281,192,105405,1,0,0:0:0:0:
486,192,105514,1,0,0:0:0:0:
76,192,105623,1,0,0:0:0:0:
179,192,105623,1,0,0:0:0:0:
281,192,105840,1,0,0:0:0:0:
384,192,105949,1,0,0:0:0:0:
486,192,106057,1,0,0:0:0:0:
230,192,106057,1,0,0:0:0:0:
128,192,106057,1,0,0:0:0:0:
332,192,106057,128,0,106492:0:0:0:0:
230,192,106275,1,0,0:0:0:0:
128,192,106275,1,0,0:0:0:0:
435,192,106492,1,0,0:0:0:0:
179,192,106492,1,0,0:0:0:0:
76,192,106709,128,0,106927:0:0:0:0:
230,192,106927,128,0,107144:0:0:0:0:
435,192,106927,1,0,0:0:0:0:
332,192,107036,1,0,0:0:0:0:
486,192,107144,1,0,0:0:0:0:
281,192,107253,1,0,0:0:0:0:
76,192,107362,128,0,107796:0:0:0:0:
179,192,107362,128,0,107796:0:0:0:0:
384,192,107362,1,0,0:0:0:0:
332,192,107796,1,0,0:0:0:0:
435,192,107796,1,0,0:0:0:0:
332,192,108014,1,0,0:0:0:0:
384,192,108014,1,0,0:0:0:0:
179,192,108014,1,0,0:0:0:0:
486,192,108231,1,0,0:0:0:0:
435,192,108231,1,0,0:0:0:0:
230,192,108231,1,0,0:0:0:0:
25,192,108449,1,0,0:0:0:0:
332,192,108557,1,0,0:0:0:0:
435,192,108557,1,0,0:0:0:0:
128,192,108557,1,0,0:0:0:0:
230,192,108666,1,0,0:0:0:0:
332,192,108775,1,0,0:0:0:0:
435,192,108775,1,0,0:0:0:0:
128,192,108883,1,0,0:0:0:0:
332,192,108992,1,0,0:0:0:0:
435,192,108992,1,0,0:0:0:0:
128,192,109101,1,0,0:0:0:0:
230,192,109101,1,0,0:0:0:0:
384,192,109318,1,0,0:0:0:0:
486,192,109427,1,0,0:0:0:0:
51,192,109536,1,0,0:0:0:0:
76,192,109536,1,0,0:0:0:0:
25,192,109753,1,0,0:0:0:0:
76,192,109753,1,0,0:0:0:0:
281,192,109970,1,0,0:0:0:0:
179,192,109970,1,0,0:0:0:0:
486,192,109970,1,0,0:0:0:0:
128,192,110188,1,0,0:0:0:0:
332,192,110296,1,0,0:0:0:0:
179,192,110405,1,0,0:0:0:0:
281,192,110514,1,0,0:0:0:0:
230,192,110514,1,0,0:0:0:0:
76,192,110731,1,0,0:0:0:0:
128,192,110731,1,0,0:0:0:0:
332,192,110949,1,0,0:0:0:0:
281,192,110949,128,0,111275:0:0:0:0:
128,192,111166,1,0,0:0:0:0:
435,192,111275,1,0,0:0:0:0:
486,192,111275,1,0,0:0:0:0:
179,192,111383,1,0,0:0:0:0:
486,192,111492,1,0,0:0:0:0:
435,192,111492,1,0,0:0:0:0:
128,192,111709,1,0,0:0:0:0:
230,192,111709,1,0,0:0:0:0:
332,192,111709,1,0,0:0:0:0:
435,192,111927,1,0,0:0:0:0:
486,192,111927,1,0,0:0:0:0:
128,192,112036,1,0,0:0:0:0:
230,192,112036,1,0,0:0:0:0:
332,192,112036,1,0,0:0:0:0:
332,192,112253,1,0,0:0:0:0:
128,192,112253,1,0,0:0:0:0:
230,192,112253,1,0,0:0:0:0:
435,192,112362,1,0,0:0:0:0:
486,192,112362,1,0,0:0:0:0:
332,192,112579,1,0,0:0:0:0:
128,192,112579,1,0,0:0:0:0:
230,192,112579,1,0,0:0:0:0:
25,192,112796,128,0,113231:0:0:0:0:
384,192,113014,1,0,0:0:0:0:
486,192,113014,1,0,0:0:0:0:
384,192,113231,1,0,0:0:0:0:
486,192,113231,1,0,0:0:0:0:
76,192,113449,1,0,0:0:0:0:
179,192,113449,1,0,0:0:0:0:
281,192,113449,1,0,0:0:0:0:
25,192,113666,128,0,114101:0:0:0:0:
230,192,113883,1,0,0:0:0:0:
332,192,113883,1,0,0:0:0:0:
128,192,113992,1,0,0:0:0:0:
230,192,114101,1,0,0:0:0:0:
332,192,114209,1,0,0:0:0:0:
179,192,114318,128,0,114753:0:0:0:0:
281,192,114318,128,0,114753:0:0:0:0:
435,192,114753,1,0,0:0:0:0:
230,192,114753,1,0,0:0:0:0:
25,192,114970,1,0,0:0:0:0:
76,192,114970,1,0,0:0:0:0:
486,192,115188,1,0,0:0:0:0:
384,192,115188,1,0,0:0:0:0:
281,192,115188,1,0,0:0:0:0:
76,192,115405,1,0,0:0:0:0:
25,192,115405,1,0,0:0:0:0:
281,192,115514,1,0,0:0:0:0:
384,192,115514,1,0,0:0:0:0:
486,192,115514,1,0,0:0:0:0:
384,192,115731,1,0,0:0:0:0:
281,192,115731,1,0,0:0:0:0:
486,192,115731,1,0,0:0:0:0:
76,192,115840,1,0,0:0:0:0:
25,192,115840,1,0,0:0:0:0:
179,192,115949,1,0,0:0:0:0:
281,192,116057,1,0,0:0:0:0:
384,192,116057,1,0,0:0:0:0:
486,192,116057,1,0,0:0:0:0:
128,192,116166,1,0,0:0:0:0:
230,192,116275,1,0,0:0:0:0:
332,192,116383,1,0,0:0:0:0:
486,192,116492,5,0,0:0:0:0:
51,192,116492,1,0,0:0:0:0:
179,192,116492,1,0,0:0:0:0:
435,192,116492,1,0,0:0:0:0:
384,192,116818,1,0,0:0:0:0:
76,192,116818,1,0,0:0:0:0:
332,192,116818,1,0,0:0:0:0:
179,192,116818,1,0,0:0:0:0:
281,192,117144,1,0,0:0:0:0:
230,192,117144,1,0,0:0:0:0:
128,192,117144,1,0,0:0:0:0:
25,192,117144,1,0,0:0:0:0:
332,192,118231,1,0,0:0:0:0:
486,192,118231,1,0,0:0:0:0:
179,192,118231,1,0,0:0:0:0:
76,192,118449,1,0,0:0:0:0:
25,192,118666,1,0,0:0:0:0:
179,192,118666,1,0,0:0:0:0:
332,192,118666,1,0,0:0:0:0:
435,192,118883,1,0,0:0:0:0:
230,192,119101,1,0,0:0:0:0:
128,192,119101,1,0,0:0:0:0:
332,192,119101,1,0,0:0:0:0:
25,192,119318,1,0,0:0:0:0:
128,192,119536,1,0,0:0:0:0:
230,192,119536,1,0,0:0:0:0:
332,192,119536,1,0,0:0:0:0:
435,192,119753,1,0,0:0:0:0:
281,192,119970,1,0,0:0:0:0:
384,192,119970,1,0,0:0:0:0:
179,192,119970,1,0,0:0:0:0:
76,192,120188,1,0,0:0:0:0:
179,192,120405,1,0,0:0:0:0:
281,192,120405,1,0,0:0:0:0:
384,192,120405,1,0,0:0:0:0:
486,192,120623,1,0,0:0:0:0:
128,192,120840,1,0,0:0:0:0:
25,192,120840,1,0,0:0:0:0:
332,192,120840,1,0,0:0:0:0:
230,192,121057,1,0,0:0:0:0:
435,192,121275,1,0,0:0:0:0:
332,192,121275,1,0,0:0:0:0:
76,192,121275,1,0,0:0:0:0:
179,192,121492,1,0,0:0:0:0:
332,192,121492,1,0,0:0:0:0:
281,192,121709,1,0,0:0:0:0:
76,192,121709,1,0,0:0:0:0:
179,192,121927,1,0,0:0:0:0:
25,192,122144,1,0,0:0:0:0:
281,192,122144,1,0,0:0:0:0:
486,192,122144,1,0,0:0:0:0:
230,192,122362,1,0,0:0:0:0:
76,192,122579,1,0,0:0:0:0:
179,192,122579,1,0,0:0:0:0:
384,192,122579,1,0,0:0:0:0:
332,192,122796,1,0,0:0:0:0:
281,192,123014,1,0,0:0:0:0:
128,192,123014,1,0,0:0:0:0:
486,192,123014,1,0,0:0:0:0:
384,192,123231,1,0,0:0:0:0:
230,192,123449,1,0,0:0:0:0:
25,192,123449,1,0,0:0:0:0:
435,192,123449,1,0,0:0:0:0:
179,192,123775,1,0,0:0:0:0:
332,192,123775,1,0,0:0:0:0:
281,192,123883,1,0,0:0:0:0:
128,192,123883,1,0,0:0:0:0:
384,192,124101,1,0,0:0:0:0:
486,192,124101,1,0,0:0:0:0:
25,192,124318,1,0,0:0:0:0:
230,192,124318,1,0,0:0:0:0:
435,192,124536,1,0,0:0:0:0:
332,192,124536,1,0,0:0:0:0:
179,192,124753,1,0,0:0:0:0:
76,192,124753,1,0,0:0:0:0:
384,192,124970,1,0,0:0:0:0:
281,192,124970,1,0,0:0:0:0:
128,192,125188,1,0,0:0:0:0:
230,192,125188,1,0,0:0:0:0:
332,192,125188,1,0,0:0:0:0:
179,192,125405,1,0,0:0:0:0:
25,192,125623,1,0,0:0:0:0:
281,192,125623,1,0,0:0:0:0:
435,192,125623,1,0,0:0:0:0:
179,192,125840,1,0,0:0:0:0:
384,192,126057,1,0,0:0:0:0:
281,192,126057,1,0,0:0:0:0:
128,192,126057,1,0,0:0:0:0:
179,192,126275,1,0,0:0:0:0:
332,192,126492,1,0,0:0:0:0:
486,192,126492,1,0,0:0:0:0:
76,192,126492,1,0,0:0:0:0:
179,192,126709,1,0,0:0:0:0:
281,192,126927,1,0,0:0:0:0:
25,192,126927,1,0,0:0:0:0:
230,192,126927,1,0,0:0:0:0:
435,192,126927,1,0,0:0:0:0:
179,192,127362,1,0,0:0:0:0:
128,192,127362,1,0,0:0:0:0:
332,192,127579,1,0,0:0:0:0:
384,192,127579,1,0,0:0:0:0:
76,192,127688,1,0,0:0:0:0:
128,192,127796,1,0,0:0:0:0:
281,192,127796,1,0,0:0:0:0:
486,192,127796,1,0,0:0:0:0:
179,192,127905,1,0,0:0:0:0:
332,192,128231,1,0,0:0:0:0:
25,192,128231,1,0,0:0:0:0:
128,192,128231,1,0,0:0:0:0:
230,192,128449,1,0,0:0:0:0:
76,192,128449,1,0,0:0:0:0:
332,192,128449,1,0,0:0:0:0:
332,192,128666,1,0,0:0:0:0:
486,192,128666,1,0,0:0:0:0:
179,192,128666,1,0,0:0:0:0:
230,192,129101,1,0,0:0:0:0:
25,192,129101,1,0,0:0:0:0:
435,192,129101,1,0,0:0:0:0:
332,192,129318,1,0,0:0:0:0:
76,192,129536,1,0,0:0:0:0:
179,192,129536,1,0,0:0:0:0:
384,192,129536,1,0,0:0:0:0:
281,192,129536,1,0,0:0:0:0:
332,192,129970,1,0,0:0:0:0:
230,192,129970,1,0,0:0:0:0:
128,192,129970,1,0,0:0:0:0:
179,192,130188,1,0,0:0:0:0:
435,192,130405,1,0,0:0:0:0:
281,192,130405,1,0,0:0:0:0:
76,192,130405,1,0,0:0:0:0:
230,192,130840,1,0,0:0:0:0:
384,192,130840,1,0,0:0:0:0:
486,192,130840,1,0,0:0:0:0:
128,192,130840,1,0,0:0:0:0:
332,192,131275,1,0,0:0:0:0:
281,192,131275,1,0,0:0:0:0:
179,192,131383,1,0,0:0:0:0:
76,192,131492,1,0,0:0:0:0:
384,192,131709,1,0,0:0:0:0:
281,192,131709,1,0,0:0:0:0:
128,192,131818,1,0,0:0:0:0:
25,192,131927,1,0,0:0:0:0:
179,192,132036,1,0,0:0:0:0:
332,192,132144,1,0,0:0:0:0:
486,192,132144,1,0,0:0:0:0:
230,192,132362,1,0,0:0:0:0:
76,192,132362,1,0,0:0:0:0:
281,192,132579,1,0,0:0:0:0:
384,192,132579,1,0,0:0:0:0:
384,192,132796,1,0,0:0:0:0:
486,192,132796,1,0,0:0:0:0:
179,192,133231,1,0,0:0:0:0:
76,192,133231,1,0,0:0:0:0:
230,192,133449,1,0,0:0:0:0:
332,192,133449,1,0,0:0:0:0:
384,192,133666,1,0,0:0:0:0:
486,192,133666,1,0,0:0:0:0:
128,192,133883,1,0,0:0:0:0:
25,192,133883,1,0,0:0:0:0:
281,192,134101,1,0,0:0:0:0:
179,192,134101,1,0,0:0:0:0:
332,192,134318,1,0,0:0:0:0:
435,192,134318,1,0,0:0:0:0:
384,192,134536,1,0,0:0:0:0:
486,192,134536,1,0,0:0:0:0:
230,192,134753,5,0,0:0:0:0:
76,192,134753,1,0,0:0:0:0:
179,192,134970,1,0,0:0:0:0:
281,192,135188,1,0,0:0:0:0:
25,192,135188,1,0,0:0:0:0:
128,192,135405,1,0,0:0:0:0:
384,192,135405,1,0,0:0:0:0:
230,192,135623,1,0,0:0:0:0:
486,192,135623,1,0,0:0:0:0:
435,192,135840,5,0,0:0:0:0:
281,192,135840,1,0,0:0:0:0:
51,192,135840,1,0,0:0:0:0:
486,192,136057,1,0,0:0:0:0:
179,192,136057,1,0,0:0:0:0:
281,192,136275,1,0,0:0:0:0:
51,192,136275,1,0,0:0:0:0:
332,192,136275,1,0,0:0:0:0:
486,192,136492,1,0,0:0:0:0:
230,192,136492,1,0,0:0:0:0:
281,192,136709,1,0,0:0:0:0:
25,192,136709,1,0,0:0:0:0:
384,192,136709,1,0,0:0:0:0:
486,192,136927,1,0,0:0:0:0:
128,192,136927,1,0,0:0:0:0:
230,192,137144,1,0,0:0:0:0:
76,192,137144,1,0,0:0:0:0:
332,192,137144,1,0,0:0:0:0:
179,192,137362,1,0,0:0:0:0:
435,192,137362,1,0,0:0:0:0:
281,192,137579,1,0,0:0:0:0:
128,192,137579,1,0,0:0:0:0:
435,192,137796,1,0,0:0:0:0:
179,192,137796,1,0,0:0:0:0:
128,192,137905,1,0,0:0:0:0:
332,192,138014,1,0,0:0:0:0:
76,192,138014,1,0,0:0:0:0:
230,192,138231,1,0,0:0:0:0:
128,192,138340,1,0,0:0:0:0:
281,192,138449,128,0,138666:0:0:0:0:
25,192,138449,1,0,0:0:0:0:
384,192,138666,128,0,138883:0:0:0:0:
76,192,138666,1,0,0:0:0:0:
486,192,138883,128,0,139101:0:0:0:0:
179,192,138883,1,0,0:0:0:0:
230,192,139101,1,0,0:0:0:0:
128,192,139101,1,0,0:0:0:0:
281,192,139101,128,0,140840:0:0:0:0:
332,192,139101,1,0,0:0:0:0:
25,192,139318,1,0,0:0:0:0:
179,192,139536,1,0,0:0:0:0:
230,192,139536,1,0,0:0:0:0:
486,192,139536,1,0,0:0:0:0:
76,192,139753,1,0,0:0:0:0:
332,192,139753,1,0,0:0:0:0:
230,192,139970,1,0,0:0:0:0:
128,192,139970,1,0,0:0:0:0:
486,192,139970,1,0,0:0:0:0:
25,192,140188,1,0,0:0:0:0:
332,192,140188,1,0,0:0:0:0:
230,192,140405,1,0,0:0:0:0:
179,192,140405,1,0,0:0:0:0:
486,192,140405,1,0,0:0:0:0:
76,192,140623,1,0,0:0:0:0:
332,192,140623,1,0,0:0:0:0:
230,192,140840,128,0,141275:0:0:0:0:
128,192,140840,1,0,0:0:0:0:
486,192,140840,1,0,0:0:0:0:
179,192,140840,1,0,0:0:0:0:
332,192,141057,1,0,0:0:0:0:
435,192,141275,1,0,0:0:0:0:
51,192,141275,1,0,0:0:0:0:
128,192,141275,1,0,0:0:0:0:
332,192,141492,1,0,0:0:0:0:
179,192,141492,1,0,0:0:0:0:
281,192,141601,1,0,0:0:0:0:
76,192,141709,1,0,0:0:0:0:
230,192,141709,128,0,142144:0:0:0:0:
486,192,141709,1,0,0:0:0:0:
332,192,141927,1,0,0:0:0:0:
486,192,142144,1,0,0:0:0:0:
281,192,142144,128,0,142579:0:0:0:0:
25,192,142144,1,0,0:0:0:0:
76,192,142144,1,0,0:0:0:0:
435,192,142362,1,0,0:0:0:0:
179,192,142362,1,0,0:0:0:0:
384,192,142579,1,0,0:0:0:0:
230,192,142579,128,0,143014:0:0:0:0:
25,192,142579,1,0,0:0:0:0:
332,192,142796,1,0,0:0:0:0:
128,192,143014,1,0,0:0:0:0:
486,192,143014,1,0,0:0:0:0:
281,192,143014,1,0,0:0:0:0:
179,192,143014,1,0,0:0:0:0:
332,192,143231,1,0,0:0:0:0:
25,192,143449,1,0,0:0:0:0:
128,192,143449,1,0,0:0:0:0:
435,192,143449,1,0,0:0:0:0:
281,192,143666,1,0,0:0:0:0:
230,192,143883,1,0,0:0:0:0:
25,192,143883,1,0,0:0:0:0:
384,192,143883,1,0,0:0:0:0:
76,192,144101,1,0,0:0:0:0:
332,192,144101,1,0,0:0:0:0:
384,192,144318,128,0,144536:0:0:0:0:
179,192,144318,1,0,0:0:0:0:
230,192,144318,1,0,0:0:0:0:
486,192,144536,128,0,144753:0:0:0:0:
25,192,144536,1,0,0:0:0:0:
179,192,144753,1,0,0:0:0:0:
332,192,144753,128,0,144970:0:0:0:0:
76,192,144753,1,0,0:0:0:0:
435,192,144970,128,0,145188:0:0:0:0:
25,192,144970,1,0,0:0:0:0:
281,192,145188,128,0,145405:0:0:0:0:
230,192,145188,1,0,0:0:0:0:
128,192,145188,1,0,0:0:0:0:
384,192,145405,128,0,145623:0:0:0:0:
25,192,145405,1,0,0:0:0:0:
281,192,145623,128,0,145840:0:0:0:0:
179,192,145623,1,0,0:0:0:0:
76,192,145623,1,0,0:0:0:0:
332,192,145840,128,0,146057:0:0:0:0:
435,192,146057,1,0,0:0:0:0:
128,192,146057,1,0,0:0:0:0:
486,192,146057,1,0,0:0:0:0:
230,192,146057,1,0,0:0:0:0:
281,192,147796,1,0,0:0:0:0:
486,192,147796,1,0,0:0:0:0:
25,192,147796,1,0,0:0:0:0:
230,192,147796,1,0,0:0:0:0:
