osu file format v14

[General]
AudioFilename: R300k - Star Stream.mp3
AudioLeadIn: 0
PreviewTime: 60797
Countdown: 0
SampleSet: Normal
StackLeniency: 0.7
Mode: 3
LetterboxInBreaks: 0
SpecialStyle: 0
WidescreenStoryboard: 1

[Editor]
DistanceSpacing: 1
BeatDivisor: 4
GridSize: 4
TimelineZoom: 2

[Metadata]
Title:la's 10K -SUPERMUG-
TitleUnicode:la's 10K -SUPERMUG-
Artist:Various Artists
ArtistUnicode:Various Artists
Creator:SK_la
Version:r300k - Star Stream // HD
Source:
Tags:10k [ Reversal ] la SKla Mami Kawada portamento 川田まみ Primary yuiko ゆいこ RooM IOSYS Doutei Korose 童テイ殺セ S.I.D-Sound Polaris SID-Sound 시드 사운드 r300k Star Stream HHH×MM×ST Follow Tomorrow HHHxMMxST Ryu☆ Ryu* Starving Trancer Mayumi Morinaga 森永真由美 ウッーウッーウマウマ(゚∀゚) (Ryu☆ Remix) キャラメル Caramelldansen Caramell em9 Blue Moon Chroma Hoshi ga Furanai Machi 黑魔 星が降らない街
BeatmapID:1505222
BeatmapSetID:711991

[Difficulty]
HPDrainRate:8
CircleSize:10
OverallDifficulty:6
ApproachRate:5
SliderMultiplier:1.4
SliderTickRate:1

[Events]
//Background and Video events
0,0,"R300k - Star Stream.jpg",0,0
//Break Periods
//Storyboard Layer 0 (Background)
//Storyboard Layer 1 (Fail)
//Storyboard Layer 2 (Pass)
//Storyboard Layer 3 (Foreground)
//Storyboard Layer 4 (Overlay)
//Storyboard Sound Samples

[TimingPoints]
-15,361.44578313253,4,1,0,13,1,0
1069,-102.040816326531,4,2,0,21,0,0
1159,-106.382978723404,4,2,0,21,0,0
1250,-113.636363636364,4,2,0,21,0,0
1340,-125,4,2,0,21,0,0
1792,-123.456790123457,4,2,0,21,0,0
2063,-121.951219512195,4,2,0,21,0,0
2334,-120.481927710843,4,2,0,21,0,0
2605,-119.047619047619,4,2,0,21,0,0
2876,-117.647058823529,4,2,0,21,0,0
3238,-116.279069767442,4,2,0,21,0,0
3509,-114.942528735632,4,2,0,21,0,0
3780,-113.636363636364,4,2,0,21,0,0
4051,-112.359550561798,4,2,0,21,0,0
4322,-111.111111111111,4,2,0,21,0,0
4683,-109.89010989011,4,2,0,21,0,0
4954,-108.695652173913,4,2,0,21,0,0
5225,-107.52688172043,4,2,0,21,0,0
5497,-106.382978723404,4,2,0,21,0,0
5768,-105.263157894737,4,2,0,21,0,0
6129,-104.166666666667,4,2,0,21,0,0
6400,-103.092783505155,4,2,0,21,0,0
6671,-102.040816326531,4,2,0,21,0,0
6942,-101.010101010101,4,2,0,21,0,0
7213,-100,4,2,0,21,0,0
25286,-100,4,2,0,21,0,0
36129,-133.333333333333,4,2,0,21,0,0
36219,-1000,4,2,0,21,0,0
36310,-250,4,2,0,21,0,0
36400,-83.3333333333333,4,2,0,21,0,0
36491,-100,4,2,0,21,0,0
48780,-102.040816326531,4,2,0,21,0,0
48870,-104.166666666667,4,2,0,21,0,0
48960,-106.382978723404,4,2,0,21,0,0
49051,-108.695652173913,4,2,0,21,0,0
49141,-111.111111111111,4,2,0,21,0,0
70828,-133.333333333333,4,2,0,21,0,0
70912,-1000,4,2,0,21,0,0
71012,-250,4,2,0,21,0,0
71099,-83.3333333333333,4,2,0,21,0,0
71189,-100,4,2,0,21,0,0
83117,-100,4,2,0,21,0,0
94683,-100,4,2,0,21,0,0
95057,-1000,4,2,0,21,0,0
95225,-250,4,2,0,21,0,0
95312,-83.3333333333333,4,2,0,21,0,0
95406,-111.111111111111,4,2,0,21,0,0
105527,-133.333333333333,4,2,0,21,0,0
105612,-1000,4,2,0,21,0,0
105707,-250,4,2,0,21,0,0
105798,-83.3333333333333,4,2,0,21,0,0
105888,-100,4,2,0,21,0,0
118177,-102.040816326531,4,2,0,21,0,0
118268,-104.166666666667,4,2,0,21,0,0
118358,-106.382978723404,4,2,0,21,0,0
118448,-108.695652173913,4,2,0,21,0,0
118539,-111.111111111111,4,2,0,21,0,0
119984,-100,4,2,0,21,0,0

[HitObjects]
25,192,346,5,0,0:0:0:0:
76,192,346,1,0,0:0:0:0:
435,192,436,1,0,0:0:0:0:
486,192,436,1,0,0:0:0:0:
128,192,527,1,0,0:0:0:0:
192,192,527,1,0,0:0:0:0:
332,192,617,1,0,0:0:0:0:
384,192,617,1,0,0:0:0:0:
230,192,707,1,0,0:0:0:0:
332,192,798,1,0,0:0:0:0:
435,192,888,1,0,0:0:0:0:
179,192,978,1,0,0:0:0:0:
128,192,1069,128,0,1430:0:0:0:0:
384,192,1069,128,0,1430:0:0:0:0:
332,192,1430,1,0,0:0:0:0:
25,192,1430,1,0,0:0:0:0:
76,192,1430,1,0,0:0:0:0:
281,192,1792,1,0,0:0:0:0:
486,192,1792,1,0,0:0:0:0:
230,192,1792,1,0,0:0:0:0:
76,192,2334,1,0,0:0:0:0:
25,192,2334,1,0,0:0:0:0:
281,192,2515,1,0,0:0:0:0:
486,192,2515,1,0,0:0:0:0:
230,192,2515,1,0,0:0:0:0:
128,192,2876,1,0,0:0:0:0:
179,192,2876,1,0,0:0:0:0:
230,192,3238,1,0,0:0:0:0:
281,192,3238,1,0,0:0:0:0:
486,192,3238,1,0,0:0:0:0:
128,192,3780,1,0,0:0:0:0:
179,192,3780,1,0,0:0:0:0:
230,192,3960,1,0,0:0:0:0:
281,192,3960,1,0,0:0:0:0:
486,192,3960,1,0,0:0:0:0:
332,192,4322,1,0,0:0:0:0:
384,192,4322,1,0,0:0:0:0:
281,192,4683,1,0,0:0:0:0:
25,192,4683,1,0,0:0:0:0:
230,192,4683,1,0,0:0:0:0:
384,192,5225,1,0,0:0:0:0:
332,192,5225,1,0,0:0:0:0:
281,192,5406,1,0,0:0:0:0:
25,192,5406,1,0,0:0:0:0:
230,192,5406,1,0,0:0:0:0:
332,192,5768,1,0,0:0:0:0:
384,192,5768,1,0,0:0:0:0:
230,192,6129,1,0,0:0:0:0:
281,192,6129,1,0,0:0:0:0:
25,192,6310,1,0,0:0:0:0:
76,192,6310,1,0,0:0:0:0:
384,192,6400,1,0,0:0:0:0:
332,192,6400,1,0,0:0:0:0:
179,192,6491,1,0,0:0:0:0:
128,192,6491,1,0,0:0:0:0:
435,192,6671,1,0,0:0:0:0:
486,192,6671,1,0,0:0:0:0:
128,192,6852,1,0,0:0:0:0:
384,192,6942,1,0,0:0:0:0:
230,192,7033,1,0,0:0:0:0:
332,192,7123,1,0,0:0:0:0:
25,192,7213,1,0,0:0:0:0:
76,192,7213,1,0,0:0:0:0:
281,192,7304,1,0,0:0:0:0:
435,192,7394,1,0,0:0:0:0:
230,192,7575,1,0,0:0:0:0:
128,192,7575,1,0,0:0:0:0:
332,192,7756,1,0,0:0:0:0:
179,192,7936,1,0,0:0:0:0:
281,192,8027,1,0,0:0:0:0:
76,192,8117,1,0,0:0:0:0:
25,192,8117,1,0,0:0:0:0:
384,192,8207,1,0,0:0:0:0:
128,192,8298,1,0,0:0:0:0:
230,192,8298,1,0,0:0:0:0:
332,192,8388,1,0,0:0:0:0:
179,192,8478,1,0,0:0:0:0:
25,192,8569,1,0,0:0:0:0:
435,192,8659,1,0,0:0:0:0:
486,192,8659,1,0,0:0:0:0:
128,192,8750,1,0,0:0:0:0:
230,192,8840,1,0,0:0:0:0:
179,192,8930,1,0,0:0:0:0:
281,192,9021,1,0,0:0:0:0:
384,192,9021,1,0,0:0:0:0:
332,192,9201,1,0,0:0:0:0:
230,192,9292,1,0,0:0:0:0:
128,192,9382,1,0,0:0:0:0:
25,192,9472,1,0,0:0:0:0:
448,192,9563,1,0,0:0:0:0:
486,192,9563,1,0,0:0:0:0:
192,192,9653,1,0,0:0:0:0:
332,192,9744,1,0,0:0:0:0:
76,192,9834,1,0,0:0:0:0:
435,192,9924,1,0,0:0:0:0:
230,192,10015,1,0,0:0:0:0:
25,192,10105,1,0,0:0:0:0:
192,192,10105,1,0,0:0:0:0:
448,192,10376,1,0,0:0:0:0:
320,192,10376,1,0,0:0:0:0:
230,192,10466,1,0,0:0:0:0:
25,192,10466,1,0,0:0:0:0:
332,192,10647,1,0,0:0:0:0:
435,192,10647,1,0,0:0:0:0:
448,192,10918,1,0,0:0:0:0:
320,192,10918,1,0,0:0:0:0:
128,192,11009,1,0,0:0:0:0:
25,192,11009,1,0,0:0:0:0:
25,192,11189,1,0,0:0:0:0:
230,192,11189,1,0,0:0:0:0:
320,192,11460,1,0,0:0:0:0:
435,192,11460,1,0,0:0:0:0:
25,192,11551,1,0,0:0:0:0:
128,192,11551,1,0,0:0:0:0:
332,192,11731,1,0,0:0:0:0:
435,192,11731,1,0,0:0:0:0:
179,192,11912,1,0,0:0:0:0:
384,192,12003,1,0,0:0:0:0:
76,192,12093,1,0,0:0:0:0:
435,192,12183,1,0,0:0:0:0:
179,192,12274,1,0,0:0:0:0:
332,192,12364,1,0,0:0:0:0:
76,192,12454,1,0,0:0:0:0:
179,192,12545,1,0,0:0:0:0:
435,192,12545,1,0,0:0:0:0:
320,192,12635,1,0,0:0:0:0:
192,192,12725,1,0,0:0:0:0:
64,192,12725,1,0,0:0:0:0:
320,192,12816,1,0,0:0:0:0:
448,192,12816,1,0,0:0:0:0:
64,192,12906,1,0,0:0:0:0:
192,192,12906,1,0,0:0:0:0:
25,192,12997,1,0,0:0:0:0:
281,192,12997,128,0,13358:0:0:0:0:
486,192,12997,1,0,0:0:0:0:
384,192,13268,1,0,0:0:0:0:
76,192,13358,1,0,0:0:0:0:
332,192,13448,1,0,0:0:0:0:
179,192,13539,1,0,0:0:0:0:
384,192,13629,1,0,0:0:0:0:
25,192,13719,1,0,0:0:0:0:
486,192,13810,1,0,0:0:0:0:
128,192,13900,1,0,0:0:0:0:
332,192,13991,1,0,0:0:0:0:
230,192,14081,128,0,14442:0:0:0:0:
281,192,14081,1,0,0:0:0:0:
332,192,14442,1,0,0:0:0:0:
384,192,14442,1,0,0:0:0:0:
128,192,14533,1,0,0:0:0:0:
230,192,14623,1,0,0:0:0:0:
486,192,14804,1,0,0:0:0:0:
435,192,14804,1,0,0:0:0:0:
76,192,14894,1,0,0:0:0:0:
179,192,14984,1,0,0:0:0:0:
332,192,15346,1,0,0:0:0:0:
384,192,15346,1,0,0:0:0:0:
486,192,15527,1,0,0:0:0:0:
435,192,15527,1,0,0:0:0:0:
230,192,15617,1,0,0:0:0:0:
332,192,15707,1,0,0:0:0:0:
128,192,15798,1,0,0:0:0:0:
281,192,15888,1,0,0:0:0:0:
384,192,15888,1,0,0:0:0:0:
25,192,15978,1,0,0:0:0:0:
230,192,16069,1,0,0:0:0:0:
486,192,16250,1,0,0:0:0:0:
448,192,16250,1,0,0:0:0:0:
76,192,16340,1,0,0:0:0:0:
179,192,16430,1,0,0:0:0:0:
332,192,16611,1,0,0:0:0:0:
384,192,16792,1,0,0:0:0:0:
281,192,16792,1,0,0:0:0:0:
179,192,16882,1,0,0:0:0:0:
435,192,16972,1,0,0:0:0:0:
486,192,16972,1,0,0:0:0:0:
76,192,17063,1,0,0:0:0:0:
230,192,17153,1,0,0:0:0:0:
384,192,17244,1,0,0:0:0:0:
332,192,17334,1,0,0:0:0:0:
281,192,17334,1,0,0:0:0:0:
128,192,17424,1,0,0:0:0:0:
230,192,17515,1,0,0:0:0:0:
486,192,17695,1,0,0:0:0:0:
435,192,17695,1,0,0:0:0:0:
25,192,17786,1,0,0:0:0:0:
128,192,17876,1,0,0:0:0:0:
230,192,18057,1,0,0:0:0:0:
384,192,18147,1,0,0:0:0:0:
281,192,18238,1,0,0:0:0:0:
332,192,18238,1,0,0:0:0:0:
486,192,18418,1,0,0:0:0:0:
435,192,18418,1,0,0:0:0:0:
76,192,18509,1,0,0:0:0:0:
179,192,18599,1,0,0:0:0:0:
64,192,18780,1,0,0:0:0:0:
384,192,18780,1,0,0:0:0:0:
179,192,18780,1,0,0:0:0:0:
281,192,19141,1,0,0:0:0:0:
486,192,19141,1,0,0:0:0:0:
25,192,19322,1,0,0:0:0:0:
76,192,19322,1,0,0:0:0:0:
332,192,19412,1,0,0:0:0:0:
384,192,19412,1,0,0:0:0:0:
128,192,19503,1,0,0:0:0:0:
179,192,19503,1,0,0:0:0:0:
486,192,19683,1,0,0:0:0:0:
435,192,19683,1,0,0:0:0:0:
320,192,19864,1,0,0:0:0:0:
76,192,19954,1,0,0:0:0:0:
435,192,20045,1,0,0:0:0:0:
192,192,20135,1,0,0:0:0:0:
384,192,20225,1,0,0:0:0:0:
332,192,20225,1,0,0:0:0:0:
25,192,20316,1,0,0:0:0:0:
179,192,20406,1,0,0:0:0:0:
486,192,20587,1,0,0:0:0:0:
281,192,20587,1,0,0:0:0:0:
64,192,20677,1,0,0:0:0:0:
230,192,20768,1,0,0:0:0:0:
281,192,20948,1,0,0:0:0:0:
76,192,21039,1,0,0:0:0:0:
384,192,21129,1,0,0:0:0:0:
320,192,21129,1,0,0:0:0:0:
179,192,21219,1,0,0:0:0:0:
281,192,21310,1,0,0:0:0:0:
486,192,21310,1,0,0:0:0:0:
128,192,21400,1,0,0:0:0:0:
384,192,21491,1,0,0:0:0:0:
230,192,21581,1,0,0:0:0:0:
76,192,21671,1,0,0:0:0:0:
25,192,21671,1,0,0:0:0:0:
332,192,21942,1,0,0:0:0:0:
128,192,22033,1,0,0:0:0:0:
25,192,22033,1,0,0:0:0:0:
384,192,22123,1,0,0:0:0:0:
281,192,22213,1,0,0:0:0:0:
486,192,22304,1,0,0:0:0:0:
192,192,22394,1,0,0:0:0:0:
332,192,22484,1,0,0:0:0:0:
76,192,22575,1,0,0:0:0:0:
25,192,22575,1,0,0:0:0:0:
486,192,22665,1,0,0:0:0:0:
25,192,22756,1,0,0:0:0:0:
128,192,22756,1,0,0:0:0:0:
332,192,22846,1,0,0:0:0:0:
179,192,22936,1,0,0:0:0:0:
332,192,23027,1,0,0:0:0:0:
486,192,23117,1,0,0:0:0:0:
435,192,23117,1,0,0:0:0:0:
179,192,23388,1,0,0:0:0:0:
281,192,23478,1,0,0:0:0:0:
486,192,23478,1,0,0:0:0:0:
25,192,23569,1,0,0:0:0:0:
179,192,23659,1,0,0:0:0:0:
332,192,23750,1,0,0:0:0:0:
230,192,23840,1,0,0:0:0:0:
128,192,23930,1,0,0:0:0:0:
435,192,24021,1,0,0:0:0:0:
486,192,24021,1,0,0:0:0:0:
486,192,24201,1,0,0:0:0:0:
281,192,24201,1,0,0:0:0:0:
76,192,24292,1,0,0:0:0:0:
332,192,24382,1,0,0:0:0:0:
192,192,24472,1,0,0:0:0:0:
281,192,24563,1,0,0:0:0:0:
384,192,24563,1,0,0:0:0:0:
25,192,24563,1,0,0:0:0:0:
179,192,24834,1,0,0:0:0:0:
25,192,24924,1,0,0:0:0:0:
281,192,24924,1,0,0:0:0:0:
486,192,24924,1,0,0:0:0:0:
448,192,25286,1,0,0:0:0:0:
320,192,25286,1,0,0:0:0:0:
192,192,25376,1,0,0:0:0:0:
64,192,25376,1,0,0:0:0:0:
320,192,25466,1,0,0:0:0:0:
448,192,25466,1,0,0:0:0:0:
192,192,25557,1,0,0:0:0:0:
64,192,25557,1,0,0:0:0:0:
486,192,25647,1,0,0:0:0:0:
25,192,25738,1,0,0:0:0:0:
230,192,25828,1,0,0:0:0:0:
435,192,25918,1,0,0:0:0:0:
179,192,26009,1,0,0:0:0:0:
128,192,26009,1,0,0:0:0:0:
384,192,26099,1,0,0:0:0:0:
281,192,26189,1,0,0:0:0:0:
179,192,26280,1,0,0:0:0:0:
25,192,26370,1,0,0:0:0:0:
76,192,26370,1,0,0:0:0:0:
435,192,26460,1,0,0:0:0:0:
332,192,26551,1,0,0:0:0:0:
230,192,26641,1,0,0:0:0:0:
332,192,26731,1,0,0:0:0:0:
486,192,26822,1,0,0:0:0:0:
179,192,26912,1,0,0:0:0:0:
128,192,26912,1,0,0:0:0:0:
384,192,27003,1,0,0:0:0:0:
25,192,27093,1,0,0:0:0:0:
76,192,27093,1,0,0:0:0:0:
281,192,27183,1,0,0:0:0:0:
179,192,27274,1,0,0:0:0:0:
435,192,27364,1,0,0:0:0:0:
230,192,27454,1,0,0:0:0:0:
128,192,27454,1,0,0:0:0:0:
384,192,27545,1,0,0:0:0:0:
281,192,27635,1,0,0:0:0:0:
179,192,27725,1,0,0:0:0:0:
25,192,27816,1,0,0:0:0:0:
76,192,27816,1,0,0:0:0:0:
435,192,27906,1,0,0:0:0:0:
332,192,27997,1,0,0:0:0:0:
230,192,28087,1,0,0:0:0:0:
384,192,28177,1,0,0:0:0:0:
486,192,28268,1,0,0:0:0:0:
128,192,28358,1,0,0:0:0:0:
230,192,28358,1,0,0:0:0:0:
332,192,28448,1,0,0:0:0:0:
76,192,28539,1,0,0:0:0:0:
25,192,28539,1,0,0:0:0:0:
435,192,28629,1,0,0:0:0:0:
281,192,28719,1,0,0:0:0:0:
128,192,28810,1,0,0:0:0:0:
179,192,28900,1,0,0:0:0:0:
230,192,28900,1,0,0:0:0:0:
384,192,28991,1,0,0:0:0:0:
281,192,29081,1,0,0:0:0:0:
179,192,29171,1,0,0:0:0:0:
25,192,29262,1,0,0:0:0:0:
76,192,29262,1,0,0:0:0:0:
332,192,29352,1,0,0:0:0:0:
435,192,29442,1,0,0:0:0:0:
230,192,29533,1,0,0:0:0:0:
128,192,29623,1,0,0:0:0:0:
435,192,29713,1,0,0:0:0:0:
230,192,29804,1,0,0:0:0:0:
179,192,29804,1,0,0:0:0:0:
332,192,29804,1,0,0:0:0:0:
25,192,29984,1,0,0:0:0:0:
76,192,29984,1,0,0:0:0:0:
486,192,29984,1,0,0:0:0:0:
384,192,29984,1,0,0:0:0:0:
179,192,30075,1,0,0:0:0:0:
281,192,30165,1,0,0:0:0:0:
435,192,30346,1,0,0:0:0:0:
128,192,30346,1,0,0:0:0:0:
332,192,30346,1,0,0:0:0:0:
230,192,30707,1,0,0:0:0:0:
25,192,30707,1,0,0:0:0:0:
486,192,30888,1,0,0:0:0:0:
435,192,30888,1,0,0:0:0:0:
179,192,30978,1,0,0:0:0:0:
128,192,30978,1,0,0:0:0:0:
384,192,31069,1,0,0:0:0:0:
332,192,31069,1,0,0:0:0:0:
25,192,31250,1,0,0:0:0:0:
76,192,31250,1,0,0:0:0:0:
179,192,31430,1,0,0:0:0:0:
435,192,31521,1,0,0:0:0:0:
76,192,31611,1,0,0:0:0:0:
332,192,31701,1,0,0:0:0:0:
128,192,31792,1,0,0:0:0:0:
179,192,31792,1,0,0:0:0:0:
486,192,31882,1,0,0:0:0:0:
332,192,31972,1,0,0:0:0:0:
179,192,32063,1,0,0:0:0:0:
25,192,32153,1,0,0:0:0:0:
230,192,32153,1,0,0:0:0:0:
435,192,32244,1,0,0:0:0:0:
332,192,32334,1,0,0:0:0:0:
128,192,32424,1,0,0:0:0:0:
230,192,32515,1,0,0:0:0:0:
435,192,32605,1,0,0:0:0:0:
128,192,32695,1,0,0:0:0:0:
179,192,32695,1,0,0:0:0:0:
332,192,32786,1,0,0:0:0:0:
230,192,32876,1,0,0:0:0:0:
25,192,32876,1,0,0:0:0:0:
384,192,32966,1,0,0:0:0:0:
128,192,33057,1,0,0:0:0:0:
281,192,33147,1,0,0:0:0:0:
435,192,33238,1,0,0:0:0:0:
486,192,33238,1,0,0:0:0:0:
76,192,33328,1,0,0:0:0:0:
281,192,33418,1,0,0:0:0:0:
179,192,33509,1,0,0:0:0:0:
384,192,33599,1,0,0:0:0:0:
486,192,33599,1,0,0:0:0:0:
128,192,33689,1,0,0:0:0:0:
230,192,33780,1,0,0:0:0:0:
25,192,33870,1,0,0:0:0:0:
332,192,33960,1,0,0:0:0:0:
179,192,34051,1,0,0:0:0:0:
435,192,34141,1,0,0:0:0:0:
486,192,34141,1,0,0:0:0:0:
76,192,34231,1,0,0:0:0:0:
281,192,34322,1,0,0:0:0:0:
384,192,34322,1,0,0:0:0:0:
179,192,34412,1,0,0:0:0:0:
435,192,34503,1,0,0:0:0:0:
179,192,34593,5,0,0:0:0:0:
281,192,34683,1,0,0:0:0:0:
332,192,34683,1,0,0:0:0:0:
76,192,34864,1,0,0:0:0:0:
25,192,34864,1,0,0:0:0:0:
281,192,35045,1,0,0:0:0:0:
486,192,35045,1,0,0:0:0:0:
179,192,35225,1,0,0:0:0:0:
128,192,35225,1,0,0:0:0:0:
384,192,35406,1,0,0:0:0:0:
332,192,35406,1,0,0:0:0:0:
76,192,35587,1,0,0:0:0:0:
128,192,35587,1,0,0:0:0:0:
448,192,35768,128,0,36129:0:0:0:0:
230,192,35768,1,0,0:0:0:0:
128,192,35858,1,0,0:0:0:0:
25,192,35948,1,0,0:0:0:0:
128,192,36039,1,0,0:0:0:0:
332,192,36129,1,0,0:0:0:0:
230,192,36129,1,0,0:0:0:0:
486,192,36491,1,0,0:0:0:0:
384,192,36491,1,0,0:0:0:0:
128,192,36581,1,0,0:0:0:0:
25,192,36581,1,0,0:0:0:0:
384,192,36671,1,0,0:0:0:0:
486,192,36671,1,0,0:0:0:0:
128,192,36762,1,0,0:0:0:0:
25,192,36762,1,0,0:0:0:0:
448,192,36852,128,0,37213:0:0:0:0:
320,192,36852,1,0,0:0:0:0:
192,192,37033,1,0,0:0:0:0:
64,192,37123,1,0,0:0:0:0:
320,192,37213,1,0,0:0:0:0:
230,192,37304,1,0,0:0:0:0:
320,192,37394,1,0,0:0:0:0:
230,192,37484,1,0,0:0:0:0:
128,192,37575,1,0,0:0:0:0:
76,192,37575,1,0,0:0:0:0:
384,192,37665,1,0,0:0:0:0:
486,192,37756,1,0,0:0:0:0:
76,192,37846,1,0,0:0:0:0:
179,192,37936,1,0,0:0:0:0:
230,192,37936,1,0,0:0:0:0:
332,192,38027,1,0,0:0:0:0:
435,192,38117,1,0,0:0:0:0:
25,192,38207,1,0,0:0:0:0:
435,192,38298,1,0,0:0:0:0:
281,192,38388,1,0,0:0:0:0:
128,192,38478,1,0,0:0:0:0:
76,192,38478,1,0,0:0:0:0:
384,192,38569,1,0,0:0:0:0:
179,192,38659,1,0,0:0:0:0:
230,192,38659,1,0,0:0:0:0:
486,192,38750,1,0,0:0:0:0:
76,192,38840,1,0,0:0:0:0:
332,192,38930,1,0,0:0:0:0:
128,192,39021,1,0,0:0:0:0:
25,192,39021,1,0,0:0:0:0:
384,192,39111,1,0,0:0:0:0:
486,192,39201,1,0,0:0:0:0:
76,192,39292,1,0,0:0:0:0:
179,192,39382,1,0,0:0:0:0:
230,192,39382,1,0,0:0:0:0:
332,192,39472,1,0,0:0:0:0:
435,192,39563,1,0,0:0:0:0:
25,192,39653,1,0,0:0:0:0:
384,192,39744,1,0,0:0:0:0:
281,192,39834,1,0,0:0:0:0:
25,192,39924,1,0,0:0:0:0:
128,192,39924,1,0,0:0:0:0:
435,192,40015,1,0,0:0:0:0:
230,192,40105,1,0,0:0:0:0:
179,192,40105,1,0,0:0:0:0:
332,192,40195,1,0,0:0:0:0:
486,192,40286,1,0,0:0:0:0:
179,192,40376,1,0,0:0:0:0:
25,192,40466,1,0,0:0:0:0:
76,192,40466,1,0,0:0:0:0:
281,192,40557,1,0,0:0:0:0:
486,192,40647,1,0,0:0:0:0:
179,192,40828,1,0,0:0:0:0:
230,192,40828,1,0,0:0:0:0:
332,192,40918,1,0,0:0:0:0:
435,192,41009,1,0,0:0:0:0:
230,192,41189,1,0,0:0:0:0:
332,192,41280,1,0,0:0:0:0:
435,192,41370,1,0,0:0:0:0:
76,192,41370,1,0,0:0:0:0:
25,192,41370,1,0,0:0:0:0:
230,192,41551,1,0,0:0:0:0:
179,192,41551,1,0,0:0:0:0:
281,192,41641,1,0,0:0:0:0:
486,192,41731,1,0,0:0:0:0:
435,192,41912,1,0,0:0:0:0:
128,192,41912,1,0,0:0:0:0:
332,192,41912,1,0,0:0:0:0:
230,192,42274,1,0,0:0:0:0:
25,192,42274,1,0,0:0:0:0:
332,192,42454,1,0,0:0:0:0:
281,192,42454,1,0,0:0:0:0:
128,192,42545,1,0,0:0:0:0:
76,192,42545,1,0,0:0:0:0:
435,192,42635,1,0,0:0:0:0:
384,192,42635,1,0,0:0:0:0:
179,192,42816,1,0,0:0:0:0:
230,192,42816,1,0,0:0:0:0:
76,192,42997,1,0,0:0:0:0:
332,192,43087,1,0,0:0:0:0:
179,192,43177,1,0,0:0:0:0:
435,192,43268,1,0,0:0:0:0:
76,192,43358,1,0,0:0:0:0:
128,192,43358,1,0,0:0:0:0:
281,192,43448,1,0,0:0:0:0:
435,192,43539,1,0,0:0:0:0:
128,192,43629,1,0,0:0:0:0:
25,192,43719,1,0,0:0:0:0:
230,192,43719,1,0,0:0:0:0:
332,192,43810,1,0,0:0:0:0:
435,192,43900,1,0,0:0:0:0:
128,192,43991,1,0,0:0:0:0:
25,192,44081,1,0,0:0:0:0:
332,192,44171,1,0,0:0:0:0:
76,192,44262,1,0,0:0:0:0:
128,192,44262,1,0,0:0:0:0:
435,192,44352,1,0,0:0:0:0:
230,192,44442,1,0,0:0:0:0:
25,192,44442,1,0,0:0:0:0:
384,192,44533,1,0,0:0:0:0:
128,192,44623,1,0,0:0:0:0:
486,192,44713,1,0,0:0:0:0:
281,192,44804,1,0,0:0:0:0:
332,192,44804,1,0,0:0:0:0:
179,192,44894,1,0,0:0:0:0:
435,192,44984,1,0,0:0:0:0:
76,192,45075,1,0,0:0:0:0:
281,192,45165,1,0,0:0:0:0:
384,192,45165,1,0,0:0:0:0:
128,192,45256,1,0,0:0:0:0:
25,192,45346,1,0,0:0:0:0:
230,192,45436,1,0,0:0:0:0:
435,192,45527,1,0,0:0:0:0:
76,192,45617,1,0,0:0:0:0:
281,192,45707,1,0,0:0:0:0:
332,192,45707,1,0,0:0:0:0:
230,192,45798,1,0,0:0:0:0:
384,192,45888,1,0,0:0:0:0:
486,192,45888,1,0,0:0:0:0:
76,192,45978,1,0,0:0:0:0:
179,192,46069,1,0,0:0:0:0:
76,192,46159,1,0,0:0:0:0:
435,192,46250,1,0,0:0:0:0:
486,192,46250,1,0,0:0:0:0:
281,192,46340,1,0,0:0:0:0:
384,192,46430,1,0,0:0:0:0:
486,192,46521,1,0,0:0:0:0:
230,192,46611,1,0,0:0:0:0:
25,192,46611,1,0,0:0:0:0:
486,192,46701,1,0,0:0:0:0:
384,192,46792,1,0,0:0:0:0:
281,192,46882,1,0,0:0:0:0:
76,192,46972,1,0,0:0:0:0:
179,192,47063,1,0,0:0:0:0:
486,192,47153,1,0,0:0:0:0:
435,192,47153,1,0,0:0:0:0:
179,192,47244,1,0,0:0:0:0:
25,192,47334,1,0,0:0:0:0:
230,192,47334,1,0,0:0:0:0:
332,192,47424,1,0,0:0:0:0:
76,192,47515,1,0,0:0:0:0:
435,192,47605,1,0,0:0:0:0:
332,192,47695,1,0,0:0:0:0:
128,192,47695,1,0,0:0:0:0:
25,192,47695,1,0,0:0:0:0:
435,192,47966,5,0,0:0:0:0:
179,192,47966,1,0,0:0:0:0:
230,192,48057,1,0,0:0:0:0:
25,192,48057,1,0,0:0:0:0:
332,192,48057,1,0,0:0:0:0:
179,192,48418,1,0,0:0:0:0:
332,192,48509,1,0,0:0:0:0:
76,192,48599,1,0,0:0:0:0:
435,192,48689,1,0,0:0:0:0:
230,192,48780,1,0,0:0:0:0:
25,192,48870,1,0,0:0:0:0:
179,192,48960,1,0,0:0:0:0:
332,192,49051,1,0,0:0:0:0:
486,192,49141,5,0,0:0:0:0:
76,192,49141,1,0,0:0:0:0:
128,192,49141,1,0,0:0:0:0:
384,192,49503,1,0,0:0:0:0:
486,192,49503,1,0,0:0:0:0:
281,192,49503,1,0,0:0:0:0:
76,192,50045,1,0,0:0:0:0:
128,192,50045,1,0,0:0:0:0:
384,192,50225,1,0,0:0:0:0:
486,192,50225,1,0,0:0:0:0:
281,192,50225,1,0,0:0:0:0:
179,192,50587,1,0,0:0:0:0:
128,192,50587,1,0,0:0:0:0:
281,192,50587,1,0,0:0:0:0:
486,192,50948,1,0,0:0:0:0:
384,192,50948,1,0,0:0:0:0:
281,192,50948,1,0,0:0:0:0:
179,192,51491,1,0,0:0:0:0:
128,192,51491,1,0,0:0:0:0:
486,192,51671,1,0,0:0:0:0:
281,192,51671,1,0,0:0:0:0:
384,192,51671,1,0,0:0:0:0:
230,192,52033,1,0,0:0:0:0:
25,192,52033,1,0,0:0:0:0:
332,192,52394,1,0,0:0:0:0:
435,192,52394,1,0,0:0:0:0:
179,192,52394,1,0,0:0:0:0:
76,192,52394,1,0,0:0:0:0:
25,192,52936,1,0,0:0:0:0:
230,192,52936,1,0,0:0:0:0:
435,192,53117,1,0,0:0:0:0:
332,192,53117,1,0,0:0:0:0:
384,192,53478,1,0,0:0:0:0:
281,192,53478,1,0,0:0:0:0:
384,192,53840,1,0,0:0:0:0:
486,192,53840,1,0,0:0:0:0:
192,192,54021,1,0,0:0:0:0:
76,192,54021,1,0,0:0:0:0:
384,192,54111,1,0,0:0:0:0:
281,192,54111,1,0,0:0:0:0:
192,192,54201,1,0,0:0:0:0:
76,192,54201,1,0,0:0:0:0:
230,192,54382,1,0,0:0:0:0:
332,192,54382,1,0,0:0:0:0:
332,192,54744,1,0,0:0:0:0:
435,192,54744,1,0,0:0:0:0:
25,192,54744,1,0,0:0:0:0:
448,192,54924,128,0,59262:0:0:0:0:
25,192,54924,128,0,56370:0:0:0:0:
179,192,56370,128,0,57816:0:0:0:0:
332,192,56912,128,0,57816:0:0:0:0:
281,192,57816,128,0,59262:0:0:0:0:
64,192,59262,128,0,60707:0:0:0:0:
320,192,60707,1,0,0:0:0:0:
281,192,60707,1,0,0:0:0:0:
25,192,60707,1,0,0:0:0:0:
192,192,61430,1,0,0:0:0:0:
384,192,61430,1,0,0:0:0:0:
486,192,61430,1,0,0:0:0:0:
230,192,61430,1,0,0:0:0:0:
179,192,61972,1,0,0:0:0:0:
76,192,61972,1,0,0:0:0:0:
435,192,61972,1,0,0:0:0:0:
179,192,62153,1,0,0:0:0:0:
76,192,62153,1,0,0:0:0:0:
332,192,62153,1,0,0:0:0:0:
332,192,62424,1,0,0:0:0:0:
179,192,62424,1,0,0:0:0:0:
76,192,62695,1,0,0:0:0:0:
179,192,62695,1,0,0:0:0:0:
281,192,62876,1,0,0:0:0:0:
486,192,62876,1,0,0:0:0:0:
25,192,63599,1,0,0:0:0:0:
128,192,63599,1,0,0:0:0:0:
332,192,63599,1,0,0:0:0:0:
281,192,63599,1,0,0:0:0:0:
281,192,64322,1,0,0:0:0:0:
384,192,64322,1,0,0:0:0:0:
486,192,64322,1,0,0:0:0:0:
192,192,64864,1,0,0:0:0:0:
384,192,65045,1,0,0:0:0:0:
281,192,65045,1,0,0:0:0:0:
128,192,65045,1,0,0:0:0:0:
332,192,65316,1,0,0:0:0:0:
435,192,65316,1,0,0:0:0:0:
230,192,65316,1,0,0:0:0:0:
384,192,65587,1,0,0:0:0:0:
486,192,65587,1,0,0:0:0:0:
25,192,65587,1,0,0:0:0:0:
64,192,65858,1,0,0:0:0:0:
192,192,65858,1,0,0:0:0:0:
448,192,65948,1,0,0:0:0:0:
320,192,65948,1,0,0:0:0:0:
192,192,66219,1,0,0:0:0:0:
64,192,66219,1,0,0:0:0:0:
281,192,66310,1,0,0:0:0:0:
486,192,66310,1,0,0:0:0:0:
230,192,66400,1,0,0:0:0:0:
25,192,66400,1,0,0:0:0:0:
448,192,66491,1,0,0:0:0:0:
332,192,66491,1,0,0:0:0:0:
64,192,67213,1,0,0:0:0:0:
179,192,67213,1,0,0:0:0:0:
384,192,67213,1,0,0:0:0:0:
281,192,67756,1,0,0:0:0:0:
230,192,67756,1,0,0:0:0:0:
76,192,67936,1,0,0:0:0:0:
25,192,67936,1,0,0:0:0:0:
435,192,67936,1,0,0:0:0:0:
486,192,67936,1,0,0:0:0:0:
486,192,68207,1,0,0:0:0:0:
179,192,68207,1,0,0:0:0:0:
230,192,68207,1,0,0:0:0:0:
448,192,68478,1,0,0:0:0:0:
486,192,68478,1,0,0:0:0:0:
320,192,68659,1,0,0:0:0:0:
281,192,68659,1,0,0:0:0:0:
128,192,68659,1,0,0:0:0:0:
179,192,69382,1,0,0:0:0:0:
25,192,69382,1,0,0:0:0:0:
384,192,69382,1,0,0:0:0:0:
332,192,69382,1,0,0:0:0:0:
230,192,70105,1,0,0:0:0:0:
128,192,70105,1,0,0:0:0:0:
281,192,70105,1,0,0:0:0:0:
486,192,70105,1,0,0:0:0:0:
179,192,70647,1,0,0:0:0:0:
25,192,70828,1,0,0:0:0:0:
230,192,70828,1,0,0:0:0:0:
332,192,70828,1,0,0:0:0:0:
435,192,71189,128,0,71370:0:0:0:0:
76,192,71280,128,0,71460:0:0:0:0:
332,192,71370,128,0,71551:0:0:0:0:
179,192,71460,128,0,71641:0:0:0:0:
435,192,71551,128,0,71731:0:0:0:0:
76,192,71641,128,0,71822:0:0:0:0:
332,192,71731,128,0,71912:0:0:0:0:
179,192,71822,128,0,71912:0:0:0:0:
230,192,71912,1,0,0:0:0:0:
128,192,72093,1,0,0:0:0:0:
230,192,72183,1,0,0:0:0:0:
332,192,72274,1,0,0:0:0:0:
384,192,72274,1,0,0:0:0:0:
128,192,72364,1,0,0:0:0:0:
230,192,72454,1,0,0:0:0:0:
332,192,72545,1,0,0:0:0:0:
486,192,72635,1,0,0:0:0:0:
435,192,72635,1,0,0:0:0:0:
76,192,72725,1,0,0:0:0:0:
179,192,72816,1,0,0:0:0:0:
281,192,72906,1,0,0:0:0:0:
179,192,72997,1,0,0:0:0:0:
25,192,73087,1,0,0:0:0:0:
332,192,73177,1,0,0:0:0:0:
384,192,73177,1,0,0:0:0:0:
128,192,73268,1,0,0:0:0:0:
486,192,73358,1,0,0:0:0:0:
435,192,73358,1,0,0:0:0:0:
230,192,73448,1,0,0:0:0:0:
332,192,73539,1,0,0:0:0:0:
76,192,73629,1,0,0:0:0:0:
281,192,73719,1,0,0:0:0:0:
384,192,73719,1,0,0:0:0:0:
128,192,73810,1,0,0:0:0:0:
230,192,73900,1,0,0:0:0:0:
332,192,73991,1,0,0:0:0:0:
486,192,74081,1,0,0:0:0:0:
448,192,74081,1,0,0:0:0:0:
76,192,74171,1,0,0:0:0:0:
179,192,74262,1,0,0:0:0:0:
281,192,74352,1,0,0:0:0:0:
128,192,74442,1,0,0:0:0:0:
25,192,74533,1,0,0:0:0:0:
384,192,74623,1,0,0:0:0:0:
281,192,74623,1,0,0:0:0:0:
179,192,74713,1,0,0:0:0:0:
435,192,74804,1,0,0:0:0:0:
486,192,74804,1,0,0:0:0:0:
76,192,74894,1,0,0:0:0:0:
230,192,74984,1,0,0:0:0:0:
384,192,75075,1,0,0:0:0:0:
332,192,75165,1,0,0:0:0:0:
281,192,75165,1,0,0:0:0:0:
128,192,75256,1,0,0:0:0:0:
230,192,75346,1,0,0:0:0:0:
332,192,75436,1,0,0:0:0:0:
486,192,75527,1,0,0:0:0:0:
435,192,75527,1,0,0:0:0:0:
25,192,75617,1,0,0:0:0:0:
128,192,75707,1,0,0:0:0:0:
230,192,75798,1,0,0:0:0:0:
332,192,75888,1,0,0:0:0:0:
76,192,75978,1,0,0:0:0:0:
281,192,76069,1,0,0:0:0:0:
332,192,76069,1,0,0:0:0:0:
179,192,76069,1,0,0:0:0:0:
486,192,76250,1,0,0:0:0:0:
435,192,76250,1,0,0:0:0:0:
25,192,76250,1,0,0:0:0:0:
128,192,76250,1,0,0:0:0:0:
332,192,76340,1,0,0:0:0:0:
230,192,76430,1,0,0:0:0:0:
64,192,76611,1,0,0:0:0:0:
384,192,76611,1,0,0:0:0:0:
179,192,76611,1,0,0:0:0:0:
281,192,76972,1,0,0:0:0:0:
486,192,76972,1,0,0:0:0:0:
25,192,77153,1,0,0:0:0:0:
76,192,77153,1,0,0:0:0:0:
332,192,77244,1,0,0:0:0:0:
384,192,77244,1,0,0:0:0:0:
128,192,77334,1,0,0:0:0:0:
179,192,77334,1,0,0:0:0:0:
486,192,77515,1,0,0:0:0:0:
435,192,77515,1,0,0:0:0:0:
320,192,77695,1,0,0:0:0:0:
76,192,77786,1,0,0:0:0:0:
435,192,77876,1,0,0:0:0:0:
192,192,77966,1,0,0:0:0:0:
384,192,78057,1,0,0:0:0:0:
332,192,78057,1,0,0:0:0:0:
25,192,78147,1,0,0:0:0:0:
179,192,78238,1,0,0:0:0:0:
332,192,78328,1,0,0:0:0:0:
486,192,78418,1,0,0:0:0:0:
281,192,78418,1,0,0:0:0:0:
64,192,78509,1,0,0:0:0:0:
179,192,78599,1,0,0:0:0:0:
384,192,78689,1,0,0:0:0:0:
281,192,78780,1,0,0:0:0:0:
76,192,78870,1,0,0:0:0:0:
384,192,78960,1,0,0:0:0:0:
320,192,78960,1,0,0:0:0:0:
179,192,79051,1,0,0:0:0:0:
281,192,79141,1,0,0:0:0:0:
486,192,79141,1,0,0:0:0:0:
128,192,79231,1,0,0:0:0:0:
384,192,79322,1,0,0:0:0:0:
230,192,79412,1,0,0:0:0:0:
76,192,79503,1,0,0:0:0:0:
25,192,79503,1,0,0:0:0:0:
448,192,79593,1,0,0:0:0:0:
230,192,79683,1,0,0:0:0:0:
332,192,79774,1,0,0:0:0:0:
128,192,79864,1,0,0:0:0:0:
25,192,79864,1,0,0:0:0:0:
384,192,79954,1,0,0:0:0:0:
281,192,80045,1,0,0:0:0:0:
486,192,80135,1,0,0:0:0:0:
192,192,80225,1,0,0:0:0:0:
332,192,80316,1,0,0:0:0:0:
76,192,80406,1,0,0:0:0:0:
25,192,80406,1,0,0:0:0:0:
486,192,80497,1,0,0:0:0:0:
230,192,80587,1,0,0:0:0:0:
128,192,80587,1,0,0:0:0:0:
332,192,80677,1,0,0:0:0:0:
179,192,80768,1,0,0:0:0:0:
332,192,80858,1,0,0:0:0:0:
230,192,80948,1,0,0:0:0:0:
179,192,80948,1,0,0:0:0:0:
25,192,81039,1,0,0:0:0:0:
128,192,81129,1,0,0:0:0:0:
230,192,81219,1,0,0:0:0:0:
281,192,81310,1,0,0:0:0:0:
486,192,81310,1,0,0:0:0:0:
230,192,81400,1,0,0:0:0:0:
128,192,81491,1,0,0:0:0:0:
25,192,81581,1,0,0:0:0:0:
332,192,81671,1,0,0:0:0:0:
435,192,81762,1,0,0:0:0:0:
192,192,81852,1,0,0:0:0:0:
230,192,81852,1,0,0:0:0:0:
332,192,81942,1,0,0:0:0:0:
486,192,82033,1,0,0:0:0:0:
281,192,82033,1,0,0:0:0:0:
76,192,82123,1,0,0:0:0:0:
332,192,82213,1,0,0:0:0:0:
192,192,82304,1,0,0:0:0:0:
281,192,82394,1,0,0:0:0:0:
384,192,82394,1,0,0:0:0:0:
25,192,82394,1,0,0:0:0:0:
320,192,82575,1,0,0:0:0:0:
179,192,82665,1,0,0:0:0:0:
76,192,82756,1,0,0:0:0:0:
281,192,82756,1,0,0:0:0:0:
486,192,82756,1,0,0:0:0:0:
384,192,82846,1,0,0:0:0:0:
128,192,82936,1,0,0:0:0:0:
230,192,83027,1,0,0:0:0:0:
332,192,83117,1,0,0:0:0:0:
64,192,83207,1,0,0:0:0:0:
435,192,83298,1,0,0:0:0:0:
192,192,83388,1,0,0:0:0:0:
332,192,83478,1,0,0:0:0:0:
25,192,83569,1,0,0:0:0:0:
281,192,83659,1,0,0:0:0:0:
128,192,83750,1,0,0:0:0:0:
179,192,83840,1,0,0:0:0:0:
230,192,83840,1,0,0:0:0:0:
384,192,83930,1,0,0:0:0:0:
281,192,84021,1,0,0:0:0:0:
179,192,84111,1,0,0:0:0:0:
25,192,84201,1,0,0:0:0:0:
76,192,84201,1,0,0:0:0:0:
435,192,84292,1,0,0:0:0:0:
332,192,84382,1,0,0:0:0:0:
230,192,84472,1,0,0:0:0:0:
332,192,84563,1,0,0:0:0:0:
486,192,84653,1,0,0:0:0:0:
179,192,84744,1,0,0:0:0:0:
128,192,84744,1,0,0:0:0:0:
384,192,84834,1,0,0:0:0:0:
25,192,84924,1,0,0:0:0:0:
76,192,84924,1,0,0:0:0:0:
281,192,85015,1,0,0:0:0:0:
179,192,85105,1,0,0:0:0:0:
435,192,85195,1,0,0:0:0:0:
230,192,85286,1,0,0:0:0:0:
128,192,85286,1,0,0:0:0:0:
384,192,85376,1,0,0:0:0:0:
281,192,85466,1,0,0:0:0:0:
179,192,85557,1,0,0:0:0:0:
25,192,85647,1,0,0:0:0:0:
76,192,85647,1,0,0:0:0:0:
435,192,85738,1,0,0:0:0:0:
332,192,85828,1,0,0:0:0:0:
230,192,85918,1,0,0:0:0:0:
384,192,86009,1,0,0:0:0:0:
486,192,86099,1,0,0:0:0:0:
128,192,86189,1,0,0:0:0:0:
230,192,86189,1,0,0:0:0:0:
332,192,86280,1,0,0:0:0:0:
76,192,86370,1,0,0:0:0:0:
25,192,86370,1,0,0:0:0:0:
435,192,86460,1,0,0:0:0:0:
281,192,86551,1,0,0:0:0:0:
128,192,86641,1,0,0:0:0:0:
179,192,86731,1,0,0:0:0:0:
230,192,86731,1,0,0:0:0:0:
384,192,86822,1,0,0:0:0:0:
281,192,86912,1,0,0:0:0:0:
179,192,87003,1,0,0:0:0:0:
25,192,87093,1,0,0:0:0:0:
76,192,87093,1,0,0:0:0:0:
332,192,87183,1,0,0:0:0:0:
435,192,87274,1,0,0:0:0:0:
230,192,87364,1,0,0:0:0:0:
128,192,87454,1,0,0:0:0:0:
435,192,87545,1,0,0:0:0:0:
230,192,87635,1,0,0:0:0:0:
179,192,87635,1,0,0:0:0:0:
332,192,87635,1,0,0:0:0:0:
25,192,87816,1,0,0:0:0:0:
76,192,87816,1,0,0:0:0:0:
486,192,87816,1,0,0:0:0:0:
384,192,87816,1,0,0:0:0:0:
179,192,87906,1,0,0:0:0:0:
281,192,87997,1,0,0:0:0:0:
435,192,88177,1,0,0:0:0:0:
128,192,88177,1,0,0:0:0:0:
332,192,88177,1,0,0:0:0:0:
230,192,88539,1,0,0:0:0:0:
25,192,88539,1,0,0:0:0:0:
486,192,88719,1,0,0:0:0:0:
435,192,88719,1,0,0:0:0:0:
179,192,88810,1,0,0:0:0:0:
128,192,88810,1,0,0:0:0:0:
384,192,88900,1,0,0:0:0:0:
332,192,88900,1,0,0:0:0:0:
25,192,89081,1,0,0:0:0:0:
76,192,89081,1,0,0:0:0:0:
179,192,89262,1,0,0:0:0:0:
435,192,89352,1,0,0:0:0:0:
76,192,89442,1,0,0:0:0:0:
332,192,89533,1,0,0:0:0:0:
281,192,89623,1,0,0:0:0:0:
230,192,89623,1,0,0:0:0:0:
435,192,89713,1,0,0:0:0:0:
128,192,89804,1,0,0:0:0:0:
332,192,89894,1,0,0:0:0:0:
230,192,89984,1,0,0:0:0:0:
25,192,89984,1,0,0:0:0:0:
384,192,90075,1,0,0:0:0:0:
76,192,90165,1,0,0:0:0:0:
179,192,90256,1,0,0:0:0:0:
332,192,90346,1,0,0:0:0:0:
486,192,90436,1,0,0:0:0:0:
281,192,90527,1,0,0:0:0:0:
230,192,90527,1,0,0:0:0:0:
128,192,90617,1,0,0:0:0:0:
25,192,90707,1,0,0:0:0:0:
486,192,90707,1,0,0:0:0:0:
332,192,90798,1,0,0:0:0:0:
179,192,90888,1,0,0:0:0:0:
384,192,90978,1,0,0:0:0:0:
230,192,91069,1,0,0:0:0:0:
76,192,91069,1,0,0:0:0:0:
486,192,91159,1,0,0:0:0:0:
179,192,91250,1,0,0:0:0:0:
332,192,91340,5,0,0:0:0:0:
230,192,91430,1,0,0:0:0:0:
25,192,91430,1,0,0:0:0:0:
435,192,91521,1,0,0:0:0:0:
76,192,91611,1,0,0:0:0:0:
281,192,91701,1,0,0:0:0:0:
179,192,91792,1,0,0:0:0:0:
332,192,91882,1,0,0:0:0:0:
486,192,91972,1,0,0:0:0:0:
435,192,91972,1,0,0:0:0:0:
76,192,92063,1,0,0:0:0:0:
230,192,92153,1,0,0:0:0:0:
25,192,92153,1,0,0:0:0:0:
332,192,92244,1,0,0:0:0:0:
128,192,92334,1,0,0:0:0:0:
281,192,92424,1,0,0:0:0:0:
448,192,92515,5,0,0:0:0:0:
486,192,92515,1,0,0:0:0:0:
179,192,92515,1,0,0:0:0:0:
128,192,92695,1,0,0:0:0:0:
25,192,92695,1,0,0:0:0:0:
320,192,92876,1,0,0:0:0:0:
230,192,92876,1,0,0:0:0:0:
486,192,92876,1,0,0:0:0:0:
128,192,93057,1,0,0:0:0:0:
25,192,93057,1,0,0:0:0:0:
384,192,93238,1,0,0:0:0:0:
486,192,93238,1,0,0:0:0:0:
281,192,93238,1,0,0:0:0:0:
76,192,93418,1,0,0:0:0:0:
179,192,93418,1,0,0:0:0:0:
230,192,93599,128,0,93960:0:0:0:0:
332,192,93599,1,0,0:0:0:0:
76,192,93780,1,0,0:0:0:0:
179,192,93870,1,0,0:0:0:0:
320,192,93960,1,0,0:0:0:0:
448,192,94051,1,0,0:0:0:0:
179,192,94141,1,0,0:0:0:0:
25,192,94322,1,0,0:0:0:0:
128,192,94412,1,0,0:0:0:0:
384,192,94593,1,0,0:0:0:0:
230,192,94593,1,0,0:0:0:0:
281,192,94683,1,0,0:0:0:0:
128,192,94774,1,0,0:0:0:0:
320,192,94864,1,0,0:0:0:0:
192,192,94954,1,0,0:0:0:0:
320,192,95045,1,0,0:0:0:0:
64,192,95045,1,0,0:0:0:0:
448,192,95045,1,0,0:0:0:0:
25,192,95045,1,0,0:0:0:0:
192,192,95406,128,0,96129:0:0:0:0:
25,192,95406,1,0,0:0:0:0:
448,192,95587,128,0,96129:0:0:0:0:
320,192,96129,1,0,0:0:0:0:
64,192,96129,1,0,0:0:0:0:
230,192,96310,1,0,0:0:0:0:
384,192,96491,1,0,0:0:0:0:
64,192,96491,128,0,96671:0:0:0:0:
230,192,96671,1,0,0:0:0:0:
281,192,96671,1,0,0:0:0:0:
332,192,96852,1,0,0:0:0:0:
179,192,96852,1,0,0:0:0:0:
179,192,97123,1,0,0:0:0:0:
76,192,97123,1,0,0:0:0:0:
332,192,97123,1,0,0:0:0:0:
179,192,97394,1,0,0:0:0:0:
25,192,97394,1,0,0:0:0:0:
332,192,97394,1,0,0:0:0:0:
25,192,97575,1,0,0:0:0:0:
332,192,97575,1,0,0:0:0:0:
486,192,97575,1,0,0:0:0:0:
179,192,97756,1,0,0:0:0:0:
192,192,97936,1,0,0:0:0:0:
435,192,97936,128,0,98298:0:0:0:0:
192,192,98298,1,0,0:0:0:0:
320,192,98298,128,0,99021:0:0:0:0:
128,192,98388,1,0,0:0:0:0:
64,192,98478,128,0,98659:0:0:0:0:
192,192,98659,128,0,99021:0:0:0:0:
448,192,99021,1,0,0:0:0:0:
486,192,99021,1,0,0:0:0:0:
320,192,99201,1,0,0:0:0:0:
64,192,99382,128,0,99563:0:0:0:0:
230,192,99382,1,0,0:0:0:0:
332,192,99563,1,0,0:0:0:0:
448,192,99744,1,0,0:0:0:0:
281,192,99744,1,0,0:0:0:0:
230,192,99744,1,0,0:0:0:0:
25,192,99744,1,0,0:0:0:0:
25,192,100015,1,0,0:0:0:0:
332,192,100015,1,0,0:0:0:0:
448,192,100286,1,0,0:0:0:0:
25,192,100286,1,0,0:0:0:0:
230,192,100286,1,0,0:0:0:0:
64,192,100557,1,0,0:0:0:0:
192,192,100557,1,0,0:0:0:0:
320,192,100647,1,0,0:0:0:0:
448,192,100647,1,0,0:0:0:0:
25,192,100918,1,0,0:0:0:0:
230,192,100918,1,0,0:0:0:0:
281,192,101009,1,0,0:0:0:0:
486,192,101009,1,0,0:0:0:0:
64,192,101099,1,0,0:0:0:0:
448,192,101189,128,0,101912:0:0:0:0:
320,192,101189,128,0,101370:0:0:0:0:
179,192,101189,1,0,0:0:0:0:
192,192,101370,128,0,101912:0:0:0:0:
64,192,101912,1,0,0:0:0:0:
25,192,101912,1,0,0:0:0:0:
332,192,102093,1,0,0:0:0:0:
448,192,102274,128,0,102454:0:0:0:0:
179,192,102274,1,0,0:0:0:0:
332,192,102454,1,0,0:0:0:0:
64,192,102635,1,0,0:0:0:0:
25,192,102635,1,0,0:0:0:0:
384,192,102635,1,0,0:0:0:0:
64,192,102906,1,0,0:0:0:0:
179,192,102906,1,0,0:0:0:0:
384,192,102906,1,0,0:0:0:0:
64,192,103177,1,0,0:0:0:0:
384,192,103177,1,0,0:0:0:0:
230,192,103177,1,0,0:0:0:0:
448,192,103358,1,0,0:0:0:0:
320,192,103358,1,0,0:0:0:0:
179,192,103358,1,0,0:0:0:0:
128,192,103539,1,0,0:0:0:0:
281,192,103719,128,0,104081:0:0:0:0:
320,192,104081,1,0,0:0:0:0:
448,192,104081,128,0,105527:0:0:0:0:
230,192,104081,1,0,0:0:0:0:
25,192,104081,1,0,0:0:0:0:
192,192,104804,1,0,0:0:0:0:
64,192,104804,1,0,0:0:0:0:
320,192,104984,1,0,0:0:0:0:
332,192,105165,128,0,105527:0:0:0:0:
128,192,105527,1,0,0:0:0:0:
25,192,105527,1,0,0:0:0:0:
230,192,105527,1,0,0:0:0:0:
320,192,105888,1,0,0:0:0:0:
76,192,105978,1,0,0:0:0:0:
230,192,106069,1,0,0:0:0:0:
384,192,106159,1,0,0:0:0:0:
192,192,106340,1,0,0:0:0:0:
320,192,106340,1,0,0:0:0:0:
64,192,106521,1,0,0:0:0:0:
435,192,106521,1,0,0:0:0:0:
192,192,106792,1,0,0:0:0:0:
320,192,106882,1,0,0:0:0:0:
448,192,106972,1,0,0:0:0:0:
64,192,106972,1,0,0:0:0:0:
25,192,106972,1,0,0:0:0:0:
192,192,107063,1,0,0:0:0:0:
320,192,107153,1,0,0:0:0:0:
128,192,107244,1,0,0:0:0:0:
281,192,107334,1,0,0:0:0:0:
486,192,107334,1,0,0:0:0:0:
179,192,107515,1,0,0:0:0:0:
76,192,107605,1,0,0:0:0:0:
320,192,107695,1,0,0:0:0:0:
230,192,107786,1,0,0:0:0:0:
128,192,107876,1,0,0:0:0:0:
281,192,107966,1,0,0:0:0:0:
64,192,108057,1,0,0:0:0:0:
448,192,108057,1,0,0:0:0:0:
320,192,108147,1,0,0:0:0:0:
230,192,108238,1,0,0:0:0:0:
128,192,108328,1,0,0:0:0:0:
448,192,108418,1,0,0:0:0:0:
281,192,108418,1,0,0:0:0:0:
25,192,108509,1,0,0:0:0:0:
192,192,108599,1,0,0:0:0:0:
320,192,108689,1,0,0:0:0:0:
486,192,108780,1,0,0:0:0:0:
64,192,108780,1,0,0:0:0:0:
230,192,108780,1,0,0:0:0:0:
281,192,108870,1,0,0:0:0:0:
25,192,108960,1,0,0:0:0:0:
192,192,109051,1,0,0:0:0:0:
332,192,109141,1,0,0:0:0:0:
486,192,109231,1,0,0:0:0:0:
64,192,109322,1,0,0:0:0:0:
281,192,109322,1,0,0:0:0:0:
384,192,109412,1,0,0:0:0:0:
25,192,109503,1,0,0:0:0:0:
179,192,109503,1,0,0:0:0:0:
320,192,109593,1,0,0:0:0:0:
230,192,109683,1,0,0:0:0:0:
448,192,109774,1,0,0:0:0:0:
128,192,109774,1,0,0:0:0:0:
384,192,109864,1,0,0:0:0:0:
281,192,109864,1,0,0:0:0:0:
64,192,109954,1,0,0:0:0:0:
320,192,110045,1,0,0:0:0:0:
192,192,110135,1,0,0:0:0:0:
64,192,110225,1,0,0:0:0:0:
384,192,110225,1,0,0:0:0:0:
486,192,110225,1,0,0:0:0:0:
230,192,110316,1,0,0:0:0:0:
320,192,110406,1,0,0:0:0:0:
192,192,110497,1,0,0:0:0:0:
281,192,110587,1,0,0:0:0:0:
448,192,110677,1,0,0:0:0:0:
320,192,110768,1,0,0:0:0:0:
192,192,110858,1,0,0:0:0:0:
448,192,110948,1,0,0:0:0:0:
64,192,110948,1,0,0:0:0:0:
281,192,111039,1,0,0:0:0:0:
128,192,111129,1,0,0:0:0:0:
230,192,111219,1,0,0:0:0:0:
320,192,111310,1,0,0:0:0:0:
486,192,111310,1,0,0:0:0:0:
179,192,111400,1,0,0:0:0:0:
281,192,111491,1,0,0:0:0:0:
76,192,111581,1,0,0:0:0:0:
230,192,111671,1,0,0:0:0:0:
384,192,111671,1,0,0:0:0:0:
486,192,111762,1,0,0:0:0:0:
128,192,111852,1,0,0:0:0:0:
448,192,111942,1,0,0:0:0:0:
281,192,111942,1,0,0:0:0:0:
230,192,112033,1,0,0:0:0:0:
320,192,112123,1,0,0:0:0:0:
64,192,112213,1,0,0:0:0:0:
192,192,112213,1,0,0:0:0:0:
320,192,112304,1,0,0:0:0:0:
128,192,112394,1,0,0:0:0:0:
25,192,112484,1,0,0:0:0:0:
179,192,112575,1,0,0:0:0:0:
486,192,112575,1,0,0:0:0:0:
320,192,112665,1,0,0:0:0:0:
64,192,112756,1,0,0:0:0:0:
230,192,112756,1,0,0:0:0:0:
435,192,112846,1,0,0:0:0:0:
128,192,112936,1,0,0:0:0:0:
281,192,113027,1,0,0:0:0:0:
384,192,113117,1,0,0:0:0:0:
486,192,113117,1,0,0:0:0:0:
25,192,113207,1,0,0:0:0:0:
230,192,113298,1,0,0:0:0:0:
128,192,113388,1,0,0:0:0:0:
332,192,113478,1,0,0:0:0:0:
179,192,113569,1,0,0:0:0:0:
384,192,113659,1,0,0:0:0:0:
486,192,113659,1,0,0:0:0:0:
128,192,113750,1,0,0:0:0:0:
25,192,113840,1,0,0:0:0:0:
281,192,113840,1,0,0:0:0:0:
448,192,113930,1,0,0:0:0:0:
230,192,114021,1,0,0:0:0:0:
320,192,114111,1,0,0:0:0:0:
448,192,114201,1,0,0:0:0:0:
64,192,114201,1,0,0:0:0:0:
25,192,114201,1,0,0:0:0:0:
192,192,114292,1,0,0:0:0:0:
281,192,114382,1,0,0:0:0:0:
128,192,114472,1,0,0:0:0:0:
448,192,114563,1,0,0:0:0:0:
25,192,114563,1,0,0:0:0:0:
230,192,114653,1,0,0:0:0:0:
384,192,114744,1,0,0:0:0:0:
192,192,114834,1,0,0:0:0:0:
76,192,114924,1,0,0:0:0:0:
230,192,115015,1,0,0:0:0:0:
320,192,115105,1,0,0:0:0:0:
448,192,115105,1,0,0:0:0:0:
281,192,115286,1,0,0:0:0:0:
25,192,115286,1,0,0:0:0:0:
179,192,115286,1,0,0:0:0:0:
486,192,115376,1,0,0:0:0:0:
128,192,115466,1,0,0:0:0:0:
332,192,115557,1,0,0:0:0:0:
192,192,115647,1,0,0:0:0:0:
320,192,115738,1,0,0:0:0:0:
448,192,115828,1,0,0:0:0:0:
25,192,115828,1,0,0:0:0:0:
179,192,116009,1,0,0:0:0:0:
281,192,116099,1,0,0:0:0:0:
384,192,116189,1,0,0:0:0:0:
76,192,116189,1,0,0:0:0:0:
230,192,116370,1,0,0:0:0:0:
384,192,116460,1,0,0:0:0:0:
486,192,116551,1,0,0:0:0:0:
25,192,116551,1,0,0:0:0:0:
281,192,116641,1,0,0:0:0:0:
230,192,116731,128,0,117093:0:0:0:0:
384,192,116822,1,0,0:0:0:0:
281,192,116912,1,0,0:0:0:0:
192,192,117003,1,0,0:0:0:0:
64,192,117093,1,0,0:0:0:0:
192,192,117183,1,0,0:0:0:0:
281,192,117274,1,0,0:0:0:0:
25,192,117454,1,0,0:0:0:0:
128,192,117545,1,0,0:0:0:0:
230,192,117635,1,0,0:0:0:0:
192,192,117816,1,0,0:0:0:0:
320,192,117906,1,0,0:0:0:0:
128,192,117997,1,0,0:0:0:0:
384,192,118087,1,0,0:0:0:0:
64,192,118177,1,0,0:0:0:0:
486,192,118177,128,0,118539:0:0:0:0:
25,192,118539,1,0,0:0:0:0:
230,192,118629,1,0,0:0:0:0:
435,192,118719,1,0,0:0:0:0:
64,192,118900,1,0,0:0:0:0:
320,192,118991,1,0,0:0:0:0:
486,192,119081,1,0,0:0:0:0:
384,192,119171,1,0,0:0:0:0:
281,192,119262,1,0,0:0:0:0:
192,192,119352,1,0,0:0:0:0:
64,192,119442,1,0,0:0:0:0:
192,192,119533,1,0,0:0:0:0:
281,192,119623,1,0,0:0:0:0:
384,192,119713,1,0,0:0:0:0:
486,192,119804,1,0,0:0:0:0:
25,192,119894,1,0,0:0:0:0:
230,192,119984,1,0,0:0:0:0:
128,192,119984,1,0,0:0:0:0:
281,192,120346,1,0,0:0:0:0:
486,192,120346,1,0,0:0:0:0:
230,192,120888,1,0,0:0:0:0:
128,192,120888,1,0,0:0:0:0:
281,192,121069,1,0,0:0:0:0:
486,192,121069,1,0,0:0:0:0:
179,192,121430,1,0,0:0:0:0:
76,192,121430,1,0,0:0:0:0:
281,192,121792,1,0,0:0:0:0:
486,192,121792,1,0,0:0:0:0:
179,192,122334,1,0,0:0:0:0:
76,192,122334,1,0,0:0:0:0:
281,192,122515,1,0,0:0:0:0:
486,192,122515,1,0,0:0:0:0:
128,192,122876,1,0,0:0:0:0:
25,192,122876,1,0,0:0:0:0:
281,192,123238,1,0,0:0:0:0:
486,192,123238,1,0,0:0:0:0:
179,192,123418,1,0,0:0:0:0:
332,192,123509,1,0,0:0:0:0:
128,192,123599,1,0,0:0:0:0:
25,192,123599,1,0,0:0:0:0:
281,192,123780,1,0,0:0:0:0:
486,192,123780,1,0,0:0:0:0:
486,192,124141,1,0,0:0:0:0:
384,192,124141,1,0,0:0:0:0:
128,192,124141,1,0,0:0:0:0:
64,192,124322,1,0,0:0:0:0:
179,192,124412,1,0,0:0:0:0:
320,192,124503,1,0,0:0:0:0:
448,192,124593,1,0,0:0:0:0:
230,192,124683,1,0,0:0:0:0:
25,192,124683,1,0,0:0:0:0:
332,192,124774,1,0,0:0:0:0:
486,192,124864,1,0,0:0:0:0:
128,192,124954,1,0,0:0:0:0:
230,192,125045,1,0,0:0:0:0:
332,192,125135,1,0,0:0:0:0:
448,192,125225,1,0,0:0:0:0:
332,192,125316,1,0,0:0:0:0:
25,192,125406,1,0,0:0:0:0:
230,192,125406,1,0,0:0:0:0:
486,192,125497,1,0,0:0:0:0:
281,192,125587,1,0,0:0:0:0:
76,192,125677,1,0,0:0:0:0:
486,192,125768,1,0,0:0:0:0:
435,192,125768,1,0,0:0:0:0:
281,192,125858,1,0,0:0:0:0:
192,192,125948,1,0,0:0:0:0:
64,192,126039,1,0,0:0:0:0:
320,192,126129,1,0,0:0:0:0:
448,192,126129,1,0,0:0:0:0:
25,192,126219,1,0,0:0:0:0:
128,192,126310,1,0,0:0:0:0:
230,192,126400,1,0,0:0:0:0:
332,192,126491,1,0,0:0:0:0:
76,192,126581,1,0,0:0:0:0:
179,192,126671,1,0,0:0:0:0:
320,192,126762,1,0,0:0:0:0:
448,192,126852,1,0,0:0:0:0:
230,192,126942,1,0,0:0:0:0:
25,192,127033,1,0,0:0:0:0:
230,192,127123,1,0,0:0:0:0:
384,192,127213,1,0,0:0:0:0:
128,192,127304,1,0,0:0:0:0:
281,192,127394,1,0,0:0:0:0:
128,192,127484,1,0,0:0:0:0:
448,192,127575,1,0,0:0:0:0:
25,192,127575,1,0,0:0:0:0:
332,192,127665,1,0,0:0:0:0:
179,192,127756,1,0,0:0:0:0:
64,192,127846,1,0,0:0:0:0:
384,192,127936,1,0,0:0:0:0:
128,192,128027,1,0,0:0:0:0:
384,192,128117,1,0,0:0:0:0:
64,192,128207,1,0,0:0:0:0:
192,192,128298,1,0,0:0:0:0:
448,192,128298,1,0,0:0:0:0:
281,192,128388,1,0,0:0:0:0:
384,192,128478,1,0,0:0:0:0:
230,192,128569,1,0,0:0:0:0:
76,192,128659,1,0,0:0:0:0:
281,192,128750,1,0,0:0:0:0:
486,192,128840,1,0,0:0:0:0:
25,192,128930,1,0,0:0:0:0:
128,192,128930,1,0,0:0:0:0:
320,192,129021,1,0,0:0:0:0:
230,192,129021,1,0,0:0:0:0:
192,192,129201,1,0,0:0:0:0:
64,192,129292,1,0,0:0:0:0:
192,192,129382,1,0,0:0:0:0:
486,192,129382,1,0,0:0:0:0:
384,192,129472,1,0,0:0:0:0:
281,192,129563,1,0,0:0:0:0:
25,192,129563,1,0,0:0:0:0:
179,192,129653,1,0,0:0:0:0:
76,192,129744,1,0,0:0:0:0:
332,192,129834,1,0,0:0:0:0:
192,192,129924,1,0,0:0:0:0:
320,192,130015,1,0,0:0:0:0:
486,192,130105,128,0,132997:0:0:0:0:
25,192,130105,128,0,132997:0:0:0:0:
230,192,130105,128,0,132997:0:0:0:0:
