osu file format v14

[General]
AudioFilename: Em9 - Blue Moon.mp3
AudioLeadIn: 0
PreviewTime: -1
Countdown: 0
SampleSet: Soft
StackLeniency: 0.7
Mode: 3
LetterboxInBreaks: 1
SpecialStyle: 0
WidescreenStoryboard: 1

[Editor]
DistanceSpacing: 1
BeatDivisor: 4
GridSize: 4
TimelineZoom: 1.6

[Metadata]
Title:la's 10K -SUPERMUG-
TitleUnicode:la's 10K -SUPERMUG-
Artist:Various Artists
ArtistUnicode:Various Artists
Creator:SK_la
Version:em9 - Blue Moon // EX
Source:
Tags:10k [ Reversal ] la SKla Mami Kawada portamento 川田まみ Primary yuiko ゆいこ RooM IOSYS Doutei Korose 童テイ殺セ S.I.D-Sound Polaris SID-Sound 시드 사운드 r300k Star Stream HHH×MM×ST Follow Tomorrow HHHxMMxST Ryu☆ Ryu* Starving Trancer Mayumi Morinaga 森永真由美 ウッーウッーウマウマ(゚∀゚) (Ryu☆ Remix) キャラメル Caramelldansen Caramell em9 Blue Moon Chroma Hoshi ga Furanai Machi 黑魔 星が降らない街
BeatmapID:1505215
BeatmapSetID:711991

[Difficulty]
HPDrainRate:7
CircleSize:10
OverallDifficulty:7
ApproachRate:9
SliderMultiplier:2.5
SliderTickRate:3

[Events]
//Background and Video events
0,0,"Em9 - Blue Moon.jpg",0,0
//Break Periods
//Storyboard Layer 0 (Background)
//Storyboard Layer 1 (Fail)
//Storyboard Layer 2 (Pass)
//Storyboard Layer 3 (Foreground)
//Storyboard Layer 4 (Overlay)
//Storyboard Sound Samples

[TimingPoints]
2376.86190943773,425.743276804087,4,2,0,20,1,0
43248,-100,4,2,0,30,0,0
70495,-100,4,2,0,50,0,1
84119,-100,4,2,0,30,0,0

[HitObjects]
384,192,2163,5,0,0:0:0:0:
332,192,2163,1,0,0:0:0:0:
179,192,2270,1,0,0:0:0:0:
128,192,2270,1,0,0:0:0:0:
486,192,2376,5,0,0:0:0:0:
25,192,2376,5,0,0:0:0:0:
435,192,2376,1,0,0:0:0:0:
76,192,2376,1,0,0:0:0:0:
281,192,2483,1,0,0:0:0:0:
128,192,2589,1,0,0:0:0:0:
435,192,2696,1,0,0:0:0:0:
281,192,2802,1,0,0:0:0:0:
128,192,2909,1,0,0:0:0:0:
435,192,3015,1,0,0:0:0:0:
230,192,3015,1,0,0:0:0:0:
384,192,3228,1,0,0:0:0:0:
281,192,3334,1,0,0:0:0:0:
179,192,3441,1,0,0:0:0:0:
384,192,3547,1,0,0:0:0:0:
281,192,3654,1,0,0:0:0:0:
76,192,3654,1,0,0:0:0:0:
179,192,3760,1,0,0:0:0:0:
384,192,3866,1,0,0:0:0:0:
384,192,4079,1,0,0:0:0:0:
230,192,4186,1,0,0:0:0:0:
76,192,4292,1,0,0:0:0:0:
384,192,4399,1,0,0:0:0:0:
230,192,4505,1,0,0:0:0:0:
76,192,4612,1,0,0:0:0:0:
384,192,4718,1,0,0:0:0:0:
332,192,4931,1,0,0:0:0:0:
25,192,4931,1,0,0:0:0:0:
230,192,5037,1,0,0:0:0:0:
128,192,5144,1,0,0:0:0:0:
332,192,5250,1,0,0:0:0:0:
486,192,5250,1,0,0:0:0:0:
230,192,5357,1,0,0:0:0:0:
128,192,5463,1,0,0:0:0:0:
332,192,5569,1,0,0:0:0:0:
230,192,5569,1,0,0:0:0:0:
332,192,5782,1,0,0:0:0:0:
128,192,5782,1,0,0:0:0:0:
25,192,5889,1,0,0:0:0:0:
179,192,5995,1,0,0:0:0:0:
332,192,6102,1,0,0:0:0:0:
25,192,6208,1,0,0:0:0:0:
179,192,6314,1,0,0:0:0:0:
332,192,6421,1,0,0:0:0:0:
281,192,6634,1,0,0:0:0:0:
76,192,6740,1,0,0:0:0:0:
179,192,6847,1,0,0:0:0:0:
281,192,6953,1,0,0:0:0:0:
76,192,7060,1,0,0:0:0:0:
179,192,7166,1,0,0:0:0:0:
281,192,7272,1,0,0:0:0:0:
230,192,7485,1,0,0:0:0:0:
179,192,7592,1,0,0:0:0:0:
128,192,7698,1,0,0:0:0:0:
230,192,7805,1,0,0:0:0:0:
179,192,7911,1,0,0:0:0:0:
128,192,8017,1,0,0:0:0:0:
230,192,8124,1,0,0:0:0:0:
230,192,8337,1,0,0:0:0:0:
128,192,8443,1,0,0:0:0:0:
25,192,8550,1,0,0:0:0:0:
230,192,8656,1,0,0:0:0:0:
128,192,8763,1,0,0:0:0:0:
25,192,8869,1,0,0:0:0:0:
486,192,8869,1,0,0:0:0:0:
230,192,8975,1,0,0:0:0:0:
384,192,8975,1,0,0:0:0:0:
332,192,9082,1,0,0:0:0:0:
281,192,9188,1,0,0:0:0:0:
179,192,9188,1,0,0:0:0:0:
25,192,9295,1,0,0:0:0:0:
128,192,9401,1,0,0:0:0:0:
230,192,9508,1,0,0:0:0:0:
25,192,9614,1,0,0:0:0:0:
128,192,9720,1,0,0:0:0:0:
230,192,9827,1,0,0:0:0:0:
25,192,9933,1,0,0:0:0:0:
230,192,10040,1,0,0:0:0:0:
25,192,10146,1,0,0:0:0:0:
128,192,10253,1,0,0:0:0:0:
230,192,10359,1,0,0:0:0:0:
25,192,10465,1,0,0:0:0:0:
128,192,10572,1,0,0:0:0:0:
230,192,10678,1,0,0:0:0:0:
25,192,10785,1,0,0:0:0:0:
486,192,10891,1,0,0:0:0:0:
179,192,10891,1,0,0:0:0:0:
76,192,10998,1,0,0:0:0:0:
128,192,11104,1,0,0:0:0:0:
435,192,11211,1,0,0:0:0:0:
179,192,11211,1,0,0:0:0:0:
76,192,11317,1,0,0:0:0:0:
128,192,11423,1,0,0:0:0:0:
384,192,11530,1,0,0:0:0:0:
179,192,11530,1,0,0:0:0:0:
76,192,11636,1,0,0:0:0:0:
332,192,11743,1,0,0:0:0:0:
179,192,11743,1,0,0:0:0:0:
76,192,11849,1,0,0:0:0:0:
128,192,11956,1,0,0:0:0:0:
281,192,12062,1,0,0:0:0:0:
179,192,12062,1,0,0:0:0:0:
76,192,12168,1,0,0:0:0:0:
128,192,12275,1,0,0:0:0:0:
435,192,12381,1,0,0:0:0:0:
179,192,12381,1,0,0:0:0:0:
76,192,12488,1,0,0:0:0:0:
281,192,12594,1,0,0:0:0:0:
179,192,12594,1,0,0:0:0:0:
25,192,12701,1,0,0:0:0:0:
128,192,12807,1,0,0:0:0:0:
179,192,12914,1,0,0:0:0:0:
25,192,13020,1,0,0:0:0:0:
128,192,13126,1,0,0:0:0:0:
179,192,13233,1,0,0:0:0:0:
76,192,13339,1,0,0:0:0:0:
179,192,13446,1,0,0:0:0:0:
25,192,13552,5,0,0:0:0:0:
128,192,13659,1,0,0:0:0:0:
179,192,13765,5,0,0:0:0:0:
25,192,13871,1,0,0:0:0:0:
128,192,13978,1,0,0:0:0:0:
332,192,14084,5,0,0:0:0:0:
179,192,14084,1,0,0:0:0:0:
435,192,14084,1,0,0:0:0:0:
76,192,14191,1,0,0:0:0:0:
332,192,14191,1,0,0:0:0:0:
332,192,14297,1,0,0:0:0:0:
435,192,14297,1,0,0:0:0:0:
230,192,14616,1,0,0:0:0:0:
486,192,14616,1,0,0:0:0:0:
25,192,14616,1,0,0:0:0:0:
281,192,14936,1,0,0:0:0:0:
486,192,14936,1,0,0:0:0:0:
25,192,14936,1,0,0:0:0:0:
332,192,15149,1,0,0:0:0:0:
486,192,15149,1,0,0:0:0:0:
25,192,15149,1,0,0:0:0:0:
25,192,15362,1,0,0:0:0:0:
384,192,15362,1,0,0:0:0:0:
486,192,15362,1,0,0:0:0:0:
25,192,15468,5,0,0:0:0:0:
435,192,15468,1,0,0:0:0:0:
486,192,15468,1,0,0:0:0:0:
179,192,15787,1,0,0:0:0:0:
25,192,15787,1,0,0:0:0:0:
486,192,15787,1,0,0:0:0:0:
128,192,15787,1,0,0:0:0:0:
332,192,15894,1,0,0:0:0:0:
281,192,15894,1,0,0:0:0:0:
435,192,16000,5,0,0:0:0:0:
486,192,16000,1,0,0:0:0:0:
230,192,16000,1,0,0:0:0:0:
76,192,16000,1,0,0:0:0:0:
179,192,16107,1,0,0:0:0:0:
281,192,16107,1,0,0:0:0:0:
384,192,16213,1,0,0:0:0:0:
25,192,16213,1,0,0:0:0:0:
486,192,16319,1,0,0:0:0:0:
128,192,16319,1,0,0:0:0:0:
179,192,16426,1,0,0:0:0:0:
281,192,16426,1,0,0:0:0:0:
25,192,16532,1,0,0:0:0:0:
384,192,16532,1,0,0:0:0:0:
128,192,16639,1,0,0:0:0:0:
486,192,16639,1,0,0:0:0:0:
230,192,16745,1,0,0:0:0:0:
332,192,16745,1,0,0:0:0:0:
76,192,16852,1,0,0:0:0:0:
435,192,16852,1,0,0:0:0:0:
179,192,16958,1,0,0:0:0:0:
281,192,17065,1,0,0:0:0:0:
384,192,17065,1,0,0:0:0:0:
25,192,17171,1,0,0:0:0:0:
179,192,17171,1,0,0:0:0:0:
435,192,17171,1,0,0:0:0:0:
230,192,17277,1,0,0:0:0:0:
128,192,17277,1,0,0:0:0:0:
332,192,17384,1,0,0:0:0:0:
25,192,17384,1,0,0:0:0:0:
435,192,17490,1,0,0:0:0:0:
179,192,17490,1,0,0:0:0:0:
332,192,17597,1,0,0:0:0:0:
76,192,17597,1,0,0:0:0:0:
486,192,17703,1,0,0:0:0:0:
230,192,17703,1,0,0:0:0:0:
332,192,17810,1,0,0:0:0:0:
25,192,17810,1,0,0:0:0:0:
281,192,17916,1,0,0:0:0:0:
128,192,17916,1,0,0:0:0:0:
486,192,18022,1,0,0:0:0:0:
230,192,18022,1,0,0:0:0:0:
384,192,18129,1,0,0:0:0:0:
76,192,18129,1,0,0:0:0:0:
281,192,18235,1,0,0:0:0:0:
179,192,18235,1,0,0:0:0:0:
486,192,18342,1,0,0:0:0:0:
25,192,18342,1,0,0:0:0:0:
384,192,18448,1,0,0:0:0:0:
179,192,18448,1,0,0:0:0:0:
435,192,18555,1,0,0:0:0:0:
76,192,18555,1,0,0:0:0:0:
332,192,18661,1,0,0:0:0:0:
179,192,18661,1,0,0:0:0:0:
281,192,18767,1,0,0:0:0:0:
25,192,18767,1,0,0:0:0:0:
435,192,18874,1,0,0:0:0:0:
128,192,18874,1,0,0:0:0:0:
384,192,18980,1,0,0:0:0:0:
76,192,18980,1,0,0:0:0:0:
281,192,19087,1,0,0:0:0:0:
179,192,19087,1,0,0:0:0:0:
435,192,19193,1,0,0:0:0:0:
230,192,19193,1,0,0:0:0:0:
128,192,19300,1,0,0:0:0:0:
332,192,19406,1,0,0:0:0:0:
486,192,19406,1,0,0:0:0:0:
179,192,19406,1,0,0:0:0:0:
25,192,19513,1,0,0:0:0:0:
384,192,19513,1,0,0:0:0:0:
128,192,19619,1,0,0:0:0:0:
281,192,19619,1,0,0:0:0:0:
230,192,19725,1,0,0:0:0:0:
332,192,19725,1,0,0:0:0:0:
25,192,19832,1,0,0:0:0:0:
486,192,19832,1,0,0:0:0:0:
128,192,19938,1,0,0:0:0:0:
281,192,19938,1,0,0:0:0:0:
332,192,20045,1,0,0:0:0:0:
230,192,20045,1,0,0:0:0:0:
76,192,20151,1,0,0:0:0:0:
435,192,20151,1,0,0:0:0:0:
281,192,20258,1,0,0:0:0:0:
179,192,20258,1,0,0:0:0:0:
25,192,20364,1,0,0:0:0:0:
486,192,20364,1,0,0:0:0:0:
128,192,20470,1,0,0:0:0:0:
332,192,20470,1,0,0:0:0:0:
230,192,20577,1,0,0:0:0:0:
281,192,20577,1,0,0:0:0:0:
179,192,20683,1,0,0:0:0:0:
435,192,20683,1,0,0:0:0:0:
332,192,20790,1,0,0:0:0:0:
76,192,20790,1,0,0:0:0:0:
230,192,20896,1,0,0:0:0:0:
435,192,20896,1,0,0:0:0:0:
128,192,21003,1,0,0:0:0:0:
25,192,21003,1,0,0:0:0:0:
179,192,21109,1,0,0:0:0:0:
384,192,21109,1,0,0:0:0:0:
76,192,21216,1,0,0:0:0:0:
281,192,21216,1,0,0:0:0:0:
179,192,21322,1,0,0:0:0:0:
486,192,21322,1,0,0:0:0:0:
281,192,21428,1,0,0:0:0:0:
76,192,21535,1,0,0:0:0:0:
435,192,21535,1,0,0:0:0:0:
179,192,21641,1,0,0:0:0:0:
332,192,21641,1,0,0:0:0:0:
281,192,21748,1,0,0:0:0:0:
128,192,21748,1,0,0:0:0:0:
486,192,21854,1,0,0:0:0:0:
230,192,21854,1,0,0:0:0:0:
281,192,21961,1,0,0:0:0:0:
25,192,21961,1,0,0:0:0:0:
486,192,22067,1,0,0:0:0:0:
179,192,22067,1,0,0:0:0:0:
384,192,22173,1,0,0:0:0:0:
76,192,22173,1,0,0:0:0:0:
281,192,22280,1,0,0:0:0:0:
179,192,22280,1,0,0:0:0:0:
435,192,22386,1,0,0:0:0:0:
128,192,22386,1,0,0:0:0:0:
332,192,22493,1,0,0:0:0:0:
230,192,22493,1,0,0:0:0:0:
281,192,22599,1,0,0:0:0:0:
128,192,22599,1,0,0:0:0:0:
384,192,22706,1,0,0:0:0:0:
76,192,22706,1,0,0:0:0:0:
486,192,22812,1,0,0:0:0:0:
25,192,22812,1,0,0:0:0:0:
281,192,22918,1,0,0:0:0:0:
179,192,22918,1,0,0:0:0:0:
332,192,23025,1,0,0:0:0:0:
128,192,23025,1,0,0:0:0:0:
486,192,23131,1,0,0:0:0:0:
25,192,23238,1,0,0:0:0:0:
230,192,23238,1,0,0:0:0:0:
384,192,23238,1,0,0:0:0:0:
332,192,23344,1,0,0:0:0:0:
179,192,23344,1,0,0:0:0:0:
486,192,23451,1,0,0:0:0:0:
128,192,23451,1,0,0:0:0:0:
25,192,23557,1,0,0:0:0:0:
230,192,23557,1,0,0:0:0:0:
332,192,23557,1,0,0:0:0:0:
486,192,23664,1,0,0:0:0:0:
281,192,23664,1,0,0:0:0:0:
179,192,23664,1,0,0:0:0:0:
128,192,23770,1,0,0:0:0:0:
332,192,23876,1,0,0:0:0:0:
25,192,23876,1,0,0:0:0:0:
486,192,23983,1,0,0:0:0:0:
128,192,23983,1,0,0:0:0:0:
384,192,23983,1,0,0:0:0:0:
230,192,24089,1,0,0:0:0:0:
76,192,24196,1,0,0:0:0:0:
281,192,24196,1,0,0:0:0:0:
486,192,24302,1,0,0:0:0:0:
384,192,24302,1,0,0:0:0:0:
179,192,24302,1,0,0:0:0:0:
128,192,24409,1,0,0:0:0:0:
281,192,24515,1,0,0:0:0:0:
384,192,24515,1,0,0:0:0:0:
486,192,24515,1,0,0:0:0:0:
76,192,24621,1,0,0:0:0:0:
230,192,24728,1,0,0:0:0:0:
281,192,24834,1,0,0:0:0:0:
179,192,24834,1,0,0:0:0:0:
384,192,24834,1,0,0:0:0:0:
332,192,25047,1,0,0:0:0:0:
281,192,25154,1,0,0:0:0:0:
128,192,25154,1,0,0:0:0:0:
435,192,25154,1,0,0:0:0:0:
179,192,25260,1,0,0:0:0:0:
281,192,25366,1,0,0:0:0:0:
76,192,25366,1,0,0:0:0:0:
486,192,25366,1,0,0:0:0:0:
230,192,25473,1,0,0:0:0:0:
76,192,25579,1,0,0:0:0:0:
281,192,25686,5,0,0:0:0:0:
25,192,25686,1,0,0:0:0:0:
128,192,25686,1,0,0:0:0:0:
384,192,25792,1,0,0:0:0:0:
281,192,26005,1,0,0:0:0:0:
179,192,26005,1,0,0:0:0:0:
25,192,26005,1,0,0:0:0:0:
435,192,26005,1,0,0:0:0:0:
384,192,26218,1,0,0:0:0:0:
486,192,26218,1,0,0:0:0:0:
76,192,26218,1,0,0:0:0:0:
281,192,26324,1,0,0:0:0:0:
179,192,26324,1,0,0:0:0:0:
384,192,26431,1,0,0:0:0:0:
486,192,26431,1,0,0:0:0:0:
76,192,26431,1,0,0:0:0:0:
281,192,26537,1,0,0:0:0:0:
179,192,26537,1,0,0:0:0:0:
384,192,26644,1,0,0:0:0:0:
486,192,26644,1,0,0:0:0:0:
76,192,26644,1,0,0:0:0:0:
281,192,26750,1,0,0:0:0:0:
179,192,26750,1,0,0:0:0:0:
384,192,26857,1,0,0:0:0:0:
486,192,26857,1,0,0:0:0:0:
25,192,26857,1,0,0:0:0:0:
128,192,26963,1,0,0:0:0:0:
230,192,26963,1,0,0:0:0:0:
25,192,27069,1,0,0:0:0:0:
332,192,27069,1,0,0:0:0:0:
435,192,27069,1,0,0:0:0:0:
128,192,27176,1,0,0:0:0:0:
230,192,27176,1,0,0:0:0:0:
25,192,27282,1,0,0:0:0:0:
332,192,27282,1,0,0:0:0:0:
435,192,27282,1,0,0:0:0:0:
128,192,27389,1,0,0:0:0:0:
230,192,27389,1,0,0:0:0:0:
76,192,27495,1,0,0:0:0:0:
332,192,27495,1,0,0:0:0:0:
435,192,27495,1,0,0:0:0:0:
281,192,27602,1,0,0:0:0:0:
179,192,27602,1,0,0:0:0:0:
384,192,27708,1,0,0:0:0:0:
486,192,27708,1,0,0:0:0:0:
76,192,27708,1,0,0:0:0:0:
179,192,27815,1,0,0:0:0:0:
281,192,27815,1,0,0:0:0:0:
332,192,27921,1,0,0:0:0:0:
435,192,27921,1,0,0:0:0:0:
128,192,27974,1,0,0:0:0:0:
230,192,27974,1,0,0:0:0:0:
25,192,28027,1,0,0:0:0:0:
281,192,28081,1,0,0:0:0:0:
486,192,28081,1,0,0:0:0:0:
230,192,28134,1,0,0:0:0:0:
128,192,28134,1,0,0:0:0:0:
384,192,28134,1,0,0:0:0:0:
332,192,28240,1,0,0:0:0:0:
435,192,28240,1,0,0:0:0:0:
179,192,28347,1,0,0:0:0:0:
76,192,28347,1,0,0:0:0:0:
384,192,28347,1,0,0:0:0:0:
435,192,28453,1,0,0:0:0:0:
332,192,28453,1,0,0:0:0:0:
128,192,28453,1,0,0:0:0:0:
179,192,28560,1,0,0:0:0:0:
76,192,28560,1,0,0:0:0:0:
384,192,28560,1,0,0:0:0:0:
332,192,28666,1,0,0:0:0:0:
435,192,28666,1,0,0:0:0:0:
128,192,28666,1,0,0:0:0:0:
179,192,28772,1,0,0:0:0:0:
76,192,28772,1,0,0:0:0:0:
281,192,28826,1,0,0:0:0:0:
384,192,28826,1,0,0:0:0:0:
486,192,28879,1,0,0:0:0:0:
230,192,28932,1,0,0:0:0:0:
25,192,28932,1,0,0:0:0:0:
384,192,28985,1,0,0:0:0:0:
281,192,28985,1,0,0:0:0:0:
179,192,29092,1,0,0:0:0:0:
76,192,29092,1,0,0:0:0:0:
128,192,29092,1,0,0:0:0:0:
435,192,29198,1,0,0:0:0:0:
332,192,29198,1,0,0:0:0:0:
384,192,29198,1,0,0:0:0:0:
230,192,29305,1,0,0:0:0:0:
486,192,29305,1,0,0:0:0:0:
281,192,29411,1,0,0:0:0:0:
332,192,29411,1,0,0:0:0:0:
76,192,29411,1,0,0:0:0:0:
25,192,29411,1,0,0:0:0:0:
179,192,29517,1,0,0:0:0:0:
384,192,29517,1,0,0:0:0:0:
281,192,29624,1,0,0:0:0:0:
230,192,29624,1,0,0:0:0:0:
25,192,29624,1,0,0:0:0:0:
76,192,29624,1,0,0:0:0:0:
332,192,29624,1,0,0:0:0:0:
486,192,29624,1,0,0:0:0:0:
435,192,29730,1,0,0:0:0:0:
179,192,29730,1,0,0:0:0:0:
435,192,29943,1,0,0:0:0:0:
179,192,29943,1,0,0:0:0:0:
384,192,30050,1,0,0:0:0:0:
281,192,30050,1,0,0:0:0:0:
25,192,30050,1,0,0:0:0:0:
76,192,30050,1,0,0:0:0:0:
230,192,30050,1,0,0:0:0:0:
486,192,30050,1,0,0:0:0:0:
435,192,30263,1,0,0:0:0:0:
179,192,30369,1,0,0:0:0:0:
25,192,30369,1,0,0:0:0:0:
332,192,30369,1,0,0:0:0:0:
230,192,30475,1,0,0:0:0:0:
128,192,30475,1,0,0:0:0:0:
281,192,30475,1,0,0:0:0:0:
486,192,30475,1,0,0:0:0:0:
384,192,30475,1,0,0:0:0:0:
179,192,30582,1,0,0:0:0:0:
332,192,30582,1,0,0:0:0:0:
25,192,30582,1,0,0:0:0:0:
128,192,30795,1,0,0:0:0:0:
281,192,30795,1,0,0:0:0:0:
230,192,30901,1,0,0:0:0:0:
332,192,30901,1,0,0:0:0:0:
486,192,30901,1,0,0:0:0:0:
435,192,30901,1,0,0:0:0:0:
76,192,30901,1,0,0:0:0:0:
25,192,30901,1,0,0:0:0:0:
179,192,31114,1,0,0:0:0:0:
76,192,31114,1,0,0:0:0:0:
281,192,31220,1,0,0:0:0:0:
384,192,31220,1,0,0:0:0:0:
76,192,31327,1,0,0:0:0:0:
25,192,31327,1,0,0:0:0:0:
128,192,31327,1,0,0:0:0:0:
230,192,31327,1,0,0:0:0:0:
435,192,31327,1,0,0:0:0:0:
486,192,31327,1,0,0:0:0:0:
384,192,31433,1,0,0:0:0:0:
281,192,31433,1,0,0:0:0:0:
230,192,31646,1,0,0:0:0:0:
128,192,31646,1,0,0:0:0:0:
332,192,31753,1,0,0:0:0:0:
435,192,31753,1,0,0:0:0:0:
76,192,31753,1,0,0:0:0:0:
25,192,31753,1,0,0:0:0:0:
486,192,31753,1,0,0:0:0:0:
179,192,31753,1,0,0:0:0:0:
281,192,31966,1,0,0:0:0:0:
179,192,31966,1,0,0:0:0:0:
384,192,32072,1,0,0:0:0:0:
486,192,32072,1,0,0:0:0:0:
128,192,32178,1,0,0:0:0:0:
25,192,32178,1,0,0:0:0:0:
230,192,32178,1,0,0:0:0:0:
332,192,32178,1,0,0:0:0:0:
76,192,32178,1,0,0:0:0:0:
384,192,32285,1,0,0:0:0:0:
486,192,32285,1,0,0:0:0:0:
332,192,32498,1,0,0:0:0:0:
435,192,32498,1,0,0:0:0:0:
76,192,32604,1,0,0:0:0:0:
25,192,32604,1,0,0:0:0:0:
179,192,32604,1,0,0:0:0:0:
281,192,32604,1,0,0:0:0:0:
384,192,32604,1,0,0:0:0:0:
332,192,32817,1,0,0:0:0:0:
230,192,32817,1,0,0:0:0:0:
486,192,32923,1,0,0:0:0:0:
384,192,32923,1,0,0:0:0:0:
25,192,33030,1,0,0:0:0:0:
76,192,33030,1,0,0:0:0:0:
128,192,33030,1,0,0:0:0:0:
281,192,33030,1,0,0:0:0:0:
332,192,33030,1,0,0:0:0:0:
230,192,33136,1,0,0:0:0:0:
384,192,33136,1,0,0:0:0:0:
179,192,33349,1,0,0:0:0:0:
332,192,33349,1,0,0:0:0:0:
230,192,33456,1,0,0:0:0:0:
25,192,33456,1,0,0:0:0:0:
76,192,33456,1,0,0:0:0:0:
486,192,33456,1,0,0:0:0:0:
435,192,33456,1,0,0:0:0:0:
281,192,33456,1,0,0:0:0:0:
179,192,33668,1,0,0:0:0:0:
332,192,33668,1,0,0:0:0:0:
230,192,33775,1,0,0:0:0:0:
384,192,33775,1,0,0:0:0:0:
128,192,33881,1,0,0:0:0:0:
25,192,33881,1,0,0:0:0:0:
281,192,33881,1,0,0:0:0:0:
435,192,33881,1,0,0:0:0:0:
486,192,33881,1,0,0:0:0:0:
179,192,33988,1,0,0:0:0:0:
332,192,33988,1,0,0:0:0:0:
384,192,34201,1,0,0:0:0:0:
230,192,34201,1,0,0:0:0:0:
435,192,34307,1,0,0:0:0:0:
486,192,34307,1,0,0:0:0:0:
281,192,34307,1,0,0:0:0:0:
128,192,34307,1,0,0:0:0:0:
25,192,34307,1,0,0:0:0:0:
76,192,34307,1,0,0:0:0:0:
332,192,34626,1,0,0:0:0:0:
76,192,34626,1,0,0:0:0:0:
230,192,34733,1,0,0:0:0:0:
179,192,34733,1,0,0:0:0:0:
25,192,34733,1,0,0:0:0:0:
384,192,34733,1,0,0:0:0:0:
281,192,34733,1,0,0:0:0:0:
486,192,34733,1,0,0:0:0:0:
332,192,34839,1,0,0:0:0:0:
76,192,34839,1,0,0:0:0:0:
435,192,35052,1,0,0:0:0:0:
179,192,35052,1,0,0:0:0:0:
384,192,35159,1,0,0:0:0:0:
486,192,35159,1,0,0:0:0:0:
230,192,35159,1,0,0:0:0:0:
281,192,35159,1,0,0:0:0:0:
128,192,35159,1,0,0:0:0:0:
25,192,35159,1,0,0:0:0:0:
179,192,35478,1,0,0:0:0:0:
435,192,35478,1,0,0:0:0:0:
230,192,35584,1,0,0:0:0:0:
128,192,35584,1,0,0:0:0:0:
25,192,35584,1,0,0:0:0:0:
486,192,35584,1,0,0:0:0:0:
281,192,35584,1,0,0:0:0:0:
384,192,35584,1,0,0:0:0:0:
179,192,35691,1,0,0:0:0:0:
435,192,35691,1,0,0:0:0:0:
76,192,35904,1,0,0:0:0:0:
332,192,35904,1,0,0:0:0:0:
486,192,36010,1,0,0:0:0:0:
179,192,36010,1,0,0:0:0:0:
25,192,36010,1,0,0:0:0:0:
230,192,36010,1,0,0:0:0:0:
281,192,36010,1,0,0:0:0:0:
384,192,36010,1,0,0:0:0:0:
128,192,36223,1,0,0:0:0:0:
332,192,36223,1,0,0:0:0:0:
435,192,36329,1,0,0:0:0:0:
230,192,36329,1,0,0:0:0:0:
179,192,36436,1,0,0:0:0:0:
25,192,36436,1,0,0:0:0:0:
332,192,36436,1,0,0:0:0:0:
486,192,36542,1,0,0:0:0:0:
230,192,36542,1,0,0:0:0:0:
76,192,36542,1,0,0:0:0:0:
384,192,36542,1,0,0:0:0:0:
179,192,36862,1,0,0:0:0:0:
128,192,36862,1,0,0:0:0:0:
25,192,36862,1,0,0:0:0:0:
332,192,36862,1,0,0:0:0:0:
281,192,36862,1,0,0:0:0:0:
435,192,36862,1,0,0:0:0:0:
281,192,37181,1,0,0:0:0:0:
435,192,37181,1,0,0:0:0:0:
128,192,37181,1,0,0:0:0:0:
76,192,37287,1,0,0:0:0:0:
25,192,37287,1,0,0:0:0:0:
230,192,37287,1,0,0:0:0:0:
384,192,37287,1,0,0:0:0:0:
281,192,37394,1,0,0:0:0:0:
435,192,37394,1,0,0:0:0:0:
128,192,37394,1,0,0:0:0:0:
230,192,37607,1,0,0:0:0:0:
332,192,37607,1,0,0:0:0:0:
76,192,37713,1,0,0:0:0:0:
25,192,37713,1,0,0:0:0:0:
179,192,37713,1,0,0:0:0:0:
281,192,37713,1,0,0:0:0:0:
435,192,37713,1,0,0:0:0:0:
281,192,38032,1,0,0:0:0:0:
435,192,38032,1,0,0:0:0:0:
128,192,38032,1,0,0:0:0:0:
179,192,38139,1,0,0:0:0:0:
230,192,38139,1,0,0:0:0:0:
25,192,38139,1,0,0:0:0:0:
384,192,38139,1,0,0:0:0:0:
281,192,38245,1,0,0:0:0:0:
435,192,38245,1,0,0:0:0:0:
128,192,38245,1,0,0:0:0:0:
76,192,38458,1,0,0:0:0:0:
332,192,38565,1,0,0:0:0:0:
486,192,38565,1,0,0:0:0:0:
230,192,38565,1,0,0:0:0:0:
179,192,38565,1,0,0:0:0:0:
25,192,38565,1,0,0:0:0:0:
486,192,38884,1,0,0:0:0:0:
332,192,38884,1,0,0:0:0:0:
179,192,38884,1,0,0:0:0:0:
281,192,38990,1,0,0:0:0:0:
230,192,38990,1,0,0:0:0:0:
76,192,38990,1,0,0:0:0:0:
435,192,38990,1,0,0:0:0:0:
486,192,39097,1,0,0:0:0:0:
332,192,39097,1,0,0:0:0:0:
179,192,39097,1,0,0:0:0:0:
128,192,39310,1,0,0:0:0:0:
384,192,39310,1,0,0:0:0:0:
486,192,39416,1,0,0:0:0:0:
281,192,39416,1,0,0:0:0:0:
230,192,39416,1,0,0:0:0:0:
76,192,39416,1,0,0:0:0:0:
25,192,39416,1,0,0:0:0:0:
179,192,39522,1,0,0:0:0:0:
332,192,39629,1,0,0:0:0:0:
486,192,39735,1,0,0:0:0:0:
128,192,39842,1,0,0:0:0:0:
25,192,39842,1,0,0:0:0:0:
281,192,39842,1,0,0:0:0:0:
435,192,39948,1,0,0:0:0:0:
179,192,39948,1,0,0:0:0:0:
76,192,39948,1,0,0:0:0:0:
332,192,39948,1,0,0:0:0:0:
230,192,40268,1,0,0:0:0:0:
128,192,40268,1,0,0:0:0:0:
25,192,40268,1,0,0:0:0:0:
384,192,40268,1,0,0:0:0:0:
281,192,40268,1,0,0:0:0:0:
486,192,40268,1,0,0:0:0:0:
332,192,40587,1,0,0:0:0:0:
435,192,40587,1,0,0:0:0:0:
179,192,40587,1,0,0:0:0:0:
76,192,40693,1,0,0:0:0:0:
25,192,40693,1,0,0:0:0:0:
230,192,40693,1,0,0:0:0:0:
384,192,40693,1,0,0:0:0:0:
332,192,40800,1,0,0:0:0:0:
435,192,40800,1,0,0:0:0:0:
179,192,40800,1,0,0:0:0:0:
128,192,41013,1,0,0:0:0:0:
281,192,41013,1,0,0:0:0:0:
179,192,41119,1,0,0:0:0:0:
25,192,41119,1,0,0:0:0:0:
230,192,41119,1,0,0:0:0:0:
384,192,41119,1,0,0:0:0:0:
486,192,41119,1,0,0:0:0:0:
332,192,41438,1,0,0:0:0:0:
435,192,41438,1,0,0:0:0:0:
76,192,41438,1,0,0:0:0:0:
128,192,41545,1,0,0:0:0:0:
230,192,41545,1,0,0:0:0:0:
25,192,41545,1,0,0:0:0:0:
384,192,41545,1,0,0:0:0:0:
281,192,41651,1,0,0:0:0:0:
486,192,41651,1,0,0:0:0:0:
179,192,41651,1,0,0:0:0:0:
76,192,41864,1,0,0:0:0:0:
332,192,41970,1,0,0:0:0:0:
435,192,41970,1,0,0:0:0:0:
230,192,41970,1,0,0:0:0:0:
179,192,41970,1,0,0:0:0:0:
25,192,41970,1,0,0:0:0:0:
486,192,42290,1,0,0:0:0:0:
384,192,42290,1,0,0:0:0:0:
179,192,42290,1,0,0:0:0:0:
25,192,42396,1,0,0:0:0:0:
230,192,42396,1,0,0:0:0:0:
128,192,42396,1,0,0:0:0:0:
332,192,42396,1,0,0:0:0:0:
486,192,42503,1,0,0:0:0:0:
384,192,42503,1,0,0:0:0:0:
179,192,42503,1,0,0:0:0:0:
76,192,42716,5,0,0:0:0:0:
281,192,42716,1,0,0:0:0:0:
486,192,42822,1,0,0:0:0:0:
332,192,42822,1,0,0:0:0:0:
230,192,42822,1,0,0:0:0:0:
25,192,42822,1,0,0:0:0:0:
179,192,42822,1,0,0:0:0:0:
128,192,42928,1,0,0:0:0:0:
281,192,43035,1,0,0:0:0:0:
435,192,43141,1,0,0:0:0:0:
384,192,43248,5,0,0:0:0:0:
281,192,43248,1,0,0:0:0:0:
76,192,43248,1,0,0:0:0:0:
25,192,43248,1,0,0:0:0:0:
435,192,43354,1,0,0:0:0:0:
332,192,43354,1,0,0:0:0:0:
179,192,43354,1,0,0:0:0:0:
384,192,43567,1,0,0:0:0:0:
179,192,43567,1,0,0:0:0:0:
435,192,43673,1,0,0:0:0:0:
230,192,43673,1,0,0:0:0:0:
128,192,43673,1,0,0:0:0:0:
25,192,43673,1,0,0:0:0:0:
486,192,43673,1,0,0:0:0:0:
332,192,43673,1,0,0:0:0:0:
384,192,43886,1,0,0:0:0:0:
179,192,43886,1,0,0:0:0:0:
76,192,43886,1,0,0:0:0:0:
486,192,43993,1,0,0:0:0:0:
179,192,44099,1,0,0:0:0:0:
76,192,44099,1,0,0:0:0:0:
230,192,44099,1,0,0:0:0:0:
281,192,44099,1,0,0:0:0:0:
486,192,44206,1,0,0:0:0:0:
384,192,44419,1,0,0:0:0:0:
179,192,44419,1,0,0:0:0:0:
332,192,44525,1,0,0:0:0:0:
435,192,44525,1,0,0:0:0:0:
230,192,44525,1,0,0:0:0:0:
128,192,44525,1,0,0:0:0:0:
25,192,44525,1,0,0:0:0:0:
486,192,44525,1,0,0:0:0:0:
179,192,44738,1,0,0:0:0:0:
76,192,44738,1,0,0:0:0:0:
384,192,44738,1,0,0:0:0:0:
486,192,44844,1,0,0:0:0:0:
281,192,44951,1,0,0:0:0:0:
76,192,44951,1,0,0:0:0:0:
179,192,44951,1,0,0:0:0:0:
230,192,44951,1,0,0:0:0:0:
486,192,45057,1,0,0:0:0:0:
384,192,45270,1,0,0:0:0:0:
179,192,45270,1,0,0:0:0:0:
332,192,45376,1,0,0:0:0:0:
435,192,45376,1,0,0:0:0:0:
230,192,45376,1,0,0:0:0:0:
128,192,45376,1,0,0:0:0:0:
25,192,45376,1,0,0:0:0:0:
486,192,45376,1,0,0:0:0:0:
179,192,45589,1,0,0:0:0:0:
76,192,45589,1,0,0:0:0:0:
281,192,45589,1,0,0:0:0:0:
486,192,45696,1,0,0:0:0:0:
76,192,45802,1,0,0:0:0:0:
179,192,45802,1,0,0:0:0:0:
384,192,45802,1,0,0:0:0:0:
230,192,45802,1,0,0:0:0:0:
486,192,45909,1,0,0:0:0:0:
384,192,46121,1,0,0:0:0:0:
179,192,46121,1,0,0:0:0:0:
332,192,46228,1,0,0:0:0:0:
486,192,46228,1,0,0:0:0:0:
230,192,46228,1,0,0:0:0:0:
128,192,46228,1,0,0:0:0:0:
25,192,46228,1,0,0:0:0:0:
435,192,46228,1,0,0:0:0:0:
281,192,46334,1,0,0:0:0:0:
384,192,46441,1,0,0:0:0:0:
76,192,46441,1,0,0:0:0:0:
486,192,46547,1,0,0:0:0:0:
179,192,46547,1,0,0:0:0:0:
384,192,46654,1,0,0:0:0:0:
281,192,46654,1,0,0:0:0:0:
128,192,46654,1,0,0:0:0:0:
76,192,46654,1,0,0:0:0:0:
435,192,46760,1,0,0:0:0:0:
230,192,46760,1,0,0:0:0:0:
25,192,46760,1,0,0:0:0:0:
332,192,46760,1,0,0:0:0:0:
128,192,46973,1,0,0:0:0:0:
332,192,46973,1,0,0:0:0:0:
281,192,47079,1,0,0:0:0:0:
435,192,47079,1,0,0:0:0:0:
230,192,47079,1,0,0:0:0:0:
25,192,47079,1,0,0:0:0:0:
179,192,47079,1,0,0:0:0:0:
384,192,47079,1,0,0:0:0:0:
384,192,47292,1,0,0:0:0:0:
76,192,47292,1,0,0:0:0:0:
179,192,47292,1,0,0:0:0:0:
486,192,47399,1,0,0:0:0:0:
281,192,47505,1,0,0:0:0:0:
76,192,47505,1,0,0:0:0:0:
179,192,47505,1,0,0:0:0:0:
128,192,47505,1,0,0:0:0:0:
486,192,47612,1,0,0:0:0:0:
128,192,47824,1,0,0:0:0:0:
332,192,47824,1,0,0:0:0:0:
281,192,47931,1,0,0:0:0:0:
435,192,47931,1,0,0:0:0:0:
230,192,47931,1,0,0:0:0:0:
25,192,47931,1,0,0:0:0:0:
179,192,47931,1,0,0:0:0:0:
384,192,47931,1,0,0:0:0:0:
384,192,48144,1,0,0:0:0:0:
76,192,48144,1,0,0:0:0:0:
179,192,48144,1,0,0:0:0:0:
486,192,48250,1,0,0:0:0:0:
281,192,48357,1,0,0:0:0:0:
76,192,48357,1,0,0:0:0:0:
179,192,48357,1,0,0:0:0:0:
128,192,48357,1,0,0:0:0:0:
486,192,48463,1,0,0:0:0:0:
128,192,48676,1,0,0:0:0:0:
332,192,48676,1,0,0:0:0:0:
435,192,48782,1,0,0:0:0:0:
230,192,48782,1,0,0:0:0:0:
25,192,48782,1,0,0:0:0:0:
179,192,48782,1,0,0:0:0:0:
281,192,48782,1,0,0:0:0:0:
384,192,48782,1,0,0:0:0:0:
281,192,48995,1,0,0:0:0:0:
76,192,48995,1,0,0:0:0:0:
179,192,48995,1,0,0:0:0:0:
486,192,49102,1,0,0:0:0:0:
384,192,49208,1,0,0:0:0:0:
76,192,49208,1,0,0:0:0:0:
179,192,49208,1,0,0:0:0:0:
128,192,49208,1,0,0:0:0:0:
486,192,49315,1,0,0:0:0:0:
25,192,49315,1,0,0:0:0:0:
230,192,49315,1,0,0:0:0:0:
128,192,49527,1,0,0:0:0:0:
332,192,49527,1,0,0:0:0:0:
281,192,49634,1,0,0:0:0:0:
435,192,49634,1,0,0:0:0:0:
230,192,49634,1,0,0:0:0:0:
25,192,49634,1,0,0:0:0:0:
179,192,49634,1,0,0:0:0:0:
384,192,49634,1,0,0:0:0:0:
332,192,49740,1,0,0:0:0:0:
76,192,49847,1,0,0:0:0:0:
384,192,49847,1,0,0:0:0:0:
230,192,49953,1,0,0:0:0:0:
435,192,49953,1,0,0:0:0:0:
281,192,50060,1,0,0:0:0:0:
179,192,50060,1,0,0:0:0:0:
128,192,50060,1,0,0:0:0:0:
384,192,50060,1,0,0:0:0:0:
332,192,50166,1,0,0:0:0:0:
230,192,50166,1,0,0:0:0:0:
25,192,50166,1,0,0:0:0:0:
435,192,50166,1,0,0:0:0:0:
281,192,50379,1,0,0:0:0:0:
128,192,50379,1,0,0:0:0:0:
332,192,50485,1,0,0:0:0:0:
435,192,50485,1,0,0:0:0:0:
486,192,50485,1,0,0:0:0:0:
76,192,50485,1,0,0:0:0:0:
25,192,50485,1,0,0:0:0:0:
230,192,50485,1,0,0:0:0:0:
179,192,50698,1,0,0:0:0:0:
76,192,50698,1,0,0:0:0:0:
384,192,50698,1,0,0:0:0:0:
486,192,50805,1,0,0:0:0:0:
179,192,50911,1,0,0:0:0:0:
128,192,50911,1,0,0:0:0:0:
76,192,50911,1,0,0:0:0:0:
281,192,50911,1,0,0:0:0:0:
486,192,51018,1,0,0:0:0:0:
281,192,51230,1,0,0:0:0:0:
128,192,51230,1,0,0:0:0:0:
332,192,51337,1,0,0:0:0:0:
435,192,51337,1,0,0:0:0:0:
486,192,51337,1,0,0:0:0:0:
76,192,51337,1,0,0:0:0:0:
25,192,51337,1,0,0:0:0:0:
230,192,51337,1,0,0:0:0:0:
384,192,51550,1,0,0:0:0:0:
179,192,51550,1,0,0:0:0:0:
76,192,51550,1,0,0:0:0:0:
486,192,51656,1,0,0:0:0:0:
179,192,51763,1,0,0:0:0:0:
128,192,51763,1,0,0:0:0:0:
281,192,51763,1,0,0:0:0:0:
76,192,51763,1,0,0:0:0:0:
486,192,51869,1,0,0:0:0:0:
128,192,52082,1,0,0:0:0:0:
281,192,52082,1,0,0:0:0:0:
435,192,52188,1,0,0:0:0:0:
486,192,52188,1,0,0:0:0:0:
76,192,52188,1,0,0:0:0:0:
25,192,52188,1,0,0:0:0:0:
230,192,52188,1,0,0:0:0:0:
332,192,52188,1,0,0:0:0:0:
179,192,52401,1,0,0:0:0:0:
76,192,52401,1,0,0:0:0:0:
281,192,52401,1,0,0:0:0:0:
486,192,52508,1,0,0:0:0:0:
179,192,52614,1,0,0:0:0:0:
128,192,52614,1,0,0:0:0:0:
76,192,52614,1,0,0:0:0:0:
384,192,52614,1,0,0:0:0:0:
486,192,52721,1,0,0:0:0:0:
281,192,52933,1,0,0:0:0:0:
128,192,52933,1,0,0:0:0:0:
332,192,53040,1,0,0:0:0:0:
435,192,53040,1,0,0:0:0:0:
486,192,53040,1,0,0:0:0:0:
230,192,53040,1,0,0:0:0:0:
76,192,53040,1,0,0:0:0:0:
25,192,53040,1,0,0:0:0:0:
281,192,53146,1,0,0:0:0:0:
384,192,53253,1,0,0:0:0:0:
128,192,53253,1,0,0:0:0:0:
486,192,53359,1,0,0:0:0:0:
230,192,53359,1,0,0:0:0:0:
332,192,53466,1,0,0:0:0:0:
384,192,53466,1,0,0:0:0:0:
179,192,53572,1,0,0:0:0:0:
25,192,53678,1,0,0:0:0:0:
332,192,53678,1,0,0:0:0:0:
179,192,53785,1,0,0:0:0:0:
25,192,53891,1,0,0:0:0:0:
332,192,53891,1,0,0:0:0:0:
486,192,53891,1,0,0:0:0:0:
179,192,53998,1,0,0:0:0:0:
25,192,54104,1,0,0:0:0:0:
332,192,54104,1,0,0:0:0:0:
179,192,54211,1,0,0:0:0:0:
25,192,54317,1,0,0:0:0:0:
332,192,54317,1,0,0:0:0:0:
384,192,54317,1,0,0:0:0:0:
179,192,54423,1,0,0:0:0:0:
25,192,54530,1,0,0:0:0:0:
332,192,54530,1,0,0:0:0:0:
179,192,54636,1,0,0:0:0:0:
486,192,54743,1,0,0:0:0:0:
332,192,54743,1,0,0:0:0:0:
25,192,54743,1,0,0:0:0:0:
179,192,54849,1,0,0:0:0:0:
25,192,54956,1,0,0:0:0:0:
179,192,55062,1,0,0:0:0:0:
76,192,55169,1,0,0:0:0:0:
281,192,55169,1,0,0:0:0:0:
384,192,55169,1,0,0:0:0:0:
230,192,55275,1,0,0:0:0:0:
435,192,55275,1,0,0:0:0:0:
128,192,55275,1,0,0:0:0:0:
76,192,55381,1,0,0:0:0:0:
281,192,55381,1,0,0:0:0:0:
384,192,55381,1,0,0:0:0:0:
230,192,55488,1,0,0:0:0:0:
435,192,55488,1,0,0:0:0:0:
128,192,55488,1,0,0:0:0:0:
76,192,55594,1,0,0:0:0:0:
281,192,55594,1,0,0:0:0:0:
384,192,55594,1,0,0:0:0:0:
230,192,55701,1,0,0:0:0:0:
435,192,55701,1,0,0:0:0:0:
128,192,55701,1,0,0:0:0:0:
486,192,55701,128,0,56233:0:0:0:0:
76,192,55807,1,0,0:0:0:0:
281,192,55807,1,0,0:0:0:0:
384,192,55807,1,0,0:0:0:0:
435,192,55914,1,0,0:0:0:0:
179,192,55914,1,0,0:0:0:0:
332,192,56020,1,0,0:0:0:0:
25,192,56073,1,0,0:0:0:0:
332,192,56126,1,0,0:0:0:0:
128,192,56126,1,0,0:0:0:0:
230,192,56180,1,0,0:0:0:0:
281,192,56233,128,0,56552:0:0:0:0:
332,192,56233,1,0,0:0:0:0:
25,192,56233,1,0,0:0:0:0:
128,192,56286,1,0,0:0:0:0:
435,192,56339,1,0,0:0:0:0:
230,192,56339,1,0,0:0:0:0:
76,192,56393,1,0,0:0:0:0:
332,192,56446,1,0,0:0:0:0:
179,192,56446,1,0,0:0:0:0:
486,192,56499,1,0,0:0:0:0:
128,192,56499,1,0,0:0:0:0:
25,192,56552,128,0,56872:0:0:0:0:
384,192,56552,1,0,0:0:0:0:
179,192,56605,1,0,0:0:0:0:
281,192,56605,1,0,0:0:0:0:
76,192,56659,1,0,0:0:0:0:
435,192,56659,1,0,0:0:0:0:
230,192,56712,1,0,0:0:0:0:
332,192,56765,1,0,0:0:0:0:
128,192,56765,1,0,0:0:0:0:
281,192,56818,1,0,0:0:0:0:
435,192,56872,5,0,0:0:0:0:
230,192,56872,1,0,0:0:0:0:
486,192,56872,1,0,0:0:0:0:
76,192,56872,1,0,0:0:0:0:
128,192,56978,1,0,0:0:0:0:
281,192,57084,1,0,0:0:0:0:
435,192,57191,1,0,0:0:0:0:
179,192,57297,1,0,0:0:0:0:
384,192,57404,1,0,0:0:0:0:
25,192,57404,1,0,0:0:0:0:
128,192,57510,1,0,0:0:0:0:
230,192,57617,1,0,0:0:0:0:
435,192,57723,1,0,0:0:0:0:
179,192,57829,1,0,0:0:0:0:
281,192,57936,1,0,0:0:0:0:
486,192,58042,1,0,0:0:0:0:
76,192,58149,1,0,0:0:0:0:
179,192,58255,1,0,0:0:0:0:
384,192,58362,1,0,0:0:0:0:
128,192,58574,1,0,0:0:0:0:
281,192,58681,1,0,0:0:0:0:
179,192,58681,1,0,0:0:0:0:
435,192,58787,1,0,0:0:0:0:
25,192,58787,1,0,0:0:0:0:
332,192,59000,1,0,0:0:0:0:
128,192,59000,1,0,0:0:0:0:
230,192,59107,1,0,0:0:0:0:
332,192,59213,1,0,0:0:0:0:
179,192,59213,1,0,0:0:0:0:
435,192,59320,1,0,0:0:0:0:
76,192,59320,1,0,0:0:0:0:
281,192,59426,1,0,0:0:0:0:
179,192,59426,1,0,0:0:0:0:
384,192,59532,1,0,0:0:0:0:
25,192,59532,1,0,0:0:0:0:
486,192,59639,1,0,0:0:0:0:
128,192,59639,1,0,0:0:0:0:
230,192,59745,1,0,0:0:0:0:
179,192,59852,1,0,0:0:0:0:
332,192,59958,1,0,0:0:0:0:
230,192,60065,1,0,0:0:0:0:
128,192,60277,1,0,0:0:0:0:
281,192,60384,1,0,0:0:0:0:
435,192,60384,1,0,0:0:0:0:
76,192,60384,1,0,0:0:0:0:
25,192,60490,1,0,0:0:0:0:
230,192,60597,1,0,0:0:0:0:
435,192,60703,1,0,0:0:0:0:
76,192,60703,1,0,0:0:0:0:
179,192,60810,1,0,0:0:0:0:
332,192,60916,1,0,0:0:0:0:
486,192,61022,1,0,0:0:0:0:
76,192,61129,1,0,0:0:0:0:
230,192,61235,1,0,0:0:0:0:
384,192,61342,1,0,0:0:0:0:
128,192,61342,1,0,0:0:0:0:
76,192,61448,1,0,0:0:0:0:
486,192,61448,1,0,0:0:0:0:
179,192,61555,1,0,0:0:0:0:
281,192,61661,1,0,0:0:0:0:
128,192,61661,1,0,0:0:0:0:
25,192,61768,1,0,0:0:0:0:
179,192,61874,1,0,0:0:0:0:
128,192,61980,1,0,0:0:0:0:
230,192,62087,1,0,0:0:0:0:
435,192,62087,1,0,0:0:0:0:
76,192,62087,1,0,0:0:0:0:
332,192,62193,1,0,0:0:0:0:
25,192,62193,1,0,0:0:0:0:
281,192,62300,1,0,0:0:0:0:
384,192,62406,1,0,0:0:0:0:
179,192,62406,1,0,0:0:0:0:
486,192,62513,1,0,0:0:0:0:
25,192,62513,1,0,0:0:0:0:
384,192,62619,1,0,0:0:0:0:
230,192,62619,1,0,0:0:0:0:
332,192,62725,1,0,0:0:0:0:
128,192,62725,1,0,0:0:0:0:
435,192,62832,1,0,0:0:0:0:
76,192,62832,1,0,0:0:0:0:
486,192,62938,1,0,0:0:0:0:
230,192,62938,1,0,0:0:0:0:
332,192,63045,1,0,0:0:0:0:
179,192,63045,1,0,0:0:0:0:
281,192,63151,1,0,0:0:0:0:
435,192,63258,1,0,0:0:0:0:
128,192,63258,1,0,0:0:0:0:
332,192,63364,1,0,0:0:0:0:
230,192,63364,1,0,0:0:0:0:
384,192,63471,1,0,0:0:0:0:
179,192,63471,1,0,0:0:0:0:
281,192,63577,1,0,0:0:0:0:
76,192,63577,1,0,0:0:0:0:
332,192,63683,128,0,63896:0:0:0:0:
128,192,63683,1,0,0:0:0:0:
230,192,63790,1,0,0:0:0:0:
384,192,63896,128,0,64109:0:0:0:0:
179,192,63896,1,0,0:0:0:0:
25,192,64003,1,0,0:0:0:0:
435,192,64109,128,0,65386:0:0:0:0:
76,192,64109,1,0,0:0:0:0:
128,192,64216,1,0,0:0:0:0:
230,192,64322,1,0,0:0:0:0:
179,192,64428,1,0,0:0:0:0:
76,192,64535,1,0,0:0:0:0:
128,192,64641,1,0,0:0:0:0:
25,192,64748,1,0,0:0:0:0:
179,192,64854,1,0,0:0:0:0:
76,192,64961,1,0,0:0:0:0:
25,192,65067,1,0,0:0:0:0:
230,192,65173,1,0,0:0:0:0:
128,192,65280,1,0,0:0:0:0:
332,192,65386,128,0,65599:0:0:0:0:
179,192,65386,1,0,0:0:0:0:
230,192,65493,1,0,0:0:0:0:
435,192,65599,128,0,65812:0:0:0:0:
76,192,65599,1,0,0:0:0:0:
179,192,65706,1,0,0:0:0:0:
332,192,65812,128,0,67089:0:0:0:0:
230,192,65812,1,0,0:0:0:0:
25,192,65919,1,0,0:0:0:0:
128,192,66025,1,0,0:0:0:0:
230,192,66131,1,0,0:0:0:0:
76,192,66238,1,0,0:0:0:0:
179,192,66344,1,0,0:0:0:0:
230,192,66451,1,0,0:0:0:0:
128,192,66557,5,0,0:0:0:0:
179,192,66770,1,0,0:0:0:0:
76,192,66876,1,0,0:0:0:0:
179,192,67089,5,0,0:0:0:0:
281,192,67089,128,0,67302:0:0:0:0:
25,192,67196,1,0,0:0:0:0:
128,192,67302,1,0,0:0:0:0:
384,192,67302,128,0,67515:0:0:0:0:
230,192,67409,1,0,0:0:0:0:
25,192,67515,1,0,0:0:0:0:
486,192,67515,128,0,68792:0:0:0:0:
281,192,67622,1,0,0:0:0:0:
128,192,67622,1,0,0:0:0:0:
230,192,67728,1,0,0:0:0:0:
25,192,67834,1,0,0:0:0:0:
435,192,67834,1,0,0:0:0:0:
281,192,67941,1,0,0:0:0:0:
179,192,67941,1,0,0:0:0:0:
76,192,68047,1,0,0:0:0:0:
230,192,68154,1,0,0:0:0:0:
384,192,68154,1,0,0:0:0:0:
281,192,68260,1,0,0:0:0:0:
25,192,68260,1,0,0:0:0:0:
128,192,68367,1,0,0:0:0:0:
230,192,68473,1,0,0:0:0:0:
332,192,68473,1,0,0:0:0:0:
76,192,68579,1,0,0:0:0:0:
281,192,68579,1,0,0:0:0:0:
179,192,68686,1,0,0:0:0:0:
435,192,68792,1,0,0:0:0:0:
332,192,68792,1,0,0:0:0:0:
230,192,68899,1,0,0:0:0:0:
128,192,68899,1,0,0:0:0:0:
25,192,68899,1,0,0:0:0:0:
281,192,69005,1,0,0:0:0:0:
384,192,69005,1,0,0:0:0:0:
486,192,69005,1,0,0:0:0:0:
179,192,69112,1,0,0:0:0:0:
76,192,69112,1,0,0:0:0:0:
332,192,69324,1,0,0:0:0:0:
230,192,69324,1,0,0:0:0:0:
128,192,69324,1,0,0:0:0:0:
128,192,69537,1,0,0:0:0:0:
281,192,69537,1,0,0:0:0:0:
435,192,69537,1,0,0:0:0:0:
486,192,69644,5,0,0:0:0:0:
230,192,69644,1,0,0:0:0:0:
179,192,69697,1,0,0:0:0:0:
435,192,69697,1,0,0:0:0:0:
128,192,69750,1,0,0:0:0:0:
384,192,69750,1,0,0:0:0:0:
76,192,69803,1,0,0:0:0:0:
332,192,69803,1,0,0:0:0:0:
25,192,69857,1,0,0:0:0:0:
281,192,69857,1,0,0:0:0:0:
230,192,69910,1,0,0:0:0:0:
486,192,69910,1,0,0:0:0:0:
179,192,69963,1,0,0:0:0:0:
435,192,69963,1,0,0:0:0:0:
128,192,70016,1,0,0:0:0:0:
384,192,70016,1,0,0:0:0:0:
332,192,70070,1,0,0:0:0:0:
76,192,70070,1,0,0:0:0:0:
281,192,70123,1,0,0:0:0:0:
25,192,70123,1,0,0:0:0:0:
486,192,70176,1,0,0:0:0:0:
230,192,70176,1,0,0:0:0:0:
435,192,70229,1,0,0:0:0:0:
179,192,70229,1,0,0:0:0:0:
384,192,70282,1,0,0:0:0:0:
128,192,70282,1,0,0:0:0:0:
332,192,70336,1,0,0:0:0:0:
76,192,70336,1,0,0:0:0:0:
281,192,70389,1,0,0:0:0:0:
25,192,70389,1,0,0:0:0:0:
486,192,70442,1,0,0:0:0:0:
230,192,70442,1,0,0:0:0:0:
384,192,70495,1,0,0:0:0:0:
179,192,70495,1,0,0:0:0:0:
128,192,70495,1,0,0:0:0:0:
281,192,70602,1,0,0:0:0:0:
76,192,70602,1,0,0:0:0:0:
332,192,70708,1,0,0:0:0:0:
230,192,70708,1,0,0:0:0:0:
435,192,70708,1,0,0:0:0:0:
128,192,70815,1,0,0:0:0:0:
281,192,70921,1,0,0:0:0:0:
435,192,70921,1,0,0:0:0:0:
486,192,70921,1,0,0:0:0:0:
76,192,70921,1,0,0:0:0:0:
25,192,70921,1,0,0:0:0:0:
179,192,71027,1,0,0:0:0:0:
332,192,71027,1,0,0:0:0:0:
230,192,71134,1,0,0:0:0:0:
128,192,71134,1,0,0:0:0:0:
332,192,71240,1,0,0:0:0:0:
435,192,71240,1,0,0:0:0:0:
179,192,71347,1,0,0:0:0:0:
281,192,71347,1,0,0:0:0:0:
384,192,71347,1,0,0:0:0:0:
25,192,71347,1,0,0:0:0:0:
486,192,71453,1,0,0:0:0:0:
128,192,71453,1,0,0:0:0:0:
230,192,71560,1,0,0:0:0:0:
332,192,71560,1,0,0:0:0:0:
179,192,71666,1,0,0:0:0:0:
384,192,71666,1,0,0:0:0:0:
76,192,71773,1,0,0:0:0:0:
25,192,71773,1,0,0:0:0:0:
281,192,71773,1,0,0:0:0:0:
435,192,71773,1,0,0:0:0:0:
486,192,71773,1,0,0:0:0:0:
332,192,71879,1,0,0:0:0:0:
230,192,71879,1,0,0:0:0:0:
128,192,71879,1,0,0:0:0:0:
281,192,71985,1,0,0:0:0:0:
179,192,71985,1,0,0:0:0:0:
76,192,72092,1,0,0:0:0:0:
179,192,72198,1,0,0:0:0:0:
128,192,72198,1,0,0:0:0:0:
384,192,72198,1,0,0:0:0:0:
281,192,72198,1,0,0:0:0:0:
486,192,72305,1,0,0:0:0:0:
332,192,72305,1,0,0:0:0:0:
25,192,72305,1,0,0:0:0:0:
230,192,72411,1,0,0:0:0:0:
384,192,72411,1,0,0:0:0:0:
281,192,72518,1,0,0:0:0:0:
128,192,72518,1,0,0:0:0:0:
76,192,72624,1,0,0:0:0:0:
25,192,72624,1,0,0:0:0:0:
230,192,72624,1,0,0:0:0:0:
332,192,72624,1,0,0:0:0:0:
435,192,72624,1,0,0:0:0:0:
179,192,72730,1,0,0:0:0:0:
486,192,72837,1,0,0:0:0:0:
281,192,72837,1,0,0:0:0:0:
25,192,72837,1,0,0:0:0:0:
384,192,72943,1,0,0:0:0:0:
76,192,72943,1,0,0:0:0:0:
179,192,73050,1,0,0:0:0:0:
128,192,73050,1,0,0:0:0:0:
486,192,73050,1,0,0:0:0:0:
435,192,73050,1,0,0:0:0:0:
332,192,73156,1,0,0:0:0:0:
230,192,73156,1,0,0:0:0:0:
435,192,73263,1,0,0:0:0:0:
76,192,73263,1,0,0:0:0:0:
281,192,73369,1,0,0:0:0:0:
179,192,73369,1,0,0:0:0:0:
76,192,73475,1,0,0:0:0:0:
25,192,73475,1,0,0:0:0:0:
230,192,73475,1,0,0:0:0:0:
332,192,73475,1,0,0:0:0:0:
486,192,73475,1,0,0:0:0:0:
128,192,73582,1,0,0:0:0:0:
384,192,73688,1,0,0:0:0:0:
230,192,73688,1,0,0:0:0:0:
281,192,73795,1,0,0:0:0:0:
179,192,73795,1,0,0:0:0:0:
25,192,73901,1,0,0:0:0:0:
76,192,73901,1,0,0:0:0:0:
435,192,73901,1,0,0:0:0:0:
332,192,73901,1,0,0:0:0:0:
230,192,74008,1,0,0:0:0:0:
486,192,74008,1,0,0:0:0:0:
281,192,74114,1,0,0:0:0:0:
128,192,74114,1,0,0:0:0:0:
435,192,74221,1,0,0:0:0:0:
332,192,74221,1,0,0:0:0:0:
179,192,74327,1,0,0:0:0:0:
25,192,74327,1,0,0:0:0:0:
384,192,74327,1,0,0:0:0:0:
281,192,74327,1,0,0:0:0:0:
230,192,74327,1,0,0:0:0:0:
128,192,74433,1,0,0:0:0:0:
486,192,74433,1,0,0:0:0:0:
76,192,74540,1,0,0:0:0:0:
332,192,74540,1,0,0:0:0:0:
230,192,74646,1,0,0:0:0:0:
486,192,74646,1,0,0:0:0:0:
128,192,74753,1,0,0:0:0:0:
384,192,74753,1,0,0:0:0:0:
25,192,74753,1,0,0:0:0:0:
435,192,74753,1,0,0:0:0:0:
179,192,74859,1,0,0:0:0:0:
281,192,74859,1,0,0:0:0:0:
76,192,74966,1,0,0:0:0:0:
486,192,74966,1,0,0:0:0:0:
332,192,74966,1,0,0:0:0:0:
128,192,75072,1,0,0:0:0:0:
281,192,75072,1,0,0:0:0:0:
230,192,75178,1,0,0:0:0:0:
179,192,75178,1,0,0:0:0:0:
25,192,75178,1,0,0:0:0:0:
332,192,75178,1,0,0:0:0:0:
435,192,75178,1,0,0:0:0:0:
384,192,75285,1,0,0:0:0:0:
281,192,75391,1,0,0:0:0:0:
128,192,75391,1,0,0:0:0:0:
179,192,75498,1,0,0:0:0:0:
384,192,75604,1,0,0:0:0:0:
486,192,75604,1,0,0:0:0:0:
230,192,75604,1,0,0:0:0:0:
25,192,75604,1,0,0:0:0:0:
332,192,75711,1,0,0:0:0:0:
179,192,75711,1,0,0:0:0:0:
76,192,75817,1,0,0:0:0:0:
384,192,75817,1,0,0:0:0:0:
281,192,75924,1,0,0:0:0:0:
128,192,75924,1,0,0:0:0:0:
435,192,76030,1,0,0:0:0:0:
332,192,76030,1,0,0:0:0:0:
25,192,76030,1,0,0:0:0:0:
76,192,76030,1,0,0:0:0:0:
179,192,76030,1,0,0:0:0:0:
486,192,76136,1,0,0:0:0:0:
384,192,76136,1,0,0:0:0:0:
230,192,76243,1,0,0:0:0:0:
332,192,76243,1,0,0:0:0:0:
128,192,76243,1,0,0:0:0:0:
25,192,76349,1,0,0:0:0:0:
281,192,76349,1,0,0:0:0:0:
435,192,76349,1,0,0:0:0:0:
128,192,76456,1,0,0:0:0:0:
384,192,76456,1,0,0:0:0:0:
486,192,76456,1,0,0:0:0:0:
230,192,76562,1,0,0:0:0:0:
25,192,76669,1,0,0:0:0:0:
332,192,76669,1,0,0:0:0:0:
435,192,76669,1,0,0:0:0:0:
179,192,76775,5,0,0:0:0:0:
486,192,76881,5,0,0:0:0:0:
384,192,76881,1,0,0:0:0:0:
230,192,76881,1,0,0:0:0:0:
76,192,76881,1,0,0:0:0:0:
128,192,76881,1,0,0:0:0:0:
281,192,76988,1,0,0:0:0:0:
179,192,76988,1,0,0:0:0:0:
332,192,77094,1,0,0:0:0:0:
25,192,77094,1,0,0:0:0:0:
435,192,77094,1,0,0:0:0:0:
230,192,77201,1,0,0:0:0:0:
76,192,77201,1,0,0:0:0:0:
332,192,77307,5,0,0:0:0:0:
281,192,77307,1,0,0:0:0:0:
179,192,77307,1,0,0:0:0:0:
128,192,77307,1,0,0:0:0:0:
384,192,77414,1,0,0:0:0:0:
486,192,77414,1,0,0:0:0:0:
332,192,77520,1,0,0:0:0:0:
230,192,77520,1,0,0:0:0:0:
179,192,77626,1,0,0:0:0:0:
76,192,77626,1,0,0:0:0:0:
281,192,77733,1,0,0:0:0:0:
486,192,77733,1,0,0:0:0:0:
230,192,77733,1,0,0:0:0:0:
25,192,77733,1,0,0:0:0:0:
384,192,77733,1,0,0:0:0:0:
179,192,77839,1,0,0:0:0:0:
76,192,77839,1,0,0:0:0:0:
230,192,77946,1,0,0:0:0:0:
332,192,77946,1,0,0:0:0:0:
384,192,78052,1,0,0:0:0:0:
486,192,78052,1,0,0:0:0:0:
179,192,78159,1,0,0:0:0:0:
128,192,78159,1,0,0:0:0:0:
281,192,78159,1,0,0:0:0:0:
332,192,78159,1,0,0:0:0:0:
25,192,78265,1,0,0:0:0:0:
230,192,78265,1,0,0:0:0:0:
332,192,78372,1,0,0:0:0:0:
128,192,78372,1,0,0:0:0:0:
435,192,78478,1,0,0:0:0:0:
179,192,78478,1,0,0:0:0:0:
230,192,78584,1,0,0:0:0:0:
25,192,78584,1,0,0:0:0:0:
281,192,78584,1,0,0:0:0:0:
384,192,78584,1,0,0:0:0:0:
486,192,78584,1,0,0:0:0:0:
76,192,78691,1,0,0:0:0:0:
332,192,78691,1,0,0:0:0:0:
435,192,78797,1,0,0:0:0:0:
179,192,78797,1,0,0:0:0:0:
128,192,78904,1,0,0:0:0:0:
230,192,79010,1,0,0:0:0:0:
179,192,79010,1,0,0:0:0:0:
332,192,79010,1,0,0:0:0:0:
384,192,79010,1,0,0:0:0:0:
128,192,79117,1,0,0:0:0:0:
25,192,79117,1,0,0:0:0:0:
281,192,79223,1,0,0:0:0:0:
435,192,79223,1,0,0:0:0:0:
179,192,79329,1,0,0:0:0:0:
332,192,79329,1,0,0:0:0:0:
230,192,79436,1,0,0:0:0:0:
128,192,79436,1,0,0:0:0:0:
25,192,79436,1,0,0:0:0:0:
281,192,79436,1,0,0:0:0:0:
486,192,79436,1,0,0:0:0:0:
76,192,79542,1,0,0:0:0:0:
384,192,79542,1,0,0:0:0:0:
179,192,79649,1,0,0:0:0:0:
435,192,79649,1,0,0:0:0:0:
76,192,79755,1,0,0:0:0:0:
486,192,79755,1,0,0:0:0:0:
230,192,79862,1,0,0:0:0:0:
179,192,79862,1,0,0:0:0:0:
384,192,79862,1,0,0:0:0:0:
332,192,79862,1,0,0:0:0:0:
25,192,79968,1,0,0:0:0:0:
281,192,79968,1,0,0:0:0:0:
179,192,80075,1,0,0:0:0:0:
435,192,80075,1,0,0:0:0:0:
76,192,80181,1,0,0:0:0:0:
384,192,80181,1,0,0:0:0:0:
486,192,80287,1,0,0:0:0:0:
281,192,80287,1,0,0:0:0:0:
230,192,80287,1,0,0:0:0:0:
128,192,80287,1,0,0:0:0:0:
25,192,80287,1,0,0:0:0:0:
332,192,80394,1,0,0:0:0:0:
179,192,80394,1,0,0:0:0:0:
384,192,80500,1,0,0:0:0:0:
76,192,80500,1,0,0:0:0:0:
230,192,80607,1,0,0:0:0:0:
128,192,80713,1,0,0:0:0:0:
281,192,80713,1,0,0:0:0:0:
435,192,80713,1,0,0:0:0:0:
25,192,80713,1,0,0:0:0:0:
179,192,80820,1,0,0:0:0:0:
332,192,80820,1,0,0:0:0:0:
384,192,80926,1,0,0:0:0:0:
486,192,80926,1,0,0:0:0:0:
76,192,80926,1,0,0:0:0:0:
281,192,81032,1,0,0:0:0:0:
128,192,81032,1,0,0:0:0:0:
230,192,81139,1,0,0:0:0:0:
179,192,81139,1,0,0:0:0:0:
25,192,81139,1,0,0:0:0:0:
332,192,81139,1,0,0:0:0:0:
435,192,81139,1,0,0:0:0:0:
76,192,81245,1,0,0:0:0:0:
281,192,81245,1,0,0:0:0:0:
384,192,81352,1,0,0:0:0:0:
486,192,81352,1,0,0:0:0:0:
230,192,81458,1,0,0:0:0:0:
332,192,81458,1,0,0:0:0:0:
76,192,81565,1,0,0:0:0:0:
128,192,81565,1,0,0:0:0:0:
281,192,81565,1,0,0:0:0:0:
435,192,81565,1,0,0:0:0:0:
179,192,81671,1,0,0:0:0:0:
384,192,81671,1,0,0:0:0:0:
25,192,81777,1,0,0:0:0:0:
281,192,81777,1,0,0:0:0:0:
128,192,81884,1,0,0:0:0:0:
384,192,81884,1,0,0:0:0:0:
332,192,81990,1,0,0:0:0:0:
230,192,81990,1,0,0:0:0:0:
179,192,81990,1,0,0:0:0:0:
25,192,81990,1,0,0:0:0:0:
435,192,81990,1,0,0:0:0:0:
384,192,82097,1,0,0:0:0:0:
281,192,82097,1,0,0:0:0:0:
76,192,82203,1,0,0:0:0:0:
179,192,82203,1,0,0:0:0:0:
230,192,82310,1,0,0:0:0:0:
332,192,82310,1,0,0:0:0:0:
486,192,82416,1,0,0:0:0:0:
435,192,82416,1,0,0:0:0:0:
128,192,82416,1,0,0:0:0:0:
25,192,82416,1,0,0:0:0:0:
230,192,82523,1,0,0:0:0:0:
281,192,82523,1,0,0:0:0:0:
384,192,82523,1,0,0:0:0:0:
179,192,82629,1,0,0:0:0:0:
76,192,82629,1,0,0:0:0:0:
332,192,82629,1,0,0:0:0:0:
435,192,82629,1,0,0:0:0:0:
230,192,82735,5,0,0:0:0:0:
128,192,82842,1,0,0:0:0:0:
25,192,82842,1,0,0:0:0:0:
281,192,82842,1,0,0:0:0:0:
486,192,82842,1,0,0:0:0:0:
384,192,82842,1,0,0:0:0:0:
230,192,82948,1,0,0:0:0:0:
332,192,82948,1,0,0:0:0:0:
179,192,83055,1,0,0:0:0:0:
76,192,83055,1,0,0:0:0:0:
230,192,83161,1,0,0:0:0:0:
332,192,83161,1,0,0:0:0:0:
486,192,83268,1,0,0:0:0:0:
384,192,83268,1,0,0:0:0:0:
128,192,83321,1,0,0:0:0:0:
25,192,83321,1,0,0:0:0:0:
230,192,83374,1,0,0:0:0:0:
332,192,83427,1,0,0:0:0:0:
435,192,83427,1,0,0:0:0:0:
281,192,83480,1,0,0:0:0:0:
179,192,83534,1,0,0:0:0:0:
76,192,83534,1,0,0:0:0:0:
230,192,83587,1,0,0:0:0:0:
384,192,83640,1,0,0:0:0:0:
486,192,83640,1,0,0:0:0:0:
281,192,83693,1,0,0:0:0:0:
128,192,83747,1,0,0:0:0:0:
25,192,83747,1,0,0:0:0:0:
230,192,83800,1,0,0:0:0:0:
435,192,83853,1,0,0:0:0:0:
332,192,83853,1,0,0:0:0:0:
281,192,83906,1,0,0:0:0:0:
179,192,83959,1,0,0:0:0:0:
76,192,83959,1,0,0:0:0:0:
230,192,84013,1,0,0:0:0:0:
332,192,84066,1,0,0:0:0:0:
384,192,84119,1,0,0:0:0:0:
128,192,84119,1,0,0:0:0:0:
486,192,84332,1,0,0:0:0:0:
384,192,84545,1,0,0:0:0:0:
281,192,84545,128,0,84971:0:0:0:0:
230,192,84545,128,0,84971:0:0:0:0:
128,192,84545,1,0,0:0:0:0:
179,192,84864,1,0,0:0:0:0:
332,192,84864,1,0,0:0:0:0:
25,192,84971,1,0,0:0:0:0:
486,192,85183,1,0,0:0:0:0:
25,192,85183,1,0,0:0:0:0:
281,192,85396,128,0,85822:0:0:0:0:
384,192,85396,1,0,0:0:0:0:
128,192,85396,1,0,0:0:0:0:
230,192,85396,128,0,85822:0:0:0:0:
179,192,85716,1,0,0:0:0:0:
332,192,85716,1,0,0:0:0:0:
25,192,85822,1,0,0:0:0:0:
25,192,86035,128,0,86248:0:0:0:0:
486,192,86035,128,0,86248:0:0:0:0:
384,192,86248,1,0,0:0:0:0:
281,192,86248,128,0,86674:0:0:0:0:
230,192,86248,128,0,86674:0:0:0:0:
128,192,86248,1,0,0:0:0:0:
179,192,86567,1,0,0:0:0:0:
332,192,86567,1,0,0:0:0:0:
332,192,86780,1,0,0:0:0:0:
179,192,86886,1,0,0:0:0:0:
128,192,86993,1,0,0:0:0:0:
384,192,86993,1,0,0:0:0:0:
281,192,87099,128,0,87525:0:0:0:0:
230,192,87099,128,0,87525:0:0:0:0:
76,192,87206,1,0,0:0:0:0:
435,192,87206,1,0,0:0:0:0:
486,192,87312,1,0,0:0:0:0:
25,192,87312,1,0,0:0:0:0:
179,192,87525,1,0,0:0:0:0:
332,192,87525,1,0,0:0:0:0:
384,192,87738,1,0,0:0:0:0:
128,192,87738,1,0,0:0:0:0:
281,192,87951,1,0,0:0:0:0:
486,192,87951,128,0,88377:0:0:0:0:
25,192,87951,128,0,88377:0:0:0:0:
230,192,87951,1,0,0:0:0:0:
332,192,88270,1,0,0:0:0:0:
179,192,88270,1,0,0:0:0:0:
128,192,88589,128,0,88802:0:0:0:0:
384,192,88589,128,0,88802:0:0:0:0:
76,192,88802,128,0,89228:0:0:0:0:
435,192,88802,128,0,89228:0:0:0:0:
230,192,88802,1,0,0:0:0:0:
281,192,88802,1,0,0:0:0:0:
179,192,89122,1,0,0:0:0:0:
332,192,89122,1,0,0:0:0:0:
25,192,89441,1,0,0:0:0:0:
230,192,89441,1,0,0:0:0:0:
384,192,89654,128,0,90079:0:0:0:0:
128,192,89654,128,0,90079:0:0:0:0:
281,192,89654,1,0,0:0:0:0:
179,192,89973,1,0,0:0:0:0:
332,192,90186,1,0,0:0:0:0:
179,192,90186,1,0,0:0:0:0:
179,192,90399,1,0,0:0:0:0:
332,192,90399,1,0,0:0:0:0:
332,192,90505,128,0,90931:0:0:0:0:
179,192,90505,128,0,90931:0:0:0:0:
384,192,90612,1,0,0:0:0:0:
25,192,90612,1,0,0:0:0:0:
435,192,90718,1,0,0:0:0:0:
76,192,90718,1,0,0:0:0:0:
486,192,90825,1,0,0:0:0:0:
128,192,90825,1,0,0:0:0:0:
281,192,90931,1,0,0:0:0:0:
384,192,90931,1,0,0:0:0:0:
230,192,90931,1,0,0:0:0:0:
128,192,91144,1,0,0:0:0:0:
230,192,91250,1,0,0:0:0:0:
25,192,91357,1,0,0:0:0:0:
435,192,91357,1,0,0:0:0:0:
486,192,91357,1,0,0:0:0:0:
332,192,91357,1,0,0:0:0:0:
128,192,91357,1,0,0:0:0:0:
179,192,91357,1,0,0:0:0:0:
281,192,91570,1,0,0:0:0:0:
76,192,91570,1,0,0:0:0:0:
230,192,91570,1,0,0:0:0:0:
384,192,91676,1,0,0:0:0:0:
179,192,91676,1,0,0:0:0:0:
486,192,91782,1,0,0:0:0:0:
281,192,91782,1,0,0:0:0:0:
25,192,91889,1,0,0:0:0:0:
128,192,91889,1,0,0:0:0:0:
230,192,91995,1,0,0:0:0:0:
332,192,91995,1,0,0:0:0:0:
435,192,91995,1,0,0:0:0:0:
332,192,92208,1,0,0:0:0:0:
435,192,92208,1,0,0:0:0:0:
486,192,92208,1,0,0:0:0:0:
230,192,92208,1,0,0:0:0:0:
128,192,92208,1,0,0:0:0:0:
25,192,92208,1,0,0:0:0:0:
179,192,92421,1,0,0:0:0:0:
76,192,92421,1,0,0:0:0:0:
281,192,92421,1,0,0:0:0:0:
332,192,92528,1,0,0:0:0:0:
435,192,92528,1,0,0:0:0:0:
384,192,92634,1,0,0:0:0:0:
281,192,92634,1,0,0:0:0:0:
230,192,92634,1,0,0:0:0:0:
76,192,92634,1,0,0:0:0:0:
25,192,92634,1,0,0:0:0:0:
179,192,92847,1,0,0:0:0:0:
332,192,92847,1,0,0:0:0:0:
128,192,92847,1,0,0:0:0:0:
230,192,93060,1,0,0:0:0:0:
128,192,93060,1,0,0:0:0:0:
25,192,93060,1,0,0:0:0:0:
486,192,93060,1,0,0:0:0:0:
384,192,93060,1,0,0:0:0:0:
332,192,93273,1,0,0:0:0:0:
281,192,93273,1,0,0:0:0:0:
76,192,93273,1,0,0:0:0:0:
179,192,93379,1,0,0:0:0:0:
435,192,93485,1,0,0:0:0:0:
281,192,93485,1,0,0:0:0:0:
230,192,93592,1,0,0:0:0:0:
76,192,93592,1,0,0:0:0:0:
128,192,93698,1,0,0:0:0:0:
25,192,93698,1,0,0:0:0:0:
332,192,93698,1,0,0:0:0:0:
384,192,93698,1,0,0:0:0:0:
486,192,93911,1,0,0:0:0:0:
384,192,93911,1,0,0:0:0:0:
230,192,93911,1,0,0:0:0:0:
128,192,94018,1,0,0:0:0:0:
281,192,94018,1,0,0:0:0:0:
332,192,94018,1,0,0:0:0:0:
25,192,94124,1,0,0:0:0:0:
384,192,94124,1,0,0:0:0:0:
179,192,94124,1,0,0:0:0:0:
76,192,94124,1,0,0:0:0:0:
332,192,94230,1,0,0:0:0:0:
435,192,94230,1,0,0:0:0:0:
230,192,94230,1,0,0:0:0:0:
128,192,94337,1,0,0:0:0:0:
76,192,94337,1,0,0:0:0:0:
281,192,94337,1,0,0:0:0:0:
486,192,94337,1,0,0:0:0:0:
25,192,94337,128,0,94550:0:0:0:0:
332,192,94550,1,0,0:0:0:0:
179,192,94550,128,0,94763:0:0:0:0:
435,192,94550,1,0,0:0:0:0:
332,192,94763,128,0,94976:0:0:0:0:
435,192,94763,1,0,0:0:0:0:
486,192,94763,1,0,0:0:0:0:
230,192,94763,1,0,0:0:0:0:
76,192,94763,1,0,0:0:0:0:
384,192,94976,1,0,0:0:0:0:
281,192,94976,1,0,0:0:0:0:
179,192,94976,1,0,0:0:0:0:
128,192,94976,1,0,0:0:0:0:
486,192,95082,1,0,0:0:0:0:
230,192,95082,1,0,0:0:0:0:
25,192,95082,1,0,0:0:0:0:
332,192,95188,1,0,0:0:0:0:
435,192,95188,1,0,0:0:0:0:
179,192,95295,1,0,0:0:0:0:
76,192,95295,1,0,0:0:0:0:
281,192,95401,1,0,0:0:0:0:
435,192,95401,1,0,0:0:0:0:
128,192,95401,128,0,95614:0:0:0:0:
332,192,95614,1,0,0:0:0:0:
281,192,95614,1,0,0:0:0:0:
486,192,95614,1,0,0:0:0:0:
230,192,95614,128,0,95827:0:0:0:0:
179,192,95827,1,0,0:0:0:0:
76,192,95827,1,0,0:0:0:0:
25,192,95827,1,0,0:0:0:0:
384,192,95827,1,0,0:0:0:0:
435,192,95933,1,0,0:0:0:0:
486,192,95933,1,0,0:0:0:0:
384,192,96040,1,0,0:0:0:0:
281,192,96040,1,0,0:0:0:0:
332,192,96040,1,0,0:0:0:0:
128,192,96040,1,0,0:0:0:0:
230,192,96040,1,0,0:0:0:0:
230,192,96253,1,0,0:0:0:0:
76,192,96253,1,0,0:0:0:0:
179,192,96253,1,0,0:0:0:0:
332,192,96253,1,0,0:0:0:0:
25,192,96253,128,0,96466:0:0:0:0:
281,192,96466,1,0,0:0:0:0:
332,192,96466,1,0,0:0:0:0:
486,192,96466,128,0,96678:0:0:0:0:
128,192,96466,128,0,96678:0:0:0:0:
76,192,96678,1,0,0:0:0:0:
179,192,96678,1,0,0:0:0:0:
435,192,96678,1,0,0:0:0:0:
281,192,96785,1,0,0:0:0:0:
384,192,96785,1,0,0:0:0:0:
332,192,96998,1,0,0:0:0:0:
230,192,96998,1,0,0:0:0:0:
128,192,96998,1,0,0:0:0:0:
384,192,97104,1,0,0:0:0:0:
486,192,97104,1,0,0:0:0:0:
179,192,97211,5,0,0:0:0:0:
25,192,97211,1,0,0:0:0:0:
281,192,97211,1,0,0:0:0:0:
332,192,97317,1,0,0:0:0:0:
435,192,97317,1,0,0:0:0:0:
230,192,97424,1,0,0:0:0:0:
76,192,97424,1,0,0:0:0:0:
384,192,97530,1,0,0:0:0:0:
281,192,97530,1,0,0:0:0:0:
486,192,97530,1,0,0:0:0:0:
128,192,97636,1,0,0:0:0:0:
486,192,97743,1,0,0:0:0:0:
179,192,97743,1,0,0:0:0:0:
230,192,97743,1,0,0:0:0:0:
384,192,97956,1,0,0:0:0:0:
486,192,98062,1,0,0:0:0:0:
230,192,98169,1,0,0:0:0:0:
25,192,98169,1,0,0:0:0:0:
384,192,98275,1,0,0:0:0:0:
486,192,98381,1,0,0:0:0:0:
128,192,98381,1,0,0:0:0:0:
179,192,98381,1,0,0:0:0:0:
486,192,98594,1,0,0:0:0:0:
128,192,98594,1,0,0:0:0:0:
384,192,98807,1,0,0:0:0:0:
486,192,98914,1,0,0:0:0:0:
25,192,99020,1,0,0:0:0:0:
230,192,99020,1,0,0:0:0:0:
384,192,99127,1,0,0:0:0:0:
486,192,99233,1,0,0:0:0:0:
435,192,99446,1,0,0:0:0:0:
76,192,99446,1,0,0:0:0:0:
128,192,99446,1,0,0:0:0:0:
332,192,99659,1,0,0:0:0:0:
435,192,99765,1,0,0:0:0:0:
230,192,99872,1,0,0:0:0:0:
25,192,99872,1,0,0:0:0:0:
332,192,99978,1,0,0:0:0:0:
435,192,100084,1,0,0:0:0:0:
384,192,100297,1,0,0:0:0:0:
76,192,100297,1,0,0:0:0:0:
281,192,100510,1,0,0:0:0:0:
384,192,100617,1,0,0:0:0:0:
179,192,100617,1,0,0:0:0:0:
230,192,100723,1,0,0:0:0:0:
25,192,100723,1,0,0:0:0:0:
281,192,100829,1,0,0:0:0:0:
384,192,100936,1,0,0:0:0:0:
76,192,100936,1,0,0:0:0:0:
179,192,101042,1,0,0:0:0:0:
435,192,101149,1,0,0:0:0:0:
128,192,101149,1,0,0:0:0:0:
25,192,101149,1,0,0:0:0:0:
332,192,101362,1,0,0:0:0:0:
435,192,101468,1,0,0:0:0:0:
230,192,101575,1,0,0:0:0:0:
76,192,101575,1,0,0:0:0:0:
281,192,101681,1,0,0:0:0:0:
435,192,101787,1,0,0:0:0:0:
179,192,101787,1,0,0:0:0:0:
128,192,101787,1,0,0:0:0:0:
435,192,102000,1,0,0:0:0:0:
281,192,102213,1,0,0:0:0:0:
128,192,102213,1,0,0:0:0:0:
25,192,102213,1,0,0:0:0:0:
435,192,102320,1,0,0:0:0:0:
76,192,102426,1,0,0:0:0:0:
230,192,102426,1,0,0:0:0:0:
281,192,102532,1,0,0:0:0:0:
435,192,102639,1,0,0:0:0:0:
384,192,102852,1,0,0:0:0:0:
179,192,102852,1,0,0:0:0:0:
128,192,102852,1,0,0:0:0:0:
281,192,103065,1,0,0:0:0:0:
76,192,103065,1,0,0:0:0:0:
384,192,103171,1,0,0:0:0:0:
230,192,103278,1,0,0:0:0:0:
25,192,103278,1,0,0:0:0:0:
281,192,103384,1,0,0:0:0:0:
384,192,103490,1,0,0:0:0:0:
384,192,103703,1,0,0:0:0:0:
281,192,103916,1,0,0:0:0:0:
76,192,103916,1,0,0:0:0:0:
384,192,104023,1,0,0:0:0:0:
230,192,104129,1,0,0:0:0:0:
25,192,104129,1,0,0:0:0:0:
281,192,104235,1,0,0:0:0:0:
179,192,104235,1,0,0:0:0:0:
384,192,104342,1,0,0:0:0:0:
230,192,104342,1,0,0:0:0:0:
128,192,104448,1,0,0:0:0:0:
25,192,104555,1,0,0:0:0:0:
76,192,104555,1,0,0:0:0:0:
179,192,104661,1,0,0:0:0:0:
128,192,104980,1,0,0:0:0:0:
25,192,104980,1,0,0:0:0:0:
76,192,105193,1,0,0:0:0:0:
25,192,105193,1,0,0:0:0:0:
230,192,105300,1,0,0:0:0:0:
76,192,105619,1,0,0:0:0:0:
179,192,105619,1,0,0:0:0:0:
25,192,105832,1,0,0:0:0:0:
128,192,105832,1,0,0:0:0:0:
486,192,106258,1,0,0:0:0:0:
179,192,106258,1,0,0:0:0:0:
128,192,106258,1,0,0:0:0:0:
230,192,106364,1,0,0:0:0:0:
384,192,106577,1,0,0:0:0:0:
179,192,106683,1,0,0:0:0:0:
25,192,106683,1,0,0:0:0:0:
435,192,106896,1,0,0:0:0:0:
128,192,107003,1,0,0:0:0:0:
384,192,107109,1,0,0:0:0:0:
76,192,107109,1,0,0:0:0:0:
230,192,107216,1,0,0:0:0:0:
128,192,107322,1,0,0:0:0:0:
332,192,107429,1,0,0:0:0:0:
179,192,107535,1,0,0:0:0:0:
25,192,107535,1,0,0:0:0:0:
435,192,107748,1,0,0:0:0:0:
281,192,107961,1,0,0:0:0:0:
128,192,107961,1,0,0:0:0:0:
76,192,107961,1,0,0:0:0:0:
281,192,108386,1,0,0:0:0:0:
486,192,108386,1,0,0:0:0:0:
435,192,108386,1,0,0:0:0:0:
179,192,108599,1,0,0:0:0:0:
230,192,108599,1,0,0:0:0:0:
76,192,108706,1,0,0:0:0:0:
281,192,108812,1,0,0:0:0:0:
179,192,108812,1,0,0:0:0:0:
76,192,108919,1,0,0:0:0:0:
128,192,109025,1,0,0:0:0:0:
230,192,109131,1,0,0:0:0:0:
281,192,109238,1,0,0:0:0:0:
486,192,109238,1,0,0:0:0:0:
435,192,109238,1,0,0:0:0:0:
179,192,109664,1,0,0:0:0:0:
25,192,109664,1,0,0:0:0:0:
332,192,109770,1,0,0:0:0:0:
435,192,109770,1,0,0:0:0:0:
230,192,109877,1,0,0:0:0:0:
128,192,109983,1,0,0:0:0:0:
281,192,110089,1,0,0:0:0:0:
486,192,110089,1,0,0:0:0:0:
25,192,110089,1,0,0:0:0:0:
179,192,110302,1,0,0:0:0:0:
332,192,110409,1,0,0:0:0:0:
435,192,110409,1,0,0:0:0:0:
179,192,110515,1,0,0:0:0:0:
332,192,110622,1,0,0:0:0:0:
179,192,110728,1,0,0:0:0:0:
76,192,110728,1,0,0:0:0:0:
332,192,110834,5,0,0:0:0:0:
281,192,110941,5,0,0:0:0:0:
486,192,110941,1,0,0:0:0:0:
25,192,110941,1,0,0:0:0:0:
128,192,111047,1,0,0:0:0:0:
230,192,111154,1,0,0:0:0:0:
384,192,111154,1,0,0:0:0:0:
281,192,111260,1,0,0:0:0:0:
179,192,111260,1,0,0:0:0:0:
25,192,111367,5,0,0:0:0:0:
486,192,111367,1,0,0:0:0:0:
435,192,111367,1,0,0:0:0:0:
76,192,111367,1,0,0:0:0:0:
230,192,111473,1,0,0:0:0:0:
332,192,111473,1,0,0:0:0:0:
179,192,111580,1,0,0:0:0:0:
281,192,111580,1,0,0:0:0:0:
435,192,111686,1,0,0:0:0:0:
76,192,111686,1,0,0:0:0:0:
332,192,111792,1,0,0:0:0:0:
179,192,111792,1,0,0:0:0:0:
281,192,111899,1,0,0:0:0:0:
230,192,111899,1,0,0:0:0:0:
25,192,112005,1,0,0:0:0:0:
384,192,112005,1,0,0:0:0:0:
128,192,112005,1,0,0:0:0:0:
486,192,112005,1,0,0:0:0:0:
179,192,112112,1,0,0:0:0:0:
281,192,112112,1,0,0:0:0:0:
435,192,112218,1,0,0:0:0:0:
76,192,112218,1,0,0:0:0:0:
332,192,112325,1,0,0:0:0:0:
179,192,112325,1,0,0:0:0:0:
281,192,112431,1,0,0:0:0:0:
230,192,112431,1,0,0:0:0:0:
435,192,112537,1,0,0:0:0:0:
76,192,112537,1,0,0:0:0:0:
486,192,112644,1,0,0:0:0:0:
332,192,112644,1,0,0:0:0:0:
179,192,112644,1,0,0:0:0:0:
25,192,112644,1,0,0:0:0:0:
128,192,112750,1,0,0:0:0:0:
281,192,112750,1,0,0:0:0:0:
435,192,112857,1,0,0:0:0:0:
76,192,112857,1,0,0:0:0:0:
281,192,112963,1,0,0:0:0:0:
230,192,112963,1,0,0:0:0:0:
332,192,113070,1,0,0:0:0:0:
486,192,113070,1,0,0:0:0:0:
25,192,113070,1,0,0:0:0:0:
384,192,113176,1,0,0:0:0:0:
179,192,113176,1,0,0:0:0:0:
76,192,113282,1,0,0:0:0:0:
281,192,113282,1,0,0:0:0:0:
179,192,113389,1,0,0:0:0:0:
486,192,113389,1,0,0:0:0:0:
76,192,113495,1,0,0:0:0:0:
332,192,113495,1,0,0:0:0:0:
179,192,113602,1,0,0:0:0:0:
384,192,113708,1,0,0:0:0:0:
486,192,113708,1,0,0:0:0:0:
25,192,113708,1,0,0:0:0:0:
281,192,113815,1,0,0:0:0:0:
230,192,113815,1,0,0:0:0:0:
435,192,113921,1,0,0:0:0:0:
384,192,113921,1,0,0:0:0:0:
128,192,113921,1,0,0:0:0:0:
76,192,113921,1,0,0:0:0:0:
332,192,114028,1,0,0:0:0:0:
179,192,114028,1,0,0:0:0:0:
281,192,114134,1,0,0:0:0:0:
230,192,114134,1,0,0:0:0:0:
486,192,114240,1,0,0:0:0:0:
384,192,114240,1,0,0:0:0:0:
128,192,114240,1,0,0:0:0:0:
25,192,114240,1,0,0:0:0:0:
230,192,114347,1,0,0:0:0:0:
332,192,114347,1,0,0:0:0:0:
76,192,114453,1,0,0:0:0:0:
179,192,114453,1,0,0:0:0:0:
281,192,114560,1,0,0:0:0:0:
435,192,114560,1,0,0:0:0:0:
332,192,114666,1,0,0:0:0:0:
179,192,114666,1,0,0:0:0:0:
230,192,114773,1,0,0:0:0:0:
25,192,114773,1,0,0:0:0:0:
486,192,114773,1,0,0:0:0:0:
435,192,114773,1,0,0:0:0:0:
332,192,114879,1,0,0:0:0:0:
179,192,114879,1,0,0:0:0:0:
128,192,114985,1,0,0:0:0:0:
230,192,114985,1,0,0:0:0:0:
435,192,115092,1,0,0:0:0:0:
332,192,115198,1,0,0:0:0:0:
179,192,115198,1,0,0:0:0:0:
486,192,115305,1,0,0:0:0:0:
128,192,115305,1,0,0:0:0:0:
230,192,115305,1,0,0:0:0:0:
384,192,115411,1,0,0:0:0:0:
25,192,115411,1,0,0:0:0:0:
179,192,115518,1,0,0:0:0:0:
281,192,115518,1,0,0:0:0:0:
435,192,115624,1,0,0:0:0:0:
76,192,115624,1,0,0:0:0:0:
332,192,115731,1,0,0:0:0:0:
179,192,115731,1,0,0:0:0:0:
486,192,115837,1,0,0:0:0:0:
230,192,115837,1,0,0:0:0:0:
384,192,115943,1,0,0:0:0:0:
76,192,115943,1,0,0:0:0:0:
281,192,116050,1,0,0:0:0:0:
179,192,116050,1,0,0:0:0:0:
435,192,116156,1,0,0:0:0:0:
128,192,116263,1,0,0:0:0:0:
332,192,116263,1,0,0:0:0:0:
486,192,116369,1,0,0:0:0:0:
230,192,116369,1,0,0:0:0:0:
384,192,116476,1,0,0:0:0:0:
76,192,116476,1,0,0:0:0:0:
281,192,116582,1,0,0:0:0:0:
179,192,116582,1,0,0:0:0:0:
435,192,116688,1,0,0:0:0:0:
25,192,116688,1,0,0:0:0:0:
332,192,116795,1,0,0:0:0:0:
128,192,116795,1,0,0:0:0:0:
486,192,116901,1,0,0:0:0:0:
230,192,116901,1,0,0:0:0:0:
281,192,117008,1,0,0:0:0:0:
384,192,117008,1,0,0:0:0:0:
179,192,117114,1,0,0:0:0:0:
76,192,117114,1,0,0:0:0:0:
435,192,117221,1,0,0:0:0:0:
230,192,117327,1,0,0:0:0:0:
332,192,117327,1,0,0:0:0:0:
486,192,117433,1,0,0:0:0:0:
128,192,117433,1,0,0:0:0:0:
25,192,117540,1,0,0:0:0:0:
384,192,117540,1,0,0:0:0:0:
179,192,117646,1,0,0:0:0:0:
281,192,117646,1,0,0:0:0:0:
435,192,117753,1,0,0:0:0:0:
76,192,117753,1,0,0:0:0:0:
281,192,117859,1,0,0:0:0:0:
486,192,117859,1,0,0:0:0:0:
25,192,117859,1,0,0:0:0:0:
230,192,117859,1,0,0:0:0:0:
384,192,117966,1,0,0:0:0:0:
332,192,117966,1,0,0:0:0:0:
128,192,117966,1,0,0:0:0:0:
76,192,117966,1,0,0:0:0:0:
281,192,118072,1,0,0:0:0:0:
179,192,118072,1,0,0:0:0:0:
230,192,118072,1,0,0:0:0:0:
486,192,118072,1,0,0:0:0:0:
384,192,118179,1,0,0:0:0:0:
25,192,118179,1,0,0:0:0:0:
128,192,118179,1,0,0:0:0:0:
435,192,118179,1,0,0:0:0:0:
332,192,118285,1,0,0:0:0:0:
179,192,118285,1,0,0:0:0:0:
486,192,118391,1,0,0:0:0:0:
281,192,118391,1,0,0:0:0:0:
128,192,118498,1,0,0:0:0:0:
384,192,118498,1,0,0:0:0:0:
230,192,118604,1,0,0:0:0:0:
332,192,118711,1,0,0:0:0:0:
76,192,118711,1,0,0:0:0:0:
486,192,118817,1,0,0:0:0:0:
25,192,118817,1,0,0:0:0:0:
435,192,118817,1,0,0:0:0:0:
179,192,118924,1,0,0:0:0:0:
281,192,118924,1,0,0:0:0:0:
384,192,119030,1,0,0:0:0:0:
76,192,119030,1,0,0:0:0:0:
332,192,119136,1,0,0:0:0:0:
179,192,119136,1,0,0:0:0:0:
281,192,119243,1,0,0:0:0:0:
76,192,119349,1,0,0:0:0:0:
435,192,119349,1,0,0:0:0:0:
128,192,119456,1,0,0:0:0:0:
384,192,119456,1,0,0:0:0:0:
179,192,119562,1,0,0:0:0:0:
332,192,119562,1,0,0:0:0:0:
230,192,119669,1,0,0:0:0:0:
435,192,119669,1,0,0:0:0:0:
76,192,119669,1,0,0:0:0:0:
281,192,119775,1,0,0:0:0:0:
332,192,119882,1,0,0:0:0:0:
384,192,119882,1,0,0:0:0:0:
25,192,119882,1,0,0:0:0:0:
179,192,119882,1,0,0:0:0:0:
486,192,119988,1,0,0:0:0:0:
281,192,120094,1,0,0:0:0:0:
76,192,120201,1,0,0:0:0:0:
179,192,120201,1,0,0:0:0:0:
486,192,120201,1,0,0:0:0:0:
384,192,120201,1,0,0:0:0:0:
332,192,120307,1,0,0:0:0:0:
281,192,120414,1,0,0:0:0:0:
76,192,120520,1,0,0:0:0:0:
230,192,120520,1,0,0:0:0:0:
486,192,120520,1,0,0:0:0:0:
435,192,120520,1,0,0:0:0:0:
281,192,120627,1,0,0:0:0:0:
179,192,120733,1,0,0:0:0:0:
384,192,120733,1,0,0:0:0:0:
486,192,120733,1,0,0:0:0:0:
332,192,120839,1,0,0:0:0:0:
281,192,120946,1,0,0:0:0:0:
128,192,121052,1,0,0:0:0:0:
230,192,121052,1,0,0:0:0:0:
435,192,121052,1,0,0:0:0:0:
384,192,121052,1,0,0:0:0:0:
332,192,121159,1,0,0:0:0:0:
281,192,121265,1,0,0:0:0:0:
25,192,121372,1,0,0:0:0:0:
179,192,121372,1,0,0:0:0:0:
486,192,121372,1,0,0:0:0:0:
384,192,121372,1,0,0:0:0:0:
281,192,121478,1,0,0:0:0:0:
230,192,121584,1,0,0:0:0:0:
128,192,121584,1,0,0:0:0:0:
435,192,121584,1,0,0:0:0:0:
384,192,121584,1,0,0:0:0:0:
332,192,121691,1,0,0:0:0:0:
281,192,121797,1,0,0:0:0:0:
435,192,121904,1,0,0:0:0:0:
128,192,122010,1,0,0:0:0:0:
25,192,122010,1,0,0:0:0:0:
332,192,122010,1,0,0:0:0:0:
281,192,122117,1,0,0:0:0:0:
179,192,122223,1,0,0:0:0:0:
230,192,122223,1,0,0:0:0:0:
435,192,122223,1,0,0:0:0:0:
384,192,122330,1,0,0:0:0:0:
76,192,122436,1,0,0:0:0:0:
281,192,122436,1,0,0:0:0:0:
486,192,122542,1,0,0:0:0:0:
76,192,122649,1,0,0:0:0:0:
435,192,122649,1,0,0:0:0:0:
332,192,122755,1,0,0:0:0:0:
128,192,122862,1,0,0:0:0:0:
486,192,122862,1,0,0:0:0:0:
25,192,122862,1,0,0:0:0:0:
230,192,122862,1,0,0:0:0:0:
384,192,122968,1,0,0:0:0:0:
179,192,123075,1,0,0:0:0:0:
281,192,123075,1,0,0:0:0:0:
435,192,123181,1,0,0:0:0:0:
25,192,123287,1,0,0:0:0:0:
230,192,123287,1,0,0:0:0:0:
332,192,123287,1,0,0:0:0:0:
76,192,123287,1,0,0:0:0:0:
281,192,123394,1,0,0:0:0:0:
384,192,123500,1,0,0:0:0:0:
332,192,123607,1,0,0:0:0:0:
25,192,123713,1,0,0:0:0:0:
128,192,123713,1,0,0:0:0:0:
281,192,123713,1,0,0:0:0:0:
435,192,123820,1,0,0:0:0:0:
332,192,123926,1,0,0:0:0:0:
179,192,123926,1,0,0:0:0:0:
76,192,124033,1,0,0:0:0:0:
281,192,124033,1,0,0:0:0:0:
179,192,124139,1,0,0:0:0:0:
384,192,124139,1,0,0:0:0:0:
332,192,124245,1,0,0:0:0:0:
128,192,124352,1,0,0:0:0:0:
281,192,124352,1,0,0:0:0:0:
230,192,124352,1,0,0:0:0:0:
486,192,124458,5,0,0:0:0:0:
128,192,124565,1,0,0:0:0:0:
25,192,124565,1,0,0:0:0:0:
332,192,124565,1,0,0:0:0:0:
230,192,124565,1,0,0:0:0:0:
179,192,124671,1,0,0:0:0:0:
435,192,124671,1,0,0:0:0:0:
281,192,124778,1,0,0:0:0:0:
384,192,124778,1,0,0:0:0:0:
128,192,124884,1,0,0:0:0:0:
230,192,124884,1,0,0:0:0:0:
486,192,124990,5,0,0:0:0:0:
281,192,124990,1,0,0:0:0:0:
25,192,124990,1,0,0:0:0:0:
230,192,124990,1,0,0:0:0:0:
435,192,124990,1,0,0:0:0:0:
384,192,125097,1,0,0:0:0:0:
128,192,125097,1,0,0:0:0:0:
486,192,125203,1,0,0:0:0:0:
281,192,125203,1,0,0:0:0:0:
179,192,125203,1,0,0:0:0:0:
25,192,125203,1,0,0:0:0:0:
435,192,125310,1,0,0:0:0:0:
76,192,125310,1,0,0:0:0:0:
230,192,125416,1,0,0:0:0:0:
332,192,125416,1,0,0:0:0:0:
128,192,125523,1,0,0:0:0:0:
486,192,125523,1,0,0:0:0:0:
384,192,125629,1,0,0:0:0:0:
25,192,125629,1,0,0:0:0:0:
179,192,125735,1,0,0:0:0:0:
281,192,125735,1,0,0:0:0:0:
76,192,125842,1,0,0:0:0:0:
435,192,125948,1,0,0:0:0:0:
332,192,125948,1,0,0:0:0:0:
128,192,126055,1,0,0:0:0:0:
230,192,126055,1,0,0:0:0:0:
281,192,126161,1,0,0:0:0:0:
25,192,126161,1,0,0:0:0:0:
384,192,126268,1,0,0:0:0:0:
179,192,126268,1,0,0:0:0:0:
486,192,126374,1,0,0:0:0:0:
76,192,126374,1,0,0:0:0:0:
332,192,126481,1,0,0:0:0:0:
230,192,126481,1,0,0:0:0:0:
435,192,126587,1,0,0:0:0:0:
128,192,126587,1,0,0:0:0:0:
281,192,126693,1,0,0:0:0:0:
25,192,126693,1,0,0:0:0:0:
179,192,126800,1,0,0:0:0:0:
384,192,126800,1,0,0:0:0:0:
76,192,126906,1,0,0:0:0:0:
332,192,127013,1,0,0:0:0:0:
230,192,127013,1,0,0:0:0:0:
435,192,127119,1,0,0:0:0:0:
128,192,127119,1,0,0:0:0:0:
281,192,127226,1,0,0:0:0:0:
25,192,127226,1,0,0:0:0:0:
332,192,127332,1,0,0:0:0:0:
179,192,127332,1,0,0:0:0:0:
435,192,127438,1,0,0:0:0:0:
76,192,127438,1,0,0:0:0:0:
230,192,127545,1,0,0:0:0:0:
332,192,127545,1,0,0:0:0:0:
486,192,127651,1,0,0:0:0:0:
128,192,127651,1,0,0:0:0:0:
281,192,127758,1,0,0:0:0:0:
384,192,127758,1,0,0:0:0:0:
25,192,127758,1,0,0:0:0:0:
332,192,127864,1,0,0:0:0:0:
179,192,127864,1,0,0:0:0:0:
76,192,127971,1,0,0:0:0:0:
281,192,128077,1,0,0:0:0:0:
384,192,128077,1,0,0:0:0:0:
332,192,128184,1,0,0:0:0:0:
179,192,128184,1,0,0:0:0:0:
25,192,128290,1,0,0:0:0:0:
76,192,128290,1,0,0:0:0:0:
281,192,128290,1,0,0:0:0:0:
486,192,128290,1,0,0:0:0:0:
332,192,128396,1,0,0:0:0:0:
179,192,128396,1,0,0:0:0:0:
384,192,128396,1,0,0:0:0:0:
435,192,128396,1,0,0:0:0:0:
76,192,128503,1,0,0:0:0:0:
230,192,128503,1,0,0:0:0:0:
332,192,128609,1,0,0:0:0:0:
435,192,128609,1,0,0:0:0:0:
179,192,128716,1,0,0:0:0:0:
281,192,128716,1,0,0:0:0:0:
384,192,128822,1,0,0:0:0:0:
486,192,128822,1,0,0:0:0:0:
25,192,128822,1,0,0:0:0:0:
128,192,128822,1,0,0:0:0:0:
281,192,128929,1,0,0:0:0:0:
230,192,128929,1,0,0:0:0:0:
332,192,129035,1,0,0:0:0:0:
179,192,129035,1,0,0:0:0:0:
384,192,129035,1,0,0:0:0:0:
435,192,129035,1,0,0:0:0:0:
76,192,129035,1,0,0:0:0:0:
128,192,129141,1,0,0:0:0:0:
281,192,129248,1,0,0:0:0:0:
230,192,129248,1,0,0:0:0:0:
486,192,129354,1,0,0:0:0:0:
25,192,129354,1,0,0:0:0:0:
128,192,129354,1,0,0:0:0:0:
332,192,129461,1,0,0:0:0:0:
179,192,129567,1,0,0:0:0:0:
435,192,129567,1,0,0:0:0:0:
76,192,129567,1,0,0:0:0:0:
332,192,129674,1,0,0:0:0:0:
230,192,129780,1,0,0:0:0:0:
435,192,129780,1,0,0:0:0:0:
332,192,129886,1,0,0:0:0:0:
128,192,129886,1,0,0:0:0:0:
486,192,129993,1,0,0:0:0:0:
25,192,129993,1,0,0:0:0:0:
179,192,129993,1,0,0:0:0:0:
281,192,130099,1,0,0:0:0:0:
230,192,130099,1,0,0:0:0:0:
435,192,130206,1,0,0:0:0:0:
76,192,130206,1,0,0:0:0:0:
230,192,130312,1,0,0:0:0:0:
384,192,130312,1,0,0:0:0:0:
332,192,130419,1,0,0:0:0:0:
486,192,130419,1,0,0:0:0:0:
25,192,130419,1,0,0:0:0:0:
179,192,130419,1,0,0:0:0:0:
435,192,130525,1,0,0:0:0:0:
76,192,130525,1,0,0:0:0:0:
281,192,130632,1,0,0:0:0:0:
230,192,130632,1,0,0:0:0:0:
332,192,130738,1,0,0:0:0:0:
179,192,130738,1,0,0:0:0:0:
435,192,130844,1,0,0:0:0:0:
76,192,130844,1,0,0:0:0:0:
230,192,130951,1,0,0:0:0:0:
332,192,130951,1,0,0:0:0:0:
384,192,131057,1,0,0:0:0:0:
25,192,131057,1,0,0:0:0:0:
486,192,131057,1,0,0:0:0:0:
128,192,131057,1,0,0:0:0:0:
281,192,131164,1,0,0:0:0:0:
230,192,131164,1,0,0:0:0:0:
332,192,131270,1,0,0:0:0:0:
179,192,131270,1,0,0:0:0:0:
435,192,131377,1,0,0:0:0:0:
76,192,131377,1,0,0:0:0:0:
230,192,131483,1,0,0:0:0:0:
332,192,131483,1,0,0:0:0:0:
281,192,131589,1,0,0:0:0:0:
128,192,131589,1,0,0:0:0:0:
384,192,131696,1,0,0:0:0:0:
179,192,131696,1,0,0:0:0:0:
25,192,131802,1,0,0:0:0:0:
76,192,131802,1,0,0:0:0:0:
435,192,131802,1,0,0:0:0:0:
486,192,131802,1,0,0:0:0:0:
128,192,131909,1,0,0:0:0:0:
230,192,131909,1,0,0:0:0:0:
76,192,132015,1,0,0:0:0:0:
332,192,132015,1,0,0:0:0:0:
179,192,132122,1,0,0:0:0:0:
281,192,132122,1,0,0:0:0:0:
384,192,132122,1,0,0:0:0:0:
486,192,132122,1,0,0:0:0:0:
25,192,132228,1,0,0:0:0:0:
281,192,132334,1,0,0:0:0:0:
230,192,132334,1,0,0:0:0:0:
384,192,132334,1,0,0:0:0:0:
179,192,132441,1,0,0:0:0:0:
128,192,132547,1,0,0:0:0:0:
332,192,132547,1,0,0:0:0:0:
230,192,132654,1,0,0:0:0:0:
435,192,132654,1,0,0:0:0:0:
332,192,132760,1,0,0:0:0:0:
179,192,132760,1,0,0:0:0:0:
76,192,132867,1,0,0:0:0:0:
230,192,132973,1,0,0:0:0:0:
384,192,132973,1,0,0:0:0:0:
486,192,132973,1,0,0:0:0:0:
179,192,133080,1,0,0:0:0:0:
128,192,133186,1,0,0:0:0:0:
332,192,133186,1,0,0:0:0:0:
230,192,133292,1,0,0:0:0:0:
179,192,133399,1,0,0:0:0:0:
435,192,133399,1,0,0:0:0:0:
486,192,133399,1,0,0:0:0:0:
281,192,133399,1,0,0:0:0:0:
76,192,133505,1,0,0:0:0:0:
230,192,133612,1,0,0:0:0:0:
332,192,133612,1,0,0:0:0:0:
128,192,133718,1,0,0:0:0:0:
486,192,133825,1,0,0:0:0:0:
281,192,133825,1,0,0:0:0:0:
384,192,133825,1,0,0:0:0:0:
25,192,133825,1,0,0:0:0:0:
179,192,133931,1,0,0:0:0:0:
76,192,134037,1,0,0:0:0:0:
435,192,134037,1,0,0:0:0:0:
25,192,134144,1,0,0:0:0:0:
230,192,134250,1,0,0:0:0:0:
435,192,134250,1,0,0:0:0:0:
128,192,134357,1,0,0:0:0:0:
76,192,134463,1,0,0:0:0:0:
281,192,134463,1,0,0:0:0:0:
332,192,134463,1,0,0:0:0:0:
230,192,134570,1,0,0:0:0:0:
179,192,134676,1,0,0:0:0:0:
486,192,134676,1,0,0:0:0:0:
384,192,134676,1,0,0:0:0:0:
76,192,134783,1,0,0:0:0:0:
230,192,134889,1,0,0:0:0:0:
179,192,134995,1,0,0:0:0:0:
76,192,135102,1,0,0:0:0:0:
128,192,135102,1,0,0:0:0:0:
281,192,135102,1,0,0:0:0:0:
384,192,135102,1,0,0:0:0:0:
230,192,135208,1,0,0:0:0:0:
25,192,135315,1,0,0:0:0:0:
128,192,135315,1,0,0:0:0:0:
486,192,135315,1,0,0:0:0:0:
332,192,135315,1,0,0:0:0:0:
230,192,135421,1,0,0:0:0:0:
179,192,135528,1,0,0:0:0:0:
76,192,135634,1,0,0:0:0:0:
128,192,135634,1,0,0:0:0:0:
384,192,135634,1,0,0:0:0:0:
281,192,135634,1,0,0:0:0:0:
230,192,135740,1,0,0:0:0:0:
179,192,135847,1,0,0:0:0:0:
25,192,135953,1,0,0:0:0:0:
128,192,135953,1,0,0:0:0:0:
332,192,135953,1,0,0:0:0:0:
230,192,136060,1,0,0:0:0:0:
25,192,136166,1,0,0:0:0:0:
76,192,136166,1,0,0:0:0:0:
435,192,136166,1,0,0:0:0:0:
281,192,136166,1,0,0:0:0:0:
230,192,136273,1,0,0:0:0:0:
179,192,136379,1,0,0:0:0:0:
25,192,136485,1,0,0:0:0:0:
128,192,136485,1,0,0:0:0:0:
435,192,136485,1,0,0:0:0:0:
332,192,136485,1,0,0:0:0:0:
230,192,136592,1,0,0:0:0:0:
25,192,136698,1,0,0:0:0:0:
486,192,136805,1,0,0:0:0:0:
332,192,136805,1,0,0:0:0:0:
179,192,136805,1,0,0:0:0:0:
128,192,136805,1,0,0:0:0:0:
230,192,136911,1,0,0:0:0:0:
435,192,137018,1,0,0:0:0:0:
76,192,137018,1,0,0:0:0:0:
281,192,137018,1,0,0:0:0:0:
179,192,137124,1,0,0:0:0:0:
332,192,137124,1,0,0:0:0:0:
128,192,137231,1,0,0:0:0:0:
384,192,137231,1,0,0:0:0:0:
76,192,137337,1,0,0:0:0:0:
435,192,137337,1,0,0:0:0:0:
230,192,137443,1,0,0:0:0:0:
332,192,137550,1,0,0:0:0:0:
179,192,137550,1,0,0:0:0:0:
435,192,137656,1,0,0:0:0:0:
128,192,137656,1,0,0:0:0:0:
230,192,137763,1,0,0:0:0:0:
332,192,137763,1,0,0:0:0:0:
76,192,137869,1,0,0:0:0:0:
486,192,137869,1,0,0:0:0:0:
25,192,137869,1,0,0:0:0:0:
435,192,137976,1,0,0:0:0:0:
179,192,137976,1,0,0:0:0:0:
281,192,138082,1,0,0:0:0:0:
128,192,138188,1,0,0:0:0:0:
384,192,138188,1,0,0:0:0:0:
230,192,138295,1,0,0:0:0:0:
25,192,138295,1,0,0:0:0:0:
332,192,138401,1,0,0:0:0:0:
179,192,138401,1,0,0:0:0:0:
384,192,138508,1,0,0:0:0:0:
76,192,138508,1,0,0:0:0:0:
128,192,138508,1,0,0:0:0:0:
486,192,138508,1,0,0:0:0:0:
281,192,138614,1,0,0:0:0:0:
230,192,138614,1,0,0:0:0:0:
25,192,138614,1,0,0:0:0:0:
435,192,138614,1,0,0:0:0:0:
