osu file format v14

[General]
AudioFilename: Ryu - U U Uma uma (Ryu Remix).ogg
AudioLeadIn: 0
PreviewTime: 60417
Countdown: 0
SampleSet: Soft
StackLeniency: 0.7
Mode: 3
LetterboxInBreaks: 0
SpecialStyle: 1
WidescreenStoryboard: 1

[Editor]
DistanceSpacing: 0.8
BeatDivisor: 4
GridSize: 8
TimelineZoom: 2.100002

[Metadata]
Title:la's 10K -SUPERMUG-
TitleUnicode:la's 10K -SUPERMUG-
Artist:Various Artists
ArtistUnicode:Various Artists
Creator:SK_la
Version:Caramell - Caramelldansen (Ryu* Remix) // EX
Source:
Tags:10k [ Reversal ] la SKla Mami Kawada portamento 川田まみ Primary yuiko ゆいこ RooM IOSYS Doutei Korose 童テイ殺セ S.I.D-Sound Polaris SID-Sound 시드 사운드 r300k Star Stream HHH×MM×ST Follow Tomorrow HHHxMMxST Ryu☆ Ryu* Starving Trancer Mayumi Morinaga 森永真由美 ウッーウッーウマウマ(゚∀゚) (Ryu☆ Remix) キャラメル Caramelldansen Caramell em9 Blue Moon Chroma Hoshi ga Furanai Machi 黑魔 星が降らない街
BeatmapID:1505225
BeatmapSetID:711991

[Difficulty]
HPDrainRate:6
CircleSize:10
OverallDifficulty:7
ApproachRate:5
SliderMultiplier:1.5
SliderTickRate:2

[Events]
//Background and Video events
0,0,"Ryu - U U Uma uma (Ryu Remix).jpg",0,0
//Break Periods
//Storyboard Layer 0 (Background)
//Storyboard Layer 1 (Fail)
//Storyboard Layer 2 (Pass)
//Storyboard Layer 3 (Foreground)
//Storyboard Layer 4 (Overlay)
//Storyboard Sound Samples

[TimingPoints]
-577,331.491712707182,4,2,0,50,1,0
28594,-100,4,2,0,50,0,0
61743,-100,4,2,0,50,0,1
72351,-100,4,2,0,50,0,0
105168,-66.6666666666667,4,2,0,50,0,0
105251,-111.111111111111,4,2,0,50,0,0
105293,-125,4,2,0,50,0,0
105334,-142.857142857143,4,2,0,50,0,0
105376,-166.666666666667,4,2,0,50,0,0
105396,-200,4,2,0,50,0,0
105417,-250,4,2,0,50,0,0
105438,-333.333333333333,4,2,0,50,0,0
105458,-500,4,2,0,50,0,0
105479,-1000,4,2,0,50,0,0
105500,331.491712707182,4,2,0,50,1,0
107820,-1000,4,2,0,50,0,0
107840,-500,4,2,0,50,0,0
107861,-333.333333333333,4,2,0,50,0,0
107882,-250,4,2,0,50,0,0
107902,-200,4,2,0,50,0,0
107923,-166.666666666667,4,2,0,50,0,0
107944,-142.857142857143,4,2,0,50,0,0
107985,-125,4,2,0,50,0,0
108068,-111.111111111111,4,2,0,50,0,0
108152,331.491712707182,4,2,0,50,1,1
118759,-100,4,2,0,50,0,0

[HitObjects]
25,192,1411,5,0,0:0:0:0:
128,192,1577,1,0,0:0:0:0:
230,192,1743,1,0,0:0:0:0:
332,192,1909,1,0,0:0:0:0:
435,192,2074,1,0,0:0:0:0:
486,192,2074,1,0,0:0:0:0:
230,192,2074,1,0,0:0:0:0:
25,192,2074,1,0,0:0:0:0:
332,192,2157,1,0,0:0:0:0:
179,192,2240,1,0,0:0:0:0:
435,192,2323,1,0,0:0:0:0:
76,192,2406,1,0,0:0:0:0:
332,192,2489,1,0,0:0:0:0:
179,192,2572,1,0,0:0:0:0:
435,192,2737,1,0,0:0:0:0:
486,192,3069,128,0,3400:0:0:0:0:
76,192,3069,1,0,0:0:0:0:
332,192,3110,1,0,0:0:0:0:
179,192,3152,1,0,0:0:0:0:
435,192,3193,1,0,0:0:0:0:
76,192,3235,1,0,0:0:0:0:
332,192,3276,1,0,0:0:0:0:
179,192,3318,1,0,0:0:0:0:
435,192,3359,1,0,0:0:0:0:
230,192,3400,1,0,0:0:0:0:
128,192,3400,128,0,3649:0:0:0:0:
332,192,3732,1,0,0:0:0:0:
179,192,3732,1,0,0:0:0:0:
230,192,3898,1,0,0:0:0:0:
281,192,4063,1,0,0:0:0:0:
486,192,4229,1,0,0:0:0:0:
384,192,4395,1,0,0:0:0:0:
76,192,4395,1,0,0:0:0:0:
332,192,4478,1,0,0:0:0:0:
281,192,4561,1,0,0:0:0:0:
179,192,4561,1,0,0:0:0:0:
435,192,4643,1,0,0:0:0:0:
76,192,4726,128,0,4892:0:0:0:0:
179,192,4892,1,0,0:0:0:0:
128,192,5224,128,0,5389:0:0:0:0:
230,192,5389,1,0,0:0:0:0:
435,192,5555,1,0,0:0:0:0:
281,192,5721,1,0,0:0:0:0:
128,192,5887,1,0,0:0:0:0:
486,192,5887,1,0,0:0:0:0:
230,192,6052,1,0,0:0:0:0:
25,192,6052,1,0,0:0:0:0:
435,192,6218,1,0,0:0:0:0:
128,192,6218,1,0,0:0:0:0:
384,192,6384,1,0,0:0:0:0:
230,192,6384,1,0,0:0:0:0:
128,192,6384,1,0,0:0:0:0:
281,192,6467,1,0,0:0:0:0:
179,192,6550,1,0,0:0:0:0:
76,192,6550,1,0,0:0:0:0:
486,192,6632,1,0,0:0:0:0:
384,192,6632,1,0,0:0:0:0:
332,192,6715,1,0,0:0:0:0:
230,192,6798,1,0,0:0:0:0:
128,192,6798,1,0,0:0:0:0:
435,192,6881,1,0,0:0:0:0:
332,192,6881,1,0,0:0:0:0:
128,192,6964,1,0,0:0:0:0:
25,192,6964,1,0,0:0:0:0:
281,192,7047,1,0,0:0:0:0:
384,192,7047,1,0,0:0:0:0:
230,192,7213,1,0,0:0:0:0:
332,192,7213,1,0,0:0:0:0:
25,192,7213,1,0,0:0:0:0:
179,192,7213,1,0,0:0:0:0:
486,192,7378,128,0,7710:0:0:0:0:
281,192,7378,1,0,0:0:0:0:
128,192,7461,1,0,0:0:0:0:
281,192,7544,1,0,0:0:0:0:
332,192,7710,1,0,0:0:0:0:
76,192,7751,1,0,0:0:0:0:
179,192,7793,1,0,0:0:0:0:
435,192,7834,1,0,0:0:0:0:
332,192,7876,1,0,0:0:0:0:
76,192,7917,1,0,0:0:0:0:
179,192,7958,1,0,0:0:0:0:
435,192,8000,1,0,0:0:0:0:
332,192,8041,1,0,0:0:0:0:
179,192,8124,1,0,0:0:0:0:
76,192,8124,1,0,0:0:0:0:
230,192,8207,128,0,8290:0:0:0:0:
25,192,8373,128,0,8456:0:0:0:0:
281,192,8539,128,0,8621:0:0:0:0:
486,192,8704,128,0,8870:0:0:0:0:
76,192,8704,1,0,0:0:0:0:
332,192,8870,128,0,9036:0:0:0:0:
486,192,9036,128,0,9864:0:0:0:0:
230,192,9036,1,0,0:0:0:0:
128,192,9367,1,0,0:0:0:0:
281,192,9450,1,0,0:0:0:0:
128,192,9533,1,0,0:0:0:0:
281,192,9616,1,0,0:0:0:0:
128,192,9699,1,0,0:0:0:0:
25,192,9699,1,0,0:0:0:0:
281,192,9782,1,0,0:0:0:0:
179,192,9864,1,0,0:0:0:0:
76,192,9864,1,0,0:0:0:0:
332,192,9864,128,0,10196:0:0:0:0:
230,192,10030,1,0,0:0:0:0:
128,192,10030,1,0,0:0:0:0:
281,192,10113,1,0,0:0:0:0:
384,192,10113,1,0,0:0:0:0:
230,192,10196,1,0,0:0:0:0:
128,192,10196,1,0,0:0:0:0:
332,192,10279,128,0,10527:0:0:0:0:
179,192,10362,128,0,10693:0:0:0:0:
384,192,10445,1,0,0:0:0:0:
486,192,10445,1,0,0:0:0:0:
25,192,10527,1,0,0:0:0:0:
128,192,10527,1,0,0:0:0:0:
384,192,10610,1,0,0:0:0:0:
486,192,10610,1,0,0:0:0:0:
128,192,10693,128,0,10859:0:0:0:0:
384,192,10776,128,0,10942:0:0:0:0:
76,192,10859,1,0,0:0:0:0:
179,192,10859,1,0,0:0:0:0:
332,192,10942,1,0,0:0:0:0:
435,192,10942,1,0,0:0:0:0:
179,192,11025,1,0,0:0:0:0:
76,192,11025,1,0,0:0:0:0:
486,192,11025,128,0,11108:0:0:0:0:
384,192,11108,128,0,11190:0:0:0:0:
281,192,11190,128,0,11273:0:0:0:0:
179,192,11273,128,0,11356:0:0:0:0:
25,192,11356,1,0,0:0:0:0:
76,192,11356,128,0,12682:0:0:0:0:
332,192,11439,1,0,0:0:0:0:
230,192,11522,1,0,0:0:0:0:
332,192,11605,1,0,0:0:0:0:
25,192,11688,1,0,0:0:0:0:
435,192,11688,1,0,0:0:0:0:
179,192,11688,1,0,0:0:0:0:
281,192,11771,1,0,0:0:0:0:
384,192,11853,1,0,0:0:0:0:
179,192,11853,1,0,0:0:0:0:
281,192,11936,1,0,0:0:0:0:
25,192,12019,1,0,0:0:0:0:
230,192,12019,1,0,0:0:0:0:
332,192,12102,1,0,0:0:0:0:
128,192,12102,1,0,0:0:0:0:
435,192,12185,1,0,0:0:0:0:
486,192,12185,1,0,0:0:0:0:
179,192,12268,1,0,0:0:0:0:
281,192,12268,1,0,0:0:0:0:
25,192,12351,1,0,0:0:0:0:
332,192,12351,1,0,0:0:0:0:
230,192,12351,1,0,0:0:0:0:
384,192,12351,128,0,12516:0:0:0:0:
128,192,12516,1,0,0:0:0:0:
230,192,12516,1,0,0:0:0:0:
281,192,12516,128,0,12682:0:0:0:0:
486,192,12682,128,0,12765:0:0:0:0:
332,192,12682,128,0,12765:0:0:0:0:
179,192,12682,128,0,12765:0:0:0:0:
76,192,13014,1,0,0:0:0:0:
128,192,13034,1,0,0:0:0:0:
179,192,13055,1,0,0:0:0:0:
230,192,13076,1,0,0:0:0:0:
281,192,13097,1,0,0:0:0:0:
332,192,13117,1,0,0:0:0:0:
384,192,13138,1,0,0:0:0:0:
435,192,13159,1,0,0:0:0:0:
486,192,13179,128,0,13677:0:0:0:0:
25,192,13345,1,0,0:0:0:0:
230,192,13428,1,0,0:0:0:0:
435,192,13428,1,0,0:0:0:0:
76,192,13511,1,0,0:0:0:0:
230,192,13594,1,0,0:0:0:0:
332,192,13677,1,0,0:0:0:0:
435,192,13677,1,0,0:0:0:0:
128,192,13677,128,0,13842:0:0:0:0:
179,192,13842,128,0,14008:0:0:0:0:
230,192,14008,128,0,14174:0:0:0:0:
486,192,14174,128,0,14340:0:0:0:0:
281,192,14340,128,0,14671:0:0:0:0:
128,192,14340,1,0,0:0:0:0:
384,192,14381,1,0,0:0:0:0:
25,192,14422,1,0,0:0:0:0:
332,192,14464,1,0,0:0:0:0:
128,192,14505,1,0,0:0:0:0:
435,192,14547,1,0,0:0:0:0:
230,192,14588,1,0,0:0:0:0:
76,192,14671,1,0,0:0:0:0:
435,192,14837,1,0,0:0:0:0:
384,192,14837,1,0,0:0:0:0:
179,192,14837,1,0,0:0:0:0:
281,192,15003,1,0,0:0:0:0:
230,192,15003,1,0,0:0:0:0:
25,192,15003,1,0,0:0:0:0:
76,192,15003,1,0,0:0:0:0:
486,192,15003,1,0,0:0:0:0:
51,192,15334,1,0,0:0:0:0:
76,192,15334,1,0,0:0:0:0:
281,192,15334,1,0,0:0:0:0:
230,192,15334,1,0,0:0:0:0:
332,192,15334,1,0,0:0:0:0:
384,192,15334,1,0,0:0:0:0:
332,192,15666,1,0,0:0:0:0:
76,192,15666,1,0,0:0:0:0:
51,192,15666,1,0,0:0:0:0:
435,192,15666,1,0,0:0:0:0:
384,192,15666,1,0,0:0:0:0:
281,192,15666,1,0,0:0:0:0:
256,192,15997,1,0,0:0:0:0:
51,192,15997,1,0,0:0:0:0:
179,192,15997,1,0,0:0:0:0:
230,192,15997,1,0,0:0:0:0:
332,192,15997,1,0,0:0:0:0:
76,192,15997,1,0,0:0:0:0:
51,192,16163,1,0,0:0:0:0:
358,192,16163,1,0,0:0:0:0:
486,192,16163,1,0,0:0:0:0:
435,192,16163,1,0,0:0:0:0:
384,192,16163,1,0,0:0:0:0:
76,192,16163,1,0,0:0:0:0:
256,192,16329,1,0,0:0:0:0:
179,192,16329,1,0,0:0:0:0:
230,192,16329,1,0,0:0:0:0:
332,192,16329,1,0,0:0:0:0:
25,192,16329,1,0,0:0:0:0:
76,192,16329,1,0,0:0:0:0:
384,192,16494,1,0,0:0:0:0:
486,192,16494,1,0,0:0:0:0:
435,192,16494,1,0,0:0:0:0:
332,192,16494,1,0,0:0:0:0:
76,192,16494,1,0,0:0:0:0:
25,192,16494,1,0,0:0:0:0:
358,192,16660,1,0,0:0:0:0:
179,192,16660,1,0,0:0:0:0:
230,192,16660,1,0,0:0:0:0:
281,192,16660,1,0,0:0:0:0:
76,192,16660,1,0,0:0:0:0:
25,192,16660,1,0,0:0:0:0:
358,192,16826,1,0,0:0:0:0:
384,192,16826,1,0,0:0:0:0:
435,192,16826,1,0,0:0:0:0:
486,192,16826,1,0,0:0:0:0:
76,192,16826,1,0,0:0:0:0:
25,192,16826,1,0,0:0:0:0:
230,192,16992,1,0,0:0:0:0:
281,192,16992,1,0,0:0:0:0:
179,192,16992,1,0,0:0:0:0:
128,192,16992,1,0,0:0:0:0:
435,192,16992,1,0,0:0:0:0:
486,192,16992,1,0,0:0:0:0:
76,192,17157,1,0,0:0:0:0:
230,192,17157,1,0,0:0:0:0:
179,192,17157,1,0,0:0:0:0:
128,192,17157,1,0,0:0:0:0:
486,192,17157,1,0,0:0:0:0:
435,192,17157,1,0,0:0:0:0:
51,192,17323,1,0,0:0:0:0:
153,192,17323,1,0,0:0:0:0:
179,192,17323,1,0,0:0:0:0:
76,192,17323,1,0,0:0:0:0:
435,192,17323,1,0,0:0:0:0:
486,192,17323,1,0,0:0:0:0:
179,192,17655,128,0,17986:0:0:0:0:
332,192,17986,128,0,18152:0:0:0:0:
230,192,17986,1,0,0:0:0:0:
25,192,17986,1,0,0:0:0:0:
486,192,17986,1,0,0:0:0:0:
435,192,17986,1,0,0:0:0:0:
76,192,18152,128,0,18318:0:0:0:0:
179,192,18152,1,0,0:0:0:0:
435,192,18318,1,0,0:0:0:0:
486,192,18318,1,0,0:0:0:0:
332,192,18318,1,0,0:0:0:0:
281,192,18483,128,0,18649:0:0:0:0:
179,192,18483,1,0,0:0:0:0:
76,192,18649,1,0,0:0:0:0:
25,192,18649,1,0,0:0:0:0:
230,192,18649,1,0,0:0:0:0:
486,192,18815,128,0,18981:0:0:0:0:
179,192,18815,1,0,0:0:0:0:
76,192,18981,1,0,0:0:0:0:
25,192,18981,1,0,0:0:0:0:
230,192,18981,1,0,0:0:0:0:
332,192,19146,128,0,19312:0:0:0:0:
435,192,19146,1,0,0:0:0:0:
179,192,19312,128,0,19478:0:0:0:0:
281,192,19312,1,0,0:0:0:0:
128,192,19312,1,0,0:0:0:0:
384,192,19312,1,0,0:0:0:0:
25,192,19478,128,0,19643:0:0:0:0:
332,192,19478,1,0,0:0:0:0:
230,192,19643,1,0,0:0:0:0:
76,192,19643,1,0,0:0:0:0:
384,192,19643,1,0,0:0:0:0:
435,192,19809,128,0,19975:0:0:0:0:
179,192,19809,1,0,0:0:0:0:
230,192,19975,1,0,0:0:0:0:
384,192,19975,1,0,0:0:0:0:
76,192,19975,1,0,0:0:0:0:
281,192,20141,128,0,20306:0:0:0:0:
179,192,20306,128,0,20472:0:0:0:0:
230,192,20306,1,0,0:0:0:0:
332,192,20306,1,0,0:0:0:0:
486,192,20306,1,0,0:0:0:0:
76,192,20472,128,0,20638:0:0:0:0:
230,192,20472,1,0,0:0:0:0:
332,192,20472,1,0,0:0:0:0:
486,192,20472,1,0,0:0:0:0:
128,192,20638,1,0,0:0:0:0:
179,192,20638,1,0,0:0:0:0:
332,192,20638,128,0,20804:0:0:0:0:
486,192,20804,128,0,20969:0:0:0:0:
281,192,20804,1,0,0:0:0:0:
230,192,20969,128,0,21135:0:0:0:0:
179,192,20969,1,0,0:0:0:0:
25,192,20969,1,0,0:0:0:0:
384,192,21135,128,0,21301:0:0:0:0:
281,192,21135,1,0,0:0:0:0:
128,192,21301,128,0,21467:0:0:0:0:
179,192,21301,1,0,0:0:0:0:
281,192,21467,128,0,21632:0:0:0:0:
435,192,21467,1,0,0:0:0:0:
25,192,21632,128,0,21798:0:0:0:0:
230,192,21632,1,0,0:0:0:0:
179,192,21632,1,0,0:0:0:0:
179,192,21798,128,0,21964:0:0:0:0:
332,192,21798,1,0,0:0:0:0:
128,192,21964,1,0,0:0:0:0:
76,192,21964,1,0,0:0:0:0:
384,192,21964,1,0,0:0:0:0:
435,192,21964,1,0,0:0:0:0:
332,192,22130,1,0,0:0:0:0:
281,192,22130,1,0,0:0:0:0:
179,192,22130,1,0,0:0:0:0:
76,192,22295,1,0,0:0:0:0:
128,192,22295,1,0,0:0:0:0:
435,192,22295,1,0,0:0:0:0:
384,192,22295,1,0,0:0:0:0:
25,192,22295,1,0,0:0:0:0:
179,192,22627,1,0,0:0:0:0:
486,192,22627,1,0,0:0:0:0:
435,192,22627,1,0,0:0:0:0:
128,192,22627,1,0,0:0:0:0:
384,192,22793,1,0,0:0:0:0:
332,192,22793,1,0,0:0:0:0:
230,192,22793,1,0,0:0:0:0:
435,192,22958,1,0,0:0:0:0:
486,192,22958,1,0,0:0:0:0:
76,192,22958,1,0,0:0:0:0:
128,192,22958,1,0,0:0:0:0:
179,192,22958,1,0,0:0:0:0:
281,192,23124,1,0,0:0:0:0:
128,192,23290,1,0,0:0:0:0:
76,192,23290,1,0,0:0:0:0:
25,192,23290,1,0,0:0:0:0:
435,192,23290,128,0,23456:0:0:0:0:
384,192,23290,1,0,0:0:0:0:
332,192,23456,128,0,23621:0:0:0:0:
230,192,23621,1,0,0:0:0:0:
76,192,23621,1,0,0:0:0:0:
25,192,23621,1,0,0:0:0:0:
281,192,23787,1,0,0:0:0:0:
384,192,23787,128,0,23953:0:0:0:0:
128,192,23953,1,0,0:0:0:0:
76,192,23953,1,0,0:0:0:0:
25,192,23953,1,0,0:0:0:0:
486,192,24119,128,0,24284:0:0:0:0:
384,192,24119,1,0,0:0:0:0:
25,192,24284,1,0,0:0:0:0:
76,192,24284,1,0,0:0:0:0:
230,192,24284,1,0,0:0:0:0:
332,192,24284,128,0,24450:0:0:0:0:
435,192,24450,128,0,24616:0:0:0:0:
179,192,24616,1,0,0:0:0:0:
128,192,24616,1,0,0:0:0:0:
76,192,24616,1,0,0:0:0:0:
384,192,24616,128,0,24782:0:0:0:0:
281,192,24782,128,0,24947:0:0:0:0:
230,192,24947,1,0,0:0:0:0:
179,192,24947,1,0,0:0:0:0:
25,192,24947,1,0,0:0:0:0:
332,192,24947,1,0,0:0:0:0:
486,192,25113,128,0,25279:0:0:0:0:
384,192,25113,1,0,0:0:0:0:
179,192,25279,1,0,0:0:0:0:
128,192,25279,1,0,0:0:0:0:
76,192,25279,1,0,0:0:0:0:
384,192,25445,128,0,25610:0:0:0:0:
281,192,25445,1,0,0:0:0:0:
179,192,25610,1,0,0:0:0:0:
25,192,25610,1,0,0:0:0:0:
230,192,25610,128,0,25776:0:0:0:0:
281,192,25776,1,0,0:0:0:0:
435,192,25776,1,0,0:0:0:0:
332,192,25776,128,0,25942:0:0:0:0:
384,192,25942,128,0,26108:0:0:0:0:
128,192,25942,1,0,0:0:0:0:
76,192,25942,1,0,0:0:0:0:
486,192,26108,128,0,26273:0:0:0:0:
230,192,26108,1,0,0:0:0:0:
179,192,26273,1,0,0:0:0:0:
25,192,26273,1,0,0:0:0:0:
76,192,26273,1,0,0:0:0:0:
332,192,26439,128,0,26605:0:0:0:0:
230,192,26439,1,0,0:0:0:0:
435,192,26439,1,0,0:0:0:0:
128,192,26605,1,0,0:0:0:0:
179,192,26771,128,0,26936:0:0:0:0:
384,192,26771,1,0,0:0:0:0:
486,192,26771,1,0,0:0:0:0:
128,192,26936,128,0,27102:0:0:0:0:
332,192,26936,1,0,0:0:0:0:
281,192,26936,1,0,0:0:0:0:
76,192,27102,128,0,27268:0:0:0:0:
435,192,27102,1,0,0:0:0:0:
486,192,27102,1,0,0:0:0:0:
332,192,27185,1,0,0:0:0:0:
281,192,27185,1,0,0:0:0:0:
25,192,27268,1,0,0:0:0:0:
179,192,27268,1,0,0:0:0:0:
230,192,27268,1,0,0:0:0:0:
384,192,27268,128,0,27434:0:0:0:0:
435,192,27434,128,0,27599:0:0:0:0:
128,192,27434,1,0,0:0:0:0:
76,192,27434,1,0,0:0:0:0:
486,192,27599,128,0,27765:0:0:0:0:
179,192,27599,1,0,0:0:0:0:
230,192,27599,1,0,0:0:0:0:
281,192,27765,128,0,27931:0:0:0:0:
76,192,27765,1,0,0:0:0:0:
25,192,27765,1,0,0:0:0:0:
128,192,28097,1,0,0:0:0:0:
76,192,28097,1,0,0:0:0:0:
25,192,28097,1,0,0:0:0:0:
384,192,28097,1,0,0:0:0:0:
332,192,28097,1,0,0:0:0:0:
230,192,28428,1,0,0:0:0:0:
179,192,28428,1,0,0:0:0:0:
25,192,28594,1,0,0:0:0:0:
281,192,28594,1,0,0:0:0:0:
128,192,28594,1,0,0:0:0:0:
384,192,28594,128,0,28760:0:0:0:0:
179,192,28760,1,0,0:0:0:0:
25,192,28925,1,0,0:0:0:0:
281,192,28925,1,0,0:0:0:0:
76,192,28925,1,0,0:0:0:0:
384,192,28925,128,0,29091:0:0:0:0:
230,192,29091,1,0,0:0:0:0:
128,192,29257,1,0,0:0:0:0:
384,192,29257,128,0,29422:0:0:0:0:
281,192,29257,1,0,0:0:0:0:
25,192,29257,1,0,0:0:0:0:
230,192,29422,1,0,0:0:0:0:
486,192,29422,128,0,29588:0:0:0:0:
435,192,29588,1,0,0:0:0:0:
76,192,29588,1,0,0:0:0:0:
332,192,29588,128,0,29754:0:0:0:0:
25,192,29588,1,0,0:0:0:0:
281,192,29754,128,0,29920:0:0:0:0:
179,192,29754,1,0,0:0:0:0:
128,192,29920,128,0,30085:0:0:0:0:
76,192,29920,1,0,0:0:0:0:
384,192,29920,1,0,0:0:0:0:
486,192,29920,1,0,0:0:0:0:
281,192,30085,1,0,0:0:0:0:
230,192,30085,128,0,30251:0:0:0:0:
435,192,30251,1,0,0:0:0:0:
76,192,30251,128,0,30417:0:0:0:0:
486,192,30251,1,0,0:0:0:0:
128,192,30251,1,0,0:0:0:0:
179,192,30417,128,0,30583:0:0:0:0:
332,192,30417,1,0,0:0:0:0:
25,192,30583,128,0,30748:0:0:0:0:
435,192,30583,1,0,0:0:0:0:
281,192,30583,1,0,0:0:0:0:
128,192,30583,1,0,0:0:0:0:
332,192,30748,1,0,0:0:0:0:
179,192,30748,1,0,0:0:0:0:
435,192,30914,1,0,0:0:0:0:
281,192,30914,128,0,31246:0:0:0:0:
230,192,30914,1,0,0:0:0:0:
76,192,30914,1,0,0:0:0:0:
332,192,31080,1,0,0:0:0:0:
179,192,31080,1,0,0:0:0:0:
128,192,31080,1,0,0:0:0:0:
332,192,31246,1,0,0:0:0:0:
384,192,31246,128,0,31411:0:0:0:0:
230,192,31246,1,0,0:0:0:0:
25,192,31246,1,0,0:0:0:0:
486,192,31411,1,0,0:0:0:0:
179,192,31411,1,0,0:0:0:0:
281,192,31577,1,0,0:0:0:0:
384,192,31577,128,0,31743:0:0:0:0:
128,192,31577,1,0,0:0:0:0:
76,192,31577,1,0,0:0:0:0:
435,192,31743,1,0,0:0:0:0:
179,192,31743,1,0,0:0:0:0:
128,192,31909,1,0,0:0:0:0:
384,192,31909,128,0,32074:0:0:0:0:
332,192,31909,1,0,0:0:0:0:
25,192,31909,1,0,0:0:0:0:
486,192,32074,128,0,32240:0:0:0:0:
230,192,32074,1,0,0:0:0:0:
332,192,32240,128,0,32406:0:0:0:0:
281,192,32240,1,0,0:0:0:0:
435,192,32406,128,0,32572:0:0:0:0:
128,192,32406,1,0,0:0:0:0:
76,192,32406,1,0,0:0:0:0:
230,192,32489,1,0,0:0:0:0:
179,192,32489,1,0,0:0:0:0:
332,192,32572,1,0,0:0:0:0:
281,192,32572,128,0,32737:0:0:0:0:
25,192,32737,128,0,32903:0:0:0:0:
76,192,32737,1,0,0:0:0:0:
179,192,32903,128,0,33069:0:0:0:0:
332,192,32903,1,0,0:0:0:0:
384,192,32903,1,0,0:0:0:0:
281,192,32903,128,0,33069:0:0:0:0:
76,192,33069,128,0,33235:0:0:0:0:
435,192,33235,1,0,0:0:0:0:
179,192,33235,128,0,33400:0:0:0:0:
486,192,33235,128,0,33400:0:0:0:0:
230,192,33400,1,0,0:0:0:0:
128,192,33400,1,0,0:0:0:0:
384,192,33400,1,0,0:0:0:0:
332,192,33566,1,0,0:0:0:0:
435,192,33566,1,0,0:0:0:0:
179,192,33566,1,0,0:0:0:0:
486,192,33566,128,0,33732:0:0:0:0:
230,192,33566,128,0,33898:0:0:0:0:
281,192,33898,1,0,0:0:0:0:
384,192,33898,1,0,0:0:0:0:
128,192,33898,128,0,34063:0:0:0:0:
25,192,33898,1,0,0:0:0:0:
179,192,34063,1,0,0:0:0:0:
281,192,34229,1,0,0:0:0:0:
332,192,34229,1,0,0:0:0:0:
128,192,34229,128,0,34395:0:0:0:0:
25,192,34229,1,0,0:0:0:0:
486,192,34229,1,0,0:0:0:0:
230,192,34395,1,0,0:0:0:0:
384,192,34561,1,0,0:0:0:0:
76,192,34561,128,0,34726:0:0:0:0:
281,192,34561,1,0,0:0:0:0:
486,192,34726,1,0,0:0:0:0:
179,192,34726,128,0,34892:0:0:0:0:
332,192,34892,1,0,0:0:0:0:
76,192,34892,128,0,35058:0:0:0:0:
281,192,34892,1,0,0:0:0:0:
179,192,35058,128,0,35224:0:0:0:0:
435,192,35058,1,0,0:0:0:0:
384,192,35224,128,0,35389:0:0:0:0:
281,192,35224,1,0,0:0:0:0:
25,192,35224,1,0,0:0:0:0:
230,192,35224,1,0,0:0:0:0:
179,192,35389,1,0,0:0:0:0:
486,192,35389,128,0,35555:0:0:0:0:
76,192,35555,1,0,0:0:0:0:
128,192,35555,1,0,0:0:0:0:
281,192,35555,1,0,0:0:0:0:
332,192,35555,128,0,35721:0:0:0:0:
435,192,35721,128,0,35887:0:0:0:0:
230,192,35721,1,0,0:0:0:0:
128,192,35887,1,0,0:0:0:0:
25,192,35887,1,0,0:0:0:0:
332,192,35887,128,0,36052:0:0:0:0:
230,192,36052,1,0,0:0:0:0:
486,192,36218,128,0,36550:0:0:0:0:
179,192,36218,1,0,0:0:0:0:
76,192,36218,1,0,0:0:0:0:
384,192,36218,1,0,0:0:0:0:
76,192,36384,1,0,0:0:0:0:
179,192,36384,1,0,0:0:0:0:
281,192,36384,1,0,0:0:0:0:
384,192,36384,1,0,0:0:0:0:
128,192,36550,128,0,36715:0:0:0:0:
332,192,36550,1,0,0:0:0:0:
230,192,36550,1,0,0:0:0:0:
281,192,36550,1,0,0:0:0:0:
435,192,36715,1,0,0:0:0:0:
179,192,36715,1,0,0:0:0:0:
25,192,36881,1,0,0:0:0:0:
128,192,36881,128,0,37047:0:0:0:0:
384,192,36881,1,0,0:0:0:0:
76,192,36881,1,0,0:0:0:0:
281,192,36881,1,0,0:0:0:0:
230,192,37047,1,0,0:0:0:0:
486,192,37047,1,0,0:0:0:0:
384,192,37213,1,0,0:0:0:0:
128,192,37213,128,0,37378:0:0:0:0:
76,192,37213,1,0,0:0:0:0:
332,192,37213,1,0,0:0:0:0:
281,192,37213,1,0,0:0:0:0:
230,192,37378,128,0,37544:0:0:0:0:
435,192,37378,1,0,0:0:0:0:
76,192,37544,128,0,37710:0:0:0:0:
25,192,37544,1,0,0:0:0:0:
179,192,37710,128,0,37876:0:0:0:0:
384,192,37710,1,0,0:0:0:0:
332,192,37710,1,0,0:0:0:0:
486,192,37793,1,0,0:0:0:0:
435,192,37793,1,0,0:0:0:0:
281,192,37876,1,0,0:0:0:0:
230,192,37876,1,0,0:0:0:0:
128,192,38041,1,0,0:0:0:0:
76,192,38041,1,0,0:0:0:0:
384,192,38207,1,0,0:0:0:0:
435,192,38207,1,0,0:0:0:0:
128,192,38373,128,0,38539:0:0:0:0:
281,192,38373,1,0,0:0:0:0:
230,192,38373,1,0,0:0:0:0:
486,192,38373,1,0,0:0:0:0:
179,192,38539,1,0,0:0:0:0:
25,192,38539,1,0,0:0:0:0:
384,192,38539,1,0,0:0:0:0:
128,192,38704,128,0,38870:0:0:0:0:
230,192,38704,1,0,0:0:0:0:
332,192,38704,1,0,0:0:0:0:
486,192,38704,1,0,0:0:0:0:
179,192,38870,1,0,0:0:0:0:
25,192,38870,1,0,0:0:0:0:
384,192,38870,1,0,0:0:0:0:
281,192,39036,1,0,0:0:0:0:
230,192,39036,1,0,0:0:0:0:
435,192,39202,1,0,0:0:0:0:
332,192,39367,5,0,0:0:0:0:
25,192,39367,1,0,0:0:0:0:
128,192,39367,1,0,0:0:0:0:
486,192,39367,1,0,0:0:0:0:
179,192,39533,1,0,0:0:0:0:
230,192,39533,1,0,0:0:0:0:
486,192,39533,1,0,0:0:0:0:
384,192,39533,1,0,0:0:0:0:
486,192,39699,1,0,0:0:0:0:
435,192,39699,1,0,0:0:0:0:
76,192,39699,1,0,0:0:0:0:
25,192,39699,1,0,0:0:0:0:
486,192,39864,1,0,0:0:0:0:
281,192,39864,1,0,0:0:0:0:
179,192,39864,1,0,0:0:0:0:
128,192,39864,1,0,0:0:0:0:
281,192,40196,1,0,0:0:0:0:
25,192,40196,1,0,0:0:0:0:
76,192,40196,1,0,0:0:0:0:
384,192,40196,1,0,0:0:0:0:
230,192,40196,1,0,0:0:0:0:
51,192,40527,1,0,0:0:0:0:
128,192,40527,1,0,0:0:0:0:
435,192,40527,1,0,0:0:0:0:
332,192,40693,1,0,0:0:0:0:
179,192,40693,1,0,0:0:0:0:
51,192,40859,1,0,0:0:0:0:
76,192,40859,1,0,0:0:0:0:
281,192,40859,1,0,0:0:0:0:
486,192,40859,1,0,0:0:0:0:
230,192,41025,1,0,0:0:0:0:
332,192,41025,1,0,0:0:0:0:
25,192,41190,1,0,0:0:0:0:
128,192,41190,1,0,0:0:0:0:
435,192,41190,1,0,0:0:0:0:
179,192,41356,1,0,0:0:0:0:
281,192,41356,1,0,0:0:0:0:
25,192,41522,1,0,0:0:0:0:
486,192,41522,1,0,0:0:0:0:
76,192,41522,1,0,0:0:0:0:
384,192,41522,1,0,0:0:0:0:
230,192,41688,1,0,0:0:0:0:
332,192,41688,1,0,0:0:0:0:
76,192,41853,1,0,0:0:0:0:
179,192,41853,1,0,0:0:0:0:
332,192,42019,1,0,0:0:0:0:
435,192,42019,1,0,0:0:0:0:
179,192,42019,1,0,0:0:0:0:
51,192,42185,1,0,0:0:0:0:
128,192,42185,1,0,0:0:0:0:
230,192,42185,1,0,0:0:0:0:
486,192,42351,1,0,0:0:0:0:
384,192,42351,1,0,0:0:0:0:
179,192,42516,1,0,0:0:0:0:
76,192,42516,1,0,0:0:0:0:
281,192,42516,1,0,0:0:0:0:
332,192,42682,1,0,0:0:0:0:
435,192,42682,1,0,0:0:0:0:
230,192,42682,1,0,0:0:0:0:
25,192,42848,1,0,0:0:0:0:
128,192,42848,1,0,0:0:0:0:
332,192,42848,1,0,0:0:0:0:
281,192,43014,1,0,0:0:0:0:
384,192,43014,1,0,0:0:0:0:
25,192,43014,1,0,0:0:0:0:
179,192,43014,1,0,0:0:0:0:
230,192,43179,1,0,0:0:0:0:
76,192,43179,1,0,0:0:0:0:
486,192,43179,1,0,0:0:0:0:
179,192,43345,1,0,0:0:0:0:
332,192,43345,1,0,0:0:0:0:
76,192,43511,1,0,0:0:0:0:
25,192,43511,1,0,0:0:0:0:
435,192,43511,1,0,0:0:0:0:
281,192,43511,1,0,0:0:0:0:
179,192,43677,1,0,0:0:0:0:
332,192,43677,1,0,0:0:0:0:
128,192,43842,1,0,0:0:0:0:
25,192,43842,1,0,0:0:0:0:
384,192,43842,1,0,0:0:0:0:
486,192,43842,1,0,0:0:0:0:
230,192,44008,1,0,0:0:0:0:
179,192,44174,1,0,0:0:0:0:
76,192,44174,1,0,0:0:0:0:
435,192,44174,1,0,0:0:0:0:
281,192,44174,1,0,0:0:0:0:
384,192,44340,1,0,0:0:0:0:
281,192,44340,1,0,0:0:0:0:
179,192,44422,1,0,0:0:0:0:
76,192,44422,1,0,0:0:0:0:
332,192,44505,1,0,0:0:0:0:
435,192,44505,1,0,0:0:0:0:
230,192,44671,1,0,0:0:0:0:
25,192,44671,1,0,0:0:0:0:
128,192,44671,1,0,0:0:0:0:
332,192,44837,1,0,0:0:0:0:
128,192,45003,1,0,0:0:0:0:
76,192,45003,1,0,0:0:0:0:
384,192,45003,1,0,0:0:0:0:
486,192,45003,1,0,0:0:0:0:
281,192,45168,1,0,0:0:0:0:
179,192,45334,1,0,0:0:0:0:
128,192,45334,1,0,0:0:0:0:
486,192,45334,1,0,0:0:0:0:
384,192,45334,1,0,0:0:0:0:
230,192,45500,1,0,0:0:0:0:
179,192,45500,1,0,0:0:0:0:
384,192,45500,1,0,0:0:0:0:
486,192,45500,1,0,0:0:0:0:
128,192,45666,1,0,0:0:0:0:
76,192,45666,1,0,0:0:0:0:
281,192,45666,1,0,0:0:0:0:
435,192,45666,1,0,0:0:0:0:
25,192,45831,1,0,0:0:0:0:
230,192,45831,1,0,0:0:0:0:
76,192,45831,1,0,0:0:0:0:
332,192,45831,1,0,0:0:0:0:
128,192,46163,1,0,0:0:0:0:
25,192,46163,1,0,0:0:0:0:
332,192,46163,1,0,0:0:0:0:
435,192,46163,1,0,0:0:0:0:
230,192,46329,1,0,0:0:0:0:
76,192,46494,1,0,0:0:0:0:
25,192,46494,1,0,0:0:0:0:
384,192,46494,1,0,0:0:0:0:
281,192,46494,1,0,0:0:0:0:
179,192,46660,1,0,0:0:0:0:
128,192,46826,1,0,0:0:0:0:
25,192,46826,1,0,0:0:0:0:
435,192,46826,1,0,0:0:0:0:
332,192,46826,1,0,0:0:0:0:
230,192,46992,1,0,0:0:0:0:
179,192,47157,1,0,0:0:0:0:
76,192,47157,1,0,0:0:0:0:
384,192,47157,1,0,0:0:0:0:
486,192,47157,1,0,0:0:0:0:
281,192,47323,1,0,0:0:0:0:
25,192,47489,1,0,0:0:0:0:
128,192,47489,1,0,0:0:0:0:
435,192,47489,1,0,0:0:0:0:
179,192,47655,1,0,0:0:0:0:
281,192,47655,1,0,0:0:0:0:
230,192,47820,1,0,0:0:0:0:
25,192,47820,1,0,0:0:0:0:
486,192,47820,1,0,0:0:0:0:
332,192,47986,1,0,0:0:0:0:
179,192,48152,1,0,0:0:0:0:
25,192,48152,1,0,0:0:0:0:
384,192,48152,1,0,0:0:0:0:
179,192,48318,1,0,0:0:0:0:
76,192,48318,1,0,0:0:0:0:
435,192,48318,1,0,0:0:0:0:
486,192,48483,1,0,0:0:0:0:
281,192,48483,1,0,0:0:0:0:
230,192,48483,1,0,0:0:0:0:
332,192,48649,1,0,0:0:0:0:
128,192,48815,1,0,0:0:0:0:
76,192,48815,1,0,0:0:0:0:
435,192,48815,1,0,0:0:0:0:
179,192,48898,1,0,0:0:0:0:
230,192,48981,1,0,0:0:0:0:
332,192,48981,1,0,0:0:0:0:
128,192,49146,1,0,0:0:0:0:
25,192,49146,1,0,0:0:0:0:
384,192,49146,1,0,0:0:0:0:
486,192,49146,1,0,0:0:0:0:
179,192,49229,1,0,0:0:0:0:
230,192,49312,1,0,0:0:0:0:
230,192,49478,1,0,0:0:0:0:
128,192,49478,1,0,0:0:0:0:
332,192,49478,1,0,0:0:0:0:
435,192,49478,1,0,0:0:0:0:
76,192,49478,1,0,0:0:0:0:
230,192,49643,1,0,0:0:0:0:
435,192,49643,1,0,0:0:0:0:
281,192,49643,1,0,0:0:0:0:
486,192,49809,1,0,0:0:0:0:
384,192,49975,5,0,0:0:0:0:
25,192,49975,1,0,0:0:0:0:
76,192,49975,1,0,0:0:0:0:
435,192,50141,1,0,0:0:0:0:
128,192,50141,1,0,0:0:0:0:
230,192,50141,1,0,0:0:0:0:
332,192,50306,1,0,0:0:0:0:
179,192,50306,1,0,0:0:0:0:
230,192,50306,1,0,0:0:0:0:
435,192,50472,1,0,0:0:0:0:
486,192,50472,1,0,0:0:0:0:
179,192,50555,1,0,0:0:0:0:
76,192,50555,1,0,0:0:0:0:
25,192,50555,1,0,0:0:0:0:
435,192,50638,1,0,0:0:0:0:
486,192,50638,1,0,0:0:0:0:
332,192,50804,1,0,0:0:0:0:
384,192,50804,1,0,0:0:0:0:
230,192,50804,1,0,0:0:0:0:
128,192,50804,1,0,0:0:0:0:
332,192,50969,1,0,0:0:0:0:
179,192,50969,1,0,0:0:0:0:
128,192,50969,1,0,0:0:0:0:
384,192,51135,1,0,0:0:0:0:
281,192,51135,1,0,0:0:0:0:
25,192,51135,1,0,0:0:0:0:
76,192,51135,1,0,0:0:0:0:
486,192,51301,1,0,0:0:0:0:
179,192,51301,1,0,0:0:0:0:
384,192,51467,1,0,0:0:0:0:
281,192,51467,1,0,0:0:0:0:
25,192,51467,1,0,0:0:0:0:
128,192,51467,1,0,0:0:0:0:
486,192,51632,1,0,0:0:0:0:
230,192,51632,1,0,0:0:0:0:
281,192,51798,1,0,0:0:0:0:
384,192,51798,1,0,0:0:0:0:
76,192,51798,1,0,0:0:0:0:
128,192,51798,1,0,0:0:0:0:
486,192,51964,1,0,0:0:0:0:
179,192,51964,1,0,0:0:0:0:
384,192,52130,1,0,0:0:0:0:
281,192,52130,1,0,0:0:0:0:
128,192,52130,1,0,0:0:0:0:
25,192,52130,1,0,0:0:0:0:
486,192,52295,1,0,0:0:0:0:
230,192,52295,1,0,0:0:0:0:
332,192,52461,1,0,0:0:0:0:
435,192,52461,1,0,0:0:0:0:
179,192,52461,1,0,0:0:0:0:
25,192,52461,1,0,0:0:0:0:
128,192,52461,1,0,0:0:0:0:
486,192,52627,1,0,0:0:0:0:
230,192,52627,1,0,0:0:0:0:
332,192,52793,1,0,0:0:0:0:
435,192,52793,1,0,0:0:0:0:
179,192,52793,1,0,0:0:0:0:
25,192,52793,1,0,0:0:0:0:
76,192,52793,1,0,0:0:0:0:
486,192,52958,1,0,0:0:0:0:
230,192,52958,1,0,0:0:0:0:
332,192,53124,1,0,0:0:0:0:
435,192,53124,1,0,0:0:0:0:
128,192,53124,1,0,0:0:0:0:
76,192,53124,1,0,0:0:0:0:
25,192,53124,1,0,0:0:0:0:
486,192,53290,1,0,0:0:0:0:
332,192,53290,1,0,0:0:0:0:
179,192,53290,1,0,0:0:0:0:
76,192,53290,1,0,0:0:0:0:
25,192,53290,1,0,0:0:0:0:
486,192,53456,1,0,0:0:0:0:
435,192,53456,1,0,0:0:0:0:
281,192,53456,1,0,0:0:0:0:
25,192,53456,1,0,0:0:0:0:
76,192,53456,1,0,0:0:0:0:
128,192,53456,1,0,0:0:0:0:
384,192,53621,1,0,0:0:0:0:
435,192,53787,1,0,0:0:0:0:
281,192,53787,1,0,0:0:0:0:
230,192,53787,1,0,0:0:0:0:
128,192,53787,1,0,0:0:0:0:
486,192,53953,1,0,0:0:0:0:
76,192,53953,1,0,0:0:0:0:
435,192,54119,1,0,0:0:0:0:
281,192,54119,1,0,0:0:0:0:
179,192,54119,1,0,0:0:0:0:
230,192,54119,1,0,0:0:0:0:
486,192,54284,1,0,0:0:0:0:
25,192,54284,1,0,0:0:0:0:
281,192,54450,1,0,0:0:0:0:
435,192,54450,1,0,0:0:0:0:
179,192,54450,1,0,0:0:0:0:
128,192,54450,1,0,0:0:0:0:
486,192,54616,1,0,0:0:0:0:
25,192,54616,1,0,0:0:0:0:
435,192,54782,1,0,0:0:0:0:
281,192,54782,1,0,0:0:0:0:
230,192,54782,1,0,0:0:0:0:
76,192,54782,1,0,0:0:0:0:
486,192,54947,1,0,0:0:0:0:
25,192,54947,1,0,0:0:0:0:
179,192,55030,1,0,0:0:0:0:
128,192,55030,1,0,0:0:0:0:
384,192,55113,1,0,0:0:0:0:
435,192,55113,1,0,0:0:0:0:
76,192,55113,1,0,0:0:0:0:
230,192,55113,1,0,0:0:0:0:
486,192,55279,1,0,0:0:0:0:
332,192,55279,1,0,0:0:0:0:
384,192,55279,1,0,0:0:0:0:
230,192,55279,1,0,0:0:0:0:
179,192,55279,1,0,0:0:0:0:
76,192,55279,1,0,0:0:0:0:
486,192,55610,1,0,0:0:0:0:
281,192,55610,1,0,0:0:0:0:
332,192,55610,1,0,0:0:0:0:
179,192,55610,1,0,0:0:0:0:
128,192,55610,1,0,0:0:0:0:
25,192,55610,1,0,0:0:0:0:
230,192,55776,1,0,0:0:0:0:
486,192,55942,1,0,0:0:0:0:
384,192,55942,1,0,0:0:0:0:
281,192,55942,1,0,0:0:0:0:
179,192,55942,1,0,0:0:0:0:
76,192,55942,1,0,0:0:0:0:
486,192,56108,1,0,0:0:0:0:
332,192,56108,1,0,0:0:0:0:
281,192,56108,1,0,0:0:0:0:
128,192,56108,1,0,0:0:0:0:
25,192,56108,1,0,0:0:0:0:
230,192,56108,1,0,0:0:0:0:
435,192,56439,1,0,0:0:0:0:
384,192,56439,1,0,0:0:0:0:
76,192,56439,1,0,0:0:0:0:
128,192,56439,1,0,0:0:0:0:
486,192,56605,1,0,0:0:0:0:
179,192,56605,1,0,0:0:0:0:
281,192,56771,1,0,0:0:0:0:
435,192,56771,1,0,0:0:0:0:
230,192,56771,1,0,0:0:0:0:
486,192,56936,1,0,0:0:0:0:
76,192,56936,1,0,0:0:0:0:
25,192,56936,1,0,0:0:0:0:
384,192,57102,1,0,0:0:0:0:
435,192,57102,1,0,0:0:0:0:
179,192,57102,1,0,0:0:0:0:
486,192,57268,1,0,0:0:0:0:
25,192,57268,1,0,0:0:0:0:
435,192,57434,1,0,0:0:0:0:
281,192,57434,1,0,0:0:0:0:
230,192,57434,1,0,0:0:0:0:
128,192,57434,1,0,0:0:0:0:
486,192,57599,1,0,0:0:0:0:
76,192,57599,1,0,0:0:0:0:
384,192,57765,1,0,0:0:0:0:
332,192,57765,1,0,0:0:0:0:
179,192,57765,1,0,0:0:0:0:
128,192,57765,1,0,0:0:0:0:
486,192,57931,1,0,0:0:0:0:
230,192,57931,1,0,0:0:0:0:
25,192,57931,1,0,0:0:0:0:
281,192,58097,1,0,0:0:0:0:
332,192,58097,1,0,0:0:0:0:
179,192,58097,1,0,0:0:0:0:
128,192,58097,1,0,0:0:0:0:
486,192,58262,1,0,0:0:0:0:
25,192,58262,1,0,0:0:0:0:
384,192,58428,1,0,0:0:0:0:
332,192,58428,1,0,0:0:0:0:
179,192,58428,1,0,0:0:0:0:
128,192,58428,1,0,0:0:0:0:
76,192,58428,1,0,0:0:0:0:
486,192,58594,1,0,0:0:0:0:
384,192,58594,1,0,0:0:0:0:
486,192,58760,1,0,0:0:0:0:
281,192,58760,1,0,0:0:0:0:
128,192,58760,1,0,0:0:0:0:
76,192,58760,1,0,0:0:0:0:
384,192,58925,1,0,0:0:0:0:
230,192,58925,1,0,0:0:0:0:
179,192,58925,1,0,0:0:0:0:
332,192,59091,1,0,0:0:0:0:
281,192,59091,1,0,0:0:0:0:
76,192,59091,1,0,0:0:0:0:
25,192,59091,1,0,0:0:0:0:
486,192,59257,1,0,0:0:0:0:
179,192,59257,1,0,0:0:0:0:
384,192,59422,1,0,0:0:0:0:
281,192,59422,1,0,0:0:0:0:
128,192,59422,1,0,0:0:0:0:
25,192,59422,1,0,0:0:0:0:
486,192,59588,1,0,0:0:0:0:
230,192,59588,1,0,0:0:0:0:
486,192,59754,1,0,0:0:0:0:
281,192,59754,1,0,0:0:0:0:
332,192,59754,1,0,0:0:0:0:
179,192,59837,1,0,0:0:0:0:
76,192,59837,1,0,0:0:0:0:
486,192,59920,1,0,0:0:0:0:
332,192,59920,1,0,0:0:0:0:
153,192,60003,1,0,0:0:0:0:
230,192,60003,1,0,0:0:0:0:
486,192,60085,1,0,0:0:0:0:
384,192,60085,1,0,0:0:0:0:
179,192,60168,1,0,0:0:0:0:
76,192,60168,1,0,0:0:0:0:
486,192,60251,1,0,0:0:0:0:
435,192,60251,1,0,0:0:0:0:
25,192,60334,1,0,0:0:0:0:
128,192,60334,1,0,0:0:0:0:
230,192,60334,1,0,0:0:0:0:
332,192,60334,1,0,0:0:0:0:
76,192,60583,128,0,60748:0:0:0:0:
179,192,60748,128,0,60914:0:0:0:0:
281,192,60748,1,0,0:0:0:0:
230,192,60748,1,0,0:0:0:0:
332,192,60748,128,0,61080:0:0:0:0:
76,192,60914,128,0,61080:0:0:0:0:
281,192,61080,1,0,0:0:0:0:
230,192,61080,1,0,0:0:0:0:
435,192,61080,128,0,61411:0:0:0:0:
179,192,61080,128,0,61411:0:0:0:0:
281,192,61411,1,0,0:0:0:0:
332,192,61411,128,0,61743:0:0:0:0:
230,192,61411,128,0,61577:0:0:0:0:
128,192,61577,128,0,61743:0:0:0:0:
25,192,61743,1,0,0:0:0:0:
76,192,61743,1,0,0:0:0:0:
486,192,61743,1,0,0:0:0:0:
384,192,61826,1,0,0:0:0:0:
230,192,61909,1,0,0:0:0:0:
281,192,61909,1,0,0:0:0:0:
179,192,62074,1,0,0:0:0:0:
76,192,62074,1,0,0:0:0:0:
332,192,62074,1,0,0:0:0:0:
486,192,62074,1,0,0:0:0:0:
435,192,62157,1,0,0:0:0:0:
128,192,62240,1,0,0:0:0:0:
281,192,62240,1,0,0:0:0:0:
25,192,62406,1,0,0:0:0:0:
179,192,62406,1,0,0:0:0:0:
384,192,62406,1,0,0:0:0:0:
486,192,62406,1,0,0:0:0:0:
281,192,62489,1,0,0:0:0:0:
230,192,62572,1,0,0:0:0:0:
332,192,62655,1,0,0:0:0:0:
128,192,62737,1,0,0:0:0:0:
25,192,62737,1,0,0:0:0:0:
435,192,62737,1,0,0:0:0:0:
281,192,62737,1,0,0:0:0:0:
179,192,62903,1,0,0:0:0:0:
486,192,62903,128,0,63235:0:0:0:0:
384,192,62903,1,0,0:0:0:0:
128,192,63069,1,0,0:0:0:0:
25,192,63069,1,0,0:0:0:0:
332,192,63069,1,0,0:0:0:0:
281,192,63069,1,0,0:0:0:0:
76,192,63235,1,0,0:0:0:0:
230,192,63235,1,0,0:0:0:0:
179,192,63400,1,0,0:0:0:0:
128,192,63400,1,0,0:0:0:0:
384,192,63400,1,0,0:0:0:0:
281,192,63400,1,0,0:0:0:0:
76,192,63566,1,0,0:0:0:0:
332,192,63566,1,0,0:0:0:0:
230,192,63732,1,0,0:0:0:0:
179,192,63732,1,0,0:0:0:0:
435,192,63732,1,0,0:0:0:0:
332,192,63732,128,0,64063:0:0:0:0:
25,192,63898,1,0,0:0:0:0:
230,192,64063,1,0,0:0:0:0:
128,192,64063,1,0,0:0:0:0:
486,192,64063,1,0,0:0:0:0:
384,192,64063,128,0,64395:0:0:0:0:
281,192,64063,1,0,0:0:0:0:
179,192,64229,1,0,0:0:0:0:
76,192,64229,1,0,0:0:0:0:
281,192,64229,1,0,0:0:0:0:
76,192,64395,1,0,0:0:0:0:
25,192,64395,1,0,0:0:0:0:
332,192,64395,1,0,0:0:0:0:
435,192,64395,1,0,0:0:0:0:
179,192,64478,1,0,0:0:0:0:
486,192,64561,1,0,0:0:0:0:
128,192,64561,1,0,0:0:0:0:
230,192,64643,1,0,0:0:0:0:
281,192,64726,1,0,0:0:0:0:
332,192,64726,1,0,0:0:0:0:
25,192,64726,1,0,0:0:0:0:
179,192,64809,1,0,0:0:0:0:
384,192,64892,1,0,0:0:0:0:
76,192,64892,1,0,0:0:0:0:
179,192,64975,1,0,0:0:0:0:
281,192,65058,1,0,0:0:0:0:
435,192,65058,1,0,0:0:0:0:
230,192,65058,1,0,0:0:0:0:
25,192,65141,1,0,0:0:0:0:
332,192,65224,1,0,0:0:0:0:
128,192,65224,1,0,0:0:0:0:
179,192,65306,1,0,0:0:0:0:
281,192,65389,1,0,0:0:0:0:
486,192,65389,1,0,0:0:0:0:
76,192,65389,1,0,0:0:0:0:
25,192,65389,1,0,0:0:0:0:
128,192,65472,1,0,0:0:0:0:
384,192,65555,1,0,0:0:0:0:
230,192,65555,1,0,0:0:0:0:
179,192,65555,1,0,0:0:0:0:
281,192,65721,1,0,0:0:0:0:
384,192,65887,1,0,0:0:0:0:
230,192,65887,1,0,0:0:0:0:
25,192,65887,1,0,0:0:0:0:
76,192,65887,1,0,0:0:0:0:
281,192,66052,1,0,0:0:0:0:
384,192,66218,1,0,0:0:0:0:
76,192,66218,1,0,0:0:0:0:
25,192,66218,1,0,0:0:0:0:
230,192,66218,1,0,0:0:0:0:
281,192,66384,1,0,0:0:0:0:
384,192,66550,1,0,0:0:0:0:
76,192,66550,1,0,0:0:0:0:
25,192,66550,1,0,0:0:0:0:
179,192,66550,1,0,0:0:0:0:
281,192,66715,1,0,0:0:0:0:
25,192,66715,1,0,0:0:0:0:
76,192,66715,1,0,0:0:0:0:
128,192,66715,1,0,0:0:0:0:
486,192,66715,1,0,0:0:0:0:
435,192,66881,1,0,0:0:0:0:
332,192,66881,1,0,0:0:0:0:
486,192,67047,1,0,0:0:0:0:
25,192,67047,1,0,0:0:0:0:
281,192,67047,1,0,0:0:0:0:
384,192,67047,1,0,0:0:0:0:
128,192,67130,1,0,0:0:0:0:
230,192,67213,1,0,0:0:0:0:
332,192,67213,1,0,0:0:0:0:
332,192,67378,1,0,0:0:0:0:
435,192,67378,1,0,0:0:0:0:
179,192,67378,1,0,0:0:0:0:
25,192,67378,1,0,0:0:0:0:
76,192,67461,1,0,0:0:0:0:
384,192,67544,1,0,0:0:0:0:
230,192,67544,1,0,0:0:0:0:
486,192,67710,1,0,0:0:0:0:
332,192,67710,1,0,0:0:0:0:
128,192,67710,1,0,0:0:0:0:
25,192,67710,1,0,0:0:0:0:
230,192,67793,1,0,0:0:0:0:
281,192,67876,1,0,0:0:0:0:
179,192,67958,1,0,0:0:0:0:
384,192,68041,1,0,0:0:0:0:
486,192,68041,1,0,0:0:0:0:
76,192,68041,1,0,0:0:0:0:
230,192,68041,1,0,0:0:0:0:
332,192,68207,1,0,0:0:0:0:
25,192,68207,128,0,68539:0:0:0:0:
128,192,68207,1,0,0:0:0:0:
384,192,68373,1,0,0:0:0:0:
486,192,68373,1,0,0:0:0:0:
179,192,68373,1,0,0:0:0:0:
230,192,68373,1,0,0:0:0:0:
435,192,68539,1,0,0:0:0:0:
281,192,68539,1,0,0:0:0:0:
332,192,68704,1,0,0:0:0:0:
384,192,68704,1,0,0:0:0:0:
128,192,68704,1,0,0:0:0:0:
230,192,68704,1,0,0:0:0:0:
435,192,68870,1,0,0:0:0:0:
179,192,68870,1,0,0:0:0:0:
281,192,69036,1,0,0:0:0:0:
332,192,69036,1,0,0:0:0:0:
76,192,69036,1,0,0:0:0:0:
179,192,69036,128,0,69367:0:0:0:0:
486,192,69202,1,0,0:0:0:0:
281,192,69367,1,0,0:0:0:0:
384,192,69367,1,0,0:0:0:0:
25,192,69367,1,0,0:0:0:0:
128,192,69367,128,0,69699:0:0:0:0:
230,192,69367,1,0,0:0:0:0:
332,192,69533,1,0,0:0:0:0:
435,192,69533,1,0,0:0:0:0:
230,192,69533,1,0,0:0:0:0:
435,192,69699,1,0,0:0:0:0:
486,192,69699,1,0,0:0:0:0:
179,192,69699,1,0,0:0:0:0:
76,192,69699,1,0,0:0:0:0:
332,192,69782,1,0,0:0:0:0:
25,192,69864,1,0,0:0:0:0:
384,192,69864,1,0,0:0:0:0:
281,192,69947,1,0,0:0:0:0:
230,192,70030,1,0,0:0:0:0:
179,192,70030,1,0,0:0:0:0:
486,192,70030,1,0,0:0:0:0:
332,192,70113,1,0,0:0:0:0:
128,192,70196,1,0,0:0:0:0:
435,192,70196,1,0,0:0:0:0:
332,192,70279,1,0,0:0:0:0:
230,192,70362,1,0,0:0:0:0:
76,192,70362,1,0,0:0:0:0:
281,192,70362,1,0,0:0:0:0:
486,192,70445,1,0,0:0:0:0:
179,192,70527,1,0,0:0:0:0:
384,192,70527,1,0,0:0:0:0:
332,192,70610,1,0,0:0:0:0:
230,192,70693,1,0,0:0:0:0:
25,192,70693,1,0,0:0:0:0:
435,192,70693,1,0,0:0:0:0:
486,192,70693,1,0,0:0:0:0:
384,192,70776,1,0,0:0:0:0:
128,192,70859,1,0,0:0:0:0:
281,192,70859,1,0,0:0:0:0:
332,192,70859,1,0,0:0:0:0:
230,192,71025,1,0,0:0:0:0:
179,192,71025,1,0,0:0:0:0:
281,192,71190,5,0,0:0:0:0:
486,192,71190,1,0,0:0:0:0:
435,192,71190,1,0,0:0:0:0:
25,192,71190,1,0,0:0:0:0:
128,192,71356,1,0,0:0:0:0:
179,192,71356,1,0,0:0:0:0:
435,192,71522,1,0,0:0:0:0:
486,192,71522,1,0,0:0:0:0:
332,192,71522,1,0,0:0:0:0:
230,192,71522,1,0,0:0:0:0:
76,192,71688,1,0,0:0:0:0:
384,192,71688,1,0,0:0:0:0:
281,192,71688,1,0,0:0:0:0:
179,192,71688,1,0,0:0:0:0:
230,192,72019,1,0,0:0:0:0:
435,192,72019,1,0,0:0:0:0:
25,192,72019,1,0,0:0:0:0:
128,192,72019,1,0,0:0:0:0:
332,192,72019,1,0,0:0:0:0:
281,192,72351,1,0,0:0:0:0:
25,192,72351,1,0,0:0:0:0:
384,192,72351,1,0,0:0:0:0:
128,192,72351,128,0,72516:0:0:0:0:
435,192,72516,1,0,0:0:0:0:
281,192,72682,1,0,0:0:0:0:
25,192,72682,1,0,0:0:0:0:
332,192,72682,1,0,0:0:0:0:
128,192,72682,128,0,72848:0:0:0:0:
486,192,72848,1,0,0:0:0:0:
384,192,73014,1,0,0:0:0:0:
128,192,73014,128,0,73179:0:0:0:0:
25,192,73014,1,0,0:0:0:0:
281,192,73014,1,0,0:0:0:0:
486,192,73179,1,0,0:0:0:0:
230,192,73179,128,0,73345:0:0:0:0:
179,192,73345,1,0,0:0:0:0:
332,192,73345,1,0,0:0:0:0:
76,192,73345,128,0,73511:0:0:0:0:
281,192,73345,1,0,0:0:0:0:
25,192,73511,128,0,73677:0:0:0:0:
435,192,73511,1,0,0:0:0:0:
384,192,73677,128,0,73842:0:0:0:0:
332,192,73677,1,0,0:0:0:0:
128,192,73677,1,0,0:0:0:0:
230,192,73677,1,0,0:0:0:0:
25,192,73842,1,0,0:0:0:0:
486,192,73842,128,0,74008:0:0:0:0:
179,192,74008,1,0,0:0:0:0:
332,192,74008,128,0,74174:0:0:0:0:
230,192,74008,1,0,0:0:0:0:
384,192,74008,1,0,0:0:0:0:
435,192,74174,128,0,74340:0:0:0:0:
76,192,74174,1,0,0:0:0:0:
281,192,74340,128,0,74505:0:0:0:0:
179,192,74340,1,0,0:0:0:0:
25,192,74340,1,0,0:0:0:0:
384,192,74340,1,0,0:0:0:0:
76,192,74505,1,0,0:0:0:0:
435,192,74505,1,0,0:0:0:0:
179,192,74671,1,0,0:0:0:0:
25,192,74671,128,0,75003:0:0:0:0:
486,192,74671,1,0,0:0:0:0:
332,192,74671,1,0,0:0:0:0:
76,192,74837,1,0,0:0:0:0:
435,192,74837,1,0,0:0:0:0:
384,192,74837,1,0,0:0:0:0:
76,192,75003,1,0,0:0:0:0:
128,192,75003,128,0,75168:0:0:0:0:
486,192,75003,1,0,0:0:0:0:
281,192,75003,1,0,0:0:0:0:
230,192,75168,1,0,0:0:0:0:
435,192,75168,1,0,0:0:0:0:
25,192,75334,1,0,0:0:0:0:
128,192,75334,128,0,75500:0:0:0:0:
384,192,75334,1,0,0:0:0:0:
332,192,75334,1,0,0:0:0:0:
179,192,75500,1,0,0:0:0:0:
435,192,75500,1,0,0:0:0:0:
384,192,75666,1,0,0:0:0:0:
128,192,75666,128,0,75831:0:0:0:0:
76,192,75666,1,0,0:0:0:0:
281,192,75666,1,0,0:0:0:0:
230,192,75831,128,0,75997:0:0:0:0:
486,192,75831,1,0,0:0:0:0:
76,192,75997,128,0,76163:0:0:0:0:
25,192,75997,1,0,0:0:0:0:
179,192,76163,128,0,76329:0:0:0:0:
384,192,76163,1,0,0:0:0:0:
332,192,76163,1,0,0:0:0:0:
281,192,76246,1,0,0:0:0:0:
230,192,76246,1,0,0:0:0:0:
76,192,76329,1,0,0:0:0:0:
435,192,76329,128,0,76494:0:0:0:0:
25,192,76329,128,0,76494:0:0:0:0:
486,192,76494,128,0,76660:0:0:0:0:
281,192,76494,128,0,76660:0:0:0:0:
230,192,76494,1,0,0:0:0:0:
76,192,76660,1,0,0:0:0:0:
128,192,76660,1,0,0:0:0:0:
384,192,76660,128,0,76826:0:0:0:0:
25,192,76660,128,0,76826:0:0:0:0:
332,192,76826,128,0,76992:0:0:0:0:
179,192,76992,1,0,0:0:0:0:
230,192,76992,128,0,77157:0:0:0:0:
281,192,76992,128,0,77157:0:0:0:0:
435,192,77157,128,0,77323:0:0:0:0:
25,192,77157,1,0,0:0:0:0:
332,192,77157,1,0,0:0:0:0:
486,192,77323,128,0,77655:0:0:0:0:
179,192,77323,1,0,0:0:0:0:
230,192,77323,128,0,77489:0:0:0:0:
128,192,77323,1,0,0:0:0:0:
332,192,77323,1,0,0:0:0:0:
25,192,77655,1,0,0:0:0:0:
128,192,77655,1,0,0:0:0:0:
384,192,77655,128,0,77820:0:0:0:0:
281,192,77655,1,0,0:0:0:0:
435,192,77820,1,0,0:0:0:0:
25,192,77986,1,0,0:0:0:0:
76,192,77986,1,0,0:0:0:0:
384,192,77986,128,0,78152:0:0:0:0:
281,192,77986,1,0,0:0:0:0:
230,192,77986,1,0,0:0:0:0:
486,192,78152,1,0,0:0:0:0:
128,192,78318,1,0,0:0:0:0:
332,192,78318,128,0,78483:0:0:0:0:
25,192,78318,1,0,0:0:0:0:
230,192,78483,1,0,0:0:0:0:
435,192,78483,128,0,78649:0:0:0:0:
76,192,78649,1,0,0:0:0:0:
332,192,78649,128,0,78815:0:0:0:0:
25,192,78649,1,0,0:0:0:0:
435,192,78815,128,0,78981:0:0:0:0:
179,192,78815,1,0,0:0:0:0:
25,192,78981,1,0,0:0:0:0:
281,192,78981,1,0,0:0:0:0:
486,192,78981,1,0,0:0:0:0:
128,192,78981,1,0,0:0:0:0:
230,192,78981,1,0,0:0:0:0:
435,192,79146,1,0,0:0:0:0:
230,192,79146,128,0,79312:0:0:0:0:
128,192,79146,128,0,79312:0:0:0:0:
332,192,79312,1,0,0:0:0:0:
384,192,79312,1,0,0:0:0:0:
179,192,79478,128,0,79643:0:0:0:0:
486,192,79478,1,0,0:0:0:0:
384,192,79643,1,0,0:0:0:0:
281,192,79643,1,0,0:0:0:0:
76,192,79643,128,0,79809:0:0:0:0:
179,192,79809,128,0,79975:0:0:0:0:
384,192,79809,1,0,0:0:0:0:
281,192,79809,1,0,0:0:0:0:
230,192,79975,128,0,80306:0:0:0:0:
435,192,79975,1,0,0:0:0:0:
332,192,79975,1,0,0:0:0:0:
128,192,79975,1,0,0:0:0:0:
332,192,80141,1,0,0:0:0:0:
435,192,80141,1,0,0:0:0:0:
25,192,80141,1,0,0:0:0:0:
128,192,80141,1,0,0:0:0:0:
384,192,80306,128,0,80472:0:0:0:0:
76,192,80306,1,0,0:0:0:0:
486,192,80306,1,0,0:0:0:0:
25,192,80306,1,0,0:0:0:0:
179,192,80472,1,0,0:0:0:0:
435,192,80472,1,0,0:0:0:0:
281,192,80638,1,0,0:0:0:0:
384,192,80638,128,0,80804:0:0:0:0:
128,192,80638,1,0,0:0:0:0:
332,192,80638,1,0,0:0:0:0:
25,192,80638,1,0,0:0:0:0:
486,192,80804,1,0,0:0:0:0:
230,192,80804,1,0,0:0:0:0:
128,192,80969,1,0,0:0:0:0:
384,192,80969,128,0,81135:0:0:0:0:
332,192,80969,1,0,0:0:0:0:
76,192,80969,1,0,0:0:0:0:
25,192,80969,1,0,0:0:0:0:
486,192,81135,128,0,81301:0:0:0:0:
179,192,81135,1,0,0:0:0:0:
332,192,81301,128,0,81467:0:0:0:0:
281,192,81301,1,0,0:0:0:0:
435,192,81467,128,0,81632:0:0:0:0:
128,192,81467,1,0,0:0:0:0:
76,192,81467,1,0,0:0:0:0:
230,192,81550,1,0,0:0:0:0:
179,192,81550,1,0,0:0:0:0:
25,192,81632,1,0,0:0:0:0:
486,192,81632,1,0,0:0:0:0:
384,192,81798,1,0,0:0:0:0:
332,192,81798,1,0,0:0:0:0:
230,192,81798,1,0,0:0:0:0:
179,192,81798,1,0,0:0:0:0:
281,192,81964,1,0,0:0:0:0:
486,192,81964,1,0,0:0:0:0:
128,192,81964,1,0,0:0:0:0:
76,192,81964,1,0,0:0:0:0:
384,192,82130,128,0,82295:0:0:0:0:
25,192,82130,1,0,0:0:0:0:
230,192,82130,1,0,0:0:0:0:
281,192,82295,1,0,0:0:0:0:
128,192,82295,1,0,0:0:0:0:
384,192,82461,128,0,82627:0:0:0:0:
486,192,82461,1,0,0:0:0:0:
230,192,82461,1,0,0:0:0:0:
25,192,82461,1,0,0:0:0:0:
281,192,82627,1,0,0:0:0:0:
128,192,82627,1,0,0:0:0:0:
25,192,82793,1,0,0:0:0:0:
486,192,82793,1,0,0:0:0:0:
179,192,82958,1,0,0:0:0:0:
76,192,83124,5,0,0:0:0:0:
384,192,83124,1,0,0:0:0:0:
281,192,83124,1,0,0:0:0:0:
230,192,83124,1,0,0:0:0:0:
435,192,83290,1,0,0:0:0:0:
486,192,83290,1,0,0:0:0:0:
230,192,83290,1,0,0:0:0:0:
128,192,83290,1,0,0:0:0:0:
230,192,83456,1,0,0:0:0:0:
179,192,83456,1,0,0:0:0:0:
332,192,83456,1,0,0:0:0:0:
281,192,83456,1,0,0:0:0:0:
230,192,83621,1,0,0:0:0:0:
25,192,83621,1,0,0:0:0:0:
435,192,83621,1,0,0:0:0:0:
384,192,83621,1,0,0:0:0:0:
25,192,83953,1,0,0:0:0:0:
281,192,83953,1,0,0:0:0:0:
332,192,83953,1,0,0:0:0:0:
128,192,83953,1,0,0:0:0:0:
486,192,83953,1,0,0:0:0:0:
281,192,84284,1,0,0:0:0:0:
384,192,84284,1,0,0:0:0:0:
179,192,84284,1,0,0:0:0:0:
76,192,84450,1,0,0:0:0:0:
435,192,84450,1,0,0:0:0:0:
281,192,84616,1,0,0:0:0:0:
332,192,84616,1,0,0:0:0:0:
25,192,84616,1,0,0:0:0:0:
230,192,84616,1,0,0:0:0:0:
486,192,84782,1,0,0:0:0:0:
76,192,84782,1,0,0:0:0:0:
281,192,84947,1,0,0:0:0:0:
384,192,84947,1,0,0:0:0:0:
179,192,84947,1,0,0:0:0:0:
435,192,85113,1,0,0:0:0:0:
25,192,85113,1,0,0:0:0:0:
281,192,85279,1,0,0:0:0:0:
230,192,85279,1,0,0:0:0:0:
332,192,85279,1,0,0:0:0:0:
128,192,85279,1,0,0:0:0:0:
486,192,85445,1,0,0:0:0:0:
76,192,85445,1,0,0:0:0:0:
332,192,85610,1,0,0:0:0:0:
435,192,85610,1,0,0:0:0:0:
76,192,85776,1,0,0:0:0:0:
179,192,85776,1,0,0:0:0:0:
435,192,85776,1,0,0:0:0:0:
281,192,85942,1,0,0:0:0:0:
384,192,85942,1,0,0:0:0:0:
486,192,85942,1,0,0:0:0:0:
230,192,86108,1,0,0:0:0:0:
128,192,86108,1,0,0:0:0:0:
435,192,86273,1,0,0:0:0:0:
332,192,86273,1,0,0:0:0:0:
25,192,86273,1,0,0:0:0:0:
76,192,86439,1,0,0:0:0:0:
179,192,86439,1,0,0:0:0:0:
486,192,86439,1,0,0:0:0:0:
281,192,86605,1,0,0:0:0:0:
384,192,86605,1,0,0:0:0:0:
76,192,86605,1,0,0:0:0:0:
25,192,86771,1,0,0:0:0:0:
128,192,86771,1,0,0:0:0:0:
281,192,86771,1,0,0:0:0:0:
435,192,86771,1,0,0:0:0:0:
486,192,86936,1,0,0:0:0:0:
332,192,86936,1,0,0:0:0:0:
230,192,86936,1,0,0:0:0:0:
435,192,87102,1,0,0:0:0:0:
76,192,87102,1,0,0:0:0:0:
332,192,87268,1,0,0:0:0:0:
281,192,87268,1,0,0:0:0:0:
179,192,87268,1,0,0:0:0:0:
25,192,87268,1,0,0:0:0:0:
435,192,87434,1,0,0:0:0:0:
76,192,87434,1,0,0:0:0:0:
384,192,87599,1,0,0:0:0:0:
281,192,87599,1,0,0:0:0:0:
128,192,87599,1,0,0:0:0:0:
230,192,87599,1,0,0:0:0:0:
486,192,87765,1,0,0:0:0:0:
435,192,87931,1,0,0:0:0:0:
332,192,87931,1,0,0:0:0:0:
179,192,87931,1,0,0:0:0:0:
25,192,87931,1,0,0:0:0:0:
128,192,88097,1,0,0:0:0:0:
25,192,88097,1,0,0:0:0:0:
435,192,88179,1,0,0:0:0:0:
332,192,88179,1,0,0:0:0:0:
76,192,88262,1,0,0:0:0:0:
179,192,88262,1,0,0:0:0:0:
486,192,88428,1,0,0:0:0:0:
281,192,88428,1,0,0:0:0:0:
384,192,88428,1,0,0:0:0:0:
76,192,88594,1,0,0:0:0:0:
384,192,88760,1,0,0:0:0:0:
332,192,88760,1,0,0:0:0:0:
128,192,88760,1,0,0:0:0:0:
230,192,88760,1,0,0:0:0:0:
25,192,88925,1,0,0:0:0:0:
230,192,89091,1,0,0:0:0:0:
128,192,89091,1,0,0:0:0:0:
281,192,89091,1,0,0:0:0:0:
384,192,89091,1,0,0:0:0:0:
486,192,89257,1,0,0:0:0:0:
435,192,89257,1,0,0:0:0:0:
179,192,89257,1,0,0:0:0:0:
384,192,89422,1,0,0:0:0:0:
332,192,89422,1,0,0:0:0:0:
25,192,89422,1,0,0:0:0:0:
179,192,89422,1,0,0:0:0:0:
281,192,89588,1,0,0:0:0:0:
486,192,89588,1,0,0:0:0:0:
332,192,89588,1,0,0:0:0:0:
76,192,89588,1,0,0:0:0:0:
179,192,89754,1,0,0:0:0:0:
384,192,89920,1,0,0:0:0:0:
281,192,89920,1,0,0:0:0:0:
128,192,89920,1,0,0:0:0:0:
25,192,89920,1,0,0:0:0:0:
486,192,90085,1,0,0:0:0:0:
230,192,90085,1,0,0:0:0:0:
179,192,90085,1,0,0:0:0:0:
435,192,90417,1,0,0:0:0:0:
76,192,90417,1,0,0:0:0:0:
179,192,90417,1,0,0:0:0:0:
384,192,90583,1,0,0:0:0:0:
281,192,90583,1,0,0:0:0:0:
179,192,90583,1,0,0:0:0:0:
76,192,90583,1,0,0:0:0:0:
486,192,90748,1,0,0:0:0:0:
435,192,90914,1,0,0:0:0:0:
332,192,90914,1,0,0:0:0:0:
128,192,90914,1,0,0:0:0:0:
230,192,90914,1,0,0:0:0:0:
25,192,91080,1,0,0:0:0:0:
281,192,91246,1,0,0:0:0:0:
384,192,91246,1,0,0:0:0:0:
179,192,91246,1,0,0:0:0:0:
435,192,91411,1,0,0:0:0:0:
25,192,91411,1,0,0:0:0:0:
486,192,91577,1,0,0:0:0:0:
281,192,91577,1,0,0:0:0:0:
230,192,91577,1,0,0:0:0:0:
76,192,91743,1,0,0:0:0:0:
435,192,91909,1,0,0:0:0:0:
281,192,91909,1,0,0:0:0:0:
128,192,91909,1,0,0:0:0:0:
435,192,92074,1,0,0:0:0:0:
332,192,92074,1,0,0:0:0:0:
179,192,92074,1,0,0:0:0:0:
230,192,92240,1,0,0:0:0:0:
25,192,92240,1,0,0:0:0:0:
486,192,92240,1,0,0:0:0:0:
76,192,92406,1,0,0:0:0:0:
384,192,92572,1,0,0:0:0:0:
332,192,92572,1,0,0:0:0:0:
179,192,92572,1,0,0:0:0:0:
435,192,92655,1,0,0:0:0:0:
486,192,92737,1,0,0:0:0:0:
76,192,92737,1,0,0:0:0:0:
384,192,92903,1,0,0:0:0:0:
281,192,92903,1,0,0:0:0:0:
128,192,92903,1,0,0:0:0:0:
230,192,92903,1,0,0:0:0:0:
435,192,92986,1,0,0:0:0:0:
486,192,93069,1,0,0:0:0:0:
384,192,93235,1,0,0:0:0:0:
76,192,93235,1,0,0:0:0:0:
179,192,93235,1,0,0:0:0:0:
281,192,93235,1,0,0:0:0:0:
179,192,93400,1,0,0:0:0:0:
25,192,93400,1,0,0:0:0:0:
384,192,93400,1,0,0:0:0:0:
230,192,93566,1,0,0:0:0:0:
128,192,93732,5,0,0:0:0:0:
281,192,93732,1,0,0:0:0:0:
332,192,93732,1,0,0:0:0:0:
76,192,93732,1,0,0:0:0:0:
179,192,93898,1,0,0:0:0:0:
128,192,93898,1,0,0:0:0:0:
435,192,93898,1,0,0:0:0:0:
486,192,93898,1,0,0:0:0:0:
384,192,94063,1,0,0:0:0:0:
332,192,94063,1,0,0:0:0:0:
76,192,94063,1,0,0:0:0:0:
25,192,94063,1,0,0:0:0:0:
179,192,94229,1,0,0:0:0:0:
230,192,94229,1,0,0:0:0:0:
281,192,94229,1,0,0:0:0:0:
486,192,94229,1,0,0:0:0:0:
128,192,94395,1,0,0:0:0:0:
384,192,94561,1,0,0:0:0:0:
332,192,94561,1,0,0:0:0:0:
230,192,94561,1,0,0:0:0:0:
25,192,94561,1,0,0:0:0:0:
179,192,94726,1,0,0:0:0:0:
128,192,94892,1,0,0:0:0:0:
25,192,94892,1,0,0:0:0:0:
281,192,94892,1,0,0:0:0:0:
332,192,94892,1,0,0:0:0:0:
230,192,95058,1,0,0:0:0:0:
435,192,95058,1,0,0:0:0:0:
128,192,95224,1,0,0:0:0:0:
25,192,95224,1,0,0:0:0:0:
281,192,95224,1,0,0:0:0:0:
384,192,95224,1,0,0:0:0:0:
230,192,95389,1,0,0:0:0:0:
486,192,95389,1,0,0:0:0:0:
25,192,95555,1,0,0:0:0:0:
128,192,95555,1,0,0:0:0:0:
332,192,95555,1,0,0:0:0:0:
384,192,95555,1,0,0:0:0:0:
230,192,95721,1,0,0:0:0:0:
435,192,95721,1,0,0:0:0:0:
128,192,95887,1,0,0:0:0:0:
25,192,95887,1,0,0:0:0:0:
384,192,95887,1,0,0:0:0:0:
281,192,95887,1,0,0:0:0:0:
230,192,96052,1,0,0:0:0:0:
486,192,96052,1,0,0:0:0:0:
179,192,96052,1,0,0:0:0:0:
76,192,96218,1,0,0:0:0:0:
435,192,96218,1,0,0:0:0:0:
281,192,96218,1,0,0:0:0:0:
128,192,96218,1,0,0:0:0:0:
230,192,96384,1,0,0:0:0:0:
486,192,96384,1,0,0:0:0:0:
179,192,96384,1,0,0:0:0:0:
332,192,96384,1,0,0:0:0:0:
76,192,96550,1,0,0:0:0:0:
230,192,96715,1,0,0:0:0:0:
486,192,96715,1,0,0:0:0:0:
332,192,96715,1,0,0:0:0:0:
230,192,97047,1,0,0:0:0:0:
76,192,97047,1,0,0:0:0:0:
435,192,97047,1,0,0:0:0:0:
332,192,97047,1,0,0:0:0:0:
230,192,97213,1,0,0:0:0:0:
179,192,97213,1,0,0:0:0:0:
25,192,97213,1,0,0:0:0:0:
281,192,97213,1,0,0:0:0:0:
384,192,97213,1,0,0:0:0:0:
128,192,97378,1,0,0:0:0:0:
179,192,97544,1,0,0:0:0:0:
25,192,97544,1,0,0:0:0:0:
486,192,97544,1,0,0:0:0:0:
384,192,97544,1,0,0:0:0:0:
230,192,97710,1,0,0:0:0:0:
332,192,97710,1,0,0:0:0:0:
179,192,97876,1,0,0:0:0:0:
25,192,97876,1,0,0:0:0:0:
435,192,97876,1,0,0:0:0:0:
486,192,97876,1,0,0:0:0:0:
230,192,98041,1,0,0:0:0:0:
281,192,98041,1,0,0:0:0:0:
25,192,98207,1,0,0:0:0:0:
179,192,98207,1,0,0:0:0:0:
435,192,98207,1,0,0:0:0:0:
384,192,98207,1,0,0:0:0:0:
230,192,98373,1,0,0:0:0:0:
281,192,98373,1,0,0:0:0:0:
179,192,98539,1,0,0:0:0:0:
25,192,98539,1,0,0:0:0:0:
486,192,98539,1,0,0:0:0:0:
332,192,98539,1,0,0:0:0:0:
230,192,98704,1,0,0:0:0:0:
281,192,98704,1,0,0:0:0:0:
435,192,98787,1,0,0:0:0:0:
384,192,98787,1,0,0:0:0:0:
128,192,98870,1,0,0:0:0:0:
179,192,98870,1,0,0:0:0:0:
332,192,98870,1,0,0:0:0:0:
486,192,98870,1,0,0:0:0:0:
230,192,99036,1,0,0:0:0:0:
76,192,99036,1,0,0:0:0:0:
128,192,99036,1,0,0:0:0:0:
486,192,99036,1,0,0:0:0:0:
435,192,99036,1,0,0:0:0:0:
332,192,99036,1,0,0:0:0:0:
230,192,99367,1,0,0:0:0:0:
25,192,99367,1,0,0:0:0:0:
76,192,99367,1,0,0:0:0:0:
435,192,99367,1,0,0:0:0:0:
384,192,99367,1,0,0:0:0:0:
281,192,99367,1,0,0:0:0:0:
486,192,99533,1,0,0:0:0:0:
230,192,99699,1,0,0:0:0:0:
128,192,99699,1,0,0:0:0:0:
25,192,99699,1,0,0:0:0:0:
435,192,99699,1,0,0:0:0:0:
332,192,99699,1,0,0:0:0:0:
230,192,99864,1,0,0:0:0:0:
76,192,99864,1,0,0:0:0:0:
25,192,99864,1,0,0:0:0:0:
384,192,99864,1,0,0:0:0:0:
281,192,99864,1,0,0:0:0:0:
486,192,99864,1,0,0:0:0:0:
179,192,100030,128,0,100196:0:0:0:0:
128,192,100196,1,0,0:0:0:0:
332,192,100196,1,0,0:0:0:0:
384,192,100196,1,0,0:0:0:0:
230,192,100362,1,0,0:0:0:0:
435,192,100362,1,0,0:0:0:0:
25,192,100527,1,0,0:0:0:0:
179,192,100527,1,0,0:0:0:0:
486,192,100527,1,0,0:0:0:0:
230,192,100693,1,0,0:0:0:0:
332,192,100693,1,0,0:0:0:0:
281,192,100693,1,0,0:0:0:0:
128,192,100859,1,0,0:0:0:0:
179,192,100859,1,0,0:0:0:0:
435,192,100859,1,0,0:0:0:0:
230,192,101025,1,0,0:0:0:0:
281,192,101025,1,0,0:0:0:0:
179,192,101190,1,0,0:0:0:0:
25,192,101190,1,0,0:0:0:0:
486,192,101190,1,0,0:0:0:0:
384,192,101190,1,0,0:0:0:0:
230,192,101356,1,0,0:0:0:0:
332,192,101356,1,0,0:0:0:0:
128,192,101522,1,0,0:0:0:0:
76,192,101522,1,0,0:0:0:0:
435,192,101522,1,0,0:0:0:0:
384,192,101522,1,0,0:0:0:0:
230,192,101688,1,0,0:0:0:0:
486,192,101688,1,0,0:0:0:0:
281,192,101688,1,0,0:0:0:0:
25,192,101853,1,0,0:0:0:0:
76,192,101853,1,0,0:0:0:0:
435,192,101853,1,0,0:0:0:0:
384,192,101853,1,0,0:0:0:0:
281,192,102019,1,0,0:0:0:0:
179,192,102019,1,0,0:0:0:0:
435,192,102185,1,0,0:0:0:0:
384,192,102185,1,0,0:0:0:0:
332,192,102185,1,0,0:0:0:0:
76,192,102351,1,0,0:0:0:0:
179,192,102351,1,0,0:0:0:0:
230,192,102516,1,0,0:0:0:0:
25,192,102516,1,0,0:0:0:0:
332,192,102516,1,0,0:0:0:0:
435,192,102516,1,0,0:0:0:0:
128,192,102682,1,0,0:0:0:0:
281,192,102682,1,0,0:0:0:0:
76,192,102848,1,0,0:0:0:0:
25,192,102848,1,0,0:0:0:0:
486,192,102848,1,0,0:0:0:0:
332,192,102848,1,0,0:0:0:0:
230,192,103014,1,0,0:0:0:0:
435,192,103014,1,0,0:0:0:0:
128,192,103179,1,0,0:0:0:0:
25,192,103179,1,0,0:0:0:0:
384,192,103179,1,0,0:0:0:0:
281,192,103179,1,0,0:0:0:0:
230,192,103345,5,0,0:0:0:0:
486,192,103345,1,0,0:0:0:0:
230,192,103511,1,0,0:0:0:0:
25,192,103511,1,0,0:0:0:0:
76,192,103511,1,0,0:0:0:0:
435,192,103594,1,0,0:0:0:0:
332,192,103594,1,0,0:0:0:0:
230,192,103677,1,0,0:0:0:0:
76,192,103677,1,0,0:0:0:0:
384,192,103760,1,0,0:0:0:0:
486,192,103760,1,0,0:0:0:0:
230,192,103842,1,0,0:0:0:0:
128,192,103842,1,0,0:0:0:0:
435,192,103925,1,0,0:0:0:0:
332,192,103925,1,0,0:0:0:0:
230,192,104008,1,0,0:0:0:0:
179,192,104008,1,0,0:0:0:0:
281,192,104091,1,0,0:0:0:0:
384,192,104091,1,0,0:0:0:0:
486,192,104091,1,0,0:0:0:0:
76,192,104091,1,0,0:0:0:0:
384,192,104505,5,0,0:0:0:0:
332,192,104505,1,0,0:0:0:0:
153,192,104837,1,0,0:0:0:0:
76,192,104837,1,0,0:0:0:0:
256,192,105168,1,0,0:0:0:0:
230,192,105168,1,0,0:0:0:0:
179,192,105500,1,0,0:0:0:0:
332,192,105500,128,0,105831:0:0:0:0:
76,192,105831,1,0,0:0:0:0:
486,192,105831,1,0,0:0:0:0:
230,192,105831,1,0,0:0:0:0:
332,192,106494,1,0,0:0:0:0:
179,192,106494,1,0,0:0:0:0:
486,192,106494,1,0,0:0:0:0:
332,192,106660,1,0,0:0:0:0:
76,192,106660,1,0,0:0:0:0:
486,192,106660,1,0,0:0:0:0:
230,192,106660,1,0,0:0:0:0:
179,192,106991,1,0,0:0:0:0:
384,192,106991,1,0,0:0:0:0:
486,192,106991,1,0,0:0:0:0:
281,192,107157,1,0,0:0:0:0:
25,192,107157,1,0,0:0:0:0:
230,192,107157,1,0,0:0:0:0:
486,192,107157,1,0,0:0:0:0:
332,192,107488,1,0,0:0:0:0:
76,192,107488,1,0,0:0:0:0:
179,192,107488,1,0,0:0:0:0:
486,192,107488,1,0,0:0:0:0:
230,192,107820,128,0,108151:0:0:0:0:
435,192,107820,1,0,0:0:0:0:
486,192,108151,1,0,0:0:0:0:
76,192,108151,1,0,0:0:0:0:
25,192,108151,1,0,0:0:0:0:
384,192,108234,1,0,0:0:0:0:
281,192,108317,1,0,0:0:0:0:
230,192,108317,1,0,0:0:0:0:
332,192,108483,1,0,0:0:0:0:
486,192,108483,1,0,0:0:0:0:
179,192,108483,1,0,0:0:0:0:
76,192,108483,1,0,0:0:0:0:
435,192,108566,1,0,0:0:0:0:
281,192,108649,1,0,0:0:0:0:
128,192,108649,1,0,0:0:0:0:
384,192,108814,1,0,0:0:0:0:
486,192,108814,1,0,0:0:0:0:
25,192,108814,1,0,0:0:0:0:
179,192,108814,1,0,0:0:0:0:
281,192,108897,1,0,0:0:0:0:
230,192,108980,1,0,0:0:0:0:
332,192,109063,1,0,0:0:0:0:
435,192,109146,1,0,0:0:0:0:
281,192,109146,1,0,0:0:0:0:
128,192,109146,1,0,0:0:0:0:
25,192,109146,1,0,0:0:0:0:
384,192,109312,1,0,0:0:0:0:
486,192,109312,128,0,109643:0:0:0:0:
179,192,109312,1,0,0:0:0:0:
332,192,109477,1,0,0:0:0:0:
281,192,109477,1,0,0:0:0:0:
128,192,109477,1,0,0:0:0:0:
25,192,109477,1,0,0:0:0:0:
230,192,109643,1,0,0:0:0:0:
76,192,109643,1,0,0:0:0:0:
384,192,109809,1,0,0:0:0:0:
281,192,109809,1,0,0:0:0:0:
179,192,109809,1,0,0:0:0:0:
128,192,109809,1,0,0:0:0:0:
332,192,109975,1,0,0:0:0:0:
76,192,109975,1,0,0:0:0:0:
435,192,110140,1,0,0:0:0:0:
332,192,110140,128,0,110472:0:0:0:0:
230,192,110140,1,0,0:0:0:0:
179,192,110140,1,0,0:0:0:0:
25,192,110306,1,0,0:0:0:0:
384,192,110472,128,0,110803:0:0:0:0:
281,192,110472,1,0,0:0:0:0:
486,192,110472,1,0,0:0:0:0:
230,192,110472,1,0,0:0:0:0:
128,192,110472,1,0,0:0:0:0:
281,192,110638,1,0,0:0:0:0:
76,192,110638,1,0,0:0:0:0:
179,192,110638,1,0,0:0:0:0:
332,192,110803,1,0,0:0:0:0:
435,192,110803,1,0,0:0:0:0:
76,192,110803,1,0,0:0:0:0:
25,192,110803,1,0,0:0:0:0:
179,192,110886,1,0,0:0:0:0:
128,192,110969,1,0,0:0:0:0:
486,192,110969,1,0,0:0:0:0:
230,192,111052,1,0,0:0:0:0:
25,192,111135,1,0,0:0:0:0:
332,192,111135,1,0,0:0:0:0:
281,192,111135,1,0,0:0:0:0:
179,192,111218,1,0,0:0:0:0:
76,192,111301,1,0,0:0:0:0:
384,192,111301,1,0,0:0:0:0:
179,192,111384,1,0,0:0:0:0:
230,192,111466,1,0,0:0:0:0:
435,192,111466,1,0,0:0:0:0:
281,192,111466,1,0,0:0:0:0:
25,192,111549,1,0,0:0:0:0:
128,192,111632,1,0,0:0:0:0:
332,192,111632,1,0,0:0:0:0:
179,192,111715,1,0,0:0:0:0:
76,192,111798,1,0,0:0:0:0:
25,192,111798,1,0,0:0:0:0:
281,192,111798,1,0,0:0:0:0:
486,192,111798,1,0,0:0:0:0:
128,192,111881,1,0,0:0:0:0:
179,192,111964,1,0,0:0:0:0:
230,192,111964,1,0,0:0:0:0:
384,192,111964,1,0,0:0:0:0:
281,192,112129,1,0,0:0:0:0:
25,192,112295,1,0,0:0:0:0:
76,192,112295,1,0,0:0:0:0:
384,192,112295,1,0,0:0:0:0:
230,192,112295,1,0,0:0:0:0:
281,192,112461,1,0,0:0:0:0:
25,192,112627,1,0,0:0:0:0:
230,192,112627,1,0,0:0:0:0:
384,192,112627,1,0,0:0:0:0:
76,192,112627,1,0,0:0:0:0:
281,192,112792,1,0,0:0:0:0:
25,192,112958,1,0,0:0:0:0:
179,192,112958,1,0,0:0:0:0:
384,192,112958,1,0,0:0:0:0:
76,192,112958,1,0,0:0:0:0:
128,192,113124,1,0,0:0:0:0:
486,192,113124,1,0,0:0:0:0:
76,192,113124,1,0,0:0:0:0:
281,192,113124,1,0,0:0:0:0:
25,192,113124,1,0,0:0:0:0:
332,192,113290,1,0,0:0:0:0:
435,192,113290,1,0,0:0:0:0:
281,192,113455,1,0,0:0:0:0:
384,192,113455,1,0,0:0:0:0:
486,192,113455,1,0,0:0:0:0:
25,192,113455,1,0,0:0:0:0:
128,192,113538,1,0,0:0:0:0:
332,192,113621,1,0,0:0:0:0:
230,192,113621,1,0,0:0:0:0:
179,192,113787,1,0,0:0:0:0:
25,192,113787,1,0,0:0:0:0:
332,192,113787,1,0,0:0:0:0:
435,192,113787,1,0,0:0:0:0:
76,192,113870,1,0,0:0:0:0:
230,192,113953,1,0,0:0:0:0:
384,192,113953,1,0,0:0:0:0:
128,192,114118,1,0,0:0:0:0:
25,192,114118,1,0,0:0:0:0:
486,192,114118,1,0,0:0:0:0:
332,192,114118,1,0,0:0:0:0:
230,192,114201,1,0,0:0:0:0:
281,192,114284,1,0,0:0:0:0:
179,192,114367,1,0,0:0:0:0:
76,192,114450,1,0,0:0:0:0:
230,192,114450,1,0,0:0:0:0:
384,192,114450,1,0,0:0:0:0:
486,192,114450,1,0,0:0:0:0:
128,192,114616,1,0,0:0:0:0:
25,192,114616,128,0,114947:0:0:0:0:
332,192,114616,1,0,0:0:0:0:
179,192,114781,1,0,0:0:0:0:
230,192,114781,1,0,0:0:0:0:
384,192,114781,1,0,0:0:0:0:
486,192,114781,1,0,0:0:0:0:
281,192,114947,1,0,0:0:0:0:
435,192,114947,1,0,0:0:0:0:
128,192,115113,1,0,0:0:0:0:
230,192,115113,1,0,0:0:0:0:
332,192,115113,1,0,0:0:0:0:
384,192,115113,1,0,0:0:0:0:
179,192,115279,1,0,0:0:0:0:
435,192,115279,1,0,0:0:0:0:
76,192,115444,1,0,0:0:0:0:
179,192,115444,128,0,115776:0:0:0:0:
281,192,115444,1,0,0:0:0:0:
332,192,115444,1,0,0:0:0:0:
486,192,115610,1,0,0:0:0:0:
128,192,115776,128,0,116107:0:0:0:0:
230,192,115776,1,0,0:0:0:0:
25,192,115776,1,0,0:0:0:0:
281,192,115776,1,0,0:0:0:0:
384,192,115776,1,0,0:0:0:0:
230,192,115942,1,0,0:0:0:0:
435,192,115942,1,0,0:0:0:0:
332,192,115942,1,0,0:0:0:0:
179,192,116107,1,0,0:0:0:0:
76,192,116107,1,0,0:0:0:0:
435,192,116107,1,0,0:0:0:0:
486,192,116107,1,0,0:0:0:0:
332,192,116190,1,0,0:0:0:0:
384,192,116273,1,0,0:0:0:0:
25,192,116273,1,0,0:0:0:0:
281,192,116356,1,0,0:0:0:0:
486,192,116439,1,0,0:0:0:0:
179,192,116439,1,0,0:0:0:0:
230,192,116439,1,0,0:0:0:0:
332,192,116522,1,0,0:0:0:0:
435,192,116605,1,0,0:0:0:0:
128,192,116605,1,0,0:0:0:0:
332,192,116687,1,0,0:0:0:0:
281,192,116770,1,0,0:0:0:0:
76,192,116770,1,0,0:0:0:0:
230,192,116770,1,0,0:0:0:0:
486,192,116853,1,0,0:0:0:0:
384,192,116936,1,0,0:0:0:0:
179,192,116936,1,0,0:0:0:0:
332,192,117019,1,0,0:0:0:0:
435,192,117102,1,0,0:0:0:0:
486,192,117102,1,0,0:0:0:0:
230,192,117102,1,0,0:0:0:0:
25,192,117102,1,0,0:0:0:0:
384,192,117185,1,0,0:0:0:0:
332,192,117268,1,0,0:0:0:0:
281,192,117268,1,0,0:0:0:0:
128,192,117268,1,0,0:0:0:0:
179,192,117433,1,0,0:0:0:0:
230,192,117433,1,0,0:0:0:0:
281,192,117599,5,0,0:0:0:0:
435,192,117599,1,0,0:0:0:0:
25,192,117599,1,0,0:0:0:0:
486,192,117599,1,0,0:0:0:0:
179,192,117765,1,0,0:0:0:0:
128,192,117765,1,0,0:0:0:0:
332,192,117931,1,0,0:0:0:0:
230,192,117931,1,0,0:0:0:0:
435,192,117931,1,0,0:0:0:0:
486,192,117931,1,0,0:0:0:0:
281,192,118096,1,0,0:0:0:0:
179,192,118096,1,0,0:0:0:0:
76,192,118096,1,0,0:0:0:0:
384,192,118096,1,0,0:0:0:0:
128,192,118428,1,0,0:0:0:0:
332,192,118428,1,0,0:0:0:0:
25,192,118428,1,0,0:0:0:0:
230,192,118428,1,0,0:0:0:0:
435,192,118428,1,0,0:0:0:0:
384,192,118759,1,0,0:0:0:0:
128,192,118759,128,0,118925:0:0:0:0:
25,192,118759,1,0,0:0:0:0:
281,192,118759,128,0,119091:0:0:0:0:
179,192,118925,1,0,0:0:0:0:
128,192,119091,128,0,119256:0:0:0:0:
25,192,119091,1,0,0:0:0:0:
486,192,119091,128,0,119256:0:0:0:0:
384,192,119091,1,0,0:0:0:0:
281,192,119256,128,0,119422:0:0:0:0:
179,192,119256,1,0,0:0:0:0:
25,192,119422,1,0,0:0:0:0:
128,192,119422,128,0,119588:0:0:0:0:
435,192,119422,128,0,119588:0:0:0:0:
230,192,119588,128,0,119754:0:0:0:0:
332,192,119588,1,0,0:0:0:0:
179,192,119588,1,0,0:0:0:0:
76,192,119754,128,0,119919:0:0:0:0:
332,192,119754,128,0,119919:0:0:0:0:
25,192,119919,128,0,120085:0:0:0:0:
486,192,119919,128,0,120085:0:0:0:0:
128,192,120085,1,0,0:0:0:0:
230,192,120085,1,0,0:0:0:0:
384,192,120085,128,0,120251:0:0:0:0:
435,192,120085,1,0,0:0:0:0:
25,192,120251,1,0,0:0:0:0:
281,192,120251,128,0,120417:0:0:0:0:
230,192,120417,1,0,0:0:0:0:
179,192,120417,1,0,0:0:0:0:
384,192,120417,128,0,120582:0:0:0:0:
435,192,120417,1,0,0:0:0:0:
76,192,120582,1,0,0:0:0:0:
281,192,120582,128,0,120748:0:0:0:0:
179,192,120748,1,0,0:0:0:0:
435,192,120748,1,0,0:0:0:0:
384,192,120748,128,0,120914:0:0:0:0:
230,192,120748,1,0,0:0:0:0:
486,192,120914,128,0,121080:0:0:0:0:
128,192,120914,1,0,0:0:0:0:
25,192,121080,128,0,121411:0:0:0:0:
435,192,121080,128,0,121245:0:0:0:0:
332,192,121080,1,0,0:0:0:0:
76,192,121080,1,0,0:0:0:0:
384,192,121245,128,0,121411:0:0:0:0:
230,192,121245,1,0,0:0:0:0:
179,192,121245,1,0,0:0:0:0:
76,192,121411,1,0,0:0:0:0:
128,192,121411,128,0,121577:0:0:0:0:
332,192,121411,128,0,121577:0:0:0:0:
486,192,121411,1,0,0:0:0:0:
230,192,121577,1,0,0:0:0:0:
281,192,121577,128,0,121743:0:0:0:0:
25,192,121743,1,0,0:0:0:0:
128,192,121743,128,0,121908:0:0:0:0:
332,192,121743,128,0,121908:0:0:0:0:
486,192,121743,1,0,0:0:0:0:
179,192,121908,1,0,0:0:0:0:
281,192,121908,128,0,122074:0:0:0:0:
76,192,122074,1,0,0:0:0:0:
128,192,122074,128,0,122240:0:0:0:0:
332,192,122074,128,0,122240:0:0:0:0:
486,192,122074,1,0,0:0:0:0:
230,192,122240,128,0,122406:0:0:0:0:
435,192,122240,128,0,122406:0:0:0:0:
25,192,122406,1,0,0:0:0:0:
76,192,122406,128,0,122571:0:0:0:0:
384,192,122406,128,0,122571:0:0:0:0:
281,192,122406,1,0,0:0:0:0:
179,192,122571,128,0,122737:0:0:0:0:
486,192,122571,128,0,122737:0:0:0:0:
230,192,122654,1,0,0:0:0:0:
281,192,122654,1,0,0:0:0:0:
25,192,122737,1,0,0:0:0:0:
76,192,122737,1,0,0:0:0:0:
332,192,122737,1,0,0:0:0:0:
435,192,122737,1,0,0:0:0:0:
230,192,122903,1,0,0:0:0:0:
281,192,122903,1,0,0:0:0:0:
384,192,122903,128,0,123069:0:0:0:0:
128,192,123069,1,0,0:0:0:0:
76,192,123069,1,0,0:0:0:0:
25,192,123069,128,0,123234:0:0:0:0:
281,192,123234,128,0,123400:0:0:0:0:
230,192,123400,128,0,123566:0:0:0:0:
179,192,123400,1,0,0:0:0:0:
25,192,123566,1,0,0:0:0:0:
332,192,123566,128,0,123732:0:0:0:0:
128,192,123732,1,0,0:0:0:0:
230,192,123732,128,0,123897:0:0:0:0:
179,192,123732,1,0,0:0:0:0:
384,192,123732,128,0,123897:0:0:0:0:
384,192,124063,1,0,0:0:0:0:
128,192,124063,128,0,124229:0:0:0:0:
230,192,124063,1,0,0:0:0:0:
332,192,124063,128,0,124229:0:0:0:0:
76,192,124229,1,0,0:0:0:0:
435,192,124395,1,0,0:0:0:0:
128,192,124395,128,0,124560:0:0:0:0:
281,192,124395,1,0,0:0:0:0:
486,192,124395,128,0,124560:0:0:0:0:
179,192,124395,1,0,0:0:0:0:
25,192,124560,1,0,0:0:0:0:
281,192,124560,128,0,124726:0:0:0:0:
179,192,124726,128,0,124892:0:0:0:0:
384,192,124726,128,0,124892:0:0:0:0:
76,192,124892,128,0,125058:0:0:0:0:
179,192,125058,128,0,125223:0:0:0:0:
384,192,125058,128,0,125223:0:0:0:0:
281,192,125058,1,0,0:0:0:0:
76,192,125223,128,0,125389:0:0:0:0:
486,192,125223,128,0,125389:0:0:0:0:
230,192,125389,1,0,0:0:0:0:
435,192,125389,128,0,125555:0:0:0:0:
128,192,125389,1,0,0:0:0:0:
332,192,125555,128,0,125721:0:0:0:0:
128,192,125555,1,0,0:0:0:0:
230,192,125555,1,0,0:0:0:0:
179,192,125721,1,0,0:0:0:0:
76,192,125721,1,0,0:0:0:0:
435,192,125721,128,0,125886:0:0:0:0:
332,192,125886,128,0,126052:0:0:0:0:
179,192,125886,1,0,0:0:0:0:
76,192,125886,1,0,0:0:0:0:
128,192,126052,1,0,0:0:0:0:
230,192,126052,1,0,0:0:0:0:
384,192,126052,128,0,126218:0:0:0:0:
128,192,126218,1,0,0:0:0:0:
230,192,126218,1,0,0:0:0:0:
486,192,126218,128,0,126384:0:0:0:0:
76,192,126384,1,0,0:0:0:0:
179,192,126384,1,0,0:0:0:0:
384,192,126384,128,0,126549:0:0:0:0:
179,192,126549,1,0,0:0:0:0:
76,192,126549,1,0,0:0:0:0:
281,192,126549,128,0,126715:0:0:0:0:
25,192,126715,1,0,0:0:0:0:
435,192,126715,128,0,126881:0:0:0:0:
230,192,126798,1,0,0:0:0:0:
25,192,126881,1,0,0:0:0:0:
281,192,126881,128,0,127047:0:0:0:0:
230,192,126964,1,0,0:0:0:0:
25,192,127047,1,0,0:0:0:0:
435,192,127047,128,0,127212:0:0:0:0:
230,192,127129,1,0,0:0:0:0:
25,192,127212,1,0,0:0:0:0:
281,192,127212,128,0,127378:0:0:0:0:
230,192,127295,1,0,0:0:0:0:
76,192,127378,1,0,0:0:0:0:
332,192,127378,128,0,127544:0:0:0:0:
179,192,127461,1,0,0:0:0:0:
76,192,127544,1,0,0:0:0:0:
435,192,127544,128,0,127710:0:0:0:0:
179,192,127627,1,0,0:0:0:0:
76,192,127710,1,0,0:0:0:0:
384,192,127710,128,0,127875:0:0:0:0:
179,192,127792,1,0,0:0:0:0:
76,192,127875,1,0,0:0:0:0:
486,192,127875,128,0,128041:0:0:0:0:
179,192,127958,1,0,0:0:0:0:
281,192,127958,1,0,0:0:0:0:
25,192,128041,128,0,128207:0:0:0:0:
384,192,128207,128,0,128372:0:0:0:0:
230,192,128207,128,0,128372:0:0:0:0:
76,192,128372,128,0,128538:0:0:0:0:
281,192,128538,128,0,128704:0:0:0:0:
179,192,128538,128,0,128704:0:0:0:0:
128,192,128704,128,0,128870:0:0:0:0:
435,192,128870,128,0,129035:0:0:0:0:
230,192,128870,128,0,129035:0:0:0:0:
384,192,129035,128,0,129201:0:0:0:0:
25,192,129035,128,0,129201:0:0:0:0:
332,192,129201,128,0,129367:0:0:0:0:
179,192,129201,128,0,129367:0:0:0:0:
486,192,129367,1,0,0:0:0:0:
230,192,129533,1,0,0:0:0:0:
179,192,129533,1,0,0:0:0:0:
128,192,129533,1,0,0:0:0:0:
281,192,129698,1,0,0:0:0:0:
332,192,129698,1,0,0:0:0:0:
384,192,129698,1,0,0:0:0:0:
230,192,129864,1,0,0:0:0:0:
76,192,129864,1,0,0:0:0:0:
25,192,129864,1,0,0:0:0:0:
486,192,130030,1,0,0:0:0:0:
435,192,130030,1,0,0:0:0:0:
281,192,130030,1,0,0:0:0:0:
332,192,130361,1,0,0:0:0:0:
384,192,130361,1,0,0:0:0:0:
179,192,130361,1,0,0:0:0:0:
128,192,130361,1,0,0:0:0:0:
332,192,130693,1,0,0:0:0:0:
281,192,130693,1,0,0:0:0:0:
230,192,130693,1,0,0:0:0:0:
179,192,130693,1,0,0:0:0:0:
486,192,130693,1,0,0:0:0:0:
25,192,130693,1,0,0:0:0:0:
